  0
SECTION
  2
HEADER
  9
$ACADVER
  1
AC1009
999
I-DEAS 8 Not Encoded
  9
$EXTMIN
 10
0.0
 20
0.0
  9
$EXTMAX
 10
2.1E+002
 20
2.97E+002
  9
$TEXTSIZE
 40
1.25E-001
  9
$LTSCALE
 40
1.0
  9
$CLAYER
  8
1
  9
$CECOLOR
 62
1
  9
$DIMASZ
 40
1.25E-001
  9
$DIMEXO
 40
6.25E-002
  9
$DIMDLI
 40
2.5E-001
  9
$DIMEXE
 40
1.25E-001
  9
$DIMTP
 40
5.0E-003
  9
$DIMTM
 40
-5.0E-003
  9
$DIMTXT
 40
3.0
  9
$DIMLIM
 70
0
  9
$DIMTIH
 70
1
  9
$DIMTOH
 70
1
  9
$DIMSE1
 70
0
  9
$DIMSE2
 70
0
  9
$DIMTAD
 70
0
  9
$DIMASO
 70
1
  9
$DIMALT
 70
0
  9
$DIMALTD
 70
0
  9
$DIMTOFL
 70
1
  9
$DIMTIX
 70
0
  9
$DIMSAH
 70
0
  9
$DIMTFAC
 40
1.0
  9
$DIMGAP
 40
6.25E-002
  9
$LUNITS
 70
2
  9
$LUPREC
 70
3
  9
$FILLETRAD
 40
1.0E+001
  9
$AUNITS
 70
0
  9
$AUPREC
 70
1
  9
$CHAMFERA
 40
6.0
  9
$CHAMFERB
 40
6.0
  9
$ANGBASE
 50
0.0
  9
$ANGDIR
 70
0
  9
$PEXTMIN
 10
0.0
 20
0.0
 30
0.0
  9
$PEXTMAX
 10
2.1E+002
 20
2.97E+002
 30
0.0
  9
$PLIMMIN
 10
0.0
 20
0.0
  9
$PLIMMAX
 10
2.1E+002
 20
2.97E+002
  9
$PDMODE
 70
2
  9
$PDSIZE
 40
-1.0E-002
  9
$SPLINETYPE
 70
6
  9
$TILEMODE
 70
0
  0
ENDSEC
  0
SECTION
  2
TABLES
  0
TABLE
  2
VPORT
 70
2
  0
VPORT
  2
*Active
 70
0
 10
0.0
 20
0.0
 11
2.1E+002
 21
2.97E+002
 12
1.05E+002
 22
1.485E+002
 13
0.0
 23
0.0
 14
1.0
 24
1.0
 15
0.0
 25
0.0
 16
0.0
 26
0.0
 36
1.0
 17
0.0
 27
0.0
 37
0.0
 40
2.97E+002
 41
7.0707071E-001
 42
5.0E+001
 43
0.0
 44
0.0
 50
0.0
 51
0.0
 71
0
 72
100
 73
1
 74
3
 75
0
 76
0
 77
0
 78
0
  0
ENDTAB
  0
TABLE
  2
LTYPE
 70
7
  0
LTYPE
  2
HIDDENNEW00
  3
_ 
 70
64
 72
65
 73
3
 40
4.5
 49
1.5
 49
-1.5
 49
1.5
  0
LTYPE
  2
HIDDENNEW01
  3
_ 
 70
64
 72
65
 73
3
 40
4.5
 49
1.5
 49
-1.5
 49
1.5
  0
LTYPE
  2
HIDDEN
  3
_ 
 70
64
 72
65
 73
3
 40
4.5
 49
1.5
 49
-1.5
 49
1.5
  0
LTYPE
  2
CENTERLINE
  3
_ 
 70
64
 72
65
 73
5
 40
3.0E+001
 49
1.2E+001
 49
-1.5
 49
3.0
 49
-1.5
 49
1.2E+001
  0
LTYPE
  2
PHANTOM
  3
_ 
 70
64
 72
65
 73
7
 40
2.95E+001
 49
9.5
 49
-1.5
 49
3.0
 49
-1.5
 49
3.0
 49
-1.5
 49
9.5
  0
LTYPE
  2
SHORT_DASH
  3
_ 
 70
64
 72
65
 73
3
 40
3.0
 49
7.5E-001
 49
-1.5
 49
7.5E-001
  0
LTYPE
  2
LONG_DASH
  3
_ 
 70
64
 72
65
 73
3
 40
9.0
 49
2.25
 49
-4.5
 49
2.25
  0
ENDTAB
  0
TABLE
  2
LAYER
 70
258
  0
LAYER
  2
1
 70
0
 62
7
  6
CONTINUOUS
  0
LAYER
  2
Drafting_Hidden_Entities
 70
1
 62
7
  6
CONTINUOUS
  0
ENDTAB
  0
TABLE
  2
STYLE
 70
1
  0
STYLE
  2
STANDARD
 70
64
 40
0.0
 41
1.0
 50
0.0
 71
0
 42
1.0
  3
monotxt.shx
  4

  0
ENDTAB
  0
TABLE
  2
VIEW
 70
0
  0
ENDTAB
  0
TABLE
  2
DIMSTYLE
 70
3
  0
DIMSTYLE
  2
DSTYLE1
 70
0
  3

  4

  5

  6

  7

 40
1.0
 41
3.0
 42
1.5
 43
3.8E-001
 44
1.5
 45
1.0E-001
 46
0.0
 47
0.0
 48
0.0
 71
0
 72
0
 73
0
 74
0
 75
0
 76
0
 77
1
 78
11
140
3.0
141
9.0E-002
142
0.0
143
2.54E+001
144
1.0
145
0.0
146
1.0
147
1.5
170
0
171
2
172
0
173
0
174
0
175
0
176
0
177
0
178
0
  0
DIMSTYLE
  2
DSTYLE2
 70
0
  3

  4

  5

  6

  7

 40
1.0
 41
3.0
 42
0.0
 43
3.8E-001
 44
1.5
 45
1.0E-001
 46
0.0
 47
0.0
 48
0.0
 71
0
 72
0
 73
0
 74
0
 75
0
 76
0
 77
1
 78
11
140
3.0
141
9.0E-002
142
0.0
143
2.54E+001
144
1.0
145
0.0
146
1.0
147
1.5
170
0
171
2
172
0
173
0
174
0
175
0
176
0
177
0
178
0
  0
DIMSTYLE
  2
DSTYLE3
 70
0
  3

  4

  5

  6

  7

 40
1.0
 41
3.0
 42
0.0
 43
3.8E-001
 44
1.5
 45
0.0
 46
0.0
 47
0.0
 48
0.0
 71
0
 72
0
 73
0
 74
0
 75
0
 76
0
 77
1
 78
11
140
3.0
141
9.0E-002
142
0.0
143
2.54E+001
144
1.0
145
0.0
146
1.0
147
1.5
170
0
171
2
172
0
173
0
174
0
175
0
176
0
177
0
178
0
  0
ENDTAB
  0
ENDSEC
  0
SECTION
  2
BLOCKS
  0
BLOCK
  2
*AH13
  3
*AH
 10
0.0
 20
0.0
 70
65
  0
LINE
  8
1
  6
CONTINUOUS
 62
0
 10
0.0
 20
0.0
 11
1.0
 21
-1.666679E-001
  0
LINE
  8
1
  6
CONTINUOUS
 62
0
 10
1.0
 20
-1.666679E-001
 11
1.0
 21
1.66668E-001
  0
LINE
  8
1
  6
CONTINUOUS
 62
0
 10
1.0
 20
1.66668E-001
 11
0.0
 21
0.0
  0
ENDBLK
  0
BLOCK
  2
XHXH1NEW02NEW00NEW00
 10
0.0
 20
0.0
 70
0
  0
POLYLINE
  8
254
  6
CONTINUOUS
 62
6
 66
1
 40
1.0E-003
 41
1.0E-003
 70
0
  0
VERTEX
  8
254
 42
0.0
 10
-2.2647095E-001
 20
-2.2647285E-001
 70
0
  0
VERTEX
  8
254
 42
0.0
 10
2.2647095E-001
 20
2.2647285E-001
 70
0
  0
SEQEND
  0
POLYLINE
  8
254
  6
CONTINUOUS
 62
6
 66
1
 40
1.0E-003
 41
1.0E-003
 70
0
  0
VERTEX
  8
254
 42
0.0
 10
-3.9656067E-001
 20
-6.7941666E-001
 70
0
  0
VERTEX
  8
254
 42
0.0
 10
4.2364502E-001
 20
1.4080048E-001
 70
0
  0
SEQEND
  0
POLYLINE
  8
254
  6
CONTINUOUS
 62
6
 66
1
 40
1.0E-003
 41
1.0E-003
 70
0
  0
VERTEX
  8
254
 42
0.0
 10
-5.6666565E-001
 20
-1.1323624
 70
0
  0
VERTEX
  8
254
 42
0.0
 10
4.2364502E-001
 20
-1.4204407E-001
 70
0
  0
SEQEND
  0
POLYLINE
  8
254
  6
CONTINUOUS
 62
6
 66
1
 40
1.0E-003
 41
1.0E-003
 70
0
  0
VERTEX
  8
254
 42
0.0
 10
-7.3677063E-001
 20
-1.5853081
 70
0
  0
VERTEX
  8
254
 42
0.0
 10
4.2364502E-001
 20
-4.248867E-001
 70
0
  0
SEQEND
  0
POLYLINE
  8
254
  6
CONTINUOUS
 62
6
 66
1
 40
1.0E-003
 41
1.0E-003
 70
0
  0
VERTEX
  8
254
 42
0.0
 10
8.1364441E-001
 20
-3.4885406E-002
 70
0
  0
VERTEX
  8
254
 42
0.0
 10
1.0749969
 20
2.2647285E-001
 70
0
  0
SEQEND
  0
POLYLINE
  8
254
  6
CONTINUOUS
 62
6
 66
1
 40
1.0E-003
 41
1.0E-003
 70
0
  0
VERTEX
  8
254
 42
0.0
 10
-6.9714355E-001
 20
-1.8285255
 70
0
  0
VERTEX
  8
254
 42
0.0
 10
4.2364502E-001
 20
-7.0773125E-001
 70
0
  0
SEQEND
  0
POLYLINE
  8
254
  6
CONTINUOUS
 62
6
 66
1
 40
1.0E-003
 41
1.0E-003
 70
0
  0
VERTEX
  8
254
 42
0.0
 10
8.1364441E-001
 20
-3.1772995E-001
 70
0
  0
VERTEX
  8
254
 42
0.0
 10
1.3111725
 20
1.7979813E-001
 70
0
  0
SEQEND
  0
POLYLINE
  8
254
  6
CONTINUOUS
 62
6
 66
1
 40
1.0E-003
 41
1.0E-003
 70
0
  0
VERTEX
  8
254
 42
0.0
 10
-8.928833E-001
 20
-2.3071117
 70
0
  0
VERTEX
  8
254
 42
0.0
 10
-8.0430603E-001
 20
-2.2185249
 70
0
  0
SEQEND
  0
POLYLINE
  8
254
  6
CONTINUOUS
 62
6
 66
1
 40
1.0E-003
 41
1.0E-003
 70
0
  0
VERTEX
  8
254
 42
0.0
 10
-4.1430664E-001
 20
-1.8285255
 70
0
  0
VERTEX
  8
254
 42
0.0
 10
4.2364502E-001
 20
-9.9057388E-001
 70
0
  0
SEQEND
  0
POLYLINE
  8
254
  6
CONTINUOUS
 62
6
 66
1
 40
1.0E-003
 41
1.0E-003
 70
0
  0
VERTEX
  8
254
 42
0.0
 10
8.1364441E-001
 20
-6.0057259E-001
 70
0
  0
VERTEX
  8
254
 42
0.0
 10
1.3883972
 20
-2.58255E-002
 70
0
  0
SEQEND
  0
POLYLINE
  8
254
  6
CONTINUOUS
 62
6
 66
1
 40
1.0E-003
 41
1.0E-003
 70
0
  0
VERTEX
  8
254
 42
0.0
 10
-1.0629883
 20
-2.7600574
 70
0
  0
VERTEX
  8
254
 42
0.0
 10
-5.2145386E-001
 20
-2.2185249
 70
0
  0
SEQEND
  0
POLYLINE
  8
254
  6
CONTINUOUS
 62
6
 66
1
 40
1.0E-003
 41
1.0E-003
 70
0
  0
VERTEX
  8
254
 42
0.0
 10
-1.3145447E-001
 20
-1.8285255
 70
0
  0
VERTEX
  8
254
 42
0.0
 10
4.2364502E-001
 20
-1.2734165
 70
0
  0
SEQEND
  0
POLYLINE
  8
254
  6
CONTINUOUS
 62
6
 66
1
 40
1.0E-003
 41
1.0E-003
 70
0
  0
VERTEX
  8
254
 42
0.0
 10
8.1364441E-001
 20
-8.8341522E-001
 70
0
  0
VERTEX
  8
254
 42
0.0
 10
1.4656067
 20
-2.3144722E-001
 70
0
  0
SEQEND
  0
POLYLINE
  8
254
  6
CONTINUOUS
 62
6
 66
1
 40
1.0E-003
 41
1.0E-003
 70
0
  0
VERTEX
  8
254
 42
0.0
 10
-1.2330933
 20
-3.2130032
 70
0
  0
VERTEX
  8
254
 42
0.0
 10
-2.3861694E-001
 20
-2.2185249
 70
0
  0
SEQEND
  0
POLYLINE
  8
254
  6
CONTINUOUS
 62
6
 66
1
 40
1.0E-003
 41
1.0E-003
 70
0
  0
VERTEX
  8
254
 42
0.0
 10
1.5138245E-001
 20
-1.8285255
 70
0
  0
VERTEX
  8
254
 42
0.0
 10
4.2364502E-001
 20
-1.5562611
 70
0
  0
SEQEND
  0
POLYLINE
  8
254
  6
CONTINUOUS
 62
6
 66
1
 40
1.0E-003
 41
1.0E-003
 70
0
  0
VERTEX
  8
254
 42
0.0
 10
8.1364441E-001
 20
-1.1662598
 70
0
  0
VERTEX
  8
254
 42
0.0
 10
1.5428314
 20
-4.3707085E-001
 70
0
  0
SEQEND
  0
POLYLINE
  8
254
  6
CONTINUOUS
 62
6
 66
1
 40
1.0E-003
 41
1.0E-003
 70
0
  0
VERTEX
  8
254
 42
0.0
 10
-1.4031982
 20
-3.665947
 70
0
  0
VERTEX
  8
254
 42
0.0
 10
4.4219971E-002
 20
-2.2185249
 70
0
  0
SEQEND
  0
POLYLINE
  8
254
  6
CONTINUOUS
 62
6
 66
1
 40
1.0E-003
 41
1.0E-003
 70
0
  0
VERTEX
  8
254
 42
0.0
 10
8.1364441E-001
 20
-1.4491024
 70
0
  0
VERTEX
  8
254
 42
0.0
 10
1.6200562
 20
-6.4269257E-001
 70
0
  0
SEQEND
  0
POLYLINE
  8
254
  6
CONTINUOUS
 62
6
 66
1
 40
1.0E-003
 41
1.0E-003
 70
0
  0
VERTEX
  8
254
 42
0.0
 10
-1.573288
 20
-4.1188927
 70
0
  0
VERTEX
  8
254
 42
0.0
 10
3.2707214E-001
 20
-2.2185249
 70
0
  0
SEQEND
  0
POLYLINE
  8
254
  6
CONTINUOUS
 62
6
 66
1
 40
1.0E-003
 41
1.0E-003
 70
0
  0
VERTEX
  8
254
 42
0.0
 10
8.1364441E-001
 20
-1.731945
 70
0
  0
VERTEX
  8
254
 42
0.0
 10
1.6972656
 20
-8.4831619E-001
 70
0
  0
SEQEND
  0
POLYLINE
  8
254
  6
CONTINUOUS
 62
6
 66
1
 40
1.0E-003
 41
1.0E-003
 70
0
  0
VERTEX
  8
254
 42
0.0
 10
-1.4450836
 20
-4.2735233
 70
0
  0
VERTEX
  8
254
 42
0.0
 10
4.2364502E-001
 20
-2.4047909
 70
0
  0
SEQEND
  0
POLYLINE
  8
254
  6
CONTINUOUS
 62
6
 66
1
 40
1.0E-003
 41
1.0E-003
 70
0
  0
VERTEX
  8
254
 42
0.0
 10
9.9990845E-001
 20
-1.8285255
 70
0
  0
VERTEX
  8
254
 42
0.0
 10
1.7744904
 20
-1.0539379
 70
0
  0
SEQEND
  0
POLYLINE
  8
254
  6
CONTINUOUS
 62
6
 66
1
 40
1.0E-003
 41
1.0E-003
 70
0
  0
VERTEX
  8
254
 42
0.0
 10
-1.1622314
 20
-4.2735233
 70
0
  0
VERTEX
  8
254
 42
0.0
 10
4.2364502E-001
 20
-2.6876335
 70
0
  0
SEQEND
  0
POLYLINE
  8
254
  6
CONTINUOUS
 62
6
 66
1
 40
1.0E-003
 41
1.0E-003
 70
0
  0
VERTEX
  8
254
 42
0.0
 10
8.1364441E-001
 20
-2.2976322
 70
0
  0
VERTEX
  8
254
 42
0.0
 10
8.9274597E-001
 20
-2.2185249
 70
0
  0
SEQEND
  0
POLYLINE
  8
254
  6
CONTINUOUS
 62
6
 66
1
 40
1.0E-003
 41
1.0E-003
 70
0
  0
VERTEX
  8
254
 42
0.0
 10
1.2827454
 20
-1.8285255
 70
0
  0
VERTEX
  8
254
 42
0.0
 10
1.8517151
 20
-1.2595596
 70
0
  0
SEQEND
  0
POLYLINE
  8
254
  6
CONTINUOUS
 62
6
 66
1
 40
1.0E-003
 41
1.0E-003
 70
0
  0
VERTEX
  8
254
 42
0.0
 10
3.1836395
 20
7.2372437E-002
 70
0
  0
VERTEX
  8
254
 42
0.0
 10
3.337738
 20
2.2647285E-001
 70
0
  0
SEQEND
  0
POLYLINE
  8
254
  6
CONTINUOUS
 62
6
 66
1
 40
1.0E-003
 41
1.0E-003
 70
0
  0
VERTEX
  8
254
 42
0.0
 10
-8.7939453E-001
 20
-4.2735233
 70
0
  0
VERTEX
  8
254
 42
0.0
 10
-3.0549622E-001
 20
-3.6996193
 70
0
  0
SEQEND
  0
POLYLINE
  8
254
  6
CONTINUOUS
 62
6
 66
1
 40
1.0E-003
 41
1.0E-003
 70
0
  0
VERTEX
  8
254
 42
0.0
 10
2.0599365E-002
 20
-3.3735256
 70
0
  0
VERTEX
  8
254
 42
0.0
 10
4.2364502E-001
 20
-2.9704762
 70
0
  0
SEQEND
  0
POLYLINE
  8
254
  6
CONTINUOUS
 62
6
 66
1
 40
1.0E-003
 41
1.0E-003
 70
0
  0
VERTEX
  8
254
 42
0.0
 10
8.1364441E-001
 20
-2.5804749
 70
0
  0
VERTEX
  8
254
 42
0.0
 10
1.1755981
 20
-2.2185249
 70
0
  0
SEQEND
  0
POLYLINE
  8
254
  6
CONTINUOUS
 62
6
 66
1
 40
1.0E-003
 41
1.0E-003
 70
0
  0
VERTEX
  8
254
 42
0.0
 10
1.5655975
 20
-1.8285255
 70
0
  0
VERTEX
  8
254
 42
0.0
 10
1.9289398
 20
-1.4651833
 70
0
  0
SEQEND
  0
POLYLINE
  8
254
  6
CONTINUOUS
 62
6
 66
1
 40
1.0E-003
 41
1.0E-003
 70
0
  0
VERTEX
  8
254
 42
0.0
 10
3.1836395
 20
-2.104702E-001
 70
0
  0
VERTEX
  8
254
 42
0.0
 10
3.620575
 20
2.2647285E-001
 70
0
  0
SEQEND
  0
POLYLINE
  8
254
  6
CONTINUOUS
 62
6
 66
1
 40
1.0E-003
 41
1.0E-003
 70
0
  0
VERTEX
  8
254
 42
0.0
 10
-5.9655762E-001
 20
-4.2735233
 70
0
  0
VERTEX
  8
254
 42
0.0
 10
-4.5779419E-001
 20
-4.1347656
 70
0
  0
SEQEND
  0
POLYLINE
  8
254
  6
CONTINUOUS
 62
6
 66
1
 40
1.0E-003
 41
1.0E-003
 70
0
  0
VERTEX
  8
254
 42
0.0
 10
3.0343628E-001
 20
-3.3735256
 70
0
  0
VERTEX
  8
254
 42
0.0
 10
4.2364502E-001
 20
-3.2533207
 70
0
  0
SEQEND
  0
POLYLINE
  8
254
  6
CONTINUOUS
 62
6
 66
1
 40
1.0E-003
 41
1.0E-003
 70
0
  0
VERTEX
  8
254
 42
0.0
 10
8.1364441E-001
 20
-2.8633194
 70
0
  0
VERTEX
  8
254
 42
0.0
 10
1.4584351
 20
-2.2185249
 70
0
  0
SEQEND
  0
POLYLINE
  8
254
  6
CONTINUOUS
 62
6
 66
1
 40
1.0E-003
 41
1.0E-003
 70
0
  0
VERTEX
  8
254
 42
0.0
 10
1.8484344
 20
-1.8285255
 70
0
  0
VERTEX
  8
254
 42
0.0
 10
2.0061493
 20
-1.670805
 70
0
  0
SEQEND
  0
POLYLINE
  8
254
  6
CONTINUOUS
 62
6
 66
1
 40
1.0E-003
 41
1.0E-003
 70
0
  0
VERTEX
  8
254
 42
0.0
 10
3.1836395
 20
-4.9331474E-001
 70
0
  0
VERTEX
  8
254
 42
0.0
 10
3.9034271
 20
2.2647285E-001
 70
0
  0
SEQEND
  0
POLYLINE
  8
254
  6
CONTINUOUS
 62
6
 66
1
 40
1.0E-003
 41
1.0E-003
 70
0
  0
VERTEX
  8
254
 42
0.0
 10
8.1364441E-001
 20
-3.146162
 70
0
  0
VERTEX
  8
254
 42
0.0
 10
1.741272
 20
-2.2185249
 70
0
  0
SEQEND
  0
POLYLINE
  8
254
  6
CONTINUOUS
 62
6
 66
1
 40
1.0E-003
 41
1.0E-003
 70
0
  0
VERTEX
  8
254
 42
0.0
 10
3.1836395
 20
-7.7615738E-001
 70
0
  0
VERTEX
  8
254
 42
0.0
 10
4.186264
 20
2.2647285E-001
 70
0
  0
SEQEND
  0
POLYLINE
  8
254
  6
CONTINUOUS
 62
6
 66
1
 40
1.0E-003
 41
1.0E-003
 70
0
  0
VERTEX
  8
254
 42
0.0
 10
8.6912537E-001
 20
-3.3735256
 70
0
  0
VERTEX
  8
254
 42
0.0
 10
2.0241241
 20
-2.2185249
 70
0
  0
SEQEND
  0
POLYLINE
  8
254
  6
CONTINUOUS
 62
6
 66
1
 40
1.0E-003
 41
1.0E-003
 70
0
  0
VERTEX
  8
254
 42
0.0
 10
3.1836395
 20
-1.059
 70
0
  0
VERTEX
  8
254
 42
0.0
 10
4.3386536
 20
9.6017838E-002
 70
0
  0
SEQEND
  0
POLYLINE
  8
254
  6
CONTINUOUS
 62
6
 66
1
 40
1.0E-003
 41
1.0E-003
 70
0
  0
VERTEX
  8
254
 42
0.0
 10
1.1519623
 20
-3.3735256
 70
0
  0
VERTEX
  8
254
 42
0.0
 10
2.1542511
 20
-2.3712425
 70
0
  0
SEQEND
  0
POLYLINE
  8
254
  6
CONTINUOUS
 62
6
 66
1
 40
1.0E-003
 41
1.0E-003
 70
0
  0
VERTEX
  8
254
 42
0.0
 10
3.1836395
 20
-1.3418446
 70
0
  0
VERTEX
  8
254
 42
0.0
 10
4.3386536
 20
-1.868248E-001
 70
0
  0
SEQEND
  0
POLYLINE
  8
254
  6
CONTINUOUS
 62
6
 66
1
 40
1.0E-003
 41
1.0E-003
 70
0
  0
VERTEX
  8
254
 42
0.0
 10
4.7286377
 20
2.0316124E-001
 70
0
  0
VERTEX
  8
254
 42
0.0
 10
4.7519531
 20
2.2647285E-001
 70
0
  0
SEQEND
  0
POLYLINE
  8
254
  6
CONTINUOUS
 62
6
 66
1
 40
1.0E-003
 41
1.0E-003
 70
0
  0
VERTEX
  8
254
 42
0.0
 10
1.4302368
 20
-3.3780994
 70
0
  0
VERTEX
  8
254
 42
0.0
 10
2.2314606
 20
-2.5768642
 70
0
  0
SEQEND
  0
POLYLINE
  8
254
  6
CONTINUOUS
 62
6
 66
1
 40
1.0E-003
 41
1.0E-003
 70
0
  0
VERTEX
  8
254
 42
0.0
 10
3.1836395
 20
-1.6246872
 70
0
  0
VERTEX
  8
254
 42
0.0
 10
4.3386536
 20
-4.6966743E-001
 70
0
  0
SEQEND
  0
POLYLINE
  8
254
  6
CONTINUOUS
 62
6
 66
1
 40
1.0E-003
 41
1.0E-003
 70
0
  0
VERTEX
  8
254
 42
0.0
 10
4.7286377
 20
-7.9683304E-002
 70
0
  0
VERTEX
  8
254
 42
0.0
 10
5.0330811
 20
2.2476578E-001
 70
0
  0
SEQEND
  0
POLYLINE
  8
254
  6
CONTINUOUS
 62
6
 66
1
 40
1.0E-003
 41
1.0E-003
 70
0
  0
VERTEX
  8
254
 42
0.0
 10
1.5035706
 20
-3.5876122
 70
0
  0
VERTEX
  8
254
 42
0.0
 10
2.3086853
 20
-2.7824879
 70
0
  0
SEQEND
  0
POLYLINE
  8
254
  6
CONTINUOUS
 62
6
 66
1
 40
1.0E-003
 41
1.0E-003
 70
0
  0
VERTEX
  8
254
 42
0.0
 10
3.2626495
 20
-1.8285255
 70
0
  0
VERTEX
  8
254
 42
0.0
 10
4.3386536
 20
-7.5251198E-001
 70
0
  0
SEQEND
  0
POLYLINE
  8
254
  6
CONTINUOUS
 62
6
 66
1
 40
1.0E-003
 41
1.0E-003
 70
0
  0
VERTEX
  8
254
 42
0.0
 10
4.7286377
 20
-3.6252594E-001
 70
0
  0
VERTEX
  8
254
 42
0.0
 10
5.2719421
 20
1.8078232E-001
 70
0
  0
SEQEND
  0
POLYLINE
  8
254
  6
CONTINUOUS
 62
6
 66
1
 40
1.0E-003
 41
1.0E-003
 70
0
  0
VERTEX
  8
254
 42
0.0
 10
1.576889
 20
-3.7971249
 70
0
  0
VERTEX
  8
254
 42
0.0
 10
2.38591
 20
-2.9881096
 70
0
  0
SEQEND
  0
POLYLINE
  8
254
  6
CONTINUOUS
 62
6
 66
1
 40
1.0E-003
 41
1.0E-003
 70
0
  0
VERTEX
  8
254
 42
0.0
 10
3.5454865
 20
-1.8285255
 70
0
  0
VERTEX
  8
254
 42
0.0
 10
4.3386536
 20
-1.0353546
 70
0
  0
SEQEND
  0
POLYLINE
  8
254
  6
CONTINUOUS
 62
6
 66
1
 40
1.0E-003
 41
1.0E-003
 70
0
  0
VERTEX
  8
254
 42
0.0
 10
4.7286377
 20
-6.4536858E-001
 70
0
  0
VERTEX
  8
254
 42
0.0
 10
5.4707031
 20
9.6696854E-002
 70
0
  0
SEQEND
  0
POLYLINE
  8
254
  6
CONTINUOUS
 62
6
 66
1
 40
1.0E-003
 41
1.0E-003
 70
0
  0
VERTEX
  8
254
 42
0.0
 10
1.6502228
 20
-4.0066376
 70
0
  0
VERTEX
  8
254
 42
0.0
 10
2.4631348
 20
-3.1937332
 70
0
  0
SEQEND
  0
POLYLINE
  8
254
  6
CONTINUOUS
 62
6
 66
1
 40
1.0E-003
 41
1.0E-003
 70
0
  0
VERTEX
  8
254
 42
0.0
 10
3.1836395
 20
-2.473217
 70
0
  0
VERTEX
  8
254
 42
0.0
 10
3.438324
 20
-2.2185249
 70
0
  0
SEQEND
  0
POLYLINE
  8
254
  6
CONTINUOUS
 62
6
 66
1
 40
1.0E-003
 41
1.0E-003
 70
0
  0
VERTEX
  8
254
 42
0.0
 10
3.8283234
 20
-1.8285255
 70
0
  0
VERTEX
  8
254
 42
0.0
 10
4.3386536
 20
-1.3181992
 70
0
  0
SEQEND
  0
POLYLINE
  8
254
  6
CONTINUOUS
 62
6
 66
1
 40
1.0E-003
 41
1.0E-003
 70
0
  0
VERTEX
  8
254
 42
0.0
 10
4.7286377
 20
-9.2821312E-001
 70
0
  0
VERTEX
  8
254
 42
0.0
 10
5.6378021
 20
-1.9039154E-002
 70
0
  0
SEQEND
  0
POLYLINE
  8
254
  6
CONTINUOUS
 62
6
 66
1
 40
1.0E-003
 41
1.0E-003
 70
0
  0
VERTEX
  8
254
 42
0.0
 10
1.7235565
 20
-4.2161503
 70
0
  0
VERTEX
  8
254
 42
0.0
 10
2.5403442
 20
-3.3993549
 70
0
  0
SEQEND
  0
POLYLINE
  8
254
  6
CONTINUOUS
 62
6
 66
1
 40
1.0E-003
 41
1.0E-003
 70
0
  0
VERTEX
  8
254
 42
0.0
 10
3.1836395
 20
-2.7560596
 70
0
  0
VERTEX
  8
254
 42
0.0
 10
3.7211761
 20
-2.2185249
 70
0
  0
SEQEND
  0
POLYLINE
  8
254
  6
CONTINUOUS
 62
6
 66
1
 40
1.0E-003
 41
1.0E-003
 70
0
  0
VERTEX
  8
254
 42
0.0
 10
4.1111755
 20
-1.8285255
 70
0
  0
VERTEX
  8
254
 42
0.0
 10
4.3386536
 20
-1.6010418
 70
0
  0
SEQEND
  0
POLYLINE
  8
254
  6
CONTINUOUS
 62
6
 66
1
 40
1.0E-003
 41
1.0E-003
 70
0
  0
VERTEX
  8
254
 42
0.0
 10
4.7286377
 20
-1.2110558
 70
0
  0
VERTEX
  8
254
 42
0.0
 10
5.7763824
 20
-1.633091E-001
 70
0
  0
SEQEND
  0
POLYLINE
  8
254
  6
CONTINUOUS
 62
6
 66
1
 40
1.0E-003
 41
1.0E-003
 70
0
  0
VERTEX
  8
254
 42
0.0
 10
1.9490204
 20
-4.2735233
 70
0
  0
VERTEX
  8
254
 42
0.0
 10
2.617569
 20
-3.6049767
 70
0
  0
SEQEND
  0
POLYLINE
  8
254
  6
CONTINUOUS
 62
6
 66
1
 40
1.0E-003
 41
1.0E-003
 70
0
  0
VERTEX
  8
254
 42
0.0
 10
3.1836395
 20
-3.0389042
 70
0
  0
VERTEX
  8
254
 42
0.0
 10
4.0040131
 20
-2.2185249
 70
0
  0
SEQEND
  0
POLYLINE
  8
254
  6
CONTINUOUS
 62
6
 66
1
 40
1.0E-003
 41
1.0E-003
 70
0
  0
VERTEX
  8
254
 42
0.0
 10
4.7286377
 20
-1.4938984
 70
0
  0
VERTEX
  8
254
 42
0.0
 10
5.885849
 20
-3.3667946E-001
 70
0
  0
SEQEND
  0
POLYLINE
  8
254
  6
CONTINUOUS
 62
6
 66
1
 40
1.0E-003
 41
1.0E-003
 70
0
  0
VERTEX
  8
254
 42
0.0
 10
2.2318726
 20
-4.2735233
 70
0
  0
VERTEX
  8
254
 42
0.0
 10
2.6947937
 20
-3.8106003
 70
0
  0
SEQEND
  0
POLYLINE
  8
254
  6
CONTINUOUS
 62
6
 66
1
 40
1.0E-003
 41
1.0E-003
 70
0
  0
VERTEX
  8
254
 42
0.0
 10
3.1836395
 20
-3.3217468
 70
0
  0
VERTEX
  8
254
 42
0.0
 10
4.2868652
 20
-2.2185249
 70
0
  0
SEQEND
  0
POLYLINE
  8
254
  6
CONTINUOUS
 62
6
 66
1
 40
1.0E-003
 41
1.0E-003
 70
0
  0
VERTEX
  8
254
 42
0.0
 10
4.7286377
 20
-1.7767429
 70
0
  0
VERTEX
  8
254
 42
0.0
 10
5.9616241
 20
-5.4375839E-001
 70
0
  0
SEQEND
  0
POLYLINE
  8
254
  6
CONTINUOUS
 62
6
 66
1
 40
1.0E-003
 41
1.0E-003
 70
0
  0
VERTEX
  8
254
 42
0.0
 10
6.693634
 20
1.8826294E-001
 70
0
  0
VERTEX
  8
254
 42
0.0
 10
6.731842
 20
2.2647285E-001
 70
0
  0
SEQEND
  0
POLYLINE
  8
254
  6
CONTINUOUS
 62
6
 66
1
 40
1.0E-003
 41
1.0E-003
 70
0
  0
VERTEX
  8
254
 42
0.0
 10
2.5147095
 20
-4.2735233
 70
0
  0
VERTEX
  8
254
 42
0.0
 10
2.7720032
 20
-4.016222
 70
0
  0
SEQEND
  0
POLYLINE
  8
254
  6
CONTINUOUS
 62
6
 66
1
 40
1.0E-003
 41
1.0E-003
 70
0
  0
VERTEX
  8
254
 42
0.0
 10
3.1836395
 20
-3.6045914
 70
0
  0
VERTEX
  8
254
 42
0.0
 10
4.3386536
 20
-2.4495716
 70
0
  0
SEQEND
  0
POLYLINE
  8
254
  6
CONTINUOUS
 62
6
 66
1
 40
1.0E-003
 41
1.0E-003
 70
0
  0
VERTEX
  8
254
 42
0.0
 10
4.9597015
 20
-1.8285255
 70
0
  0
VERTEX
  8
254
 42
0.0
 10
5.9921417
 20
-7.9607391E-001
 70
0
  0
SEQEND
  0
POLYLINE
  8
254
  6
CONTINUOUS
 62
6
 66
1
 40
1.0E-003
 41
1.0E-003
 70
0
  0
VERTEX
  8
254
 42
0.0
 10
6.693634
 20
-9.4581604E-002
 70
0
  0
VERTEX
  8
254
 42
0.0
 10
7.0146942
 20
2.2647285E-001
 70
0
  0
SEQEND
  0
POLYLINE
  8
254
  6
CONTINUOUS
 62
6
 66
1
 40
1.0E-003
 41
1.0E-003
 70
0
  0
VERTEX
  8
254
 42
0.0
 10
2.7975464
 20
-4.2735233
 70
0
  0
VERTEX
  8
254
 42
0.0
 10
2.8492279
 20
-4.2218456
 70
0
  0
SEQEND
  0
POLYLINE
  8
254
  6
CONTINUOUS
 62
6
 66
1
 40
1.0E-003
 41
1.0E-003
 70
0
  0
VERTEX
  8
254
 42
0.0
 10
3.1836395
 20
-3.887434
 70
0
  0
VERTEX
  8
254
 42
0.0
 10
4.3386536
 20
-2.7324142
 70
0
  0
SEQEND
  0
POLYLINE
  8
254
  6
CONTINUOUS
 62
6
 66
1
 40
1.0E-003
 41
1.0E-003
 70
0
  0
VERTEX
  8
254
 42
0.0
 10
4.7286377
 20
-2.3424282
 70
0
  0
VERTEX
  8
254
 42
0.0
 10
4.8525391
 20
-2.2185249
 70
0
  0
SEQEND
  0
POLYLINE
  8
254
  6
CONTINUOUS
 62
6
 66
1
 40
1.0E-003
 41
1.0E-003
 70
0
  0
VERTEX
  8
254
 42
0.0
 10
5.2425385
 20
-1.8285255
 70
0
  0
VERTEX
  8
254
 42
0.0
 10
5.9243927
 20
-1.1466713
 70
0
  0
SEQEND
  0
POLYLINE
  8
254
  6
CONTINUOUS
 62
6
 66
1
 40
1.0E-003
 41
1.0E-003
 70
0
  0
VERTEX
  8
254
 42
0.0
 10
6.693634
 20
-3.7742424E-001
 70
0
  0
VERTEX
  8
254
 42
0.0
 10
7.2975311
 20
2.2647285E-001
 70
0
  0
SEQEND
  0
POLYLINE
  8
254
  6
CONTINUOUS
 62
6
 66
1
 40
1.0E-003
 41
1.0E-003
 70
0
  0
VERTEX
  8
254
 42
0.0
 10
3.1836395
 20
-4.1702766
 70
0
  0
VERTEX
  8
254
 42
0.0
 10
4.3386536
 20
-3.0152588
 70
0
  0
SEQEND
  0
POLYLINE
  8
254
  6
CONTINUOUS
 62
6
 66
1
 40
1.0E-003
 41
1.0E-003
 70
0
  0
VERTEX
  8
254
 42
0.0
 10
4.7286377
 20
-2.6252728
 70
0
  0
VERTEX
  8
254
 42
0.0
 10
5.1353912
 20
-2.2185249
 70
0
  0
SEQEND
  0
POLYLINE
  8
254
  6
CONTINUOUS
 62
6
 66
1
 40
1.0E-003
 41
1.0E-003
 70
0
  0
VERTEX
  8
254
 42
0.0
 10
5.5253754
 20
-1.8285255
 70
0
  0
VERTEX
  8
254
 42
0.0
 10
5.618103
 20
-1.7358074
 70
0
  0
SEQEND
  0
POLYLINE
  8
254
  6
CONTINUOUS
 62
6
 66
1
 40
1.0E-003
 41
1.0E-003
 70
0
  0
VERTEX
  8
254
 42
0.0
 10
6.693634
 20
-6.6026688E-001
 70
0
  0
VERTEX
  8
254
 42
0.0
 10
7.580368
 20
2.2647285E-001
 70
0
  0
SEQEND
  0
POLYLINE
  8
254
  6
CONTINUOUS
 62
6
 66
1
 40
1.0E-003
 41
1.0E-003
 70
0
  0
VERTEX
  8
254
 42
0.0
 10
3.3632355
 20
-4.2735233
 70
0
  0
VERTEX
  8
254
 42
0.0
 10
4.3386536
 20
-3.2981014
 70
0
  0
SEQEND
  0
POLYLINE
  8
254
  6
CONTINUOUS
 62
6
 66
1
 40
1.0E-003
 41
1.0E-003
 70
0
  0
VERTEX
  8
254
 42
0.0
 10
4.7286377
 20
-2.9081154
 70
0
  0
VERTEX
  8
254
 42
0.0
 10
5.4182281
 20
-2.2185249
 70
0
  0
SEQEND
  0
POLYLINE
  8
254
  6
CONTINUOUS
 62
6
 66
1
 40
1.0E-003
 41
1.0E-003
 70
0
  0
VERTEX
  8
254
 42
0.0
 10
6.693634
 20
-9.4311142E-001
 70
0
  0
VERTEX
  8
254
 42
0.0
 10
7.8486481
 20
2.1190834E-001
 70
0
  0
SEQEND
  0
POLYLINE
  8
254
  6
CONTINUOUS
 62
6
 66
1
 40
1.0E-003
 41
1.0E-003
 70
0
  0
VERTEX
  8
254
 42
0.0
 10
3.6460724
 20
-4.2735233
 70
0
  0
VERTEX
  8
254
 42
0.0
 10
4.3386536
 20
-3.5809441
 70
0
  0
SEQEND
  0
POLYLINE
  8
254
  6
CONTINUOUS
 62
6
 66
1
 40
1.0E-003
 41
1.0E-003
 70
0
  0
VERTEX
  8
254
 42
0.0
 10
4.7286377
 20
-3.1909599
 70
0
  0
VERTEX
  8
254
 42
0.0
 10
5.7010651
 20
-2.2185249
 70
0
  0
SEQEND
  0
POLYLINE
  8
254
  6
CONTINUOUS
 62
6
 66
1
 40
1.0E-003
 41
1.0E-003
 70
0
  0
VERTEX
  8
254
 42
0.0
 10
6.693634
 20
-1.2259541
 70
0
  0
VERTEX
  8
254
 42
0.0
 10
7.8486481
 20
-7.0936203E-002
 70
0
  0
SEQEND
  0
POLYLINE
  8
254
  6
CONTINUOUS
 62
6
 66
1
 40
1.0E-003
 41
1.0E-003
 70
0
  0
VERTEX
  8
254
 42
0.0
 10
3.9289246
 20
-4.2735233
 70
0
  0
VERTEX
  8
254
 42
0.0
 10
4.3386536
 20
-3.8637886
 70
0
  0
SEQEND
  0
POLYLINE
  8
254
  6
CONTINUOUS
 62
6
 66
1
 40
1.0E-003
 41
1.0E-003
 70
0
  0
VERTEX
  8
254
 42
0.0
 10
4.7286377
 20
-3.4738026
 70
0
  0
VERTEX
  8
254
 42
0.0
 10
5.9839172
 20
-2.2185249
 70
0
  0
SEQEND
  0
POLYLINE
  8
254
  6
CONTINUOUS
 62
6
 66
1
 40
1.0E-003
 41
1.0E-003
 70
0
  0
VERTEX
  8
254
 42
0.0
 10
6.693634
 20
-1.5087986
 70
0
  0
VERTEX
  8
254
 42
0.0
 10
7.8486481
 20
-3.5377884E-001
 70
0
  0
SEQEND
  0
POLYLINE
  8
254
  6
CONTINUOUS
 62
6
 66
1
 40
1.0E-003
 41
1.0E-003
 70
0
  0
VERTEX
  8
254
 42
0.0
 10
8.2386322
 20
3.6207199E-002
 70
0
  0
VERTEX
  8
254
 42
0.0
 10
8.428894
 20
2.2647285E-001
 70
0
  0
SEQEND
  0
POLYLINE
  8
254
  6
CONTINUOUS
 62
6
 66
1
 40
1.0E-003
 41
1.0E-003
 70
0
  0
VERTEX
  8
254
 42
0.0
 10
4.2117615
 20
-4.2735233
 70
0
  0
VERTEX
  8
254
 42
0.0
 10
4.3386536
 20
-4.1466312
 70
0
  0
SEQEND
  0
POLYLINE
  8
254
  6
CONTINUOUS
 62
6
 66
1
 40
1.0E-003
 41
1.0E-003
 70
0
  0
VERTEX
  8
254
 42
0.0
 10
4.7286377
 20
-3.7566452
 70
0
  0
VERTEX
  8
254
 42
0.0
 10
6.181076
 20
-2.3042011
 70
0
  0
SEQEND
  0
POLYLINE
  8
254
  6
CONTINUOUS
 62
6
 66
1
 40
1.0E-003
 41
1.0E-003
 70
0
  0
VERTEX
  8
254
 42
0.0
 10
6.693634
 20
-1.7916412
 70
0
  0
VERTEX
  8
254
 42
0.0
 10
7.8486481
 20
-6.3662148E-001
 70
0
  0
SEQEND
  0
POLYLINE
  8
254
  6
CONTINUOUS
 62
6
 66
1
 40
1.0E-003
 41
1.0E-003
 70
0
  0
VERTEX
  8
254
 42
0.0
 10
8.2386322
 20
-2.4663544E-001
 70
0
  0
VERTEX
  8
254
 42
0.0
 10
8.6889954
 20
2.0372772E-001
 70
0
  0
SEQEND
  0
POLYLINE
  8
254
  6
CONTINUOUS
 62
6
 66
1
 40
1.0E-003
 41
1.0E-003
 70
0
  0
VERTEX
  8
254
 42
0.0
 10
4.7286377
 20
-4.0394897
 70
0
  0
VERTEX
  8
254
 42
0.0
 10
6.2656097
 20
-2.5025082
 70
0
  0
SEQEND
  0
POLYLINE
  8
254
  6
CONTINUOUS
 62
6
 66
1
 40
1.0E-003
 41
1.0E-003
 70
0
  0
VERTEX
  8
254
 42
0.0
 10
6.9395905
 20
-1.8285255
 70
0
  0
VERTEX
  8
254
 42
0.0
 10
7.8486481
 20
-9.1946602E-001
 70
0
  0
SEQEND
  0
POLYLINE
  8
254
  6
CONTINUOUS
 62
6
 66
1
 40
1.0E-003
 41
1.0E-003
 70
0
  0
VERTEX
  8
254
 42
0.0
 10
8.2386322
 20
-5.2947998E-001
 70
0
  0
VERTEX
  8
254
 42
0.0
 10
8.9050598
 20
1.3694763E-001
 70
0
  0
SEQEND
  0
POLYLINE
  8
254
  6
CONTINUOUS
 62
6
 66
1
 40
1.0E-003
 41
1.0E-003
 70
0
  0
VERTEX
  8
254
 42
0.0
 10
4.7774506
 20
-4.2735233
 70
0
  0
VERTEX
  8
254
 42
0.0
 10
6.3190155
 20
-2.7319412
 70
0
  0
SEQEND
  0
POLYLINE
  8
254
  6
CONTINUOUS
 62
6
 66
1
 40
1.0E-003
 41
1.0E-003
 70
0
  0
VERTEX
  8
254
 42
0.0
 10
6.693634
 20
-2.3573284
 70
0
  0
VERTEX
  8
254
 42
0.0
 10
6.8324432
 20
-2.2185249
 70
0
  0
SEQEND
  0
POLYLINE
  8
254
  6
CONTINUOUS
 62
6
 66
1
 40
1.0E-003
 41
1.0E-003
 70
0
  0
VERTEX
  8
254
 42
0.0
 10
7.2224274
 20
-1.8285255
 70
0
  0
VERTEX
  8
254
 42
0.0
 10
7.8486481
 20
-1.2023087
 70
0
  0
SEQEND
  0
POLYLINE
  8
254
  6
CONTINUOUS
 62
6
 66
1
 40
1.0E-003
 41
1.0E-003
 70
0
  0
VERTEX
  8
254
 42
0.0
 10
8.2386322
 20
-8.1232262E-001
 70
0
  0
VERTEX
  8
254
 42
0.0
 10
9.0850067
 20
3.4049988E-002
 70
0
  0
SEQEND
  0
POLYLINE
  8
254
  6
CONTINUOUS
 62
6
 66
1
 40
1.0E-003
 41
1.0E-003
 70
0
  0
VERTEX
  8
254
 42
0.0
 10
5.0675201
 20
-4.2662849
 70
0
  0
VERTEX
  8
254
 42
0.0
 10
6.3274994
 20
-3.0063057
 70
0
  0
SEQEND
  0
POLYLINE
  8
254
  6
CONTINUOUS
 62
6
 66
1
 40
1.0E-003
 41
1.0E-003
 70
0
  0
VERTEX
  8
254
 42
0.0
 10
6.693634
 20
-2.6401711
 70
0
  0
VERTEX
  8
254
 42
0.0
 10
7.1152802
 20
-2.2185249
 70
0
  0
SEQEND
  0
POLYLINE
  8
254
  6
CONTINUOUS
 62
6
 66
1
 40
1.0E-003
 41
1.0E-003
 70
0
  0
VERTEX
  8
254
 42
0.0
 10
7.5052795
 20
-1.8285255
 70
0
  0
VERTEX
  8
254
 42
0.0
 10
7.8486481
 20
-1.4851513
 70
0
  0
SEQEND
  0
POLYLINE
  8
254
  6
CONTINUOUS
 62
6
 66
1
 40
1.0E-003
 41
1.0E-003
 70
0
  0
VERTEX
  8
254
 42
0.0
 10
8.2386322
 20
-1.0951672
 70
0
  0
VERTEX
  8
254
 42
0.0
 10
9.2350922
 20
-9.869957E-002
 70
0
  0
SEQEND
  0
POLYLINE
  8
254
  6
CONTINUOUS
 62
6
 66
1
 40
1.0E-003
 41
1.0E-003
 70
0
  0
VERTEX
  8
254
 42
0.0
 10
5.416275
 20
-4.2003727
 70
0
  0
VERTEX
  8
254
 42
0.0
 10
6.2580872
 20
-3.3585587
 70
0
  0
SEQEND
  0
POLYLINE
  8
254
  6
CONTINUOUS
 62
6
 66
1
 40
1.0E-003
 41
1.0E-003
 70
0
  0
VERTEX
  8
254
 42
0.0
 10
6.693634
 20
-2.9230137
 70
0
  0
VERTEX
  8
254
 42
0.0
 10
7.3981171
 20
-2.2185249
 70
0
  0
SEQEND
  0
POLYLINE
  8
254
  6
CONTINUOUS
 62
6
 66
1
 40
1.0E-003
 41
1.0E-003
 70
0
  0
VERTEX
  8
254
 42
0.0
 10
7.7881165
 20
-1.8285255
 70
0
  0
VERTEX
  8
254
 42
0.0
 10
7.8486481
 20
-1.7679958
 70
0
  0
SEQEND
  0
POLYLINE
  8
254
  6
CONTINUOUS
 62
6
 66
1
 40
1.0E-003
 41
1.0E-003
 70
0
  0
VERTEX
  8
254
 42
0.0
 10
8.2386322
 20
-1.3780098
 70
0
  0
VERTEX
  8
254
 42
0.0
 10
9.3569641
 20
-2.5967217E-001
 70
0
  0
SEQEND
  0
POLYLINE
  8
254
  6
CONTINUOUS
 62
6
 66
1
 40
1.0E-003
 41
1.0E-003
 70
0
  0
VERTEX
  8
254
 42
0.0
 10
6.693634
 20
-3.2058582
 70
0
  0
VERTEX
  8
254
 42
0.0
 10
7.6809692
 20
-2.2185249
 70
0
  0
SEQEND
  0
POLYLINE
  8
254
  6
CONTINUOUS
 62
6
 66
1
 40
1.0E-003
 41
1.0E-003
 70
0
  0
VERTEX
  8
254
 42
0.0
 10
8.2386322
 20
-1.6608524
 70
0
  0
VERTEX
  8
254
 42
0.0
 10
9.4486694
 20
-4.5081711E-001
 70
0
  0
SEQEND
  0
POLYLINE
  8
254
  6
CONTINUOUS
 62
6
 66
1
 40
1.0E-003
 41
1.0E-003
 70
0
  0
VERTEX
  8
254
 42
0.0
 10
6.693634
 20
-3.4887009
 70
0
  0
VERTEX
  8
254
 42
0.0
 10
7.8486481
 20
-2.3336811
 70
0
  0
SEQEND
  0
POLYLINE
  8
254
  6
CONTINUOUS
 62
6
 66
1
 40
1.0E-003
 41
1.0E-003
 70
0
  0
VERTEX
  8
254
 42
0.0
 10
8.3538055
 20
-1.8285255
 70
0
  0
VERTEX
  8
254
 42
0.0
 10
9.4981384
 20
-6.8418121E-001
 70
0
  0
SEQEND
  0
POLYLINE
  8
254
  6
CONTINUOUS
 62
6
 66
1
 40
1.0E-003
 41
1.0E-003
 70
0
  0
VERTEX
  8
254
 42
0.0
 10
6.693634
 20
-3.7715435
 70
0
  0
VERTEX
  8
254
 42
0.0
 10
7.8486481
 20
-2.6165256
 70
0
  0
SEQEND
  0
POLYLINE
  8
254
  6
CONTINUOUS
 62
6
 66
1
 40
1.0E-003
 41
1.0E-003
 70
0
  0
VERTEX
  8
254
 42
0.0
 10
8.2386322
 20
-2.2265396
 70
0
  0
VERTEX
  8
254
 42
0.0
 10
8.2466431
 20
-2.2185249
 70
0
  0
SEQEND
  0
POLYLINE
  8
254
  6
CONTINUOUS
 62
6
 66
1
 40
1.0E-003
 41
1.0E-003
 70
0
  0
VERTEX
  8
254
 42
0.0
 10
8.6366425
 20
-1.8285255
 70
0
  0
VERTEX
  8
254
 42
0.0
 10
9.4822998
 20
-9.8287392E-001
 70
0
  0
SEQEND
  0
POLYLINE
  8
254
  6
CONTINUOUS
 62
6
 66
1
 40
1.0E-003
 41
1.0E-003
 70
0
  0
VERTEX
  8
254
 42
0.0
 10
6.693634
 20
-4.054388
 70
0
  0
VERTEX
  8
254
 42
0.0
 10
7.8486481
 20
-2.8993683
 70
0
  0
SEQEND
  0
POLYLINE
  8
254
  6
CONTINUOUS
 62
6
 66
1
 40
1.0E-003
 41
1.0E-003
 70
0
  0
VERTEX
  8
254
 42
0.0
 10
8.2386322
 20
-2.5093822
 70
0
  0
VERTEX
  8
254
 42
0.0
 10
8.5294952
 20
-2.2185249
 70
0
  0
SEQEND
  0
POLYLINE
  8
254
  6
CONTINUOUS
 62
6
 66
1
 40
1.0E-003
 41
1.0E-003
 70
0
  0
VERTEX
  8
254
 42
0.0
 10
8.9194946
 20
-1.8285255
 70
0
  0
VERTEX
  8
254
 42
0.0
 10
9.0524445
 20
-1.6955605
 70
0
  0
SEQEND
  0
POLYLINE
  8
254
  6
CONTINUOUS
 62
6
 66
1
 40
1.0E-003
 41
1.0E-003
 70
0
  0
VERTEX
  8
254
 42
0.0
 10
6.7573395
 20
-4.2735233
 70
0
  0
VERTEX
  8
254
 42
0.0
 10
7.8486481
 20
-3.1822128
 70
0
  0
SEQEND
  0
POLYLINE
  8
254
  6
CONTINUOUS
 62
6
 66
1
 40
1.0E-003
 41
1.0E-003
 70
0
  0
VERTEX
  8
254
 42
0.0
 10
8.2386322
 20
-2.7922268
 70
0
  0
VERTEX
  8
254
 42
0.0
 10
8.8123322
 20
-2.2185249
 70
0
  0
SEQEND
  0
POLYLINE
  8
254
  6
CONTINUOUS
 62
6
 66
1
 40
1.0E-003
 41
1.0E-003
 70
0
  0
VERTEX
  8
254
 42
0.0
 10
9.2023315
 20
-1.8285255
 70
0
  0
VERTEX
  8
254
 42
0.0
 10
9.2325897
 20
-1.7982578
 70
0
  0
SEQEND
  0
POLYLINE
  8
254
  6
CONTINUOUS
 62
6
 66
1
 40
1.0E-003
 41
1.0E-003
 70
0
  0
VERTEX
  8
254
 42
0.0
 10
7.0401917
 20
-4.2735233
 70
0
  0
VERTEX
  8
254
 42
0.0
 10
7.8486481
 20
-3.4650555
 70
0
  0
SEQEND
  0
POLYLINE
  8
254
  6
CONTINUOUS
 62
6
 66
1
 40
1.0E-003
 41
1.0E-003
 70
0
  0
VERTEX
  8
254
 42
0.0
 10
8.2386322
 20
-3.0750694
 70
0
  0
VERTEX
  8
254
 42
0.0
 10
9.0951691
 20
-2.2185249
 70
0
  0
SEQEND
  0
POLYLINE
  8
254
  6
CONTINUOUS
 62
6
 66
1
 40
1.0E-003
 41
1.0E-003
 70
0
  0
VERTEX
  8
254
 42
0.0
 10
7.3230286
 20
-4.2735233
 70
0
  0
VERTEX
  8
254
 42
0.0
 10
7.8486481
 20
-3.7478981
 70
0
  0
SEQEND
  0
POLYLINE
  8
254
  6
CONTINUOUS
 62
6
 66
1
 40
1.0E-003
 41
1.0E-003
 70
0
  0
VERTEX
  8
254
 42
0.0
 10
8.2386322
 20
-3.3579121
 70
0
  0
VERTEX
  8
254
 42
0.0
 10
9.3780212
 20
-2.2185249
 70
0
  0
SEQEND
  0
POLYLINE
  8
254
  6
CONTINUOUS
 62
6
 66
1
 40
1.0E-003
 41
1.0E-003
 70
0
  0
VERTEX
  8
254
 42
0.0
 10
7.6058655
 20
-4.2735233
 70
0
  0
VERTEX
  8
254
 42
0.0
 10
7.8486481
 20
-4.0307426
 70
0
  0
SEQEND
  0
POLYLINE
  8
254
  6
CONTINUOUS
 62
6
 66
1
 40
1.0E-003
 41
1.0E-003
 70
0
  0
VERTEX
  8
254
 42
0.0
 10
8.2386322
 20
-3.6407566
 70
0
  0
VERTEX
  8
254
 42
0.0
 10
9.6507568
 20
-2.228632
 70
0
  0
SEQEND
  0
POLYLINE
  8
254
  6
CONTINUOUS
 62
6
 66
1
 40
1.0E-003
 41
1.0E-003
 70
0
  0
VERTEX
  8
254
 42
0.0
 10
8.2386322
 20
-3.9235992
 70
0
  0
VERTEX
  8
254
 42
0.0
 10
9.7415924
 20
-2.4206371
 70
0
  0
SEQEND
  0
POLYLINE
  8
254
  6
CONTINUOUS
 62
6
 66
1
 40
1.0E-003
 41
1.0E-003
 70
0
  0
VERTEX
  8
254
 42
0.0
 10
8.2386322
 20
-4.2064419
 70
0
  0
VERTEX
  8
254
 42
0.0
 10
9.8081055
 20
-2.6369629
 70
0
  0
SEQEND
  0
POLYLINE
  8
254
  6
CONTINUOUS
 62
6
 66
1
 40
1.0E-003
 41
1.0E-003
 70
0
  0
VERTEX
  8
254
 42
0.0
 10
8.4543915
 20
-4.2735233
 70
0
  0
VERTEX
  8
254
 42
0.0
 10
9.8392181
 20
-2.8886967
 70
0
  0
SEQEND
  0
POLYLINE
  8
254
  6
CONTINUOUS
 62
6
 66
1
 40
1.0E-003
 41
1.0E-003
 70
0
  0
VERTEX
  8
254
 42
0.0
 10
8.7687836
 20
-4.2419796
 70
0
  0
VERTEX
  8
254
 42
0.0
 10
9.8147125
 20
-3.196043
 70
0
  0
SEQEND
  0
POLYLINE
  8
254
  6
CONTINUOUS
 62
6
 66
1
 40
1.0E-003
 41
1.0E-003
 70
0
  0
VERTEX
  8
254
 42
0.0
 10
9.275238
 20
-4.0183601
 70
0
  0
VERTEX
  8
254
 42
0.0
 10
9.5876312
 20
-3.7059689
 70
0
  0
SEQEND
  0
ENDBLK
  0
BLOCK
  2
RAHMENA4
 10
0.0
 20
0.0
 70
0
  0
POLYLINE
  8
1
  6
CONTINUOUS
 62
6
 66
1
 40
7.0E-001
 41
7.0E-001
 70
0
  0
VERTEX
  8
1
 42
0.0
 10
1.9000008E+001
 20
2.9150003E+002
 70
0
  0
VERTEX
  8
1
 42
0.0
 10
1.9000008E+001
 20
5.5
 70
0
  0
SEQEND
  0
POLYLINE
  8
1
  6
CONTINUOUS
 62
6
 66
1
 40
7.0E-001
 41
7.0E-001
 70
0
  0
VERTEX
  8
1
 42
0.0
 10
2.05E+002
 20
5.5
 70
0
  0
VERTEX
  8
1
 42
0.0
 10
1.9000008E+001
 20
5.5
 70
0
  0
SEQEND
  0
POLYLINE
  8
1
  6
CONTINUOUS
 62
6
 66
1
 40
7.0E-001
 41
7.0E-001
 70
0
  0
VERTEX
  8
1
 42
0.0
 10
5.0
 20
5.5
 70
0
  0
VERTEX
  8
1
 42
0.0
 10
5.0
 20
1.045E+002
 70
0
  0
SEQEND
  0
POLYLINE
  8
1
  6
CONTINUOUS
 62
6
 66
1
 40
7.0E-001
 41
7.0E-001
 70
0
  0
VERTEX
  8
1
 42
0.0
 10
5.0
 20
1.045E+002
 70
0
  0
VERTEX
  8
1
 42
0.0
 10
1.9000008E+001
 20
1.045E+002
 70
0
  0
SEQEND
  0
POLYLINE
  8
1
  6
CONTINUOUS
 62
6
 66
1
 40
1.0E-003
 41
1.0E-003
 70
0
  0
VERTEX
  8
1
 42
0.0
 10
1.9000008E+001
 20
1.335E+002
 70
0
  0
VERTEX
  8
1
 42
0.0
 10
1.4500008E+001
 20
1.335E+002
 70
0
  0
SEQEND
  0
POLYLINE
  8
1
  6
CONTINUOUS
 62
6
 66
1
 40
1.0E-003
 41
1.0E-003
 70
0
  0
VERTEX
  8
1
 42
0.0
 10
1.9000008E+001
 20
1.435E+002
 70
0
  0
VERTEX
  8
1
 42
0.0
 10
1.4500008E+001
 20
1.435E+002
 70
0
  0
SEQEND
  0
POLYLINE
  8
1
  6
CONTINUOUS
 62
6
 66
1
 40
1.0E-003
 41
1.0E-003
 70
0
  0
VERTEX
  8
1
 42
0.0
 10
1.9000008E+001
 20
1.5350002E+002
 70
0
  0
VERTEX
  8
1
 42
0.0
 10
1.4500008E+001
 20
1.5350002E+002
 70
0
  0
SEQEND
  0
POLYLINE
  8
1
  6
CONTINUOUS
 62
6
 66
1
 40
1.0E-003
 41
1.0E-003
 70
0
  0
VERTEX
  8
1
 42
0.0
 10
1.9000008E+001
 20
1.6350002E+002
 70
0
  0
VERTEX
  8
1
 42
0.0
 10
1.4500008E+001
 20
1.6350002E+002
 70
0
  0
SEQEND
  0
POLYLINE
  8
1
  6
CONTINUOUS
 62
6
 66
1
 40
1.0E-003
 41
1.0E-003
 70
0
  0
VERTEX
  8
1
 42
0.0
 10
1.9000008E+001
 20
1.7350002E+002
 70
0
  0
VERTEX
  8
1
 42
0.0
 10
1.4500008E+001
 20
1.7350002E+002
 70
0
  0
SEQEND
  0
POLYLINE
  8
1
  6
CONTINUOUS
 62
6
 66
1
 40
1.0E-003
 41
1.0E-003
 70
0
  0
VERTEX
  8
1
 42
0.0
 10
1.9000008E+001
 20
1.285E+002
 70
0
  0
VERTEX
  8
1
 42
0.0
 10
1.7000008E+001
 20
1.285E+002
 70
0
  0
SEQEND
  0
POLYLINE
  8
1
  6
CONTINUOUS
 62
6
 66
1
 40
1.0E-003
 41
1.0E-003
 70
0
  0
VERTEX
  8
1
 42
0.0
 10
1.9000008E+001
 20
1.385E+002
 70
0
  0
VERTEX
  8
1
 42
0.0
 10
1.7000008E+001
 20
1.385E+002
 70
0
  0
SEQEND
  0
POLYLINE
  8
1
  6
CONTINUOUS
 62
6
 66
1
 40
1.0E-003
 41
1.0E-003
 70
0
  0
VERTEX
  8
1
 42
0.0
 10
1.9000008E+001
 20
1.4850002E+002
 70
0
  0
VERTEX
  8
1
 42
0.0
 10
1.2345772E+001
 20
1.4850002E+002
 70
0
  0
SEQEND
  0
POLYLINE
  8
1
  6
CONTINUOUS
 62
6
 66
1
 40
1.0E-003
 41
1.0E-003
 70
0
  0
VERTEX
  8
1
 42
0.0
 10
1.9000008E+001
 20
1.5850002E+002
 70
0
  0
VERTEX
  8
1
 42
0.0
 10
1.7000008E+001
 20
1.5850002E+002
 70
0
  0
SEQEND
  0
POLYLINE
  8
1
  6
CONTINUOUS
 62
6
 66
1
 40
1.0E-003
 41
1.0E-003
 70
0
  0
VERTEX
  8
1
 42
0.0
 10
1.9000008E+001
 20
1.6850002E+002
 70
0
  0
VERTEX
  8
1
 42
0.0
 10
1.7000008E+001
 20
1.6850002E+002
 70
0
  0
SEQEND
  0
POLYLINE
  8
1
  6
CONTINUOUS
 62
6
 66
1
 40
1.0E-003
 41
1.0E-003
 70
0
  0
VERTEX
  8
1
 42
0.0
 10
1.7568611E+001
 20
1.235E+002
 70
0
  0
VERTEX
  8
1
 42
0.0
 10
1.9000008E+001
 20
1.235E+002
 70
0
  0
SEQEND
  0
POLYLINE
  8
1
  6
CONTINUOUS
 62
6
 66
1
 40
1.0E-003
 41
1.0E-003
 70
0
  0
VERTEX
  8
1
 42
0.0
 10
1.9000008E+001
 20
1.235E+002
 70
0
  0
VERTEX
  8
1
 42
0.0
 10
1.5000008E+001
 20
1.235E+002
 70
0
  0
SEQEND
  0
POLYLINE
  8
1
  6
CONTINUOUS
 62
6
 66
1
 40
1.0E-003
 41
1.0E-003
 70
0
  0
VERTEX
  8
1
 42
0.0
 10
1.9000008E+001
 20
1.235E+002
 70
0
  0
VERTEX
  8
1
 42
0.0
 10
1.4500008E+001
 20
1.235E+002
 70
0
  0
SEQEND
  0
POLYLINE
  8
1
  6
CONTINUOUS
 62
3
 66
1
 40
1.0E-003
 41
1.0E-003
 70
0
  0
VERTEX
  8
1
 42
0.0
 10
1.6487923E+001
 20
2.0867195E+002
 70
0
  0
VERTEX
  8
1
 42
0.0
 10
1.3487923E+001
 20
2.0867195E+002
 70
0
  0
SEQEND
  0
POLYLINE
  8
1
  6
CONTINUOUS
 62
3
 66
1
 40
1.0E-003
 41
1.0E-003
 70
0
  0
VERTEX
  8
1
 42
0.0
 10
1.3487923E+001
 20
2.2806367E+002
 70
0
  0
VERTEX
  8
1
 42
0.0
 10
1.6487923E+001
 20
2.2806367E+002
 70
0
  0
SEQEND
  0
POLYLINE
  8
1
  6
CONTINUOUS
 62
3
 66
1
 40
1.0E-003
 41
1.0E-003
 70
0
  0
VERTEX
  8
1
 42
0.0
 10
1.3487923E+001
 20
2.3106367E+002
 70
0
  0
VERTEX
  8
1
 42
0.0
 10
1.6487923E+001
 20
2.3106367E+002
 70
0
  0
SEQEND
  0
POLYLINE
  8
1
  6
CONTINUOUS
 62
3
 66
1
 40
1.0E-003
 41
1.0E-003
 70
0
  0
VERTEX
  8
1
 42
0.0
 10
1.6487923E+001
 20
2.1167192E+002
 70
0
  0
VERTEX
  8
1
 42
0.0
 10
1.3487923E+001
 20
2.1167192E+002
 70
0
  0
SEQEND
  0
POLYLINE
  8
1
  6
CONTINUOUS
 62
3
 66
1
 40
1.0E-003
 41
1.0E-003
 70
0
  0
VERTEX
  8
1
 42
0.0
 10
1.3487923E+001
 20
2.2806367E+002
 70
0
  0
VERTEX
  8
1
 42
0.0
 10
1.3487923E+001
 20
2.3106367E+002
 70
0
  0
SEQEND
  0
POLYLINE
  8
1
  6
CONTINUOUS
 62
3
 66
1
 40
1.0E-003
 41
1.0E-003
 70
0
  0
VERTEX
  8
1
 42
0.0
 10
1.3487923E+001
 20
2.0867195E+002
 70
0
  0
VERTEX
  8
1
 42
0.0
 10
1.3487923E+001
 20
2.1167192E+002
 70
0
  0
SEQEND
  0
POLYLINE
  8
1
  6
CONTINUOUS
 62
3
 66
1
 40
1.0E-003
 41
1.0E-003
 70
0
  0
VERTEX
  8
1
 42
0.0
 10
1.6487923E+001
 20
2.2806367E+002
 70
0
  0
VERTEX
  8
1
 42
0.0
 10
1.6487923E+001
 20
2.3106367E+002
 70
0
  0
SEQEND
  0
POLYLINE
  8
1
  6
CONTINUOUS
 62
4
 66
1
 40
1.0E-003
 41
1.0E-003
 70
0
  0
VERTEX
  8
1
 42
0.0
 10
2.1E+002
 20
0.0
 70
0
  0
VERTEX
  8
1
 42
0.0
 10
2.1E+002
 20
2.9700003E+002
 70
0
  0
SEQEND
  0
POLYLINE
  8
1
  6
CONTINUOUS
 62
6
 66
1
 40
7.0E-001
 41
7.0E-001
 70
0
  0
VERTEX
  8
1
 42
0.0
 10
2.05E+002
 20
2.9150003E+002
 70
0
  0
VERTEX
  8
1
 42
0.0
 10
2.05E+002
 20
5.5
 70
0
  0
SEQEND
  0
POLYLINE
  8
1
  6
CONTINUOUS
 62
6
 66
1
 40
7.0E-001
 41
7.0E-001
 70
0
  0
VERTEX
  8
1
 42
0.0
 10
1.9000008E+001
 20
2.9150003E+002
 70
0
  0
VERTEX
  8
1
 42
0.0
 10
2.05E+002
 20
2.9150003E+002
 70
0
  0
SEQEND
  0
LINE
  8
1
  6
CONTINUOUS
 62
6
 10
3.0000008E+001
 20
2.6550003E+002
 11
2.05E+002
 21
2.6550003E+002
  0
POLYLINE
  8
1
  6
CONTINUOUS
 62
6
 66
1
 40
7.0E-001
 41
7.0E-001
 70
0
  0
VERTEX
  8
1
 42
0.0
 10
2.05E+002
 20
2.7800003E+002
 70
0
  0
VERTEX
  8
1
 42
0.0
 10
3.0000008E+001
 20
2.7800003E+002
 70
0
  0
SEQEND
  0
POLYLINE
  8
1
  6
CONTINUOUS
 62
6
 66
1
 40
7.0E-001
 41
7.0E-001
 70
0
  0
VERTEX
  8
1
 42
0.0
 10
3.0000008E+001
 20
2.9150003E+002
 70
0
  0
VERTEX
  8
1
 42
0.0
 10
3.0000008E+001
 20
2.6550003E+002
 70
0
  0
SEQEND
  0
POLYLINE
  8
1
  6
CONTINUOUS
 62
6
 66
1
 40
5.0E-001
 41
5.0E-001
 70
0
  0
VERTEX
  8
1
 42
0.0
 10
3.7000008E+001
 20
2.9150003E+002
 70
0
  0
VERTEX
  8
1
 42
0.0
 10
3.7000008E+001
 20
2.6550003E+002
 70
0
  0
SEQEND
  0
LINE
  8
1
  6
CONTINUOUS
 62
6
 10
4.2000008E+001
 20
2.9150003E+002
 11
4.2000008E+001
 21
2.6550003E+002
  0
POLYLINE
  8
1
  6
CONTINUOUS
 62
6
 66
1
 40
7.0E-001
 41
7.0E-001
 70
0
  0
VERTEX
  8
1
 42
0.0
 10
5.4000008E+001
 20
2.9150003E+002
 70
0
  0
VERTEX
  8
1
 42
0.0
 10
5.4000008E+001
 20
2.6550003E+002
 70
0
  0
SEQEND
  0
POLYLINE
  8
1
  6
CONTINUOUS
 62
6
 66
1
 40
5.0E-001
 41
5.0E-001
 70
0
  0
VERTEX
  8
1
 42
0.0
 10
1.2000001E+002
 20
2.9150003E+002
 70
0
  0
VERTEX
  8
1
 42
0.0
 10
1.2000001E+002
 20
2.6550003E+002
 70
0
  0
SEQEND
  0
POLYLINE
  8
1
  6
CONTINUOUS
 62
6
 66
1
 40
5.0E-001
 41
5.0E-001
 70
0
  0
VERTEX
  8
1
 42
0.0
 10
1.61E+002
 20
2.9150003E+002
 70
0
  0
VERTEX
  8
1
 42
0.0
 10
1.61E+002
 20
2.6550003E+002
 70
0
  0
SEQEND
  0
POLYLINE
  8
1
  6
CONTINUOUS
 62
6
 66
1
 40
5.0E-001
 41
5.0E-001
 70
0
  0
VERTEX
  8
1
 42
0.0
 10
1.66E+002
 20
2.9150003E+002
 70
0
  0
VERTEX
  8
1
 42
0.0
 10
1.66E+002
 20
2.6550003E+002
 70
0
  0
SEQEND
  0
POLYLINE
  8
1
  6
CONTINUOUS
 62
6
 66
1
 40
5.0E-001
 41
5.0E-001
 70
0
  0
VERTEX
  8
1
 42
0.0
 10
1.76E+002
 20
2.9150003E+002
 70
0
  0
VERTEX
  8
1
 42
0.0
 10
1.76E+002
 20
2.6550003E+002
 70
0
  0
SEQEND
  0
POLYLINE
  8
1
  6
CONTINUOUS
 62
6
 66
1
 40
5.0E-001
 41
5.0E-001
 70
0
  0
VERTEX
  8
1
 42
0.0
 10
1.92E+002
 20
2.9150003E+002
 70
0
  0
VERTEX
  8
1
 42
0.0
 10
1.92E+002
 20
2.6550003E+002
 70
0
  0
SEQEND
  0
LINE
  8
1
  6
CONTINUOUS
 62
6
 10
3.0000008E+001
 20
2.7175003E+002
 11
2.05E+002
 21
2.7175003E+002
  0
POLYLINE
  8
1
  6
CONTINUOUS
 62
6
 66
1
 40
5.0E-001
 41
5.0E-001
 70
0
  0
VERTEX
  8
1
 42
0.0
 10
1.66E+002
 20
2.8475003E+002
 70
0
  0
VERTEX
  8
1
 42
0.0
 10
1.92E+002
 20
2.8475003E+002
 70
0
  0
SEQEND
  0
POLYLINE
  8
1
  6
CONTINUOUS
 62
4
 66
1
 40
1.0E-003
 41
1.0E-003
 70
0
  0
VERTEX
  8
1
 42
0.0
 10
0.0
 20
2.9700003E+002
 70
0
  0
VERTEX
  8
1
 42
0.0
 10
2.1E+002
 20
2.9700003E+002
 70
0
  0
SEQEND
  0
POLYLINE
  8
1
  6
CONTINUOUS
 62
6
 66
1
 40
1.0E-003
 41
1.0E-003
 70
0
  0
VERTEX
  8
1
 42
0.0
 10
2.05E+002
 20
2.5925003E+002
 70
0
  0
VERTEX
  8
1
 42
0.0
 10
2.0E+002
 20
2.5925003E+002
 70
0
  0
SEQEND
  0
POLYLINE
  8
1
  6
CONTINUOUS
 62
6
 66
1
 40
1.0E-003
 41
1.0E-003
 70
0
  0
VERTEX
  8
1
 42
0.0
 10
2.05E+002
 20
2.53E+002
 70
0
  0
VERTEX
  8
1
 42
0.0
 10
2.0E+002
 20
2.53E+002
 70
0
  0
SEQEND
  0
POLYLINE
  8
1
  6
CONTINUOUS
 62
6
 66
1
 40
1.0E-003
 41
1.0E-003
 70
0
  0
VERTEX
  8
1
 42
0.0
 10
2.05E+002
 20
2.4674998E+002
 70
0
  0
VERTEX
  8
1
 42
0.0
 10
2.0E+002
 20
2.4674998E+002
 70
0
  0
SEQEND
  0
POLYLINE
  8
1
  6
CONTINUOUS
 62
6
 66
1
 40
1.0E-003
 41
1.0E-003
 70
0
  0
VERTEX
  8
1
 42
0.0
 10
2.05E+002
 20
2.4049998E+002
 70
0
  0
VERTEX
  8
1
 42
0.0
 10
2.0E+002
 20
2.4049998E+002
 70
0
  0
SEQEND
  0
POLYLINE
  8
1
  6
CONTINUOUS
 62
6
 66
1
 40
1.0E-003
 41
1.0E-003
 70
0
  0
VERTEX
  8
1
 42
0.0
 10
2.05E+002
 20
2.3424998E+002
 70
0
  0
VERTEX
  8
1
 42
0.0
 10
2.0E+002
 20
2.3424998E+002
 70
0
  0
SEQEND
  0
POLYLINE
  8
1
  6
CONTINUOUS
 62
6
 66
1
 40
1.0E-003
 41
1.0E-003
 70
0
  0
VERTEX
  8
1
 42
0.0
 10
2.05E+002
 20
2.2800002E+002
 70
0
  0
VERTEX
  8
1
 42
0.0
 10
2.0E+002
 20
2.2800002E+002
 70
0
  0
SEQEND
  0
POLYLINE
  8
1
  6
CONTINUOUS
 62
6
 66
1
 40
1.0E-003
 41
1.0E-003
 70
0
  0
VERTEX
  8
1
 42
0.0
 10
2.05E+002
 20
2.2175002E+002
 70
0
  0
VERTEX
  8
1
 42
0.0
 10
2.0E+002
 20
2.2175002E+002
 70
0
  0
SEQEND
  0
POLYLINE
  8
1
  6
CONTINUOUS
 62
6
 66
1
 40
1.0E-003
 41
1.0E-003
 70
0
  0
VERTEX
  8
1
 42
0.0
 10
2.05E+002
 20
2.1550002E+002
 70
0
  0
VERTEX
  8
1
 42
0.0
 10
2.0E+002
 20
2.1550002E+002
 70
0
  0
SEQEND
  0
POLYLINE
  8
1
  6
CONTINUOUS
 62
6
 66
1
 40
1.0E-003
 41
1.0E-003
 70
0
  0
VERTEX
  8
1
 42
0.0
 10
2.05E+002
 20
2.9150003E+002
 70
0
  0
VERTEX
  8
1
 42
0.0
 10
2.075E+002
 20
2.9150003E+002
 70
0
  0
SEQEND
  0
POLYLINE
  8
1
  6
CONTINUOUS
 62
6
 66
1
 40
1.0E-003
 41
1.0E-003
 70
0
  0
VERTEX
  8
1
 42
0.0
 10
2.05E+002
 20
2.3175002E+002
 70
0
  0
VERTEX
  8
1
 42
0.0
 10
2.075E+002
 20
2.3175002E+002
 70
0
  0
SEQEND
  0
POLYLINE
  8
1
  6
CONTINUOUS
 62
6
 66
1
 40
1.0E-003
 41
1.0E-003
 70
0
  0
VERTEX
  8
1
 42
0.0
 10
2.05E+002
 20
1.7200002E+002
 70
0
  0
VERTEX
  8
1
 42
0.0
 10
2.075E+002
 20
1.7200002E+002
 70
0
  0
SEQEND
  0
POLYLINE
  8
1
  6
CONTINUOUS
 62
6
 66
1
 40
1.0E-003
 41
1.0E-003
 70
0
  0
VERTEX
  8
1
 42
0.0
 10
2.05E+002
 20
1.1225E+002
 70
0
  0
VERTEX
  8
1
 42
0.0
 10
2.075E+002
 20
1.1225E+002
 70
0
  0
SEQEND
  0
POLYLINE
  8
1
  6
CONTINUOUS
 62
6
 66
1
 40
1.0E-003
 41
1.0E-003
 70
0
  0
VERTEX
  8
1
 42
0.0
 10
2.05E+002
 20
2.9150003E+002
 70
0
  0
VERTEX
  8
1
 42
0.0
 10
2.05E+002
 20
2.9400003E+002
 70
0
  0
SEQEND
  0
POLYLINE
  8
1
  6
CONTINUOUS
 62
6
 66
1
 40
1.0E-003
 41
1.0E-003
 70
0
  0
VERTEX
  8
1
 42
0.0
 10
1.585E+002
 20
2.9150003E+002
 70
0
  0
VERTEX
  8
1
 42
0.0
 10
1.585E+002
 20
2.9400003E+002
 70
0
  0
SEQEND
  0
POLYLINE
  8
1
  6
CONTINUOUS
 62
6
 66
1
 40
1.0E-003
 41
1.0E-003
 70
0
  0
VERTEX
  8
1
 42
0.0
 10
1.1200001E+002
 20
2.9150003E+002
 70
0
  0
VERTEX
  8
1
 42
0.0
 10
1.1200001E+002
 20
2.9400003E+002
 70
0
  0
SEQEND
  0
POLYLINE
  8
1
  6
CONTINUOUS
 62
6
 66
1
 40
1.0E-003
 41
1.0E-003
 70
0
  0
VERTEX
  8
1
 42
0.0
 10
1.9000008E+001
 20
2.9150003E+002
 70
0
  0
VERTEX
  8
1
 42
0.0
 10
1.9000008E+001
 20
2.9400003E+002
 70
0
  0
SEQEND
  0
POLYLINE
  8
1
  6
CONTINUOUS
 62
6
 66
1
 40
1.0E-003
 41
1.0E-003
 70
0
  0
VERTEX
  8
1
 42
0.0
 10
6.5500008E+001
 20
2.9150003E+002
 70
0
  0
VERTEX
  8
1
 42
0.0
 10
6.5500008E+001
 20
2.9400003E+002
 70
0
  0
SEQEND
  0
POLYLINE
  8
1
  6
CONTINUOUS
 62
6
 66
1
 40
7.0E-001
 41
7.0E-001
 70
0
  0
VERTEX
  8
1
 42
0.0
 10
1.0650001E+002
 20
5.5
 70
0
  0
VERTEX
  8
1
 42
0.0
 10
1.0650001E+002
 20
1.5
 70
0
  0
SEQEND
  0
POLYLINE
  8
1
  6
CONTINUOUS
 62
6
 66
1
 40
7.0E-001
 41
7.0E-001
 70
0
  0
VERTEX
  8
1
 42
0.0
 10
1.0350001E+002
 20
5.5
 70
0
  0
VERTEX
  8
1
 42
0.0
 10
1.0350001E+002
 20
1.5
 70
0
  0
SEQEND
  0
POLYLINE
  8
1
  6
CONTINUOUS
 62
6
 66
1
 40
7.0E-001
 41
7.0E-001
 70
0
  0
VERTEX
  8
1
 42
0.0
 10
1.0650001E+002
 20
2.9150003E+002
 70
0
  0
VERTEX
  8
1
 42
0.0
 10
1.0650001E+002
 20
2.9550003E+002
 70
0
  0
SEQEND
  0
POLYLINE
  8
1
  6
CONTINUOUS
 62
6
 66
1
 40
7.0E-001
 41
7.0E-001
 70
0
  0
VERTEX
  8
1
 42
0.0
 10
1.0350001E+002
 20
2.9150003E+002
 70
0
  0
VERTEX
  8
1
 42
0.0
 10
1.0350001E+002
 20
2.9550003E+002
 70
0
  0
SEQEND
  0
POLYLINE
  8
1
  6
CONTINUOUS
 62
6
 66
1
 40
1.0E-003
 41
1.0E-003
 70
0
  0
VERTEX
  8
1
 42
0.0
 10
2.05E+002
 20
5.25E+001
 70
0
  0
VERTEX
  8
1
 42
0.0
 10
2.075E+002
 20
5.25E+001
 70
0
  0
SEQEND
  0
POLYLINE
  8
1
  6
CONTINUOUS
 62
6
 66
1
 40
7.0E-001
 41
7.0E-001
 70
0
  0
VERTEX
  8
1
 42
0.0
 10
1.9000008E+001
 20
5.5
 70
0
  0
VERTEX
  8
1
 42
0.0
 10
5.0
 20
5.5
 70
0
  0
SEQEND
  0
POLYLINE
  8
1
  6
CONTINUOUS
 62
4
 66
1
 40
1.0E-003
 41
1.0E-003
 70
0
  0
VERTEX
  8
1
 42
0.0
 10
0.0
 20
0.0
 70
0
  0
VERTEX
  8
1
 42
0.0
 10
2.1E+002
 20
0.0
 70
0
  0
SEQEND
  0
POLYLINE
  8
1
  6
CONTINUOUS
 62
3
 66
1
 40
1.0E-003
 41
1.0E-003
 70
0
  0
VERTEX
  8
1
 42
0.0
 10
1.6487923E+001
 20
2.1167192E+002
 70
0
  0
VERTEX
  8
1
 42
0.0
 10
1.6487923E+001
 20
2.0867195E+002
 70
0
  0
SEQEND
  0
POLYLINE
  8
1
  6
CONTINUOUS
 62
3
 66
1
 40
1.0E-003
 41
1.0E-003
 70
0
  0
VERTEX
  8
1
 42
0.0
 10
1.6487923E+001
 20
2.1167192E+002
 70
0
  0
VERTEX
  8
1
 42
0.0
 10
1.6487923E+001
 20
2.0867195E+002
 70
0
  0
SEQEND
  0
TEXT
  8
1
  6
CONTINUOUS
 62
3
 10
2.065E+002
 20
2.6162503E+002
 40
2.0
  1
A
  0
TEXT
  8
1
  6
CONTINUOUS
 62
3
 10
2.065E+002
 20
2.0187502E+002
 40
2.0
  1
B
  0
TEXT
  8
1
  6
CONTINUOUS
 62
3
 10
2.065E+002
 20
1.42125E+002
 40
2.0
  1
C
  0
TEXT
  8
1
  6
CONTINUOUS
 62
3
 10
2.065E+002
 20
8.2375E+001
 40
2.0
  1
D
  0
TEXT
  8
1
  6
CONTINUOUS
 62
3
 10
1.6509621E+001
 20
2.1872429E+002
 40
2.0
  1
"grob"
 41
6.5E-001
 50
9.0000003E+001
  0
TEXT
  8
1
  6
CONTINUOUS
 62
3
 10
1.6487923E+001
 20
1.9736339E+002
 40
2.0
  1
"mittel"
 41
6.5E-001
 50
9.0000003E+001
  0
TEXT
  8
1
  6
CONTINUOUS
 62
3
 10
5.8622437
 20
1.9528923E+002
 40
2.0
  1
Allgemeintoleranzen nach
 41
8.0E-001
 50
9.0000003E+001
  0
TEXT
  8
1
  6
CONTINUOUS
 62
3
 10
5.8622437
 20
1.2295421E+002
 40
2.0
  1
Rauheits-Symbole nach GZN 020007
 41
8.0E-001
 50
9.0000003E+001
  0
TEXT
  8
1
  6
CONTINUOUS
 62
3
 10
9.8622437
 20
1.2295421E+002
 40
2.0
  1
    entsprechend DIN ISO 1302
 41
8.0E-001
 50
9.0000003E+001
  0
TEXT
  8
1
  6
CONTINUOUS
 62
6
 10
1.306617E+001
 20
1.2349451E+002
 40
2.0
  1
0
 41
5.25E-001
 50
9.0000003E+001
  0
TEXT
  8
1
  6
CONTINUOUS
 62
6
 10
1.306617E+001
 20
1.7212105E+002
 40
2.0
  1
50
 41
6.75E-001
 50
9.0000003E+001
  0
POLYLINE
  8
1
  6
CONTINUOUS
 62
4
 66
1
 40
1.0E-003
 41
1.0E-003
 70
0
  0
VERTEX
  8
1
 42
0.0
 10
0.0
 20
2.9700003E+002
 70
0
  0
VERTEX
  8
1
 42
0.0
 10
0.0
 20
0.0
 70
0
  0
SEQEND
  0
POLYLINE
  8
1
  6
CONTINUOUS
 62
4
 66
1
 40
1.0E-003
 41
1.0E-003
 70
0
  0
VERTEX
  8
1
 42
0.0
 10
0.0
 20
0.0
 70
0
  0
VERTEX
  8
1
 42
0.0
 10
0.0
 20
2.9700003E+002
 70
0
  0
SEQEND
  0
TEXT
  8
1
  6
CONTINUOUS
 62
3
 10
1.7001917E+002
 20
2.8040002E+002
 40
2.0
  1
I
 41
3.17E-001
  0
TEXT
  8
1
  6
CONTINUOUS
 62
3
 10
4.2250008E+001
 20
2.9300003E+002
 40
2.0
  1
1
  0
TEXT
  8
1
  6
CONTINUOUS
 62
3
 10
8.8750008E+001
 20
2.9300003E+002
 40
2.0
  1
2
  0
TEXT
  8
1
  6
CONTINUOUS
 62
3
 10
1.3525E+002
 20
2.9300003E+002
 40
2.0
  1
3
  0
TEXT
  8
1
  6
CONTINUOUS
 62
3
 10
1.8175E+002
 20
2.9300003E+002
 40
2.0
  1
4
  0
TEXT
  8
1
  6
CONTINUOUS
 62
3
 10
3.0841621E+001
 20
2.8556284E+002
 40
2.0
  1
Ein-
 41
7.925E-001
  0
TEXT
  8
1
  6
CONTINUOUS
 62
3
 10
3.0841621E+001
 20
2.8256284E+002
 40
2.0
  1
heit
 41
7.925E-001
  0
TEXT
  8
1
  6
CONTINUOUS
 62
3
 10
3.8324684E+001
 20
2.8350003E+002
 40
2.0
  1
ZC
 41
7.925E-001
  0
TEXT
  8
1
  6
CONTINUOUS
 62
3
 10
1.6235593E+002
 20
2.8350003E+002
 40
2.0
  1
EC
 41
7.925E-001
  0
TEXT
  8
1
  6
CONTINUOUS
 62
3
 10
1.6759302E+002
 20
2.8716838E+002
 40
2.0
  1
Aend.
 41
8.0E-001
  0
TEXT
  8
1
  6
CONTINUOUS
 62
3
 10
1.7796625E+002
 20
2.8715002E+002
 40
2.0
  1
Masse/E
 41
7.925E-001
  0
TEXT
  8
1
  6
CONTINUOUS
 62
3
 10
1.2262052E+002
 20
2.8350003E+002
 40
2.0
  1
Ident-Nummer
 41
7.925E-001
  0
TEXT
  8
1
  6
CONTINUOUS
 62
3
 10
5.6489449E+001
 20
2.8350003E+002
 40
2.0
  1
Text
 41
7.925E-001
  0
TEXT
  8
1
  6
CONTINUOUS
 62
3
 10
4.343354E+001
 20
2.8350003E+002
 40
2.0
  1
Pos.-Nr.
 41
6.0E-001
  0
TEXT
  8
1
  6
CONTINUOUS
 62
3
 10
1.8364273E+002
 20
2.8040002E+002
 40
2.0
  1
II
 41
7.5E-001
  0
TEXT
  8
1
  6
CONTINUOUS
 62
3
 10
1.9726633E+002
 20
2.8350003E+002
 40
2.0
  1
III
 41
7.5E-001
  0
TEXT
  8
1
  6
CONTINUOUS
 62
3
 10
8.58746
 20
8.773347
 40
1.7
  1
Fuer diese Unterlage behalten wir uns alle Rechte, auch fuer den Fall der Patent-
 41
6.8E-001
 50
9.0000003E+001
  0
TEXT
  8
1
  6
CONTINUOUS
 62
3
 10
1.1408791E+001
 20
8.3925096
 40
1.7
  1
erteilung und der Eintragung eines anderen gewerblichen Schutzrechtes, vor.
 41
6.8E-001
 50
9.0000003E+001
  0
TEXT
  8
1
  6
CONTINUOUS
 62
3
 10
1.4298791E+001
 20
8.3925096
 40
1.7
  1
Missbraeuchliche Verwendung, wie insbesondere Vervielfaeltigung und Weitergabe an
 41
6.8E-001
 50
9.0000003E+001
  0
TEXT
  8
1
  6
CONTINUOUS
 62
3
 10
1.7188792E+001
 20
8.3925096
 40
1.7
  1
Dritte ist nicht gestattet: sie kann zivil- und strafrechtlich geahndet werden.
 41
6.8E-001
 50
9.0000003E+001
  0
TEXT
  8
1
  6
CONTINUOUS
 62
3
 10
1.0199852E+001
 20
2.0239064E+002
 40
2.0
  1
ISO 2768
 41
8.0E-001
 50
9.0000003E+001
  0
POLYLINE
  8
1
  6
CONTINUOUS
 62
6
 66
1
 40
7.0E-001
 41
7.0E-001
 70
0
  0
VERTEX
  8
1
 42
0.0
 10
1.8999985E+001
 20
3.1E+001
 70
0
  0
VERTEX
  8
1
 42
0.0
 10
2.05E+002
 20
3.1E+001
 70
0
  0
SEQEND
  0
POLYLINE
  8
1
  6
CONTINUOUS
 62
6
 66
1
 40
7.0E-001
 41
7.0E-001
 70
0
  0
VERTEX
  8
1
 42
0.0
 10
1.8999985E+001
 20
1.4E+001
 70
0
  0
VERTEX
  8
1
 42
0.0
 10
5.85E+001
 20
1.4E+001
 70
0
  0
SEQEND
  0
LINE
  8
1
  6
CONTINUOUS
 62
6
 10
2.4499985E+001
 20
3.1E+001
 11
2.4499985E+001
 21
1.4E+001
  0
TEXT
  8
1
  6
CONTINUOUS
 62
3
 10
2.2718704E+001
 20
1.9207314E+001
 40
2.0
  1
Aend.
 41
5.0E-001
 50
9.0000003E+001
  0
LINE
  8
1
  6
CONTINUOUS
 62
6
 10
2.4499985E+001
 20
2.675E+001
 11
5.85E+001
 21
2.675E+001
  0
POLYLINE
  8
1
  6
CONTINUOUS
 62
6
 66
1
 40
5.0E-001
 41
5.0E-001
 70
0
  0
VERTEX
  8
1
 42
0.0
 10
1.465E+002
 20
2.675E+001
 70
0
  0
VERTEX
  8
1
 42
0.0
 10
2.05E+002
 20
2.675E+001
 70
0
  0
SEQEND
  0
POLYLINE
  8
1
  6
CONTINUOUS
 62
1
 66
1
 40
1.0E-003
 41
1.0E-003
 70
0
  0
VERTEX
  8
1
 42
0.0
 10
1.75E+002
 20
3.1E+001
 70
0
  0
VERTEX
  8
1
 42
0.0
 10
1.75E+002
 20
2.25E+001
 70
0
  0
SEQEND
  0
POLYLINE
  8
1
  6
CONTINUOUS
 62
6
 66
1
 40
7.0E-001
 41
7.0E-001
 70
0
  0
VERTEX
  8
1
 42
0.0
 10
1.465E+002
 20
3.1E+001
 70
0
  0
VERTEX
  8
1
 42
0.0
 10
1.465E+002
 20
5.5
 70
0
  0
SEQEND
  0
POLYLINE
  8
1
  6
CONTINUOUS
 62
6
 66
1
 40
7.0E-001
 41
7.0E-001
 70
0
  0
VERTEX
  8
1
 42
0.0
 10
1.35E+002
 20
3.0795013E+001
 70
0
  0
VERTEX
  8
1
 42
0.0
 10
1.35E+002
 20
1.4E+001
 70
0
  0
SEQEND
  0
POLYLINE
  8
1
  6
CONTINUOUS
 62
6
 66
1
 40
7.0E-001
 41
7.0E-001
 70
0
  0
VERTEX
  8
1
 42
0.0
 10
9.75E+001
 20
3.1E+001
 70
0
  0
VERTEX
  8
1
 42
0.0
 10
9.75E+001
 20
1.4E+001
 70
0
  0
SEQEND
  0
POLYLINE
  8
1
  6
CONTINUOUS
 62
6
 66
1
 40
7.0E-001
 41
7.0E-001
 70
0
  0
VERTEX
  8
1
 42
0.0
 10
5.85E+001
 20
3.1E+001
 70
0
  0
VERTEX
  8
1
 42
0.0
 10
5.85E+001
 20
1.4E+001
 70
0
  0
SEQEND
  0
POLYLINE
  8
1
  6
CONTINUOUS
 62
6
 66
1
 40
5.0E-001
 41
5.0E-001
 70
0
  0
VERTEX
  8
1
 42
0.0
 10
5.85E+001
 20
2.25E+001
 70
0
  0
VERTEX
  8
1
 42
0.0
 10
1.35E+002
 20
2.25E+001
 70
0
  0
SEQEND
  0
POLYLINE
  8
1
  6
CONTINUOUS
 62
6
 66
1
 40
5.0E-001
 41
5.0E-001
 70
0
  0
VERTEX
  8
1
 42
0.0
 10
5.85E+001
 20
1.825E+001
 70
0
  0
VERTEX
  8
1
 42
0.0
 10
1.35E+002
 20
1.825E+001
 70
0
  0
SEQEND
  0
POLYLINE
  8
1
  6
CONTINUOUS
 62
6
 66
1
 40
7.0E-001
 41
7.0E-001
 70
0
  0
VERTEX
  8
1
 42
0.0
 10
5.85E+001
 20
1.4E+001
 70
0
  0
VERTEX
  8
1
 42
0.0
 10
2.05E+002
 20
1.4E+001
 70
0
  0
SEQEND
  0
POLYLINE
  8
1
  6
CONTINUOUS
 62
6
 66
1
 40
7.0E-001
 41
7.0E-001
 70
0
  0
VERTEX
  8
1
 42
0.0
 10
1.35E+002
 20
2.25E+001
 70
0
  0
VERTEX
  8
1
 42
0.0
 10
2.05E+002
 20
2.25E+001
 70
0
  0
SEQEND
  0
POLYLINE
  8
1
  6
CONTINUOUS
 62
6
 66
1
 40
7.0E-001
 41
7.0E-001
 70
0
  0
VERTEX
  8
1
 42
0.0
 10
1.58E+002
 20
2.25E+001
 70
0
  0
VERTEX
  8
1
 42
0.0
 10
1.58E+002
 20
1.4E+001
 70
0
  0
SEQEND
  0
POLYLINE
  8
1
  6
CONTINUOUS
 62
110
 66
1
 40
7.0E-001
 41
7.0E-001
 70
0
  0
VERTEX
  8
1
 42
0.0
 10
1.68E+002
 20
2.25E+001
 70
0
  0
VERTEX
  8
1
 42
0.0
 10
1.68E+002
 20
1.4E+001
 70
0
  0
SEQEND
  0
POLYLINE
  8
1
  6
CONTINUOUS
 62
110
 66
1
 40
7.0E-001
 41
7.0E-001
 70
0
  0
VERTEX
  8
1
 42
0.0
 10
1.795E+002
 20
2.25E+001
 70
0
  0
VERTEX
  8
1
 42
0.0
 10
1.795E+002
 20
1.4E+001
 70
0
  0
SEQEND
  0
POLYLINE
  8
1
  6
CONTINUOUS
 62
110
 66
1
 40
7.0E-001
 41
7.0E-001
 70
0
  0
VERTEX
  8
1
 42
0.0
 10
1.915E+002
 20
2.25E+001
 70
0
  0
VERTEX
  8
1
 42
0.0
 10
1.915E+002
 20
1.4E+001
 70
0
  0
SEQEND
  0
LINE
  8
1
  6
HIDDEN
 62
6
 10
1.465E+002
 20
7.0
 11
2.05E+002
 21
7.0
  0
LINE
  8
1
  6
CONTINUOUS
 62
6
 10
2.4499985E+001
 20
2.25E+001
 11
5.85E+001
 21
2.25E+001
  0
LINE
  8
1
  6
CONTINUOUS
 62
6
 10
2.4499985E+001
 20
1.825E+001
 11
5.85E+001
 21
1.825E+001
  0
POLYLINE
  8
1
  6
CONTINUOUS
 62
6
 66
1
 40
5.0E-001
 41
5.0E-001
 70
0
  0
VERTEX
  8
1
 42
0.0
 10
5.85E+001
 20
2.675E+001
 70
0
  0
VERTEX
  8
1
 42
0.0
 10
1.35E+002
 20
2.675E+001
 70
0
  0
SEQEND
  0
POLYLINE
  8
1
  6
CONTINUOUS
 62
6
 66
1
 40
7.0E-001
 41
7.0E-001
 70
0
  0
VERTEX
  8
1
 42
0.0
 10
3.3999985E+001
 20
1.4E+001
 70
0
  0
VERTEX
  8
1
 42
0.0
 10
3.3999985E+001
 20
5.5
 70
0
  0
SEQEND
  0
POLYLINE
  8
1
  6
HIDDEN
 62
3
 66
1
 40
1.0E-003
 41
1.0E-003
 70
0
  0
VERTEX
  8
1
 42
0.0
 10
1.5225E+002
 20
1.825E+001
 70
0
  0
VERTEX
  8
1
 42
0.0
 10
1.5225E+002
 20
1.4E+001
 70
0
  0
SEQEND
  0
POLYLINE
  8
1
  6
HIDDEN
 62
3
 66
1
 40
1.0E-003
 41
1.0E-003
 70
0
  0
VERTEX
  8
1
 42
0.0
 10
1.63E+002
 20
1.825E+001
 70
0
  0
VERTEX
  8
1
 42
0.0
 10
1.63E+002
 20
1.4E+001
 70
0
  0
SEQEND
  0
POLYLINE
  8
1
  6
CONTINUOUS
 62
3
 66
1
 40
1.0E-003
 41
1.0E-003
 70
0
  0
VERTEX
  8
1
 42
0.0
 10
1.7079001E+002
 20
2.7410446E+001
 70
0
  0
VERTEX
  8
1
 42
0.0
 10
1.7079001E+002
 20
3.0034676E+001
 70
0
  0
SEQEND
  0
POLYLINE
  8
1
  6
CONTINUOUS
 62
3
 66
1
 40
1.0E-003
 41
1.0E-003
 70
0
  0
VERTEX
  8
1
 42
0.0
 10
1.7079001E+002
 20
3.0034676E+001
 70
0
  0
VERTEX
  8
1
 42
0.0
 10
1.7397659E+002
 20
3.0034676E+001
 70
0
  0
SEQEND
  0
POLYLINE
  8
1
  6
CONTINUOUS
 62
3
 66
1
 40
1.0E-003
 41
1.0E-003
 70
0
  0
VERTEX
  8
1
 42
0.0
 10
1.7397659E+002
 20
3.0034676E+001
 70
0
  0
VERTEX
  8
1
 42
0.0
 10
1.7397659E+002
 20
2.7410446E+001
 70
0
  0
SEQEND
  0
POLYLINE
  8
1
  6
CONTINUOUS
 62
3
 66
1
 40
1.0E-003
 41
1.0E-003
 70
0
  0
VERTEX
  8
1
 42
0.0
 10
1.7397659E+002
 20
2.7410446E+001
 70
0
  0
VERTEX
  8
1
 42
0.0
 10
1.7079001E+002
 20
2.7410446E+001
 70
0
  0
SEQEND
  0
POLYLINE
  8
1
  6
CONTINUOUS
 62
3
 66
1
 40
1.0E-003
 41
1.0E-003
 70
0
  0
VERTEX
  8
1
 42
0.0
 10
2.0079001E+002
 20
2.7410446E+001
 70
0
  0
VERTEX
  8
1
 42
0.0
 10
2.0079001E+002
 20
3.0034676E+001
 70
0
  0
SEQEND
  0
POLYLINE
  8
1
  6
CONTINUOUS
 62
3
 66
1
 40
1.0E-003
 41
1.0E-003
 70
0
  0
VERTEX
  8
1
 42
0.0
 10
2.0079001E+002
 20
3.0034676E+001
 70
0
  0
VERTEX
  8
1
 42
0.0
 10
2.0397659E+002
 20
3.0034676E+001
 70
0
  0
SEQEND
  0
POLYLINE
  8
1
  6
CONTINUOUS
 62
3
 66
1
 40
1.0E-003
 41
1.0E-003
 70
0
  0
VERTEX
  8
1
 42
0.0
 10
2.0397659E+002
 20
3.0034676E+001
 70
0
  0
VERTEX
  8
1
 42
0.0
 10
2.0397659E+002
 20
2.7410446E+001
 70
0
  0
SEQEND
  0
POLYLINE
  8
1
  6
CONTINUOUS
 62
3
 66
1
 40
1.0E-003
 41
1.0E-003
 70
0
  0
VERTEX
  8
1
 42
0.0
 10
2.0397659E+002
 20
2.7410446E+001
 70
0
  0
VERTEX
  8
1
 42
0.0
 10
2.0079001E+002
 20
2.7410446E+001
 70
0
  0
SEQEND
  0
POLYLINE
  8
1
  6
CONTINUOUS
 62
3
 66
1
 40
1.0E-003
 41
1.0E-003
 70
0
  0
VERTEX
  8
1
 42
0.0
 10
1.7079001E+002
 20
2.3160446E+001
 70
0
  0
VERTEX
  8
1
 42
0.0
 10
1.7079001E+002
 20
2.5784676E+001
 70
0
  0
SEQEND
  0
POLYLINE
  8
1
  6
CONTINUOUS
 62
3
 66
1
 40
1.0E-003
 41
1.0E-003
 70
0
  0
VERTEX
  8
1
 42
0.0
 10
1.7079001E+002
 20
2.5784676E+001
 70
0
  0
VERTEX
  8
1
 42
0.0
 10
1.7397659E+002
 20
2.5784676E+001
 70
0
  0
SEQEND
  0
POLYLINE
  8
1
  6
CONTINUOUS
 62
3
 66
1
 40
1.0E-003
 41
1.0E-003
 70
0
  0
VERTEX
  8
1
 42
0.0
 10
1.7397659E+002
 20
2.5784676E+001
 70
0
  0
VERTEX
  8
1
 42
0.0
 10
1.7397659E+002
 20
2.3160446E+001
 70
0
  0
SEQEND
  0
POLYLINE
  8
1
  6
CONTINUOUS
 62
3
 66
1
 40
1.0E-003
 41
1.0E-003
 70
0
  0
VERTEX
  8
1
 42
0.0
 10
1.7397659E+002
 20
2.3160446E+001
 70
0
  0
VERTEX
  8
1
 42
0.0
 10
1.7079001E+002
 20
2.3160446E+001
 70
0
  0
SEQEND
  0
LINE
  8
1
  6
CONTINUOUS
 62
6
 10
3.1499985E+001
 20
3.1E+001
 11
3.1499985E+001
 21
1.4E+001
  0
POLYLINE
  8
1
  6
CONTINUOUS
 62
3
 66
1
 40
1.0E-003
 41
1.0E-003
 70
0
  0
VERTEX
  8
1
 42
0.0
 10
1.3877496E+002
 20
2.025E+001
 70
0
  0
VERTEX
  8
1
 42
0.0
 10
1.3877496E+002
 20
1.625E+001
 70
0
  0
SEQEND
  0
POLYLINE
  8
1
  6
CONTINUOUS
 62
3
 66
1
 40
1.0E-003
 41
1.0E-003
 70
0
  0
VERTEX
  8
1
 42
0.0
 10
1.3601489E+002
 20
1.925E+001
 70
0
  0
VERTEX
  8
1
 42
0.0
 10
1.3601489E+002
 20
1.725E+001
 70
0
  0
SEQEND
  0
POLYLINE
  8
1
  6
CONTINUOUS
 62
3
 66
1
 40
1.0E-003
 41
1.0E-003
 70
0
  0
VERTEX
  8
1
 42
0.0
 10
1.3601489E+002
 20
1.925E+001
 70
0
  0
VERTEX
  8
1
 42
0.0
 10
1.3877496E+002
 20
2.025E+001
 70
0
  0
SEQEND
  0
POLYLINE
  8
1
  6
CONTINUOUS
 62
3
 66
1
 40
1.0E-003
 41
1.0E-003
 70
0
  0
VERTEX
  8
1
 42
0.0
 10
1.3601489E+002
 20
1.725E+001
 70
0
  0
VERTEX
  8
1
 42
0.0
 10
1.3877496E+002
 20
1.625E+001
 70
0
  0
SEQEND
  0
POLYLINE
  8
1
  6
HIDDEN
 62
3
 66
1
 40
1.0E-003
 41
1.0E-003
 70
0
  0
VERTEX
  8
1
 42
0.0
 10
1.4252081E+002
 20
2.0649994E+001
 70
0
  0
VERTEX
  8
1
 42
0.0
 10
1.4252081E+002
 20
1.5849998E+001
 70
0
  0
SEQEND
  0
POLYLINE
  8
1
  6
HIDDEN
 62
3
 66
1
 40
1.0E-003
 41
1.0E-003
 70
0
  0
VERTEX
  8
1
 42
0.0
 10
1.4492081E+002
 20
1.825E+001
 70
0
  0
VERTEX
  8
1
 42
0.0
 10
1.3581775E+002
 20
1.825E+001
 70
0
  0
SEQEND
  0
TEXT
  8
1
  6
CONTINUOUS
 62
3
 10
5.9224213E+001
 20
2.3520981E+001
 40
2.0
  1
Ersatz fuer:
 41
6.0E-001
  0
TEXT
  8
1
  6
CONTINUOUS
 62
3
 10
5.9224213E+001
 20
1.9296745E+001
 40
2.0
  1
Ers. durch:
 41
6.5308091E-001
  0
TEXT
  8
1
  6
CONTINUOUS
 62
3
 10
5.9096191E+001
 20
1.4944511E+001
 40
2.0
  1
Zust. Stelle:
 41
6.3073385E-001
  0
TEXT
  8
1
  6
CONTINUOUS
 62
3
 10
9.8266327E+001
 20
2.7745209E+001
 40
2.0
  1
Ausgest.:
 41
6.0E-001
  0
TEXT
  8
1
  6
CONTINUOUS
 62
3
 10
9.8138336E+001
 20
2.3648987E+001
 40
2.0
  1
Geprueft:
 41
6.0E-001
  0
TEXT
  8
1
  6
CONTINUOUS
 62
3
 10
9.8138336E+001
 20
1.9424751E+001
 40
2.0
  1
Normgepr.:
 41
6.0E-001
  0
TEXT
  8
1
  6
CONTINUOUS
 62
3
 10
9.8138336E+001
 20
1.5072517E+001
 40
2.0
  1
Freigeg.:
 41
6.0E-001
  0
TEXT
  8
1
  6
CONTINUOUS
 62
3
 10
3.4718704E+001
 20
1.0957314E+001
 40
2.0
  1
Titel:
 41
5.9703E-001
  0
TEXT
  8
1
  6
CONTINUOUS
 62
3
 10
1.3619501E+002
 20
2.7965616E+001
 40
2.0
  1
Massstab
 41
6.0E-001
  0
TEXT
  8
1
  6
CONTINUOUS
 62
3
 10
1.7571872E+002
 20
2.7957314E+001
 40
2.0
  1
Sep.SL anderer Nr.
 41
6.0E-001
  0
TEXT
  8
1
  6
CONTINUOUS
 62
3
 10
1.4721872E+002
 20
1.9457314E+001
 40
2.0
  1
Dok.-Art
 41
6.0E-001
  0
TEXT
  8
1
  6
CONTINUOUS
 62
3
 10
1.5971872E+002
 20
1.9457314E+001
 40
2.0
  1
Format
 41
6.0E-001
  0
TEXT
  8
1
  6
CONTINUOUS
 62
3
 10
1.6971872E+002
 20
1.9457314E+001
 40
2.0
  1
Sprache
 41
6.0E-001
  0
TEXT
  8
1
  6
CONTINUOUS
 62
3
 10
1.8171872E+002
 20
1.9457314E+001
 40
2.0
  1
Bl. Nr.
 41
6.0E-001
  0
TEXT
  8
1
  6
CONTINUOUS
 62
3
 10
1.9221872E+002
 20
1.9457314E+001
 40
2.0
  1
Anz. Bl.
 41
6.0E-001
  0
TEXT
  8
1
  6
CONTINUOUS
 62
3
 10
1.4721872E+002
 20
2.7957314E+001
 40
2.0
  1
Sep.SL gleicher Nr.
 41
6.0E-001
  0
TEXT
  8
1
  6
CONTINUOUS
 62
3
 10
1.472323E+002
 20
2.3457428E+001
 40
2.0
  1
O
 41
6.3E-001
  0
TEXT
  8
1
  6
CONTINUOUS
 62
3
 10
1.486723E+002
 20
2.3457428E+001
 40
2.0
  1
hne sep. Stckl.:
 41
6.3727875E-001
  0
TEXT
  8
1
  6
CONTINUOUS
 62
6
 10
1.7570981E+002
 20
2.3817909E+001
 40
2.0
  1
 
 41
8.1E-001
  0
TEXT
  8
1
  6
CONTINUOUS
 62
3
 10
1.7603071E+002
 20
2.3683216E+001
 40
2.0
  1
Uebern. Stelle:
 41
6.0127615E-001
  0
TEXT
  8
1
  6
CONTINUOUS
 62
3
 10
1.595E+002
 20
1.5E+001
 40
2.5
  1
A
  0
TEXT
  8
1
  6
CONTINUOUS
 62
3
 10
1.645E+002
 20
1.5E+001
 40
2.5
  1
4
  0
TEXT
  8
1
  6
CONTINUOUS
 62
3
 10
1.7312595E+002
 20
1.5027565E+001
 40
2.5
  1
D
  0
TEXT
  8
1
  6
CONTINUOUS
 62
3
 10
1.8441553E+002
 20
1.5027565E+001
 40
2.5
  1
1
  0
TEXT
  8
1
  6
CONTINUOUS
 62
3
 10
1.9647238E+002
 20
1.5027565E+001
 40
2.5
  1
1
  0
TEXT
  8
1
  6
CONTINUOUS
 62
3
 10
5.9352203E+001
 20
2.7617203E+001
 40
2.0
  1
E
 41
6.3E-001
  0
TEXT
  8
1
  6
CONTINUOUS
 62
3
 10
6.0612213E+001
 20
2.7617203E+001
 40
2.0
  1
ntst. aus:
 41
6.09444E-001
  0
POLYLINE
  8
1
  6
CONTINUOUS
 62
3
 66
1
 40
1.0E-003
 41
1.0E-003
 70
0
  0
VERTEX
  8
1
 42
0.0
 10
2.0301865E+001
 20
7.3082472
 70
0
  0
VERTEX
  8
1
 42
0.0
 10
2.1426865E+001
 20
7.3082472
 70
0
  0
SEQEND
  0
POLYLINE
  8
1
  6
CONTINUOUS
 62
3
 66
1
 40
1.0E-003
 41
1.0E-003
 70
0
  0
VERTEX
  8
1
 42
0.0
 10
2.1426865E+001
 20
7.3082472
 70
0
  0
VERTEX
  8
1
 42
0.0
 10
2.1741867E+001
 20
8.2082449
 70
0
  0
SEQEND
  0
POLYLINE
  8
1
  6
CONTINUOUS
 62
3
 66
1
 40
1.0E-003
 41
1.0E-003
 70
0
  0
VERTEX
  8
1
 42
0.0
 10
2.1741867E+001
 20
8.2082449
 70
0
  0
VERTEX
  8
1
 42
0.0
 10
2.2356873E+001
 20
8.2082449
 70
0
  0
SEQEND
  0
POLYLINE
  8
1
  6
CONTINUOUS
 62
3
 66
1
 40
1.0E-003
 41
1.0E-003
 70
0
  0
VERTEX
  8
1
 42
0.0
 10
2.2356873E+001
 20
8.2082449
 70
0
  0
VERTEX
  8
1
 42
0.0
 10
2.2356873E+001
 20
9.3632456
 70
0
  0
SEQEND
  0
POLYLINE
  8
1
  6
CONTINUOUS
 62
3
 66
1
 40
1.0E-003
 41
1.0E-003
 70
0
  0
VERTEX
  8
1
 42
0.0
 10
2.2356873E+001
 20
9.3632456
 70
0
  0
VERTEX
  8
1
 42
0.0
 10
2.1073608E+001
 20
9.3632456
 70
0
  0
SEQEND
  0
POLYLINE
  8
1
  6
CONTINUOUS
 62
3
 66
1
 40
1.0E-003
 41
1.0E-003
 70
0
  0
VERTEX
  8
1
 42
0.0
 10
2.1073608E+001
 20
9.3632456
 70
0
  0
VERTEX
  8
1
 42
0.0
 10
2.0301865E+001
 20
7.3082472
 70
0
  0
SEQEND
  0
POLYLINE
  8
1
  6
CONTINUOUS
 62
3
 66
1
 40
1.0E-003
 41
1.0E-003
 70
0
  0
VERTEX
  8
1
 42
0.0
 10
2.4801865E+001
 20
7.3082472
 70
0
  0
VERTEX
  8
1
 42
0.0
 10
2.3676865E+001
 20
7.3082472
 70
0
  0
SEQEND
  0
POLYLINE
  8
1
  6
CONTINUOUS
 62
3
 66
1
 40
1.0E-003
 41
1.0E-003
 70
0
  0
VERTEX
  8
1
 42
0.0
 10
2.3676865E+001
 20
7.3082472
 70
0
  0
VERTEX
  8
1
 42
0.0
 10
2.3361862E+001
 20
8.2082449
 70
0
  0
SEQEND
  0
POLYLINE
  8
1
  6
CONTINUOUS
 62
3
 66
1
 40
1.0E-003
 41
1.0E-003
 70
0
  0
VERTEX
  8
1
 42
0.0
 10
2.3361862E+001
 20
8.2082449
 70
0
  0
VERTEX
  8
1
 42
0.0
 10
2.2746872E+001
 20
8.2082449
 70
0
  0
SEQEND
  0
POLYLINE
  8
1
  6
CONTINUOUS
 62
3
 66
1
 40
1.0E-003
 41
1.0E-003
 70
0
  0
VERTEX
  8
1
 42
0.0
 10
2.2746872E+001
 20
8.2082449
 70
0
  0
VERTEX
  8
1
 42
0.0
 10
2.2746872E+001
 20
9.3632456
 70
0
  0
SEQEND
  0
POLYLINE
  8
1
  6
CONTINUOUS
 62
3
 66
1
 40
1.0E-003
 41
1.0E-003
 70
0
  0
VERTEX
  8
1
 42
0.0
 10
2.2746872E+001
 20
9.3632456
 70
0
  0
VERTEX
  8
1
 42
0.0
 10
2.4030121E+001
 20
9.3632456
 70
0
  0
SEQEND
  0
POLYLINE
  8
1
  6
CONTINUOUS
 62
3
 66
1
 40
1.0E-003
 41
1.0E-003
 70
0
  0
VERTEX
  8
1
 42
0.0
 10
2.4030121E+001
 20
9.3632456
 70
0
  0
VERTEX
  8
1
 42
0.0
 10
2.4801865E+001
 20
7.3082472
 70
0
  0
SEQEND
  0
POLYLINE
  8
1
  6
CONTINUOUS
 62
3
 66
1
 40
1.0E-003
 41
1.0E-003
 70
0
  0
VERTEX
  8
1
 42
0.0
 10
2.2356873E+001
 20
9.753245
 70
0
  0
VERTEX
  8
1
 42
0.0
 10
2.1105118E+001
 20
9.753245
 70
0
  0
SEQEND
  0
POLYLINE
  8
1
  6
CONTINUOUS
 62
3
 66
1
 40
1.0E-003
 41
1.0E-003
 70
0
  0
VERTEX
  8
1
 42
0.0
 10
2.2356873E+001
 20
1.1808243E+001
 70
0
  0
VERTEX
  8
1
 42
0.0
 10
2.2356873E+001
 20
9.753245
 70
0
  0
SEQEND
  0
POLYLINE
  8
1
  6
CONTINUOUS
 62
3
 66
1
 40
1.0E-003
 41
1.0E-003
 70
0
  0
VERTEX
  8
1
 42
0.0
 10
2.2356873E+001
 20
1.1808243E+001
 70
0
  0
VERTEX
  8
1
 42
0.0
 10
2.1876862E+001
 20
1.1808243E+001
 70
0
  0
SEQEND
  0
POLYLINE
  8
1
  6
CONTINUOUS
 62
3
 66
1
 40
1.0E-003
 41
1.0E-003
 70
0
  0
VERTEX
  8
1
 42
0.0
 10
2.1876862E+001
 20
1.1808243E+001
 70
0
  0
VERTEX
  8
1
 42
0.0
 10
2.1105118E+001
 20
9.753245
 70
0
  0
SEQEND
  0
POLYLINE
  8
1
  6
CONTINUOUS
 62
3
 66
1
 40
1.0E-003
 41
1.0E-003
 70
0
  0
VERTEX
  8
1
 42
0.0
 10
2.2746872E+001
 20
9.753245
 70
0
  0
VERTEX
  8
1
 42
0.0
 10
2.3998611E+001
 20
9.753245
 70
0
  0
SEQEND
  0
POLYLINE
  8
1
  6
CONTINUOUS
 62
3
 66
1
 40
1.0E-003
 41
1.0E-003
 70
0
  0
VERTEX
  8
1
 42
0.0
 10
2.2746872E+001
 20
1.1808243E+001
 70
0
  0
VERTEX
  8
1
 42
0.0
 10
2.2746872E+001
 20
9.753245
 70
0
  0
SEQEND
  0
POLYLINE
  8
1
  6
CONTINUOUS
 62
3
 66
1
 40
1.0E-003
 41
1.0E-003
 70
0
  0
VERTEX
  8
1
 42
0.0
 10
2.2746872E+001
 20
1.1808243E+001
 70
0
  0
VERTEX
  8
1
 42
0.0
 10
2.3226868E+001
 20
1.1808243E+001
 70
0
  0
SEQEND
  0
POLYLINE
  8
1
  6
CONTINUOUS
 62
3
 66
1
 40
1.0E-003
 41
1.0E-003
 70
0
  0
VERTEX
  8
1
 42
0.0
 10
2.3226868E+001
 20
1.1808243E+001
 70
0
  0
VERTEX
  8
1
 42
0.0
 10
2.3998611E+001
 20
9.753245
 70
0
  0
SEQEND
  0
POLYLINE
  8
1
  6
CONTINUOUS
 62
3
 66
1
 40
1.0E-003
 41
1.0E-003
 70
0
  0
VERTEX
  8
1
 42
0.0
 10
2.5116867E+001
 20
9.3632456
 70
0
  0
VERTEX
  8
1
 42
0.0
 10
2.5116867E+001
 20
7.3082472
 70
0
  0
SEQEND
  0
POLYLINE
  8
1
  6
CONTINUOUS
 62
3
 66
1
 40
1.0E-003
 41
1.0E-003
 70
0
  0
VERTEX
  8
1
 42
0.0
 10
2.5116867E+001
 20
7.3082472
 70
0
  0
VERTEX
  8
1
 42
0.0
 10
2.6271881E+001
 20
7.3082472
 70
0
  0
SEQEND
  0
POLYLINE
  8
1
  6
CONTINUOUS
 62
3
 66
1
 40
1.0E-003
 41
1.0E-003
 70
0
  0
VERTEX
  8
1
 42
0.0
 10
2.6271881E+001
 20
9.3632456
 70
0
  0
VERTEX
  8
1
 42
0.0
 10
2.6271881E+001
 20
7.3082472
 70
0
  0
SEQEND
  0
POLYLINE
  8
1
  6
CONTINUOUS
 62
3
 66
1
 40
1.0E-003
 41
1.0E-003
 70
0
  0
VERTEX
  8
1
 42
0.0
 10
2.5116867E+001
 20
9.3632456
 70
0
  0
VERTEX
  8
1
 42
0.0
 10
2.6271881E+001
 20
9.3632456
 70
0
  0
SEQEND
  0
POLYLINE
  8
1
  6
CONTINUOUS
 62
3
 66
1
 40
1.0E-003
 41
1.0E-003
 70
0
  0
VERTEX
  8
1
 42
0.0
 10
2.5116867E+001
 20
9.753245
 70
0
  0
VERTEX
  8
1
 42
0.0
 10
2.6271881E+001
 20
9.753245
 70
0
  0
SEQEND
  0
POLYLINE
  8
1
  6
CONTINUOUS
 62
3
 66
1
 40
1.0E-003
 41
1.0E-003
 70
0
  0
VERTEX
  8
1
 42
0.0
 10
2.5116867E+001
 20
1.1808243E+001
 70
0
  0
VERTEX
  8
1
 42
0.0
 10
2.5116867E+001
 20
9.753245
 70
0
  0
SEQEND
  0
POLYLINE
  8
1
  6
CONTINUOUS
 62
3
 66
1
 40
1.0E-003
 41
1.0E-003
 70
0
  0
VERTEX
  8
1
 42
0.0
 10
2.5116867E+001
 20
1.1808243E+001
 70
0
  0
VERTEX
  8
1
 42
0.0
 10
2.6271881E+001
 20
1.1808243E+001
 70
0
  0
SEQEND
  0
POLYLINE
  8
1
  6
CONTINUOUS
 62
3
 66
1
 40
1.0E-003
 41
1.0E-003
 70
0
  0
VERTEX
  8
1
 42
0.0
 10
2.6271881E+001
 20
1.1808243E+001
 70
0
  0
VERTEX
  8
1
 42
0.0
 10
2.6271881E+001
 20
9.753245
 70
0
  0
SEQEND
  0
POLYLINE
  8
1
  6
CONTINUOUS
 62
3
 66
1
 40
1.0E-003
 41
1.0E-003
 70
0
  0
VERTEX
  8
1
 42
0.0
 10
2.6661865E+001
 20
9.3632456
 70
0
  0
VERTEX
  8
1
 42
0.0
 10
2.6661865E+001
 20
7.3082472
 70
0
  0
SEQEND
  0
POLYLINE
  8
1
  6
CONTINUOUS
 62
3
 66
1
 40
1.0E-003
 41
1.0E-003
 70
0
  0
VERTEX
  8
1
 42
0.0
 10
2.6661865E+001
 20
7.3082472
 70
0
  0
VERTEX
  8
1
 42
0.0
 10
2.691687E+001
 20
7.3082472
 70
0
  0
SEQEND
  0
POLYLINE
  8
1
  6
CONTINUOUS
 62
3
 66
1
 40
1.0E-003
 41
1.0E-003
 70
0
  0
VERTEX
  8
1
 42
0.0
 10
2.6661865E+001
 20
9.3632456
 70
0
  0
VERTEX
  8
1
 42
0.0
 10
2.8068161E+001
 20
9.3632456
 70
0
  0
SEQEND
  0
POLYLINE
  8
1
  6
CONTINUOUS
 62
3
 66
1
 40
1.0E-003
 41
1.0E-003
 70
0
  0
VERTEX
  8
1
 42
0.0
 10
2.6661865E+001
 20
1.1808243E+001
 70
0
  0
VERTEX
  8
1
 42
0.0
 10
2.6661865E+001
 20
9.753245
 70
0
  0
SEQEND
  0
POLYLINE
  8
1
  6
CONTINUOUS
 62
3
 66
1
 40
1.0E-003
 41
1.0E-003
 70
0
  0
VERTEX
  8
1
 42
0.0
 10
2.6661865E+001
 20
9.753245
 70
0
  0
VERTEX
  8
1
 42
0.0
 10
2.7706482E+001
 20
9.753245
 70
0
  0
SEQEND
  0
POLYLINE
  8
1
  6
CONTINUOUS
 62
3
 66
1
 40
1.0E-003
 41
1.0E-003
 70
0
  0
VERTEX
  8
1
 42
0.0
 10
2.6661865E+001
 20
1.1808243E+001
 70
0
  0
VERTEX
  8
1
 42
0.0
 10
2.691687E+001
 20
1.1808243E+001
 70
0
  0
SEQEND
  0
POLYLINE
  8
1
  6
CONTINUOUS
 62
3
 66
1
 40
1.0E-003
 41
1.0E-003
 70
0
  0
VERTEX
  8
1
 42
0.0
 10
2.8626862E+001
 20
9.3632456
 70
0
  0
VERTEX
  8
1
 42
0.0
 10
2.8626862E+001
 20
7.3082472
 70
0
  0
SEQEND
  0
POLYLINE
  8
1
  6
CONTINUOUS
 62
3
 66
1
 40
1.0E-003
 41
1.0E-003
 70
0
  0
VERTEX
  8
1
 42
0.0
 10
2.8626862E+001
 20
7.3082472
 70
0
  0
VERTEX
  8
1
 42
0.0
 10
2.9781876E+001
 20
7.3082472
 70
0
  0
SEQEND
  0
POLYLINE
  8
1
  6
CONTINUOUS
 62
3
 66
1
 40
1.0E-003
 41
1.0E-003
 70
0
  0
VERTEX
  8
1
 42
0.0
 10
2.9781876E+001
 20
9.3632456
 70
0
  0
VERTEX
  8
1
 42
0.0
 10
2.9781876E+001
 20
7.3082472
 70
0
  0
SEQEND
  0
POLYLINE
  8
1
  6
CONTINUOUS
 62
3
 66
1
 40
1.0E-003
 41
1.0E-003
 70
0
  0
VERTEX
  8
1
 42
0.0
 10
2.8626862E+001
 20
9.3632456
 70
0
  0
VERTEX
  8
1
 42
0.0
 10
2.9781876E+001
 20
9.3632456
 70
0
  0
SEQEND
  0
POLYLINE
  8
1
  6
CONTINUOUS
 62
3
 66
1
 40
1.0E-003
 41
1.0E-003
 70
0
  0
VERTEX
  8
1
 42
0.0
 10
2.8626862E+001
 20
1.1808243E+001
 70
0
  0
VERTEX
  8
1
 42
0.0
 10
2.8626862E+001
 20
9.753245
 70
0
  0
SEQEND
  0
POLYLINE
  8
1
  6
CONTINUOUS
 62
3
 66
1
 40
1.0E-003
 41
1.0E-003
 70
0
  0
VERTEX
  8
1
 42
0.0
 10
2.8626862E+001
 20
9.753245
 70
0
  0
VERTEX
  8
1
 42
0.0
 10
2.9781876E+001
 20
9.753245
 70
0
  0
SEQEND
  0
POLYLINE
  8
1
  6
CONTINUOUS
 62
3
 66
1
 40
1.0E-003
 41
1.0E-003
 70
0
  0
VERTEX
  8
1
 42
0.0
 10
2.9781876E+001
 20
1.1808243E+001
 70
0
  0
VERTEX
  8
1
 42
0.0
 10
2.9781876E+001
 20
9.753245
 70
0
  0
SEQEND
  0
POLYLINE
  8
1
  6
CONTINUOUS
 62
3
 66
1
 40
1.0E-003
 41
1.0E-003
 70
0
  0
VERTEX
  8
1
 42
0.0
 10
2.8626862E+001
 20
1.1808243E+001
 70
0
  0
VERTEX
  8
1
 42
0.0
 10
2.9781876E+001
 20
1.1808243E+001
 70
0
  0
SEQEND
  0
POLYLINE
  8
1
  6
CONTINUOUS
 62
3
 66
1
 40
1.0E-003
 41
1.0E-003
 70
0
  0
VERTEX
  8
1
 42
0.0
 10
3.017186E+001
 20
9.3632456
 70
0
  0
VERTEX
  8
1
 42
0.0
 10
3.017186E+001
 20
7.3082472
 70
0
  0
SEQEND
  0
POLYLINE
  8
1
  6
CONTINUOUS
 62
3
 66
1
 40
1.0E-003
 41
1.0E-003
 70
0
  0
VERTEX
  8
1
 42
0.0
 10
3.017186E+001
 20
7.3082472
 70
0
  0
VERTEX
  8
1
 42
0.0
 10
3.0426865E+001
 20
7.3082472
 70
0
  0
SEQEND
  0
POLYLINE
  8
1
  6
CONTINUOUS
 62
3
 66
1
 40
1.0E-003
 41
1.0E-003
 70
0
  0
VERTEX
  8
1
 42
0.0
 10
3.017186E+001
 20
9.3632456
 70
0
  0
VERTEX
  8
1
 42
0.0
 10
3.1578156E+001
 20
9.3632456
 70
0
  0
SEQEND
  0
POLYLINE
  8
1
  6
CONTINUOUS
 62
3
 66
1
 40
1.0E-003
 41
1.0E-003
 70
0
  0
VERTEX
  8
1
 42
0.0
 10
3.017186E+001
 20
1.1808243E+001
 70
0
  0
VERTEX
  8
1
 42
0.0
 10
3.017186E+001
 20
9.753245
 70
0
  0
SEQEND
  0
POLYLINE
  8
1
  6
CONTINUOUS
 62
3
 66
1
 40
1.0E-003
 41
1.0E-003
 70
0
  0
VERTEX
  8
1
 42
0.0
 10
3.017186E+001
 20
9.753245
 70
0
  0
VERTEX
  8
1
 42
0.0
 10
3.1216476E+001
 20
9.753245
 70
0
  0
SEQEND
  0
POLYLINE
  8
1
  6
CONTINUOUS
 62
3
 66
1
 40
1.0E-003
 41
1.0E-003
 70
0
  0
VERTEX
  8
1
 42
0.0
 10
3.017186E+001
 20
1.1808243E+001
 70
0
  0
VERTEX
  8
1
 42
0.0
 10
3.0426865E+001
 20
1.1808243E+001
 70
0
  0
SEQEND
  0
INSERT
  2
XHXH1NEW02NEW00NEW00
  8
1
 10
2.1933228E+001
 20
1.1581771E+001
  0
POLYLINE
  8
1
  6
CONTINUOUS
 62
3
 66
1
 40
1.0E-003
 41
1.0E-003
 70
0
  0
VERTEX
  8
1
 42
1.0
 10
1.4452078E+002
 20
1.825E+001
 70
0
  0
VERTEX
  8
1
 42
1.0
 10
1.4052078E+002
 20
1.825E+001
 70
0
  0
VERTEX
  8
1
 42
0.0
 10
1.4452078E+002
 20
1.825E+001
 70
0
  0
SEQEND
  0
POLYLINE
  8
1
  6
CONTINUOUS
 62
3
 66
1
 40
1.0E-003
 41
1.0E-003
 70
0
  0
VERTEX
  8
1
 42
1.0
 10
1.4352078E+002
 20
1.825E+001
 70
0
  0
VERTEX
  8
1
 42
1.0
 10
1.4152078E+002
 20
1.825E+001
 70
0
  0
VERTEX
  8
1
 42
0.0
 10
1.4352078E+002
 20
1.825E+001
 70
0
  0
SEQEND
  0
POLYLINE
  8
1
  6
CONTINUOUS
 62
3
 66
1
 40
1.0E-003
 41
1.0E-003
 70
0
  0
VERTEX
  8
1
 42
5.8600137E-001
 10
2.691687E+001
 20
7.3082456
 70
0
  0
VERTEX
  8
1
 42
0.0
 10
2.8068163E+001
 20
9.3632459
 70
0
  0
SEQEND
  0
POLYLINE
  8
1
  6
CONTINUOUS
 62
3
 66
1
 40
1.0E-003
 41
1.0E-003
 70
0
  0
VERTEX
  8
1
 42
6.2051509E-002
 10
2.7706476E+001
 20
9.7532445
 70
0
  0
VERTEX
  8
1
 42
0.0
 10
2.7413674E+001
 20
9.9135089
 70
0
  0
SEQEND
  0
POLYLINE
  8
1
  6
CONTINUOUS
 62
3
 66
1
 40
1.0E-003
 41
1.0E-003
 70
0
  0
VERTEX
  8
1
 42
7.7160142E-001
 10
2.7413674E+001
 20
9.9135095
 70
0
  0
VERTEX
  8
1
 42
0.0
 10
2.691687E+001
 20
1.1808246E+001
 70
0
  0
SEQEND
  0
POLYLINE
  8
1
  6
CONTINUOUS
 62
3
 66
1
 40
1.0E-003
 41
1.0E-003
 70
0
  0
VERTEX
  8
1
 42
5.8600137E-001
 10
3.0426865E+001
 20
7.3082456
 70
0
  0
VERTEX
  8
1
 42
0.0
 10
3.1578157E+001
 20
9.3632459
 70
0
  0
SEQEND
  0
POLYLINE
  8
1
  6
CONTINUOUS
 62
3
 66
1
 40
1.0E-003
 41
1.0E-003
 70
0
  0
VERTEX
  8
1
 42
6.2051509E-002
 10
3.1216471E+001
 20
9.7532445
 70
0
  0
VERTEX
  8
1
 42
0.0
 10
3.0923669E+001
 20
9.9135089
 70
0
  0
SEQEND
  0
POLYLINE
  8
1
  6
CONTINUOUS
 62
3
 66
1
 40
1.0E-003
 41
1.0E-003
 70
0
  0
VERTEX
  8
1
 42
7.7160142E-001
 10
3.0923669E+001
 20
9.9135095
 70
0
  0
VERTEX
  8
1
 42
0.0
 10
3.0426865E+001
 20
1.1808246E+001
 70
0
  0
SEQEND
  0
POINT
  8
Drafting_Hidden_Entities
  6
CONTINUOUS
 62
1
 10
0.0
 20
0.0
  0
ENDBLK
  0
BLOCK
  2
*E1394
  3
*E1394
 10
1.3956059E+002
 20
1.9402578E+002
 70
65
  0
ARC
  8
1
  6
CONTINUOUS
 62
3
 10
1.3956059E+002
 20
1.9402578E+002
 40
1.0
 50
9.0E+001
 51
1.8E+002
  0
ENDBLK
  0
BLOCK
  2
*D1420
  3
*D
 10
0.0
 20
0.0
 70
65
  0
LINE
  8
1
  6
CONTINUOUS
 62
4
 10
6.7501758E+001
 20
1.9024588E+002
 11
6.7501758E+001
 21
2.1134158E+002
  0
LINE
  8
1
  6
CONTINUOUS
 62
4
 10
7.6601748E+001
 20
1.9024588E+002
 11
7.6601748E+001
 21
2.1134158E+002
  0
SOLID
  8
1
  6
CONTINUOUS
 62
0
 10
6.7501758E+001
 20
2.0984158E+002
 11
7.0501758E+001
 21
2.0934158E+002
 12
7.0501758E+001
 22
2.1034158E+002
 13
7.0501758E+001
 23
2.1034158E+002
  0
SOLID
  8
1
  6
CONTINUOUS
 62
0
 10
7.6601748E+001
 20
2.0984158E+002
 11
7.3601748E+001
 21
2.1034158E+002
 12
7.3601748E+001
 22
2.0934158E+002
 13
7.3601748E+001
 23
2.0934158E+002
  0
LINE
  8
1
  6
CONTINUOUS
 62
4
 10
6.7501758E+001
 20
2.0984158E+002
 11
7.0827788E+001
 21
2.0984158E+002
  0
LINE
  8
1
  6
CONTINUOUS
 62
4
 10
7.6601748E+001
 20
2.0984158E+002
 11
7.0827788E+001
 21
2.0984158E+002
  0
ENDBLK
  0
BLOCK
  2
*D1425
  3
*D
 10
0.0
 20
0.0
 70
65
  0
LINE
  8
1
  6
CONTINUOUS
 62
3
 10
9.7251738E+001
 20
1.7092568E+002
 11
9.7251738E+001
 21
1.6296733E+002
  0
LINE
  8
1
  6
CONTINUOUS
 62
3
 10
9.1251738E+001
 20
1.5372588E+002
 11
9.1251738E+001
 21
1.6596733E+002
  0
SOLID
  8
1
  6
CONTINUOUS
 62
0
 10
9.7251738E+001
 20
1.6446733E+002
 11
1.0025174E+002
 21
1.6396732E+002
 12
1.0025174E+002
 22
1.6496733E+002
 13
1.0025174E+002
 23
1.6496733E+002
  0
SOLID
  8
1
  6
CONTINUOUS
 62
0
 10
9.1251738E+001
 20
1.6446733E+002
 11
8.8251738E+001
 21
1.6496733E+002
 12
8.8251738E+001
 22
1.6396732E+002
 13
8.8251738E+001
 23
1.6396732E+002
  0
LINE
  8
1
  6
CONTINUOUS
 62
3
 10
1.0325174E+002
 20
1.6446733E+002
 11
9.7251738E+001
 21
1.6446733E+002
  0
LINE
  8
1
  6
CONTINUOUS
 62
3
 10
8.5251738E+001
 20
1.6446733E+002
 11
9.7251738E+001
 21
1.6446733E+002
  0
TEXT
  8
1
  6
CONTINUOUS
 62
3
 10
9.3160761E+001
 20
1.6596833E+002
 40
3.0
  1
6
 41
8.0E-001
 50
3.6E+002
 51
1.0
  0
ENDBLK
  0
BLOCK
  2
*D1427
  3
*D
 10
0.0
 20
0.0
 70
65
  0
LINE
  8
1
  6
CONTINUOUS
 62
4
 10
4.9301738E+001
 20
1.9024588E+002
 11
4.9301738E+001
 21
2.1134158E+002
  0
LINE
  8
1
  6
CONTINUOUS
 62
4
 10
3.8151738E+001
 20
1.9024588E+002
 11
3.8151738E+001
 21
2.1134158E+002
  0
SOLID
  8
1
  6
CONTINUOUS
 62
0
 10
4.9301738E+001
 20
2.0984158E+002
 11
4.6301738E+001
 21
2.1034158E+002
 12
4.6301738E+001
 22
2.0934158E+002
 13
4.6301738E+001
 23
2.0934158E+002
  0
SOLID
  8
1
  6
CONTINUOUS
 62
0
 10
3.8151738E+001
 20
2.0984158E+002
 11
4.1151738E+001
 21
2.0934158E+002
 12
4.1151738E+001
 22
2.1034158E+002
 13
4.1151738E+001
 23
2.1034158E+002
  0
LINE
  8
1
  6
CONTINUOUS
 62
4
 10
4.9301738E+001
 20
2.0984158E+002
 11
4.2827788E+001
 21
2.0984158E+002
  0
LINE
  8
1
  6
CONTINUOUS
 62
4
 10
3.8151738E+001
 20
2.0984158E+002
 11
4.2827788E+001
 21
2.0984158E+002
  0
ENDBLK
  0
BLOCK
  2
*D1441
  3
*D
 10
0.0
 20
0.0
 70
65
  0
LINE
  8
1
  6
CONTINUOUS
 62
4
 10
3.8151738E+001
 20
1.8874588E+002
 11
3.8151738E+001
 21
2.1134158E+002
  0
LINE
  8
1
  6
CONTINUOUS
 62
4
 10
2.9051738E+001
 20
1.8874588E+002
 11
2.9051738E+001
 21
2.1134158E+002
  0
SOLID
  8
1
  6
CONTINUOUS
 62
0
 10
3.8151738E+001
 20
2.0984158E+002
 11
3.5151738E+001
 21
2.1034158E+002
 12
3.5151738E+001
 22
2.0934158E+002
 13
3.5151738E+001
 23
2.0934158E+002
  0
SOLID
  8
1
  6
CONTINUOUS
 62
0
 10
2.9051738E+001
 20
2.0984158E+002
 11
3.2051738E+001
 21
2.0934158E+002
 12
3.2051738E+001
 22
2.1034158E+002
 13
3.2051738E+001
 23
2.1034158E+002
  0
LINE
  8
1
  6
CONTINUOUS
 62
4
 10
3.8151738E+001
 20
2.0984158E+002
 11
3.2827788E+001
 21
2.0984158E+002
  0
LINE
  8
1
  6
CONTINUOUS
 62
4
 10
2.9051738E+001
 20
2.0984158E+002
 11
3.2827788E+001
 21
2.0984158E+002
  0
ENDBLK
  0
BLOCK
  2
*D1447
  3
*D
 10
0.0
 20
0.0
 70
65
  0
LINE
  8
1
  6
CONTINUOUS
 62
4
 10
8.7501848E+001
 20
1.9567578E+002
 11
1.0086335E+002
 21
1.9567578E+002
  0
LINE
  8
1
  6
CONTINUOUS
 62
4
 10
8.7501848E+001
 20
2.0017578E+002
 11
1.0086335E+002
 21
2.0017578E+002
  0
SOLID
  8
1
  6
CONTINUOUS
 62
0
 10
9.9363353E+001
 20
1.9567578E+002
 11
9.8863349E+001
 21
1.9267578E+002
 12
9.9863357E+001
 22
1.9267578E+002
 13
9.9863357E+001
 23
1.9267578E+002
  0
SOLID
  8
1
  6
CONTINUOUS
 62
0
 10
9.9363353E+001
 20
2.0017578E+002
 11
9.9863357E+001
 21
2.0317578E+002
 12
9.8863349E+001
 22
2.0317578E+002
 13
9.8863349E+001
 23
2.0317578E+002
  0
LINE
  8
1
  6
CONTINUOUS
 62
4
 10
9.9363353E+001
 20
1.8967578E+002
 11
9.9363353E+001
 21
2.0017578E+002
  0
LINE
  8
1
  6
CONTINUOUS
 62
4
 10
9.9363353E+001
 20
2.0017578E+002
 11
9.9363353E+001
 21
2.1535503E+002
  0
ENDBLK
  0
BLOCK
  2
*D1449
  3
*D
 10
0.0
 20
0.0
 70
65
  0
LINE
  8
1
  6
CONTINUOUS
 62
4
 10
1.4206059E+002
 20
1.4467568E+002
 11
1.4206059E+002
 21
1.3034158E+002
  0
LINE
  8
1
  6
CONTINUOUS
 62
4
 10
1.3756059E+002
 20
1.4417568E+002
 11
1.3756059E+002
 21
1.3034158E+002
  0
SOLID
  8
1
  6
CONTINUOUS
 62
0
 10
1.4206059E+002
 20
1.3184158E+002
 11
1.4506059E+002
 21
1.3134158E+002
 12
1.4506059E+002
 22
1.3234158E+002
 13
1.4506059E+002
 23
1.3234158E+002
  0
SOLID
  8
1
  6
CONTINUOUS
 62
0
 10
1.3756059E+002
 20
1.3184158E+002
 11
1.3456059E+002
 21
1.3234158E+002
 12
1.3456059E+002
 22
1.3134158E+002
 13
1.3456059E+002
 23
1.3134158E+002
  0
LINE
  8
1
  6
CONTINUOUS
 62
4
 10
1.4206059E+002
 20
1.3184158E+002
 11
1.5454207E+002
 21
1.3184158E+002
  0
LINE
  8
1
  6
CONTINUOUS
 62
4
 10
1.3156059E+002
 20
1.3184158E+002
 11
1.4206059E+002
 21
1.3184158E+002
  0
ENDBLK
  0
BLOCK
  2
*D1451
  3
*D
 10
0.0
 20
0.0
 70
65
  0
LINE
  8
1
  6
CONTINUOUS
 62
4
 10
5.1791218E+001
 20
1.4424368E+002
 11
1.2605328E+002
 21
1.4424368E+002
  0
LINE
  8
1
  6
CONTINUOUS
 62
4
 10
8.7501848E+001
 20
2.0167578E+002
 11
1.2605328E+002
 21
2.0167578E+002
  0
SOLID
  8
1
  6
CONTINUOUS
 62
0
 10
1.2455328E+002
 20
1.4424368E+002
 11
1.2505328E+002
 21
1.4724368E+002
 12
1.2405327E+002
 22
1.4724368E+002
 13
1.2405327E+002
 23
1.4724368E+002
  0
SOLID
  8
1
  6
CONTINUOUS
 62
0
 10
1.2455328E+002
 20
2.0167578E+002
 11
1.2405327E+002
 21
1.9867578E+002
 12
1.2505328E+002
 22
1.9867578E+002
 13
1.2505328E+002
 23
1.9867578E+002
  0
LINE
  8
1
  6
CONTINUOUS
 62
4
 10
1.2455328E+002
 20
1.4424368E+002
 11
1.2455328E+002
 21
1.5670401E+002
  0
LINE
  8
1
  6
CONTINUOUS
 62
4
 10
1.2455328E+002
 20
2.0167578E+002
 11
1.2455328E+002
 21
1.5670401E+002
  0
ENDBLK
  0
BLOCK
  2
*D1453
  3
*D
 10
0.0
 20
0.0
 70
65
  0
LINE
  8
1
  6
CONTINUOUS
 62
4
 10
5.8401748E+001
 20
1.8874588E+002
 11
5.8401748E+001
 21
2.1134158E+002
  0
LINE
  8
1
  6
CONTINUOUS
 62
4
 10
6.7501758E+001
 20
1.8874588E+002
 11
6.7501758E+001
 21
2.1134158E+002
  0
SOLID
  8
1
  6
CONTINUOUS
 62
0
 10
5.8401748E+001
 20
2.0984158E+002
 11
6.1401748E+001
 21
2.0934158E+002
 12
6.1401748E+001
 22
2.1034158E+002
 13
6.1401748E+001
 23
2.1034158E+002
  0
SOLID
  8
1
  6
CONTINUOUS
 62
0
 10
6.7501758E+001
 20
2.0984158E+002
 11
6.4501758E+001
 21
2.1034158E+002
 12
6.4501758E+001
 22
2.0934158E+002
 13
6.4501758E+001
 23
2.0934158E+002
  0
LINE
  8
1
  6
CONTINUOUS
 62
4
 10
5.8401748E+001
 20
2.0984158E+002
 11
6.2827788E+001
 21
2.0984158E+002
  0
LINE
  8
1
  6
CONTINUOUS
 62
4
 10
6.7501758E+001
 20
2.0984158E+002
 11
6.2827788E+001
 21
2.0984158E+002
  0
ENDBLK
  0
BLOCK
  2
*D1456
  3
*D
 10
0.0
 20
0.0
 70
65
  0
LINE
  8
1
  6
CONTINUOUS
 62
4
 10
8.7501758E+001
 20
1.9300248E+002
 11
8.7501758E+001
 21
1.3034158E+002
  0
LINE
  8
1
  6
CONTINUOUS
 62
4
 10
5.2501718E+001
 20
1.4333448E+002
 11
5.2501718E+001
 21
1.3034158E+002
  0
SOLID
  8
1
  6
CONTINUOUS
 62
0
 10
8.7501758E+001
 20
1.3184158E+002
 11
8.4501758E+001
 21
1.3234158E+002
 12
8.4501758E+001
 22
1.3134158E+002
 13
8.4501758E+001
 23
1.3134158E+002
  0
SOLID
  8
1
  6
CONTINUOUS
 62
0
 10
5.2501718E+001
 20
1.3184158E+002
 11
5.5501718E+001
 21
1.3134158E+002
 12
5.5501718E+001
 22
1.3234158E+002
 13
5.5501718E+001
 23
1.3234158E+002
  0
LINE
  8
1
  6
CONTINUOUS
 62
4
 10
8.7501758E+001
 20
1.3184158E+002
 11
6.8827788E+001
 21
1.3184158E+002
  0
LINE
  8
1
  6
CONTINUOUS
 62
4
 10
5.2501718E+001
 20
1.3184158E+002
 11
6.8827788E+001
 21
1.3184158E+002
  0
TEXT
  8
1
  6
CONTINUOUS
 62
4
 10
6.6427788E+001
 20
1.3334258E+002
 40
3.0
  1
35
 41
8.0E-001
 50
3.6E+002
 51
1.0
  0
ENDBLK
  0
BLOCK
  2
*D1463
  3
*D
 10
0.0
 20
0.0
 70
65
  0
LINE
  8
1
  6
CONTINUOUS
 62
4
 10
4.9301738E+001
 20
1.8874588E+002
 11
4.9301738E+001
 21
2.1134158E+002
  0
LINE
  8
1
  6
CONTINUOUS
 62
4
 10
5.8401748E+001
 20
1.8874588E+002
 11
5.8401748E+001
 21
2.1134158E+002
  0
SOLID
  8
1
  6
CONTINUOUS
 62
0
 10
4.9301738E+001
 20
2.0984158E+002
 11
5.2301738E+001
 21
2.0934158E+002
 12
5.2301738E+001
 22
2.1034158E+002
 13
5.2301738E+001
 23
2.1034158E+002
  0
SOLID
  8
1
  6
CONTINUOUS
 62
0
 10
5.8401748E+001
 20
2.0984158E+002
 11
5.5401748E+001
 21
2.1034158E+002
 12
5.5401748E+001
 22
2.0934158E+002
 13
5.5401748E+001
 23
2.0934158E+002
  0
LINE
  8
1
  6
CONTINUOUS
 62
4
 10
4.9301738E+001
 20
2.0984158E+002
 11
5.2827788E+001
 21
2.0984158E+002
  0
LINE
  8
1
  6
CONTINUOUS
 62
4
 10
5.8401748E+001
 20
2.0984158E+002
 11
5.2827788E+001
 21
2.0984158E+002
  0
ENDBLK
  0
BLOCK
  2
*D1467
  3
*D
 10
0.0
 20
0.0
 70
65
  0
LINE
  8
1
  6
CONTINUOUS
 62
4
 10
9.2231868E+001
 20
1.9792578E+002
 11
1.1890041E+002
 21
1.9792578E+002
  0
LINE
  8
1
  6
CONTINUOUS
 62
4
 10
5.7633448E+001
 20
1.4792578E+002
 11
1.1890041E+002
 21
1.4792578E+002
  0
SOLID
  8
1
  6
CONTINUOUS
 62
0
 10
1.1740041E+002
 20
1.9792578E+002
 11
1.1690041E+002
 21
1.9492578E+002
 12
1.1790041E+002
 22
1.9492578E+002
 13
1.1790041E+002
 23
1.9492578E+002
  0
SOLID
  8
1
  6
CONTINUOUS
 62
0
 10
1.1740041E+002
 20
1.4792578E+002
 11
1.1790041E+002
 21
1.5092578E+002
 12
1.1690041E+002
 22
1.5092578E+002
 13
1.1690041E+002
 23
1.5092578E+002
  0
LINE
  8
1
  6
CONTINUOUS
 62
4
 10
1.1740041E+002
 20
1.9792578E+002
 11
1.1740041E+002
 21
1.7249993E+002
  0
LINE
  8
1
  6
CONTINUOUS
 62
4
 10
1.1740041E+002
 20
1.4792578E+002
 11
1.1740041E+002
 21
1.7249993E+002
  0
TEXT
  8
1
  6
CONTINUOUS
 62
4
 10
1.1589941E+002
 20
1.7009993E+002
 40
3.0
  1
50
 41
8.0E-001
 50
9.0E+001
 51
1.0
  0
ENDBLK
  0
BLOCK
  2
*E1475
  3
*E1475
 10
1.4156059E+002
 20
1.4467578E+002
 70
65
  0
ARC
  8
1
  6
CONTINUOUS
 62
3
 10
1.4156059E+002
 20
1.4467578E+002
 40
5.0E-001
 50
0.0
 51
9.0E+001
  0
ENDBLK
  0
BLOCK
  2
*D1482
  3
*D
 10
0.0
 20
0.0
 70
65
  0
LINE
  8
1
  6
CONTINUOUS
 62
4
 10
8.7501758E+001
 20
1.9300248E+002
 11
8.7501758E+001
 21
1.1434158E+002
  0
LINE
  8
1
  6
CONTINUOUS
 62
4
 10
4.2501728E+001
 20
1.4351178E+002
 11
4.2501728E+001
 21
1.1434158E+002
  0
SOLID
  8
1
  6
CONTINUOUS
 62
0
 10
8.7501758E+001
 20
1.1584158E+002
 11
8.4501758E+001
 21
1.1634158E+002
 12
8.4501758E+001
 22
1.1534158E+002
 13
8.4501758E+001
 23
1.1534158E+002
  0
SOLID
  8
1
  6
CONTINUOUS
 62
0
 10
4.2501728E+001
 20
1.1584158E+002
 11
4.5501728E+001
 21
1.1534158E+002
 12
4.5501728E+001
 22
1.1634158E+002
 13
4.5501728E+001
 23
1.1634158E+002
  0
LINE
  8
1
  6
CONTINUOUS
 62
4
 10
8.7501758E+001
 20
1.1584158E+002
 11
6.8827788E+001
 21
1.1584158E+002
  0
LINE
  8
1
  6
CONTINUOUS
 62
4
 10
4.2501728E+001
 20
1.1584158E+002
 11
6.8827788E+001
 21
1.1584158E+002
  0
TEXT
  8
1
  6
CONTINUOUS
 62
4
 10
6.6427788E+001
 20
1.1734258E+002
 40
3.0
  1
45
 41
8.0E-001
 50
3.6E+002
 51
1.0
  0
ENDBLK
  0
BLOCK
  2
*D1484
  3
*D
 10
0.0
 20
0.0
 70
65
  0
LINE
  8
1
  6
CONTINUOUS
 62
4
 10
7.6601748E+001
 20
1.8874588E+002
 11
7.6601748E+001
 21
2.1134158E+002
  0
LINE
  8
1
  6
CONTINUOUS
 62
4
 10
8.5701748E+001
 20
1.8874588E+002
 11
8.5701748E+001
 21
2.1134158E+002
  0
SOLID
  8
1
  6
CONTINUOUS
 62
0
 10
7.6601748E+001
 20
2.0984158E+002
 11
7.9601748E+001
 21
2.0934158E+002
 12
7.9601748E+001
 22
2.1034158E+002
 13
7.9601748E+001
 23
2.1034158E+002
  0
SOLID
  8
1
  6
CONTINUOUS
 62
0
 10
8.5701748E+001
 20
2.0984158E+002
 11
8.2701748E+001
 21
2.1034158E+002
 12
8.2701748E+001
 22
2.0934158E+002
 13
8.2701748E+001
 23
2.0934158E+002
  0
LINE
  8
1
  6
CONTINUOUS
 62
4
 10
7.6601748E+001
 20
2.0984158E+002
 11
8.0827788E+001
 21
2.0984158E+002
  0
LINE
  8
1
  6
CONTINUOUS
 62
4
 10
8.5701748E+001
 20
2.0984158E+002
 11
8.0827788E+001
 21
2.0984158E+002
  0
ENDBLK
  0
BLOCK
  2
*D1485
  3
*D
 10
0.0
 20
0.0
 70
65
  0
LINE
  8
1
  6
CONTINUOUS
 62
4
 10
4.7501718E+001
 20
1.4351178E+002
 11
4.7501718E+001
 21
1.2234158E+002
  0
LINE
  8
1
  6
CONTINUOUS
 62
4
 10
8.7501758E+001
 20
1.9300248E+002
 11
8.7501758E+001
 21
1.2234158E+002
  0
SOLID
  8
1
  6
CONTINUOUS
 62
0
 10
4.7501718E+001
 20
1.2384158E+002
 11
5.0501718E+001
 21
1.2334158E+002
 12
5.0501718E+001
 22
1.2434158E+002
 13
5.0501718E+001
 23
1.2434158E+002
  0
SOLID
  8
1
  6
CONTINUOUS
 62
0
 10
8.7501758E+001
 20
1.2384158E+002
 11
8.4501758E+001
 21
1.2434158E+002
 12
8.4501758E+001
 22
1.2334158E+002
 13
8.4501758E+001
 23
1.2334158E+002
  0
LINE
  8
1
  6
CONTINUOUS
 62
4
 10
4.7501718E+001
 20
1.2384158E+002
 11
6.8827788E+001
 21
1.2384158E+002
  0
LINE
  8
1
  6
CONTINUOUS
 62
4
 10
8.7501758E+001
 20
1.2384158E+002
 11
6.8827788E+001
 21
1.2384158E+002
  0
TEXT
  8
1
  6
CONTINUOUS
 62
4
 10
6.6427788E+001
 20
1.2534258E+002
 40
3.0
  1
40
 41
8.0E-001
 51
1.0
  0
ENDBLK
  0
BLOCK
  2
*D1507
  3
*D
 10
0.0
 20
0.0
 70
65
  0
LINE
  8
1
  6
CONTINUOUS
 62
4
 10
1.8601259E+002
 20
1.8562578E+002
 11
1.9732879E+002
 21
1.8562578E+002
  0
LINE
  8
1
  6
CONTINUOUS
 62
4
 10
1.8601259E+002
 20
1.6022578E+002
 11
1.9732879E+002
 21
1.6022578E+002
  0
SOLID
  8
1
  6
CONTINUOUS
 62
0
 10
1.9582879E+002
 20
1.8562578E+002
 11
1.9532878E+002
 21
1.8262578E+002
 12
1.9632879E+002
 22
1.8262578E+002
 13
1.9632879E+002
 23
1.8262578E+002
  0
SOLID
  8
1
  6
CONTINUOUS
 62
0
 10
1.9582879E+002
 20
1.6022578E+002
 11
1.9632879E+002
 21
1.6322578E+002
 12
1.9532878E+002
 22
1.6322578E+002
 13
1.9532878E+002
 23
1.6322578E+002
  0
LINE
  8
1
  6
CONTINUOUS
 62
4
 10
1.9582879E+002
 20
1.8562578E+002
 11
1.9582879E+002
 21
1.7284258E+002
  0
LINE
  8
1
  6
CONTINUOUS
 62
4
 10
1.9582879E+002
 20
1.6022578E+002
 11
1.9582879E+002
 21
1.7284258E+002
  0
ENDBLK
  0
BLOCK
  2
*E1595
  3
*E1595
 10
4.4551748E+001
 20
1.9322578E+002
 70
65
  0
ARC
  8
1
  6
CONTINUOUS
 62
3
 10
4.4551748E+001
 20
1.9322578E+002
 40
8.0E-001
 50
1.7999999E+002
 51
2.7E+002
  0
ENDBLK
  0
BLOCK
  2
*E1622
  3
*E1622
 10
5.4451738E+001
 20
1.7087578E+002
 70
65
  0
ARC
  8
1
  6
CONTINUOUS
 62
3
 10
5.4451738E+001
 20
1.7087578E+002
 40
5.0E-001
 50
0.0
 51
9.0E+001
  0
ENDBLK
  0
BLOCK
  2
*E1623
  3
*E1623
 10
9.0451738E+001
 20
1.5262578E+002
 70
65
  0
ARC
  8
1
  6
CONTINUOUS
 62
3
 10
9.0451738E+001
 20
1.5262578E+002
 40
8.0E-001
 50
0.0
 51
9.0E+001
  0
ENDBLK
  0
BLOCK
  2
*E1624
  3
*E1624
 10
8.1154008E+001
 20
1.5217798E+002
 70
65
  0
ARC
  8
1
  6
CONTINUOUS
 62
3
 10
8.1154008E+001
 20
1.5217798E+002
 40
3.522591E-001
 50
2.703412E+002
 51
4.59195E+002
  0
ENDBLK
  0
BLOCK
  2
*E1626
  3
*E1626
 10
7.2053998E+001
 20
1.5217798E+002
 70
65
  0
ARC
  8
1
  6
CONTINUOUS
 62
3
 10
7.2053998E+001
 20
1.5217798E+002
 40
3.522591E-001
 50
2.703412E+002
 51
4.59195E+002
  0
ENDBLK
  0
BLOCK
  2
*E1627
  3
*E1627
 10
6.2954008E+001
 20
1.5217798E+002
 70
65
  0
ARC
  8
1
  6
CONTINUOUS
 62
3
 10
6.2954008E+001
 20
1.5217798E+002
 40
3.522591E-001
 50
2.703412E+002
 51
4.59195E+002
  0
ENDBLK
  0
BLOCK
  2
*E1628
  3
*E1628
 10
5.3853998E+001
 20
1.5217798E+002
 70
65
  0
ARC
  8
1
  6
CONTINUOUS
 62
3
 10
5.3853998E+001
 20
1.5217798E+002
 40
3.522591E-001
 50
2.703412E+002
 51
4.59195E+002
  0
ENDBLK
  0
BLOCK
  2
*E1630
  3
*E1630
 10
4.4601738E+001
 20
1.5232578E+002
 70
65
  0
ARC
  8
1
  6
CONTINUOUS
 62
3
 10
4.4601738E+001
 20
1.5232578E+002
 40
5.0E-001
 50
0.0
 51
9.0E+001
  0
ENDBLK
  0
BLOCK
  2
*E1634
  3
*E1634
 10
9.0401748E+001
 20
1.9352578E+002
 70
65
  0
ARC
  8
1
  6
CONTINUOUS
 62
3
 10
9.0401748E+001
 20
1.9352578E+002
 40
5.0E-001
 50
1.7999999E+002
 51
2.7E+002
  0
ENDBLK
  0
BLOCK
  2
*E1638
  3
*E1638
 10
9.0451738E+001
 20
1.5262578E+002
 70
65
  0
ARC
  8
1
  6
CONTINUOUS
 62
3
 10
9.0451738E+001
 20
1.5262578E+002
 40
8.0E-001
 50
0.0
 51
9.0E+001
  0
ENDBLK
  0
BLOCK
  2
*E1639
  3
*E1639
 10
4.4551748E+001
 20
1.5262578E+002
 70
65
  0
ARC
  8
1
  6
CONTINUOUS
 62
3
 10
4.4551748E+001
 20
1.5262578E+002
 40
8.0E-001
 50
2.7E+002
 51
3.6E+002
  0
ENDBLK
  0
BLOCK
  2
*E1641
  3
*E1641
 10
9.0451748E+001
 20
1.9322578E+002
 70
65
  0
ARC
  8
1
  6
CONTINUOUS
 62
3
 10
9.0451748E+001
 20
1.9322578E+002
 40
8.0E-001
 50
9.0E+001
 51
1.7999999E+002
  0
ENDBLK
  0
BLOCK
  2
*E1642
  3
*E
 10
0.0
 20
0.0
 70
65
  0
CIRCLE
  8
1
  6
CONTINUOUS
 62
3
 10
0.0
 20
0.0
 40
1.0
  0
ENDBLK
  0
BLOCK
  2
*E1643
  3
*E1643
 10
4.2501728E+001
 20
1.4792578E+002
 70
65
  0
ARC
  8
1
  6
CONTINUOUS
 62
3
 10
4.2501728E+001
 20
1.4792578E+002
 40
2.25
 50
2.2635736E+002
 51
3.872661E+002
  0
ENDBLK
  0
BLOCK
  2
*E1644
  3
*E1644
 10
8.7501758E+001
 20
1.9792578E+002
 70
65
  0
ARC
  8
1
  6
CONTINUOUS
 62
3
 10
8.7501758E+001
 20
1.9792578E+002
 40
3.75
 50
9.0E+001
 51
2.7E+002
  0
ENDBLK
  0
BLOCK
  2
*E1645
  3
*E1645
 10
5.2501718E+001
 20
1.4792578E+002
 70
65
  0
ARC
  8
1
  6
CONTINUOUS
 62
3
 10
5.2501718E+001
 20
1.4792578E+002
 40
3.75
 50
3.490767E+002
 51
4.5E+002
  0
ENDBLK
  0
BLOCK
  2
*E1646
  3
*E1646
 10
4.2501728E+001
 20
1.4792578E+002
 70
65
  0
ARC
  8
1
  6
CONTINUOUS
 62
3
 10
4.2501728E+001
 20
1.4792578E+002
 40
3.75
 50
2.5052452E+002
 51
3.6E+002
  0
ENDBLK
  0
BLOCK
  2
*E1647
  3
*E1647
 10
4.7501718E+001
 20
1.4792578E+002
 70
65
  0
ARC
  8
1
  6
CONTINUOUS
 62
3
 10
4.7501718E+001
 20
1.4792578E+002
 40
2.25
 50
3.327339E+002
 51
5.1273393E+002
  0
ENDBLK
  0
BLOCK
  2
*E1648
  3
*E1648
 10
5.2501718E+001
 20
1.4792578E+002
 70
65
  0
ARC
  8
1
  6
CONTINUOUS
 62
3
 10
5.2501718E+001
 20
1.4792578E+002
 40
2.25
 50
2.0726607E+002
 51
5.1273393E+002
  0
ENDBLK
  0
BLOCK
  2
*E1680
  3
*E1680
 10
4.7086378E+001
 20
1.7391898E+002
 70
65
  0
ARC
  8
1
  6
CONTINUOUS
 62
3
 10
4.7086378E+001
 20
1.7391898E+002
 40
6.419031E-002
 50
2.0695312E+002
 51
3.79765E+002
  0
ENDBLK
  0
BLOCK
  2
*E1685
  3
*E1685
 10
5.0775768E+001
 20
1.7480858E+002
 70
65
  0
ARC
  8
1
  6
CONTINUOUS
 62
3
 10
5.0775768E+001
 20
1.7480858E+002
 40
5.0E-001
 50
1.7999999E+002
 51
2.7E+002
  0
ENDBLK
  0
BLOCK
  2
*E1795
  3
*E1795
 10
8.5701748E+001
 20
1.8562578E+002
 70
65
  0
ARC
  8
1
  6
CONTINUOUS
 62
3
 10
8.5701748E+001
 20
1.8562578E+002
 40
7.5E-001
 50
1.22231E+002
 51
1.4776898E+002
  0
ENDBLK
  0
BLOCK
  2
*E1796
  3
*E1796
 10
8.5701748E+001
 20
1.8562578E+002
 70
65
  0
ARC
  8
1
  6
CONTINUOUS
 62
3
 10
8.5701748E+001
 20
1.8562578E+002
 40
7.5E-001
 50
3.2231E+001
 51
5.7769E+001
  0
ENDBLK
  0
BLOCK
  2
*E1813
  3
*E1813
 10
7.6601748E+001
 20
1.8562578E+002
 70
65
  0
ARC
  8
1
  6
CONTINUOUS
 62
3
 10
7.6601748E+001
 20
1.8562578E+002
 40
7.5E-001
 50
1.22231E+002
 51
1.4776898E+002
  0
ENDBLK
  0
BLOCK
  2
*E1814
  3
*E1814
 10
7.6601748E+001
 20
1.8562578E+002
 70
65
  0
ARC
  8
1
  6
CONTINUOUS
 62
3
 10
7.6601748E+001
 20
1.8562578E+002
 40
7.5E-001
 50
3.2231E+001
 51
5.7769E+001
  0
ENDBLK
  0
BLOCK
  2
*E1833
  3
*E1833
 10
6.7501758E+001
 20
1.8562578E+002
 70
65
  0
ARC
  8
1
  6
CONTINUOUS
 62
3
 10
6.7501758E+001
 20
1.8562578E+002
 40
7.5E-001
 50
1.22231E+002
 51
1.4776898E+002
  0
ENDBLK
  0
BLOCK
  2
*E1834
  3
*E1834
 10
6.7501758E+001
 20
1.8562578E+002
 70
65
  0
ARC
  8
1
  6
CONTINUOUS
 62
3
 10
6.7501758E+001
 20
1.8562578E+002
 40
7.5E-001
 50
3.2231E+001
 51
5.7769E+001
  0
ENDBLK
  0
BLOCK
  2
*E1853
  3
*E1853
 10
5.8401748E+001
 20
1.8562578E+002
 70
65
  0
ARC
  8
1
  6
CONTINUOUS
 62
3
 10
5.8401748E+001
 20
1.8562578E+002
 40
7.5E-001
 50
1.22231E+002
 51
1.4776898E+002
  0
ENDBLK
  0
BLOCK
  2
*E1854
  3
*E1854
 10
5.8401748E+001
 20
1.8562578E+002
 70
65
  0
ARC
  8
1
  6
CONTINUOUS
 62
3
 10
5.8401748E+001
 20
1.8562578E+002
 40
7.5E-001
 50
3.2231E+001
 51
5.7769E+001
  0
ENDBLK
  0
BLOCK
  2
*E1873
  3
*E1873
 10
4.9301738E+001
 20
1.8562578E+002
 70
65
  0
ARC
  8
1
  6
CONTINUOUS
 62
3
 10
4.9301738E+001
 20
1.8562578E+002
 40
7.5E-001
 50
1.22231E+002
 51
1.4776898E+002
  0
ENDBLK
  0
BLOCK
  2
*E1874
  3
*E1874
 10
4.9301738E+001
 20
1.8562578E+002
 70
65
  0
ARC
  8
1
  6
CONTINUOUS
 62
3
 10
4.9301738E+001
 20
1.8562578E+002
 40
7.5E-001
 50
3.2231E+001
 51
5.7769E+001
  0
ENDBLK
  0
BLOCK
  2
*E1893
  3
*E1893
 10
8.5701738E+001
 20
1.6022578E+002
 70
65
  0
ARC
  8
1
  6
CONTINUOUS
 62
3
 10
8.5701738E+001
 20
1.6022578E+002
 40
7.5E-001
 50
2.1223097E+002
 51
2.3776895E+002
  0
ENDBLK
  0
BLOCK
  2
*E1894
  3
*E1894
 10
8.5701738E+001
 20
1.6022578E+002
 70
65
  0
ARC
  8
1
  6
CONTINUOUS
 62
3
 10
8.5701738E+001
 20
1.6022578E+002
 40
7.5E-001
 50
3.02231E+002
 51
3.27769E+002
  0
ENDBLK
  0
BLOCK
  2
*E1911
  3
*E1911
 10
7.6601748E+001
 20
1.6022578E+002
 70
65
  0
ARC
  8
1
  6
CONTINUOUS
 62
3
 10
7.6601748E+001
 20
1.6022578E+002
 40
7.5E-001
 50
2.1223097E+002
 51
2.3776895E+002
  0
ENDBLK
  0
BLOCK
  2
*E1912
  3
*E1912
 10
7.6601748E+001
 20
1.6022578E+002
 70
65
  0
ARC
  8
1
  6
CONTINUOUS
 62
3
 10
7.6601748E+001
 20
1.6022578E+002
 40
7.5E-001
 50
3.02231E+002
 51
3.27769E+002
  0
ENDBLK
  0
BLOCK
  2
*E1931
  3
*E1931
 10
6.7501738E+001
 20
1.6022578E+002
 70
65
  0
ARC
  8
1
  6
CONTINUOUS
 62
3
 10
6.7501738E+001
 20
1.6022578E+002
 40
7.5E-001
 50
2.1223097E+002
 51
2.3776895E+002
  0
ENDBLK
  0
BLOCK
  2
*E1932
  3
*E1932
 10
6.7501738E+001
 20
1.6022578E+002
 70
65
  0
ARC
  8
1
  6
CONTINUOUS
 62
3
 10
6.7501738E+001
 20
1.6022578E+002
 40
7.5E-001
 50
3.02231E+002
 51
3.27769E+002
  0
ENDBLK
  0
BLOCK
  2
*E1951
  3
*E1951
 10
5.8401748E+001
 20
1.6022578E+002
 70
65
  0
ARC
  8
1
  6
CONTINUOUS
 62
3
 10
5.8401748E+001
 20
1.6022578E+002
 40
7.5E-001
 50
2.1223097E+002
 51
2.3776895E+002
  0
ENDBLK
  0
BLOCK
  2
*E1952
  3
*E1952
 10
5.8401748E+001
 20
1.6022578E+002
 70
65
  0
ARC
  8
1
  6
CONTINUOUS
 62
3
 10
5.8401748E+001
 20
1.6022578E+002
 40
7.5E-001
 50
3.02231E+002
 51
3.27769E+002
  0
ENDBLK
  0
BLOCK
  2
*E1971
  3
*E1971
 10
4.9301738E+001
 20
1.6022578E+002
 70
65
  0
ARC
  8
1
  6
CONTINUOUS
 62
3
 10
4.9301738E+001
 20
1.6022578E+002
 40
7.5E-001
 50
2.1223097E+002
 51
2.3776895E+002
  0
ENDBLK
  0
BLOCK
  2
*E1972
  3
*E1972
 10
4.9301738E+001
 20
1.6022578E+002
 70
65
  0
ARC
  8
1
  6
CONTINUOUS
 62
3
 10
4.9301738E+001
 20
1.6022578E+002
 40
7.5E-001
 50
3.02231E+002
 51
3.27769E+002
  0
ENDBLK
  0
BLOCK
  2
*D1979
  3
*D
 10
0.0
 20
0.0
 70
65
  0
LINE
  8
1
  6
CONTINUOUS
 62
4
 10
8.1801838E+001
 20
1.9402578E+002
 11
1.1132879E+002
 21
1.9402578E+002
  0
LINE
  8
1
  6
CONTINUOUS
 62
4
 10
8.1801838E+001
 20
1.5182578E+002
 11
1.1132879E+002
 21
1.5182578E+002
  0
SOLID
  8
1
  6
CONTINUOUS
 62
0
 10
1.0982879E+002
 20
1.9402578E+002
 11
1.0932878E+002
 21
1.9102578E+002
 12
1.1032879E+002
 22
1.9102578E+002
 13
1.1032879E+002
 23
1.9102578E+002
  0
SOLID
  8
1
  6
CONTINUOUS
 62
0
 10
1.0982879E+002
 20
1.5182578E+002
 11
1.1032879E+002
 21
1.5482578E+002
 12
1.0932878E+002
 22
1.5482578E+002
 13
1.0932878E+002
 23
1.5482578E+002
  0
LINE
  8
1
  6
CONTINUOUS
 62
4
 10
1.0982879E+002
 20
1.9402578E+002
 11
1.0982879E+002
 21
1.7284258E+002
  0
LINE
  8
1
  6
CONTINUOUS
 62
4
 10
1.0982879E+002
 20
1.5182578E+002
 11
1.0982879E+002
 21
1.7284258E+002
  0
TEXT
  8
1
  6
CONTINUOUS
 62
4
 10
1.0832779E+002
 20
1.7044258E+002
 40
3.0
  1
42
 41
8.0E-001
 50
9.0E+001
 51
1.0
  0
ENDBLK
  0
BLOCK
  2
*E1992
  3
*E1992
 10
2.4251718E+001
 20
1.9322578E+002
 70
65
  0
ARC
  8
1
  6
CONTINUOUS
 62
3
 10
2.4251718E+001
 20
1.9322578E+002
 40
8.0E-001
 50
1.8E+002
 51
2.7E+002
  0
ENDBLK
  0
BLOCK
  2
*E2011
  3
*E2011
 10
4.2851598E+001
 20
1.9352578E+002
 70
65
  0
ARC
  8
1
  6
CONTINUOUS
 62
3
 10
4.2851598E+001
 20
1.9352578E+002
 40
5.0E-001
 50
1.8E+002
 51
2.7E+002
  0
ENDBLK
  0
BLOCK
  2
*E2020
  3
*E2020
 10
2.4351688E+001
 20
1.5232558E+002
 70
65
  0
ARC
  8
1
  6
CONTINUOUS
 62
3
 10
2.4351688E+001
 20
1.5232558E+002
 40
5.0E-001
 50
0.0
 51
9.0E+001
  0
ENDBLK
  0
BLOCK
  2
*E2025
  3
*E2025
 10
4.2951608E+001
 20
1.5262558E+002
 70
65
  0
ARC
  8
1
  6
CONTINUOUS
 62
3
 10
4.2951608E+001
 20
1.5262558E+002
 40
8.0E-001
 50
0.0
 51
9.0E+001
  0
ENDBLK
  0
BLOCK
  2
*E2032
  3
*E2032
 10
3.3601658E+001
 20
1.5217558E+002
 70
65
  0
ARC
  8
1
  6
CONTINUOUS
 62
3
 10
3.3601658E+001
 20
1.5217558E+002
 40
3.499298E-001
 50
2.7E+002
 51
4.5E+002
  0
ENDBLK
  0
BLOCK
  2
*E2046
  3
*E2046
 10
3.5351718E+001
 20
1.5242568E+002
 70
65
  0
ARC
  8
1
  6
CONTINUOUS
 62
3
 10
3.5351718E+001
 20
1.5242568E+002
 40
5.0E-001
 50
1.7999999E+002
 51
2.7E+002
  0
ENDBLK
  0
BLOCK
  2
*E2048
  3
*E2048
 10
3.5851718E+001
 20
1.5222568E+002
 70
65
  0
ARC
  8
1
  6
CONTINUOUS
 62
3
 10
3.5851718E+001
 20
1.5222568E+002
 40
1.0
 50
2.7E+002
 51
3.6E+002
  0
ENDBLK
  0
BLOCK
  2
*E2052
  3
*E2052
 10
4.7251598E+001
 20
1.5062568E+002
 70
65
  0
ARC
  8
1
  6
CONTINUOUS
 62
3
 10
4.7251598E+001
 20
1.5062568E+002
 40
5.0E-001
 50
0.0
 51
9.0E+001
  0
ENDBLK
  0
BLOCK
  2
*E2055
  3
*E2055
 10
3.5851718E+001
 20
1.5222568E+002
 70
65
  0
ARC
  8
1
  6
CONTINUOUS
 62
3
 10
3.5851718E+001
 20
1.5222568E+002
 40
3.5
 50
2.6713405E+002
 51
3.690153E+002
  0
ENDBLK
  0
BLOCK
  2
*E2056
  3
*E2056
 10
3.1856728E+001
 20
1.5242568E+002
 70
65
  0
ARC
  8
1
  6
CONTINUOUS
 62
3
 10
3.1856728E+001
 20
1.5242568E+002
 40
5.0E-001
 50
8.71341E+001
 51
1.7999999E+002
  0
ENDBLK
  0
BLOCK
  2
*E2075
  3
*E2075
 10
4.4251718E+001
 20
1.9352598E+002
 70
65
  0
ARC
  8
1
  6
CONTINUOUS
 62
3
 10
4.4251718E+001
 20
1.9352598E+002
 40
5.0E-001
 50
1.8E+002
 51
2.7E+002
  0
ENDBLK
  0
BLOCK
  2
*E2076
  3
*E2076
 10
4.0751718E+001
 20
1.9452598E+002
 70
65
  0
ARC
  8
1
  6
CONTINUOUS
 62
3
 10
4.0751718E+001
 20
1.9452598E+002
 40
5.0E-001
 50
0.0
 51
9.0E+001
  0
ENDBLK
  0
BLOCK
  2
*E2097
  3
*E2097
 10
4.8535008E+001
 20
1.7142558E+002
 70
65
  0
ARC
  8
1
  6
CONTINUOUS
 62
3
 10
4.8535008E+001
 20
1.7142558E+002
 40
5.0E-001
 50
0.0
 51
1.050002E+002
  0
ENDBLK
  0
BLOCK
  2
*E2126
  3
*E2126
 10
3.8151738E+001
 20
1.6022568E+002
 70
65
  0
ARC
  8
1
  6
CONTINUOUS
 62
3
 10
3.8151738E+001
 20
1.6022568E+002
 40
7.5E-001
 50
2.1223097E+002
 51
2.3776895E+002
  0
ENDBLK
  0
BLOCK
  2
*E2127
  3
*E2127
 10
3.8151738E+001
 20
1.6022568E+002
 70
65
  0
ARC
  8
1
  6
CONTINUOUS
 62
3
 10
3.8151738E+001
 20
1.6022568E+002
 40
7.5E-001
 50
3.02231E+002
 51
3.27769E+002
  0
ENDBLK
  0
BLOCK
  2
*E2147
  3
*E2147
 10
2.9051738E+001
 20
1.6022568E+002
 70
65
  0
ARC
  8
1
  6
CONTINUOUS
 62
3
 10
2.9051738E+001
 20
1.6022568E+002
 40
7.5E-001
 50
2.1223097E+002
 51
2.3776895E+002
  0
ENDBLK
  0
BLOCK
  2
*E2148
  3
*E2148
 10
2.9051738E+001
 20
1.6022568E+002
 70
65
  0
ARC
  8
1
  6
CONTINUOUS
 62
3
 10
2.9051738E+001
 20
1.6022568E+002
 40
7.5E-001
 50
3.02231E+002
 51
3.27769E+002
  0
ENDBLK
  0
BLOCK
  2
*E2168
  3
*E2168
 10
3.8151738E+001
 20
1.8562578E+002
 70
65
  0
ARC
  8
1
  6
CONTINUOUS
 62
3
 10
3.8151738E+001
 20
1.8562578E+002
 40
7.5E-001
 50
2.1223097E+002
 51
2.3776895E+002
  0
ENDBLK
  0
BLOCK
  2
*E2169
  3
*E2169
 10
3.8151738E+001
 20
1.8562578E+002
 70
65
  0
ARC
  8
1
  6
CONTINUOUS
 62
3
 10
3.8151738E+001
 20
1.8562578E+002
 40
7.5E-001
 50
3.02231E+002
 51
3.27769E+002
  0
ENDBLK
  0
BLOCK
  2
*E2189
  3
*E2189
 10
2.9051738E+001
 20
1.8562578E+002
 70
65
  0
ARC
  8
1
  6
CONTINUOUS
 62
3
 10
2.9051738E+001
 20
1.8562578E+002
 40
7.5E-001
 50
2.1223097E+002
 51
2.3776895E+002
  0
ENDBLK
  0
BLOCK
  2
*E2190
  3
*E2190
 10
2.9051738E+001
 20
1.8562578E+002
 70
65
  0
ARC
  8
1
  6
CONTINUOUS
 62
3
 10
2.9051738E+001
 20
1.8562578E+002
 40
7.5E-001
 50
3.02231E+002
 51
3.27769E+002
  0
ENDBLK
  0
BLOCK
  2
*D2194
  3
*D
 10
0.0
 20
0.0
 70
65
  0
LINE
  8
1
  6
CONTINUOUS
 62
4
 10
1.4056059E+002
 20
1.9092608E+002
 11
1.4056059E+002
 21
2.1934158E+002
  0
LINE
  8
1
  6
CONTINUOUS
 62
4
 10
1.8406059E+002
 20
1.9212608E+002
 11
1.8406059E+002
 21
2.1934158E+002
  0
SOLID
  8
1
  6
CONTINUOUS
 62
0
 10
1.4056059E+002
 20
2.1784158E+002
 11
1.4356059E+002
 21
2.1734158E+002
 12
1.4356059E+002
 22
2.1834158E+002
 13
1.4356059E+002
 23
2.1834158E+002
  0
SOLID
  8
1
  6
CONTINUOUS
 62
0
 10
1.8406059E+002
 20
2.1784158E+002
 11
1.8106059E+002
 21
2.1834158E+002
 12
1.8106059E+002
 22
2.1734158E+002
 13
1.8106059E+002
 23
2.1734158E+002
  0
LINE
  8
1
  6
CONTINUOUS
 62
4
 10
1.4056059E+002
 20
2.1784158E+002
 11
1.5882779E+002
 21
2.1784158E+002
  0
LINE
  8
1
  6
CONTINUOUS
 62
4
 10
1.8406059E+002
 20
2.1784158E+002
 11
1.5882779E+002
 21
2.1784158E+002
  0
ENDBLK
  0
BLOCK
  2
*D2195
  3
*D
 10
0.0
 20
0.0
 70
65
  0
LINE
  8
1
  6
CONTINUOUS
 62
4
 10
9.1251758E+001
 20
1.9212588E+002
 11
9.1251758E+001
 21
2.1934158E+002
  0
LINE
  8
1
  6
CONTINUOUS
 62
4
 10
2.3451728E+001
 20
1.9212588E+002
 11
2.3451728E+001
 21
2.1934158E+002
  0
SOLID
  8
1
  6
CONTINUOUS
 62
0
 10
9.1251758E+001
 20
2.1784158E+002
 11
8.8251758E+001
 21
2.1834158E+002
 12
8.8251758E+001
 22
2.1734158E+002
 13
8.8251758E+001
 23
2.1734158E+002
  0
SOLID
  8
1
  6
CONTINUOUS
 62
0
 10
2.3451728E+001
 20
2.1784158E+002
 11
2.6451728E+001
 21
2.1734158E+002
 12
2.6451728E+001
 22
2.1834158E+002
 13
2.6451728E+001
 23
2.1834158E+002
  0
LINE
  8
1
  6
CONTINUOUS
 62
4
 10
9.1251758E+001
 20
2.1784158E+002
 11
5.6827788E+001
 21
2.1784158E+002
  0
LINE
  8
1
  6
CONTINUOUS
 62
4
 10
2.3451728E+001
 20
2.1784158E+002
 11
5.6827788E+001
 21
2.1784158E+002
  0
TEXT
  8
1
  6
CONTINUOUS
 62
4
 10
5.4427788E+001
 20
2.1934258E+002
 40
3.0
  1
68
 41
8.0E-001
 50
3.6E+002
 51
1.0
  0
ENDBLK
  0
BLOCK
  2
*D2197
  3
*D
 10
0.0
 20
0.0
 70
65
  0
LINE
  8
1
  6
CONTINUOUS
 62
4
 10
1.7416059E+002
 20
1.9062588E+002
 11
1.7416059E+002
 21
2.1134158E+002
  0
LINE
  8
1
  6
CONTINUOUS
 62
4
 10
1.4056059E+002
 20
1.9092608E+002
 11
1.4056059E+002
 21
2.1134158E+002
  0
SOLID
  8
1
  6
CONTINUOUS
 62
0
 10
1.7416059E+002
 20
2.0984158E+002
 11
1.7116059E+002
 21
2.1034158E+002
 12
1.7116059E+002
 22
2.0934158E+002
 13
1.7116059E+002
 23
2.0934158E+002
  0
SOLID
  8
1
  6
CONTINUOUS
 62
0
 10
1.4056059E+002
 20
2.0984158E+002
 11
1.4356059E+002
 21
2.0934158E+002
 12
1.4356059E+002
 22
2.1034158E+002
 13
1.4356059E+002
 23
2.1034158E+002
  0
LINE
  8
1
  6
CONTINUOUS
 62
4
 10
1.7416059E+002
 20
2.0984158E+002
 11
1.5882779E+002
 21
2.0984158E+002
  0
LINE
  8
1
  6
CONTINUOUS
 62
4
 10
1.4056059E+002
 20
2.0984158E+002
 11
1.5882779E+002
 21
2.0984158E+002
  0
ENDBLK
  0
BLOCK
  2
*D2199
  3
*D
 10
0.0
 20
0.0
 70
65
  0
LINE
  8
1
  6
CONTINUOUS
 62
4
 10
1.3756059E+002
 20
2.0167588E+002
 11
1.3756059E+002
 21
2.2734158E+002
  0
LINE
  8
1
  6
CONTINUOUS
 62
4
 10
1.8406059E+002
 20
1.9212608E+002
 11
1.8406059E+002
 21
2.2734158E+002
  0
SOLID
  8
1
  6
CONTINUOUS
 62
0
 10
1.3756059E+002
 20
2.2584158E+002
 11
1.4056059E+002
 21
2.2534158E+002
 12
1.4056059E+002
 22
2.2634158E+002
 13
1.4056059E+002
 23
2.2634158E+002
  0
SOLID
  8
1
  6
CONTINUOUS
 62
0
 10
1.8406059E+002
 20
2.2584158E+002
 11
1.8106059E+002
 21
2.2634158E+002
 12
1.8106059E+002
 22
2.2534158E+002
 13
1.8106059E+002
 23
2.2534158E+002
  0
LINE
  8
1
  6
CONTINUOUS
 62
4
 10
1.3756059E+002
 20
2.2584158E+002
 11
1.5882779E+002
 21
2.2584158E+002
  0
LINE
  8
1
  6
CONTINUOUS
 62
4
 10
1.8406059E+002
 20
2.2584158E+002
 11
1.5882779E+002
 21
2.2584158E+002
  0
ENDBLK
  0
BLOCK
  2
*E2214
  3
*E2214
 10
1.5946059E+002
 20
1.5332598E+002
 70
65
  0
ARC
  8
1
  6
CONTINUOUS
 62
3
 10
1.5946059E+002
 20
1.5332598E+002
 40
5.0E-001
 50
2.7E+002
 51
3.6E+002
  0
ENDBLK
  0
ENDSEC
  0
SECTION
  2
ENTITIES
  0
INSERT
  2
RAHMENA4
  8
1
 10
0.0
 20
0.0
  0
TEXT
  8
1
  6
CONTINUOUS
 62
4
 10
2.6257679E+001
 20
2.7732012E+001
 40
2.5
  1
-
 41
7.6E-001
  0
TEXT
  8
1
  6
CONTINUOUS
 62
4
 10
3.2970216E+001
 20
2.7782482E+001
 40
2.2
  1
JL 121 002
 41
7.2872802E-001
  0
POLYLINE
  8
1
  6
CONTINUOUS
 62
3
 66
1
 40
5.0E-001
 41
5.0E-001
 70
0
  0
VERTEX
  8
1
 42
4.1421356E-001
 10
1.4206059E+002
 20
2.0117568E+002
 70
0
  0
VERTEX
  8
1
 42
0.0
 10
1.4156059E+002
 20
2.0167568E+002
 70
0
  0
SEQEND
  0
POLYLINE
  8
1
  6
CONTINUOUS
 62
3
 66
1
 40
5.0E-001
 41
5.0E-001
 70
0
  0
VERTEX
  8
1
 42
4.5162701E-002
 10
1.4038097E+002
 20
1.8644216E+002
 70
0
  0
VERTEX
  8
1
 42
0.0
 10
1.4056051E+002
 20
1.8542578E+002
 70
0
  0
SEQEND
  0
POLYLINE
  8
1
  6
CONTINUOUS
 62
3
 66
1
 40
5.0E-001
 41
5.0E-001
 70
0
  0
VERTEX
  8
1
 42
5.549069E-002
 10
1.3926842E+002
 20
1.8862573E+002
 70
0
  0
VERTEX
  8
1
 42
0.0
 10
1.3956057E+002
 20
1.890955E+002
 70
0
  0
SEQEND
  0
POLYLINE
  8
1
  6
CONTINUOUS
 62
3
 66
1
 40
5.0E-001
 41
5.0E-001
 70
0
  0
VERTEX
  8
1
 42
0.0
 10
1.3965889E+002
 20
1.5502578E+002
 70
0
  0
VERTEX
  8
1
 42
0.0
 10
1.3756059E+002
 20
1.5446348E+002
 70
0
  0
SEQEND
  0
INSERT
  2
*E1394
  8
1
 10
1.3956059E+002
 20
1.9402578E+002
 41
1.0
 42
1.0
 43
1.0
 50
2.7E+002
 62
3
  0
LINE
  8
1
  6
CENTERLINE
 62
1
 10
1.4322109E+002
 20
1.9792568E+002
 11
1.3675279E+002
 21
1.9792568E+002
  0
POLYLINE
  8
1
  6
CONTINUOUS
 62
3
 66
1
 40
5.0E-001
 41
5.0E-001
 70
0
  0
VERTEX
  8
1
 42
0.0
 10
1.4156059E+002
 20
2.0167568E+002
 70
0
  0
VERTEX
  8
1
 42
0.0
 10
1.3756059E+002
 20
2.0167568E+002
 70
0
  0
SEQEND
  0
POLYLINE
  8
1
  6
CONTINUOUS
 62
3
 66
1
 40
5.0E-001
 41
5.0E-001
 70
0
  0
VERTEX
  8
1
 42
0.0
 10
1.4206059E+002
 20
2.0117568E+002
 70
0
  0
VERTEX
  8
1
 42
0.0
 10
1.4206059E+002
 20
1.9402578E+002
 70
0
  0
SEQEND
  0
POLYLINE
  8
1
  6
CONTINUOUS
 62
3
 66
1
 40
5.0E-001
 41
5.0E-001
 70
0
  0
VERTEX
  8
1
 42
0.0
 10
1.3956059E+002
 20
1.9502578E+002
 70
0
  0
VERTEX
  8
1
 42
0.0
 10
1.3756059E+002
 20
1.9502578E+002
 70
0
  0
SEQEND
  0
POLYLINE
  8
1
  6
CONTINUOUS
 62
3
 66
1
 40
5.0E-001
 41
5.0E-001
 70
0
  0
VERTEX
  8
1
 42
0.0
 10
1.3756059E+002
 20
2.0167568E+002
 70
0
  0
VERTEX
  8
1
 42
0.0
 10
1.3756059E+002
 20
1.9502578E+002
 70
0
  0
SEQEND
  0
ARC
  8
1
  6
PHANTOM
 62
4
 10
1.3456059E+002
 20
1.6092578E+002
 40
5.0E-001
 50
1.8E+002
 51
2.7E+002
  0
ARC
  8
1
  6
PHANTOM
 62
4
 10
1.3906059E+002
 20
1.5892578E+002
 40
5.0E-001
 50
0.0
 51
9.0E+001
  0
ARC
  8
1
  6
PHANTOM
 62
4
 10
1.3486059E+002
 20
1.6122578E+002
 40
1.8
 50
1.8E+002
 51
2.7E+002
  0
POLYLINE
  8
1
  6
CONTINUOUS
 62
3
 66
1
 40
5.0E-001
 41
5.0E-001
 70
0
  0
VERTEX
  8
1
 42
0.0
 10
1.3926839E+002
 20
1.8862568E+002
 70
0
  0
VERTEX
  8
1
 42
0.0
 10
1.3756059E+002
 20
1.8862568E+002
 70
0
  0
SEQEND
  0
POLYLINE
  8
1
  6
CONTINUOUS
 62
3
 66
1
 40
5.0E-001
 41
5.0E-001
 70
0
  0
VERTEX
  8
1
 42
0.0
 10
1.3756059E+002
 20
1.9146168E+002
 70
0
  0
VERTEX
  8
1
 42
0.0
 10
1.3756059E+002
 20
1.8862568E+002
 70
0
  0
SEQEND
  0
POLYLINE
  8
1
  6
CONTINUOUS
 62
3
 66
1
 40
5.0E-001
 41
5.0E-001
 70
0
  0
VERTEX
  8
1
 42
1.6286034E-001
 10
1.3766127E+002
 20
1.5503799E+002
 70
0
  0
VERTEX
  8
1
 42
0.0
 10
1.3756059E+002
 20
1.5473708E+002
 70
0
  0
SEQEND
  0
POLYLINE
  8
1
  6
CONTINUOUS
 62
3
 66
1
 40
5.0E-001
 41
5.0E-001
 70
0
  0
VERTEX
  8
1
 42
0.0
 10
1.3965889E+002
 20
1.5502578E+002
 70
0
  0
VERTEX
  8
1
 42
0.0
 10
1.4056059E+002
 20
1.5502578E+002
 70
0
  0
SEQEND
  0
POLYLINE
  8
1
  6
CONTINUOUS
 62
3
 66
1
 40
5.0E-001
 41
5.0E-001
 70
0
  0
VERTEX
  8
1
 42
0.0
 10
1.4055869E+002
 20
1.5542578E+002
 70
0
  0
VERTEX
  8
1
 42
0.0
 10
1.3965889E+002
 20
1.5542578E+002
 70
0
  0
SEQEND
  0
POLYLINE
  8
1
  6
CONTINUOUS
 62
3
 66
1
 40
5.0E-001
 41
5.0E-001
 70
0
  0
VERTEX
  8
1
 42
0.0
 10
1.4056059E+002
 20
1.9042568E+002
 70
0
  0
VERTEX
  8
1
 42
0.0
 10
1.3996059E+002
 20
1.9042568E+002
 70
0
  0
SEQEND
  0
POLYLINE
  8
1
  6
CONTINUOUS
 62
3
 66
1
 40
5.0E-001
 41
5.0E-001
 70
0
  0
VERTEX
  8
1
 42
0.0
 10
1.3956059E+002
 20
1.5581878E+002
 70
0
  0
VERTEX
  8
1
 42
0.0
 10
1.3928369E+002
 20
1.5692578E+002
 70
0
  0
SEQEND
  0
POLYLINE
  8
1
  6
CONTINUOUS
 62
3
 66
1
 40
5.0E-001
 41
5.0E-001
 70
0
  0
VERTEX
  8
1
 42
0.0
 10
1.4056059E+002
 20
1.5692578E+002
 70
0
  0
VERTEX
  8
1
 42
0.0
 10
1.4055759E+002
 20
1.5692578E+002
 70
0
  0
SEQEND
  0
ARC
  8
1
  6
PHANTOM
 62
4
 10
1.3906059E+002
 20
1.8692578E+002
 40
5.0E-001
 50
2.7E+002
 51
3.6E+002
  0
ARC
  8
1
  6
PHANTOM
 62
4
 10
1.3876059E+002
 20
1.5862578E+002
 40
1.8
 50
0.0
 51
9.0E+001
  0
POLYLINE
  8
1
  6
CONTINUOUS
 62
3
 66
1
 40
5.0E-001
 41
5.0E-001
 70
0
  0
VERTEX
  8
1
 42
0.0
 10
1.4056059E+002
 20
1.9402578E+002
 70
0
  0
VERTEX
  8
1
 42
0.0
 10
1.4056059E+002
 20
1.9792568E+002
 70
0
  0
SEQEND
  0
POLYLINE
  8
1
  6
CONTINUOUS
 62
3
 66
1
 40
5.0E-001
 41
5.0E-001
 70
0
  0
VERTEX
  8
1
 42
0.0
 10
1.4056049E+002
 20
1.8936508E+002
 70
0
  0
VERTEX
  8
1
 42
0.0
 10
1.4056059E+002
 20
1.8936508E+002
 70
0
  0
SEQEND
  0
POLYLINE
  8
1
  6
CONTINUOUS
 62
3
 66
1
 40
5.0E-001
 41
5.0E-001
 70
0
  0
VERTEX
  8
1
 42
0.0
 10
1.3908379E+002
 20
1.5692578E+002
 70
0
  0
VERTEX
  8
1
 42
0.0
 10
1.3766119E+002
 20
1.5503798E+002
 70
0
  0
SEQEND
  0
POLYLINE
  8
1
  6
CONTINUOUS
 62
3
 66
1
 40
5.0E-001
 41
5.0E-001
 70
0
  0
VERTEX
  8
1
 42
0.0
 10
1.4055859E+002
 20
1.5542568E+002
 70
0
  0
VERTEX
  8
1
 42
0.0
 10
1.4055869E+002
 20
1.5542568E+002
 70
0
  0
SEQEND
  0
POLYLINE
  8
1
  6
CONTINUOUS
 62
3
 66
1
 40
5.0E-001
 41
5.0E-001
 70
0
  0
VERTEX
  8
1
 42
0.0
 10
1.3928369E+002
 20
1.5692578E+002
 70
0
  0
VERTEX
  8
1
 42
0.0
 10
1.3908379E+002
 20
1.5692578E+002
 70
0
  0
SEQEND
  0
LINE
  8
1
  6
PHANTOM
 62
4
 10
1.3956059E+002
 20
1.8692578E+002
 11
1.3956059E+002
 21
1.9042578E+002
  0
TEXT
  8
1
  6
CONTINUOUS
 62
4
 10
6.8940056E+001
 20
2.1119353E+002
 40
2.8
  1
9,1
 41
8.0586135E-001
  0
DIMENSION
  8
1
  6
CONTINUOUS
 62
4
  1
     
  2
*D1420
  3
DSTYLE1
 10
7.6601748E+001
 20
2.0984158E+002
 11
7.0827788E+001
 21
2.1284258E+002
 70
128
 13
6.7501758E+001
 23
1.8874588E+002
 14
7.6601748E+001
 24
1.8874588E+002
 40
1.25E-001
 50
0.0
  0
TEXT
  8
1
  6
CONTINUOUS
 62
4
 10
1.3753183E+002
 20
2.360065E+001
 40
3.5
  1
1:1
 41
6.2085333E-001
  0
TEXT
  8
1
  6
CONTINUOUS
 62
4
 10
2.5174718E+001
 20
7.5662552E+001
 40
3.0
  1
Anschluesse : 1 ... 2,5mm  mehrdraehtig
 41
7.8139399E-001
  0
TEXT
  8
1
  6
CONTINUOUS
 62
4
 10
8.142057E+001
 20
6.8682535E+001
 40
2.0
  1
2
  0
TEXT
  8
1
  6
CONTINUOUS
 62
4
 10
6.2779786E+001
 20
6.7185385E+001
 40
3.0
  1
... 4 mm  single- wire
 41
7.5334285E-001
  0
DIMENSION
  8
1
  6
CONTINUOUS
 62
3
  2
*D1425
  3
DSTYLE2
 10
9.1251738E+001
 20
1.6446733E+002
 11
9.4360761E+001
 21
1.6746833E+002
 70
128
 13
9.7251738E+001
 23
1.7092568E+002
 14
9.1251738E+001
 24
1.5372588E+002
 40
1.25E-001
 50
0.0
  0
TEXT
  8
1
  6
CONTINUOUS
 62
4
 10
3.9249486E+001
 20
2.1119353E+002
 40
2.8
  1
11,1
 41
8.0E-001
  0
DIMENSION
  8
1
  6
CONTINUOUS
 62
4
  1
      
  2
*D1427
  3
DSTYLE1
 10
3.8151738E+001
 20
2.0984158E+002
 11
4.2827788E+001
 21
2.1284258E+002
 70
128
 13
4.9301738E+001
 23
1.8874588E+002
 14
3.8151738E+001
 24
1.8874588E+002
 40
1.25E-001
 50
0.0
  0
LINE
  8
1
  6
CONTINUOUS
 62
4
 10
9.4144198E+001
 20
1.7388528E+002
 11
1.1618519E+002
 21
2.4000818E+002
  0
LINE
  8
1
  6
CONTINUOUS
 62
4
 10
7.5354726E+001
 20
2.4000818E+002
 11
1.1618519E+002
 21
2.4000818E+002
  0
LINE
  8
1
  6
PHANTOM
 62
4
 10
1.3486059E+002
 20
1.8642578E+002
 11
1.3906059E+002
 21
1.8642578E+002
  0
LINE
  8
1
  6
PHANTOM
 62
4
 10
1.3456059E+002
 20
1.6042578E+002
 11
1.3876059E+002
 21
1.6042578E+002
  0
LINE
  8
1
  6
PHANTOM
 62
4
 10
1.3456059E+002
 20
1.8542578E+002
 11
1.3876059E+002
 21
1.8542578E+002
  0
LINE
  8
1
  6
PHANTOM
 62
4
 10
1.3486059E+002
 20
1.5942578E+002
 11
1.3906059E+002
 21
1.5942578E+002
  0
POLYLINE
  8
1
  6
CONTINUOUS
 62
3
 66
1
 40
5.0E-001
 41
5.0E-001
 70
0
  0
VERTEX
  8
1
 42
0.0
 10
1.5616059E+002
 20
1.9552578E+002
 70
0
  0
VERTEX
  8
1
 42
0.0
 10
1.5616059E+002
 20
1.9402578E+002
 70
0
  0
SEQEND
  0
POLYLINE
  8
1
  6
CONTINUOUS
 62
3
 66
1
 40
5.0E-001
 41
5.0E-001
 70
0
  0
VERTEX
  8
1
 42
0.0
 10
1.5906059E+002
 20
1.9552578E+002
 70
0
  0
VERTEX
  8
1
 42
0.0
 10
1.5616059E+002
 20
1.9552578E+002
 70
0
  0
SEQEND
  0
POLYLINE
  8
1
  6
CONTINUOUS
 62
3
 66
1
 40
5.0E-001
 41
5.0E-001
 70
0
  0
VERTEX
  8
1
 42
0.0
 10
1.5906059E+002
 20
1.9532578E+002
 70
0
  0
VERTEX
  8
1
 42
0.0
 10
1.5616059E+002
 20
1.9532578E+002
 70
0
  0
SEQEND
  0
POLYLINE
  8
1
  6
CONTINUOUS
 62
3
 66
1
 40
5.0E-001
 41
5.0E-001
 70
0
  0
VERTEX
  8
1
 42
0.0
 10
1.5906059E+002
 20
1.9422578E+002
 70
0
  0
VERTEX
  8
1
 42
0.0
 10
1.5616059E+002
 20
1.9422578E+002
 70
0
  0
SEQEND
  0
TEXT
  8
1
  6
CONTINUOUS
 62
4
 10
3.0414731E+001
 20
2.1119353E+002
 40
2.8
  1
9,1
 41
8.0586135E-001
  0
DIMENSION
  8
1
  6
CONTINUOUS
 62
4
  1
     
  2
*D1441
  3
DSTYLE2
 10
2.9051738E+001
 20
2.0984158E+002
 11
3.2827788E+001
 21
2.1284258E+002
 70
128
 13
3.8151738E+001
 23
1.8874588E+002
 14
2.9051738E+001
 24
1.8874588E+002
 40
1.25E-001
 50
0.0
  0
LINE
  8
1
  6
PHANTOM
 62
4
 10
1.3956059E+002
 20
1.5892578E+002
 11
1.3956059E+002
 21
1.5542578E+002
  0
POLYLINE
  8
1
  6
HIDDEN
 62
3
 66
1
 40
5.0E-001
 41
5.0E-001
 70
0
  0
VERTEX
  8
1
 42
0.0
 10
9.7251738E+001
 20
1.7092578E+002
 70
0
  0
VERTEX
  8
1
 42
0.0
 10
9.7251738E+001
 20
1.7492578E+002
 70
0
  0
SEQEND
  0
TEXT
  8
1
  6
CONTINUOUS
 62
4
 10
3.0686621E+001
 20
9.6288442E+001
 40
3.0
  1
Schaltstellungsanzeige
 41
8.0672693E-001
  0
TEXT
  8
1
  6
CONTINUOUS
 62
4
 10
1.2620491E+002
 20
7.5335743E+001
 40
3.0
  1
Massaenderungen vorbehalten !
 41
8.3323629E-001
  0
TEXT
  8
1
  6
CONTINUOUS
 62
4
 10
9.8078003E+001
 20
2.0607046E+002
 40
3.0
  1
4,5
 41
8.0E-001
 50
9.0E+001
  0
DIMENSION
  8
1
  6
CONTINUOUS
 62
4
  1
      
  2
*D1447
  3
DSTYLE2
 10
9.9363353E+001
 20
2.0017578E+002
 11
9.6362353E+001
 21
2.0464075E+002
 70
128
 13
8.7501848E+001
 23
1.9567578E+002
 14
8.7501848E+001
 24
2.0017578E+002
 40
1.25E-001
 50
9.0E+001
  0
TEXT
  8
1
  6
CONTINUOUS
 62
4
 10
1.4565E+002
 20
1.336192E+002
 40
3.0
  1
4,5
 41
8.0E-001
  0
DIMENSION
  8
1
  6
CONTINUOUS
 62
4
  1
      
  2
*D1449
  3
DSTYLE2
 10
1.3756059E+002
 20
1.3184158E+002
 11
1.4382779E+002
 21
1.3484258E+002
 70
128
 13
1.4206059E+002
 23
1.4467568E+002
 14
1.3756059E+002
 24
1.4417568E+002
 40
1.25E-001
 50
0.0
  0
TEXT
  8
1
  6
CONTINUOUS
 62
4
 10
1.2304246E+002
 20
1.6773135E+002
 40
3.0
  1
57,5
 41
8.0E-001
 50
9.0E+001
  0
DIMENSION
  8
1
  6
CONTINUOUS
 62
4
  1
       
  2
*D1451
  3
DSTYLE2
 10
1.2455328E+002
 20
2.0167578E+002
 11
1.2155228E+002
 21
1.5670401E+002
 70
128
 13
5.1791218E+001
 23
1.4424368E+002
 14
8.7501848E+001
 24
2.0167578E+002
 40
1.25E-001
 50
9.0E+001
  0
TEXT
  8
1
  6
CONTINUOUS
 62
4
 10
5.9525973E+001
 20
2.1119353E+002
 40
2.8
  1
9,1
 41
8.0586135E-001
  0
DIMENSION
  8
1
  6
CONTINUOUS
 62
4
  1
     
  2
*D1453
  3
DSTYLE2
 10
6.7501758E+001
 20
2.0984158E+002
 11
6.2827788E+001
 21
2.1284258E+002
 70
128
 13
5.8401748E+001
 23
1.8874588E+002
 14
6.7501758E+001
 24
1.8874588E+002
 40
1.25E-001
 50
0.0
  0
LINE
  8
1
  6
CONTINUOUS
 62
4
 10
1.1791469E+002
 20
1.0783457E+002
 11
1.8433419E+002
 21
1.0783457E+002
  0
LINE
  8
1
  6
CONTINUOUS
 62
4
 10
2.5974098E+001
 20
9.426802E+001
 11
1.0251287E+002
 21
9.426802E+001
  0
DIMENSION
  8
1
  6
CONTINUOUS
 62
4
  2
*D1456
  3
DSTYLE2
 10
5.2501718E+001
 20
1.3184158E+002
 11
6.8827788E+001
 21
1.3484258E+002
 70
128
 13
8.7501758E+001
 23
1.9300248E+002
 14
5.2501718E+001
 24
1.4333448E+002
 40
1.25E-001
 50
0.0
  0
TEXT
  8
1
  6
CONTINUOUS
 62
4
 10
1.4537646E+002
 20
1.0694044E+001
 40
2.2
  1
B6/K6/BC6/KC6/B7/BC7+CA6
 41
8.0E-001
 72
1
 11
1.2425646E+002
 21
1.0694044E+001
  0
TEXT
  8
1
  6
CONTINUOUS
 62
4
 10
1.1050493E+002
 20
2.7496036E+001
 40
2.4
  1
15.4.85  Dietzel
 41
6.0E-001
  0
TEXT
  8
1
  6
CONTINUOUS
 62
4
 10
1.4920923E+002
 20
7.129363
 40
5.0
  1
GJL 120 0407
 41
8.0E-001
  0
TEXT
  8
1
  6
CONTINUOUS
 62
4
 10
1.712215E+002
 20
2.319715E+001
 40
2.5
  1
X
 41
1.066667
  0
TEXT
  8
1
  6
CONTINUOUS
 62
4
 10
7.655026E+001
 20
1.4973156E+001
 40
2.5
  1
STO/CLD
 41
1.083333
  0
TEXT
  8
1
  6
CONTINUOUS
 62
4
 10
5.0546385E+001
 20
2.110487E+002
 40
2.8
  1
9,1
 41
8.0586135E-001
  0
DIMENSION
  8
1
  6
CONTINUOUS
 62
4
  1
     
  2
*D1463
  3
DSTYLE2
 10
5.8401748E+001
 20
2.0984158E+002
 11
5.2827788E+001
 21
2.1284258E+002
 70
128
 13
4.9301738E+001
 23
1.8874588E+002
 14
5.8401748E+001
 24
1.8874588E+002
 40
1.25E-001
 50
0.0
  0
POLYLINE
  8
1
  6
HIDDEN
 62
3
 66
1
 40
5.0E-001
 41
5.0E-001
 70
0
  0
VERTEX
  8
1
 42
0.0
 10
9.7251738E+001
 20
1.7492578E+002
 70
0
  0
VERTEX
  8
1
 42
0.0
 10
9.1251738E+001
 20
1.7492578E+002
 70
0
  0
SEQEND
  0
POLYLINE
  8
1
  6
HIDDEN
 62
3
 66
1
 40
5.0E-001
 41
5.0E-001
 70
0
  0
VERTEX
  8
1
 42
0.0
 10
9.7251738E+001
 20
1.7092578E+002
 70
0
  0
VERTEX
  8
1
 42
0.0
 10
9.1251738E+001
 20
1.7092578E+002
 70
0
  0
SEQEND
  0
TEXT
  8
1
  6
CONTINUOUS
 62
4
 10
1.1092569E+002
 20
2.3340999E+001
 40
2.4
  1
2.8.04 SteFei
 41
6.0E-001
  0
DIMENSION
  8
1
  6
CONTINUOUS
 62
4
  2
*D1467
  3
DSTYLE2
 10
1.1740041E+002
 20
1.4792578E+002
 11
1.1439941E+002
 21
1.7249993E+002
 70
128
 13
9.2231868E+001
 23
1.9792578E+002
 14
5.7633448E+001
 24
1.4792578E+002
 40
1.25E-001
 50
9.0E+001
  0
TEXT
  8
1
  6
CONTINUOUS
 62
4
 10
1.1009526E+002
 20
1.4963731E+001
 40
2.4
  1
2.8.04 GuNi
 41
6.0E-001
  0
LINE
  8
1
  6
CENTERLINE
 62
1
 10
1.8601249E+002
 20
1.8562578E+002
 11
1.6594999E+002
 21
1.8562578E+002
  0
LINE
  8
1
  6
CENTERLINE
 62
1
 10
1.8601249E+002
 20
1.6022578E+002
 11
1.6614899E+002
 21
1.6022578E+002
  0
POLYLINE
  8
1
  6
CONTINUOUS
 62
3
 66
1
 40
5.0E-001
 41
5.0E-001
 70
0
  0
VERTEX
  8
1
 42
4.1421356E-001
 10
1.3956059E+002
 20
1.5082578E+002
 70
0
  0
VERTEX
  8
1
 42
0.0
 10
1.4056059E+002
 20
1.5182578E+002
 70
0
  0
SEQEND
  0
POLYLINE
  8
1
  6
CONTINUOUS
 62
3
 66
1
 40
5.0E-001
 41
5.0E-001
 70
0
  0
VERTEX
  8
1
 42
0.0
 10
1.4206059E+002
 20
1.5082578E+002
 70
0
  0
VERTEX
  8
1
 42
0.0
 10
1.3756059E+002
 20
1.5082578E+002
 70
0
  0
SEQEND
  0
POLYLINE
  8
1
  6
CONTINUOUS
 62
3
 66
1
 40
5.0E-001
 41
5.0E-001
 70
0
  0
VERTEX
  8
1
 42
0.0
 10
1.3756059E+002
 20
1.4417578E+002
 70
0
  0
VERTEX
  8
1
 42
0.0
 10
1.3756059E+002
 20
1.5082578E+002
 70
0
  0
SEQEND
  0
POLYLINE
  8
1
  6
CONTINUOUS
 62
3
 66
1
 40
5.0E-001
 41
5.0E-001
 70
0
  0
VERTEX
  8
1
 42
0.0
 10
1.4156059E+002
 20
1.4417578E+002
 70
0
  0
VERTEX
  8
1
 42
0.0
 10
1.3756059E+002
 20
1.4417578E+002
 70
0
  0
SEQEND
  0
INSERT
  2
*E1475
  8
1
 10
1.4156059E+002
 20
1.4467578E+002
 41
1.0
 42
1.0
 43
1.0
 50
2.7E+002
 62
3
  0
POLYLINE
  8
1
  6
CONTINUOUS
 62
3
 66
1
 40
5.0E-001
 41
5.0E-001
 70
0
  0
VERTEX
  8
1
 42
0.0
 10
1.4206059E+002
 20
1.4467578E+002
 70
0
  0
VERTEX
  8
1
 42
0.0
 10
1.4206059E+002
 20
1.5182578E+002
 70
0
  0
SEQEND
  0
LINE
  8
1
  6
CENTERLINE
 62
1
 10
1.4322109E+002
 20
1.4792578E+002
 11
1.3675279E+002
 21
1.4792578E+002
  0
POLYLINE
  8
1
  6
CONTINUOUS
 62
3
 66
1
 40
5.0E-001
 41
5.0E-001
 70
0
  0
VERTEX
  8
1
 42
0.0
 10
1.5906059E+002
 20
1.5162568E+002
 70
0
  0
VERTEX
  8
1
 42
0.0
 10
1.5616059E+002
 20
1.5162568E+002
 70
0
  0
SEQEND
  0
POLYLINE
  8
1
  6
CONTINUOUS
 62
3
 66
1
 40
5.0E-001
 41
5.0E-001
 70
0
  0
VERTEX
  8
1
 42
0.0
 10
1.5906059E+002
 20
1.5052578E+002
 70
0
  0
VERTEX
  8
1
 42
0.0
 10
1.5616059E+002
 20
1.5052578E+002
 70
0
  0
SEQEND
  0
POLYLINE
  8
1
  6
CONTINUOUS
 62
3
 66
1
 40
5.0E-001
 41
5.0E-001
 70
0
  0
VERTEX
  8
1
 42
0.0
 10
1.5906059E+002
 20
1.5032578E+002
 70
0
  0
VERTEX
  8
1
 42
0.0
 10
1.5616059E+002
 20
1.5032578E+002
 70
0
  0
SEQEND
  0
POLYLINE
  8
1
  6
CONTINUOUS
 62
3
 66
1
 40
5.0E-001
 41
5.0E-001
 70
0
  0
VERTEX
  8
1
 42
0.0
 10
1.5616059E+002
 20
1.5032578E+002
 70
0
  0
VERTEX
  8
1
 42
0.0
 10
1.5616059E+002
 20
1.5182578E+002
 70
0
  0
SEQEND
  0
DIMENSION
  8
1
  6
CONTINUOUS
 62
4
  2
*D1482
  3
DSTYLE2
 10
4.2501728E+001
 20
1.1584158E+002
 11
6.8827788E+001
 21
1.1884258E+002
 70
128
 13
8.7501758E+001
 23
1.9300248E+002
 14
4.2501728E+001
 24
1.4351178E+002
 40
1.25E-001
 50
0.0
  0
TEXT
  8
1
  6
CONTINUOUS
 62
4
 10
7.7919643E+001
 20
2.1119353E+002
 40
2.8
  1
9,1
 41
8.0586135E-001
  0
DIMENSION
  8
1
  6
CONTINUOUS
 62
4
  1
     
  2
*D1484
  3
DSTYLE2
 10
8.5701748E+001
 20
2.0984158E+002
 11
8.0827788E+001
 21
2.1284258E+002
 70
128
 13
7.6601748E+001
 23
1.8874588E+002
 14
8.5701748E+001
 24
1.8874588E+002
 40
1.25E-001
 50
0.0
  0
DIMENSION
  8
1
  6
CONTINUOUS
 62
4
  2
*D1485
  3
DSTYLE2
 10
8.7501758E+001
 20
1.2384158E+002
 11
6.8827788E+001
 21
1.2684258E+002
 70
128
 13
4.7501718E+001
 23
1.4351178E+002
 14
8.7501758E+001
 24
1.9300248E+002
 40
1.25E-001
 50
0.0
  0
TEXT
  8
1
  6
CONTINUOUS
 62
4
 10
2.6010048E+001
 20
2.3712732E+001
 40
2.5
  1
a
 41
8.666667E-001
  0
TEXT
  8
1
  6
CONTINUOUS
 62
4
 10
2.6010048E+001
 20
1.9168862E+001
 40
2.5
  1
b
 41
8.666667E-001
  0
TEXT
  8
1
  6
CONTINUOUS
 62
4
 10
1.2930919E+002
 20
4.7519987E+001
 40
3.0
  1
Befestigungsaugen abbrechbar
 41
8.307072E-001
  0
ARC
  8
1
  6
PHANTOM
 62
4
 10
1.3456059E+002
 20
1.8492578E+002
 40
5.0E-001
 50
9.0E+001
 51
1.8E+002
  0
POLYLINE
  8
1
  6
HIDDEN
 62
3
 66
1
 40
5.0E-001
 41
5.0E-001
 70
0
  0
VERTEX
  8
1
 42
0.0
 10
1.7416059E+002
 20
1.5522578E+002
 70
0
  0
VERTEX
  8
1
 42
0.0
 10
1.7416059E+002
 20
1.6522578E+002
 70
0
  0
SEQEND
  0
TEXT
  8
1
  6
CONTINUOUS
 62
4
 10
3.3147008E+001
 20
2.3813702E+001
 40
2.2
  1
JL 121 010
 41
6.8592279E-001
  0
TEXT
  8
1
  6
CONTINUOUS
 62
4
 10
7.6029287E+001
 20
2.4264107E+002
 40
3.0
  1
Handbetaetigung
 41
8.0E-001
  0
POLYLINE
  8
1
  6
CONTINUOUS
 62
3
 66
1
 40
5.0E-001
 41
5.0E-001
 70
0
  0
VERTEX
  8
1
 42
0.0
 10
1.3956059E+002
 20
1.5542578E+002
 70
0
  0
VERTEX
  8
1
 42
0.0
 10
1.4056059E+002
 20
1.5542578E+002
 70
0
  0
SEQEND
  0
ARC
  8
1
  6
PHANTOM
 62
4
 10
1.3876059E+002
 20
1.8722578E+002
 40
1.8
 50
2.7E+002
 51
3.6E+002
  0
POLYLINE
  8
1
  6
CONTINUOUS
 62
3
 66
1
 40
5.0E-001
 41
5.0E-001
 70
0
  0
VERTEX
  8
1
 42
0.0
 10
1.4056059E+002
 20
1.9042578E+002
 70
0
  0
VERTEX
  8
1
 42
0.0
 10
1.3956059E+002
 20
1.9042578E+002
 70
0
  0
SEQEND
  0
POLYLINE
  8
1
  6
HIDDEN
 62
3
 66
1
 40
5.0E-001
 41
5.0E-001
 70
0
  0
VERTEX
  8
1
 42
0.0
 10
1.7416059E+002
 20
1.6392578E+002
 70
0
  0
VERTEX
  8
1
 42
0.0
 10
1.7696059E+002
 20
1.6392578E+002
 70
0
  0
SEQEND
  0
POLYLINE
  8
1
  6
HIDDEN
 62
3
 66
1
 40
5.0E-001
 41
5.0E-001
 70
0
  0
VERTEX
  8
1
 42
0.0
 10
1.7696059E+002
 20
1.5652578E+002
 70
0
  0
VERTEX
  8
1
 42
0.0
 10
1.7416059E+002
 20
1.5652578E+002
 70
0
  0
SEQEND
  0
POLYLINE
  8
1
  6
HIDDEN
 62
3
 66
1
 40
5.0E-001
 41
5.0E-001
 70
0
  0
VERTEX
  8
1
 42
0.0
 10
1.7696059E+002
 20
1.5652578E+002
 70
0
  0
VERTEX
  8
1
 42
0.0
 10
1.7696059E+002
 20
1.6392578E+002
 70
0
  0
SEQEND
  0
POLYLINE
  8
1
  6
HIDDEN
 62
3
 66
1
 40
5.0E-001
 41
5.0E-001
 70
0
  0
VERTEX
  8
1
 42
0.0
 10
1.7536059E+002
 20
1.5652578E+002
 70
0
  0
VERTEX
  8
1
 42
0.0
 10
1.7536059E+002
 20
1.6392578E+002
 70
0
  0
SEQEND
  0
POLYLINE
  8
1
  6
HIDDEN
 62
3
 66
1
 40
5.0E-001
 41
5.0E-001
 70
0
  0
VERTEX
  8
1
 42
0.0
 10
1.7936059E+002
 20
1.5747578E+002
 70
0
  0
VERTEX
  8
1
 42
0.0
 10
1.7936059E+002
 20
1.6297578E+002
 70
0
  0
SEQEND
  0
POLYLINE
  8
1
  6
HIDDEN
 62
3
 66
1
 40
5.0E-001
 41
5.0E-001
 70
0
  0
VERTEX
  8
1
 42
0.0
 10
1.7936059E+002
 20
1.6297578E+002
 70
0
  0
VERTEX
  8
1
 42
0.0
 10
1.7696059E+002
 20
1.6297578E+002
 70
0
  0
SEQEND
  0
POLYLINE
  8
1
  6
HIDDEN
 62
3
 66
1
 40
5.0E-001
 41
5.0E-001
 70
0
  0
VERTEX
  8
1
 42
0.0
 10
1.7316059E+002
 20
1.5522578E+002
 70
0
  0
VERTEX
  8
1
 42
0.0
 10
1.7316059E+002
 20
1.6522578E+002
 70
0
  0
SEQEND
  0
TEXT
  8
1
  6
CONTINUOUS
 62
4
 10
3.3139448E+001
 20
1.9471792E+001
 40
2.2
  1
JL 121 013
 41
6.8621326E-001
  0
LINE
  8
1
  6
PHANTOM
 62
4
 10
1.3406059E+002
 20
1.6092578E+002
 11
1.3406059E+002
 21
1.8492578E+002
  0
LINE
  8
1
  6
PHANTOM
 62
4
 10
1.3306059E+002
 20
1.6122578E+002
 11
1.3306059E+002
 21
1.8462578E+002
  0
TEXT
  8
1
  6
CONTINUOUS
 62
4
 10
1.9437303E+002
 20
1.6776875E+002
 40
3.0
  1
25,4
 41
8.0E-001
 50
9.0E+001
  0
DIMENSION
  8
1
  6
CONTINUOUS
 62
4
  1
       
  2
*D1507
  3
DSTYLE2
 10
1.9582879E+002
 20
1.6022578E+002
 11
1.9282779E+002
 21
1.7284258E+002
 70
128
 13
1.8601259E+002
 23
1.8562578E+002
 14
1.8601259E+002
 24
1.6022578E+002
 40
1.25E-001
 50
9.0E+001
  0
TEXT
  8
1
  6
CONTINUOUS
 62
4
 10
1.2435529E+002
 20
1.0949174E+002
 40
3.0
  1
Hutschiene 35 EN50022
 41
9.1702418E-001
  0
POLYLINE
  8
1
  6
HIDDEN
 62
3
 66
1
 40
5.0E-001
 41
5.0E-001
 70
0
  0
VERTEX
  8
1
 42
0.0
 10
1.7416059E+002
 20
1.8062578E+002
 70
0
  0
VERTEX
  8
1
 42
0.0
 10
1.7416059E+002
 20
1.9062578E+002
 70
0
  0
SEQEND
  0
POLYLINE
  8
1
  6
HIDDEN
 62
3
 66
1
 40
5.0E-001
 41
5.0E-001
 70
0
  0
VERTEX
  8
1
 42
0.0
 10
1.7316059E+002
 20
1.8062578E+002
 70
0
  0
VERTEX
  8
1
 42
0.0
 10
1.7316059E+002
 20
1.9062578E+002
 70
0
  0
SEQEND
  0
TEXT
  8
1
  6
CONTINUOUS
 62
4
 10
7.7104754E+001
 20
7.362094
 40
4.5
  1
Massbild
 41
8.9370686E-001
 72
1
 11
6.1018031E+001
 21
7.362094
  0
POLYLINE
  8
1
  6
HIDDEN
 62
3
 66
1
 40
5.0E-001
 41
5.0E-001
 70
0
  0
VERTEX
  8
1
 42
0.0
 10
1.7936059E+002
 20
1.5747578E+002
 70
0
  0
VERTEX
  8
1
 42
0.0
 10
1.7696059E+002
 20
1.5747578E+002
 70
0
  0
SEQEND
  0
POLYLINE
  8
1
  6
HIDDEN
 62
3
 66
1
 40
5.0E-001
 41
5.0E-001
 70
0
  0
VERTEX
  8
1
 42
0.0
 10
1.7416059E+002
 20
1.8932578E+002
 70
0
  0
VERTEX
  8
1
 42
0.0
 10
1.7696059E+002
 20
1.8932578E+002
 70
0
  0
SEQEND
  0
POLYLINE
  8
1
  6
HIDDEN
 62
3
 66
1
 40
5.0E-001
 41
5.0E-001
 70
0
  0
VERTEX
  8
1
 42
0.0
 10
1.7696059E+002
 20
1.8192578E+002
 70
0
  0
VERTEX
  8
1
 42
0.0
 10
1.7416059E+002
 20
1.8192578E+002
 70
0
  0
SEQEND
  0
POLYLINE
  8
1
  6
HIDDEN
 62
3
 66
1
 40
5.0E-001
 41
5.0E-001
 70
0
  0
VERTEX
  8
1
 42
0.0
 10
1.7696059E+002
 20
1.8192578E+002
 70
0
  0
VERTEX
  8
1
 42
0.0
 10
1.7696059E+002
 20
1.8932578E+002
 70
0
  0
SEQEND
  0
POLYLINE
  8
1
  6
HIDDEN
 62
3
 66
1
 40
5.0E-001
 41
5.0E-001
 70
0
  0
VERTEX
  8
1
 42
0.0
 10
1.7536059E+002
 20
1.8192578E+002
 70
0
  0
VERTEX
  8
1
 42
0.0
 10
1.7536059E+002
 20
1.8932578E+002
 70
0
  0
SEQEND
  0
POLYLINE
  8
1
  6
HIDDEN
 62
3
 66
1
 40
5.0E-001
 41
5.0E-001
 70
0
  0
VERTEX
  8
1
 42
0.0
 10
1.7936059E+002
 20
1.8287578E+002
 70
0
  0
VERTEX
  8
1
 42
0.0
 10
1.7936059E+002
 20
1.8837578E+002
 70
0
  0
SEQEND
  0
POLYLINE
  8
1
  6
HIDDEN
 62
3
 66
1
 40
5.0E-001
 41
5.0E-001
 70
0
  0
VERTEX
  8
1
 42
0.0
 10
1.7936059E+002
 20
1.8837578E+002
 70
0
  0
VERTEX
  8
1
 42
0.0
 10
1.7696059E+002
 20
1.8837578E+002
 70
0
  0
SEQEND
  0
POLYLINE
  8
1
  6
HIDDEN
 62
3
 66
1
 40
5.0E-001
 41
5.0E-001
 70
0
  0
VERTEX
  8
1
 42
0.0
 10
1.7936059E+002
 20
1.8287578E+002
 70
0
  0
VERTEX
  8
1
 42
0.0
 10
1.7696059E+002
 20
1.8287578E+002
 70
0
  0
SEQEND
  0
ARC
  8
1
  6
PHANTOM
 62
4
 10
1.3486059E+002
 20
1.8462578E+002
 40
1.8
 50
9.0E+001
 51
1.8E+002
  0
POLYLINE
  8
1
  6
CONTINUOUS
 62
3
 66
1
 40
5.0E-001
 41
5.0E-001
 70
0
  0
VERTEX
  8
1
 42
0.0
 10
9.1251738E+001
 20
1.5262578E+002
 70
0
  0
VERTEX
  8
1
 42
0.0
 10
9.1251738E+001
 20
1.7292578E+002
 70
0
  0
SEQEND
  0
POLYLINE
  8
1
  6
CONTINUOUS
 62
3
 66
1
 40
5.0E-001
 41
5.0E-001
 70
0
  0
VERTEX
  8
1
 42
0.0
 10
4.4701738E+001
 20
1.7037578E+002
 70
0
  0
VERTEX
  8
1
 42
0.0
 10
4.4701738E+001
 20
1.7092558E+002
 70
0
  0
SEQEND
  0
POLYLINE
  8
1
  6
CONTINUOUS
 62
3
 66
1
 40
5.0E-001
 41
5.0E-001
 70
0
  0
VERTEX
  8
1
 42
0.0
 10
5.4451738E+001
 20
1.7037578E+002
 70
0
  0
VERTEX
  8
1
 42
0.0
 10
4.4651588E+001
 20
1.7037578E+002
 70
0
  0
SEQEND
  0
POLYLINE
  8
1
  6
CONTINUOUS
 62
3
 66
1
 40
5.0E-001
 41
5.0E-001
 70
0
  0
VERTEX
  8
1
 42
0.0
 10
5.4951738E+001
 20
1.7087578E+002
 70
0
  0
VERTEX
  8
1
 42
0.0
 10
5.4951738E+001
 20
1.7292578E+002
 70
0
  0
SEQEND
  0
POLYLINE
  8
1
  6
CONTINUOUS
 62
3
 66
1
 40
5.0E-001
 41
5.0E-001
 70
0
  0
VERTEX
  8
1
 42
0.0
 10
9.1251738E+001
 20
1.5282578E+002
 70
0
  0
VERTEX
  8
1
 42
0.0
 10
8.9901728E+001
 20
1.5282578E+002
 70
0
  0
SEQEND
  0
POLYLINE
  8
1
  6
CONTINUOUS
 62
3
 66
1
 40
5.0E-001
 41
5.0E-001
 70
0
  0
VERTEX
  8
1
 42
0.0
 10
9.0451738E+001
 20
1.5182578E+002
 70
0
  0
VERTEX
  8
1
 42
0.0
 10
9.0401728E+001
 20
1.5182578E+002
 70
0
  0
SEQEND
  0
POLYLINE
  8
1
  6
CONTINUOUS
 62
3
 66
1
 40
5.0E-001
 41
5.0E-001
 70
0
  0
VERTEX
  8
1
 42
0.0
 10
6.9001738E+001
 20
1.5162578E+002
 70
0
  0
VERTEX
  8
1
 42
0.0
 10
6.9001738E+001
 20
1.5182578E+002
 70
0
  0
SEQEND
  0
POLYLINE
  8
1
  6
CONTINUOUS
 62
3
 66
1
 40
5.0E-001
 41
5.0E-001
 70
0
  0
VERTEX
  8
1
 42
0.0
 10
7.0001738E+001
 20
1.5182578E+002
 70
0
  0
VERTEX
  8
1
 42
0.0
 10
6.5001738E+001
 20
1.5182578E+002
 70
0
  0
SEQEND
  0
POLYLINE
  8
1
  6
CONTINUOUS
 62
3
 66
1
 40
5.0E-001
 41
5.0E-001
 70
0
  0
VERTEX
  8
1
 42
0.0
 10
6.9501738E+001
 20
1.5032578E+002
 70
0
  0
VERTEX
  8
1
 42
0.0
 10
6.5501738E+001
 20
1.5032578E+002
 70
0
  0
SEQEND
  0
POLYLINE
  8
1
  6
CONTINUOUS
 62
3
 66
1
 40
5.0E-001
 41
5.0E-001
 70
0
  0
VERTEX
  8
1
 42
0.0
 10
6.9501738E+001
 20
1.5032578E+002
 70
0
  0
VERTEX
  8
1
 42
0.0
 10
6.9501738E+001
 20
1.5052578E+002
 70
0
  0
SEQEND
  0
POLYLINE
  8
1
  6
CONTINUOUS
 62
3
 66
1
 40
5.0E-001
 41
5.0E-001
 70
0
  0
VERTEX
  8
1
 42
0.0
 10
6.5501738E+001
 20
1.5032578E+002
 70
0
  0
VERTEX
  8
1
 42
0.0
 10
6.5501738E+001
 20
1.5052578E+002
 70
0
  0
SEQEND
  0
POLYLINE
  8
1
  6
CONTINUOUS
 62
3
 66
1
 40
5.0E-001
 41
5.0E-001
 70
0
  0
VERTEX
  8
1
 42
0.0
 10
6.9001738E+001
 20
1.5162578E+002
 70
0
  0
VERTEX
  8
1
 42
0.0
 10
6.9501738E+001
 20
1.5052578E+002
 70
0
  0
SEQEND
  0
POLYLINE
  8
1
  6
CONTINUOUS
 62
3
 66
1
 40
5.0E-001
 41
5.0E-001
 70
0
  0
VERTEX
  8
1
 42
0.0
 10
6.6001738E+001
 20
1.5162578E+002
 70
0
  0
VERTEX
  8
1
 42
0.0
 10
6.5501738E+001
 20
1.5052578E+002
 70
0
  0
SEQEND
  0
POLYLINE
  8
1
  6
CONTINUOUS
 62
3
 66
1
 40
5.0E-001
 41
5.0E-001
 70
0
  0
VERTEX
  8
1
 42
0.0
 10
8.1501738E+001
 20
1.5223428E+002
 70
0
  0
VERTEX
  8
1
 42
0.0
 10
8.1501738E+001
 20
1.5292578E+002
 70
0
  0
SEQEND
  0
POLYLINE
  8
1
  6
CONTINUOUS
 62
3
 66
1
 40
5.0E-001
 41
5.0E-001
 70
0
  0
VERTEX
  8
1
 42
0.0
 10
8.0801738E+001
 20
1.5217588E+002
 70
0
  0
VERTEX
  8
1
 42
0.0
 10
8.0801738E+001
 20
1.5292578E+002
 70
0
  0
SEQEND
  0
POLYLINE
  8
1
  6
CONTINUOUS
 62
3
 66
1
 40
5.0E-001
 41
5.0E-001
 70
0
  0
VERTEX
  8
1
 42
0.0
 10
8.9901728E+001
 20
1.5232578E+002
 70
0
  0
VERTEX
  8
1
 42
0.0
 10
8.9901728E+001
 20
1.5292578E+002
 70
0
  0
SEQEND
  0
POLYLINE
  8
1
  6
CONTINUOUS
 62
3
 66
1
 40
5.0E-001
 41
5.0E-001
 70
0
  0
VERTEX
  8
1
 42
0.0
 10
8.7301738E+001
 20
1.5177578E+002
 70
0
  0
VERTEX
  8
1
 42
0.0
 10
8.7301738E+001
 20
1.5292578E+002
 70
0
  0
SEQEND
  0
POLYLINE
  8
1
  6
CONTINUOUS
 62
3
 66
1
 40
5.0E-001
 41
5.0E-001
 70
0
  0
VERTEX
  8
1
 42
0.0
 10
8.9901728E+001
 20
1.5222578E+002
 70
0
  0
VERTEX
  8
1
 42
0.0
 10
8.7301738E+001
 20
1.5222578E+002
 70
0
  0
SEQEND
  0
POLYLINE
  8
1
  6
CONTINUOUS
 62
3
 66
1
 40
5.0E-001
 41
5.0E-001
 70
0
  0
VERTEX
  8
1
 42
0.0
 10
7.2401728E+001
 20
1.5223428E+002
 70
0
  0
VERTEX
  8
1
 42
0.0
 10
7.2401728E+001
 20
1.5292578E+002
 70
0
  0
SEQEND
  0
POLYLINE
  8
1
  6
CONTINUOUS
 62
3
 66
1
 40
5.0E-001
 41
5.0E-001
 70
0
  0
VERTEX
  8
1
 42
0.0
 10
7.1701738E+001
 20
1.5217588E+002
 70
0
  0
VERTEX
  8
1
 42
0.0
 10
7.1701738E+001
 20
1.5292578E+002
 70
0
  0
SEQEND
  0
POLYLINE
  8
1
  6
CONTINUOUS
 62
3
 66
1
 40
5.0E-001
 41
5.0E-001
 70
0
  0
VERTEX
  8
1
 42
0.0
 10
6.3301738E+001
 20
1.5223428E+002
 70
0
  0
VERTEX
  8
1
 42
0.0
 10
6.3301738E+001
 20
1.5292578E+002
 70
0
  0
SEQEND
  0
POLYLINE
  8
1
  6
CONTINUOUS
 62
3
 66
1
 40
5.0E-001
 41
5.0E-001
 70
0
  0
VERTEX
  8
1
 42
0.0
 10
6.2601748E+001
 20
1.5217588E+002
 70
0
  0
VERTEX
  8
1
 42
0.0
 10
6.2601748E+001
 20
1.5292578E+002
 70
0
  0
SEQEND
  0
POLYLINE
  8
1
  6
CONTINUOUS
 62
3
 66
1
 40
5.0E-001
 41
5.0E-001
 70
0
  0
VERTEX
  8
1
 42
0.0
 10
5.4201738E+001
 20
1.5223428E+002
 70
0
  0
VERTEX
  8
1
 42
0.0
 10
5.4201738E+001
 20
1.5292578E+002
 70
0
  0
SEQEND
  0
POLYLINE
  8
1
  6
CONTINUOUS
 62
3
 66
1
 40
5.0E-001
 41
5.0E-001
 70
0
  0
VERTEX
  8
1
 42
0.0
 10
5.3501738E+001
 20
1.5217588E+002
 70
0
  0
VERTEX
  8
1
 42
0.0
 10
5.3501738E+001
 20
1.5292578E+002
 70
0
  0
SEQEND
  0
POLYLINE
  8
1
  6
CONTINUOUS
 62
3
 66
1
 40
5.0E-001
 41
5.0E-001
 70
0
  0
VERTEX
  8
1
 42
0.0
 10
5.3201738E+001
 20
1.5292578E+002
 70
0
  0
VERTEX
  8
1
 42
0.0
 10
5.3201738E+001
 20
1.5177578E+002
 70
0
  0
SEQEND
  0
POLYLINE
  8
1
  6
CONTINUOUS
 62
3
 66
1
 40
5.0E-001
 41
5.0E-001
 70
0
  0
VERTEX
  8
1
 42
0.0
 10
4.5101738E+001
 20
1.5232578E+002
 70
0
  0
VERTEX
  8
1
 42
0.0
 10
4.5101738E+001
 20
1.5292578E+002
 70
0
  0
SEQEND
  0
POLYLINE
  8
1
  6
CONTINUOUS
 62
3
 66
1
 40
5.0E-001
 41
5.0E-001
 70
0
  0
VERTEX
  8
1
 42
0.0
 10
4.4601738E+001
 20
1.5182578E+002
 70
0
  0
VERTEX
  8
1
 42
0.0
 10
4.4551748E+001
 20
1.5182578E+002
 70
0
  0
SEQEND
  0
POLYLINE
  8
1
  6
CONTINUOUS
 62
3
 66
1
 40
5.0E-001
 41
5.0E-001
 70
0
  0
VERTEX
  8
1
 42
0.0
 10
4.7701738E+001
 20
1.5177578E+002
 70
0
  0
VERTEX
  8
1
 42
0.0
 10
4.7701738E+001
 20
1.5292578E+002
 70
0
  0
SEQEND
  0
POLYLINE
  8
1
  6
CONTINUOUS
 62
3
 66
1
 40
5.0E-001
 41
5.0E-001
 70
0
  0
VERTEX
  8
1
 42
0.0
 10
4.7701738E+001
 20
1.5222578E+002
 70
0
  0
VERTEX
  8
1
 42
0.0
 10
4.5101738E+001
 20
1.5222578E+002
 70
0
  0
SEQEND
  0
POLYLINE
  8
1
  6
CONTINUOUS
 62
3
 66
1
 40
5.0E-001
 41
5.0E-001
 70
0
  0
VERTEX
  8
1
 42
0.0
 10
8.1801738E+001
 20
1.5292578E+002
 70
0
  0
VERTEX
  8
1
 42
0.0
 10
8.1801738E+001
 20
1.5177578E+002
 70
0
  0
SEQEND
  0
POLYLINE
  8
1
  6
CONTINUOUS
 62
3
 66
1
 40
5.0E-001
 41
5.0E-001
 70
0
  0
VERTEX
  8
1
 42
0.0
 10
8.1751708E+001
 20
1.5292578E+002
 70
0
  0
VERTEX
  8
1
 42
0.0
 10
8.1501738E+001
 20
1.5267578E+002
 70
0
  0
SEQEND
  0
POLYLINE
  8
1
  6
CONTINUOUS
 62
3
 66
1
 40
5.0E-001
 41
5.0E-001
 70
0
  0
VERTEX
  8
1
 42
0.0
 10
8.0551758E+001
 20
1.5292578E+002
 70
0
  0
VERTEX
  8
1
 42
0.0
 10
8.0801738E+001
 20
1.5267578E+002
 70
0
  0
SEQEND
  0
POLYLINE
  8
1
  6
CONTINUOUS
 62
3
 66
1
 40
5.0E-001
 41
5.0E-001
 70
0
  0
VERTEX
  8
1
 42
0.0
 10
7.2651718E+001
 20
1.5292578E+002
 70
0
  0
VERTEX
  8
1
 42
0.0
 10
7.2401728E+001
 20
1.5267578E+002
 70
0
  0
SEQEND
  0
POLYLINE
  8
1
  6
CONTINUOUS
 62
3
 66
1
 40
5.0E-001
 41
5.0E-001
 70
0
  0
VERTEX
  8
1
 42
0.0
 10
7.1451748E+001
 20
1.5292578E+002
 70
0
  0
VERTEX
  8
1
 42
0.0
 10
7.1701738E+001
 20
1.5267578E+002
 70
0
  0
SEQEND
  0
POLYLINE
  8
1
  6
CONTINUOUS
 62
3
 66
1
 40
5.0E-001
 41
5.0E-001
 70
0
  0
VERTEX
  8
1
 42
0.0
 10
6.3551728E+001
 20
1.5292578E+002
 70
0
  0
VERTEX
  8
1
 42
0.0
 10
6.3301738E+001
 20
1.5267578E+002
 70
0
  0
SEQEND
  0
POLYLINE
  8
1
  6
CONTINUOUS
 62
3
 66
1
 40
5.0E-001
 41
5.0E-001
 70
0
  0
VERTEX
  8
1
 42
0.0
 10
6.2351758E+001
 20
1.5292578E+002
 70
0
  0
VERTEX
  8
1
 42
0.0
 10
6.2601748E+001
 20
1.5267578E+002
 70
0
  0
SEQEND
  0
POLYLINE
  8
1
  6
CONTINUOUS
 62
3
 66
1
 40
5.0E-001
 41
5.0E-001
 70
0
  0
VERTEX
  8
1
 42
0.0
 10
5.4451718E+001
 20
1.5292578E+002
 70
0
  0
VERTEX
  8
1
 42
0.0
 10
5.4201738E+001
 20
1.5267578E+002
 70
0
  0
SEQEND
  0
POLYLINE
  8
1
  6
CONTINUOUS
 62
3
 66
1
 40
5.0E-001
 41
5.0E-001
 70
0
  0
VERTEX
  8
1
 42
0.0
 10
5.3501738E+001
 20
1.5267578E+002
 70
0
  0
VERTEX
  8
1
 42
0.0
 10
5.3251758E+001
 20
1.5292578E+002
 70
0
  0
SEQEND
  0
POLYLINE
  8
1
  6
CONTINUOUS
 62
3
 66
1
 40
5.0E-001
 41
5.0E-001
 70
0
  0
VERTEX
  8
1
 42
0.0
 10
8.7301738E+001
 20
1.5177578E+002
 70
0
  0
VERTEX
  8
1
 42
0.0
 10
8.1801738E+001
 20
1.5177578E+002
 70
0
  0
SEQEND
  0
POLYLINE
  8
1
  6
CONTINUOUS
 62
3
 66
1
 40
5.0E-001
 41
5.0E-001
 70
0
  0
VERTEX
  8
1
 42
0.0
 10
5.3201738E+001
 20
1.5177578E+002
 70
0
  0
VERTEX
  8
1
 42
0.0
 10
4.7701738E+001
 20
1.5177578E+002
 70
0
  0
SEQEND
  0
POLYLINE
  8
1
  6
CONTINUOUS
 62
3
 66
1
 40
5.0E-001
 41
5.0E-001
 70
0
  0
VERTEX
  8
1
 42
0.0
 10
8.9901728E+001
 20
1.5182578E+002
 70
0
  0
VERTEX
  8
1
 42
0.0
 10
9.0451738E+001
 20
1.5182578E+002
 70
0
  0
SEQEND
  0
POLYLINE
  8
1
  6
CONTINUOUS
 62
3
 66
1
 40
5.0E-001
 41
5.0E-001
 70
0
  0
VERTEX
  8
1
 42
0.0
 10
8.9601728E+001
 20
1.5222578E+002
 70
0
  0
VERTEX
  8
1
 42
0.0
 10
8.9901728E+001
 20
1.5182578E+002
 70
0
  0
SEQEND
  0
POLYLINE
  8
1
  6
CONTINUOUS
 62
3
 66
1
 40
5.0E-001
 41
5.0E-001
 70
0
  0
VERTEX
  8
1
 42
0.0
 10
4.4597098E+001
 20
1.5182578E+002
 70
0
  0
VERTEX
  8
1
 42
0.0
 10
4.5101738E+001
 20
1.5182578E+002
 70
0
  0
SEQEND
  0
POLYLINE
  8
1
  6
CONTINUOUS
 62
3
 66
1
 40
5.0E-001
 41
5.0E-001
 70
0
  0
VERTEX
  8
1
 42
0.0
 10
4.5401738E+001
 20
1.5222578E+002
 70
0
  0
VERTEX
  8
1
 42
0.0
 10
4.5101738E+001
 20
1.5182578E+002
 70
0
  0
SEQEND
  0
POLYLINE
  8
1
  6
CONTINUOUS
 62
3
 66
1
 40
5.0E-001
 41
5.0E-001
 70
0
  0
VERTEX
  8
1
 42
0.0
 10
7.0001738E+001
 20
1.5182578E+002
 70
0
  0
VERTEX
  8
1
 42
0.0
 10
7.0001738E+001
 20
1.5292578E+002
 70
0
  0
SEQEND
  0
POLYLINE
  8
1
  6
CONTINUOUS
 62
3
 66
1
 40
5.0E-001
 41
5.0E-001
 70
0
  0
VERTEX
  8
1
 42
0.0
 10
6.5001738E+001
 20
1.5182578E+002
 70
0
  0
VERTEX
  8
1
 42
0.0
 10
6.5001738E+001
 20
1.5292578E+002
 70
0
  0
SEQEND
  0
POLYLINE
  8
1
  6
CONTINUOUS
 62
3
 66
1
 40
5.0E-001
 41
5.0E-001
 70
0
  0
VERTEX
  8
1
 42
0.0
 10
4.4751748E+001
 20
1.6982578E+002
 70
0
  0
VERTEX
  8
1
 42
0.0
 10
4.3751748E+001
 20
1.6982578E+002
 70
0
  0
SEQEND
  0
POLYLINE
  8
1
  6
CONTINUOUS
 62
3
 66
1
 40
5.0E-001
 41
5.0E-001
 70
0
  0
VERTEX
  8
1
 42
0.0
 10
9.1251758E+001
 20
1.9322578E+002
 70
0
  0
VERTEX
  8
1
 42
0.0
 10
9.1251738E+001
 20
1.7292578E+002
 70
0
  0
SEQEND
  0
POLYLINE
  8
1
  6
CONTINUOUS
 62
3
 66
1
 40
5.0E-001
 41
5.0E-001
 70
0
  0
VERTEX
  8
1
 42
0.0
 10
4.3751758E+001
 20
1.9322578E+002
 70
0
  0
VERTEX
  8
1
 42
0.0
 10
4.3751748E+001
 20
1.7292578E+002
 70
0
  0
SEQEND
  0
POLYLINE
  8
1
  6
CONTINUOUS
 62
3
 66
1
 40
5.0E-001
 41
5.0E-001
 70
0
  0
VERTEX
  8
1
 42
0.0
 10
4.4701738E+001
 20
1.7547578E+002
 70
0
  0
VERTEX
  8
1
 42
0.0
 10
4.4701738E+001
 20
1.7492578E+002
 70
0
  0
SEQEND
  0
POLYLINE
  8
1
  6
CONTINUOUS
 62
3
 66
1
 40
5.0E-001
 41
5.0E-001
 70
0
  0
VERTEX
  8
1
 42
0.0
 10
5.4451738E+001
 20
1.7547578E+002
 70
0
  0
VERTEX
  8
1
 42
0.0
 10
4.4651588E+001
 20
1.7547578E+002
 70
0
  0
SEQEND
  0
POLYLINE
  8
1
  6
CONTINUOUS
 62
3
 66
1
 40
5.0E-001
 41
5.0E-001
 70
0
  0
VERTEX
  8
1
 42
0.0
 10
5.4951738E+001
 20
1.7497578E+002
 70
0
  0
VERTEX
  8
1
 42
0.0
 10
5.4951738E+001
 20
1.7292578E+002
 70
0
  0
SEQEND
  0
POLYLINE
  8
1
  6
CONTINUOUS
 62
3
 66
1
 40
5.0E-001
 41
5.0E-001
 70
0
  0
VERTEX
  8
1
 42
0.0
 10
9.1251758E+001
 20
1.9302578E+002
 70
0
  0
VERTEX
  8
1
 42
0.0
 10
8.9901748E+001
 20
1.9302578E+002
 70
0
  0
SEQEND
  0
POLYLINE
  8
1
  6
CONTINUOUS
 62
3
 66
1
 40
5.0E-001
 41
5.0E-001
 70
0
  0
VERTEX
  8
1
 42
0.0
 10
9.0451748E+001
 20
1.9402578E+002
 70
0
  0
VERTEX
  8
1
 42
0.0
 10
9.0401748E+001
 20
1.9402578E+002
 70
0
  0
SEQEND
  0
POLYLINE
  8
1
  6
CONTINUOUS
 62
3
 66
1
 40
5.0E-001
 41
5.0E-001
 70
0
  0
VERTEX
  8
1
 42
0.0
 10
6.9001738E+001
 20
1.9422578E+002
 70
0
  0
VERTEX
  8
1
 42
0.0
 10
6.9001738E+001
 20
1.9402578E+002
 70
0
  0
SEQEND
  0
POLYLINE
  8
1
  6
CONTINUOUS
 62
3
 66
1
 40
5.0E-001
 41
5.0E-001
 70
0
  0
VERTEX
  8
1
 42
0.0
 10
6.6001738E+001
 20
1.9422578E+002
 70
0
  0
VERTEX
  8
1
 42
0.0
 10
6.6001738E+001
 20
1.9402578E+002
 70
0
  0
SEQEND
  0
POLYLINE
  8
1
  6
CONTINUOUS
 62
3
 66
1
 40
5.0E-001
 41
5.0E-001
 70
0
  0
VERTEX
  8
1
 42
0.0
 10
7.0001738E+001
 20
1.9402578E+002
 70
0
  0
VERTEX
  8
1
 42
0.0
 10
6.5001738E+001
 20
1.9402578E+002
 70
0
  0
SEQEND
  0
POLYLINE
  8
1
  6
CONTINUOUS
 62
3
 66
1
 40
5.0E-001
 41
5.0E-001
 70
0
  0
VERTEX
  8
1
 42
0.0
 10
8.1501738E+001
 20
1.9361728E+002
 70
0
  0
VERTEX
  8
1
 42
0.0
 10
8.1501738E+001
 20
1.9292578E+002
 70
0
  0
SEQEND
  0
POLYLINE
  8
1
  6
CONTINUOUS
 62
3
 66
1
 40
5.0E-001
 41
5.0E-001
 70
0
  0
VERTEX
  8
1
 42
0.0
 10
8.0801738E+001
 20
1.9367568E+002
 70
0
  0
VERTEX
  8
1
 42
0.0
 10
8.0801738E+001
 20
1.9292578E+002
 70
0
  0
SEQEND
  0
POLYLINE
  8
1
  6
CONTINUOUS
 62
3
 66
1
 40
5.0E-001
 41
5.0E-001
 70
0
  0
VERTEX
  8
1
 42
0.0
 10
8.1501738E+001
 20
1.9302578E+002
 70
0
  0
VERTEX
  8
1
 42
0.0
 10
8.0801738E+001
 20
1.9302578E+002
 70
0
  0
SEQEND
  0
POLYLINE
  8
1
  6
CONTINUOUS
 62
3
 66
1
 40
5.0E-001
 41
5.0E-001
 70
0
  0
VERTEX
  8
1
 42
0.0
 10
8.9901748E+001
 20
1.9352578E+002
 70
0
  0
VERTEX
  8
1
 42
0.0
 10
8.9901748E+001
 20
1.9292578E+002
 70
0
  0
SEQEND
  0
POLYLINE
  8
1
  6
CONTINUOUS
 62
3
 66
1
 40
5.0E-001
 41
5.0E-001
 70
0
  0
VERTEX
  8
1
 42
0.0
 10
8.7301738E+001
 20
1.9407578E+002
 70
0
  0
VERTEX
  8
1
 42
0.0
 10
8.7301738E+001
 20
1.9292578E+002
 70
0
  0
SEQEND
  0
POLYLINE
  8
1
  6
CONTINUOUS
 62
3
 66
1
 40
5.0E-001
 41
5.0E-001
 70
0
  0
VERTEX
  8
1
 42
0.0
 10
8.9901748E+001
 20
1.9362578E+002
 70
0
  0
VERTEX
  8
1
 42
0.0
 10
8.7301738E+001
 20
1.9362578E+002
 70
0
  0
SEQEND
  0
POLYLINE
  8
1
  6
CONTINUOUS
 62
3
 66
1
 40
5.0E-001
 41
5.0E-001
 70
0
  0
VERTEX
  8
1
 42
0.0
 10
7.2401748E+001
 20
1.9302578E+002
 70
0
  0
VERTEX
  8
1
 42
0.0
 10
7.1701748E+001
 20
1.9302578E+002
 70
0
  0
SEQEND
  0
POLYLINE
  8
1
  6
CONTINUOUS
 62
3
 66
1
 40
5.0E-001
 41
5.0E-001
 70
0
  0
VERTEX
  8
1
 42
0.0
 10
7.2401748E+001
 20
1.9361728E+002
 70
0
  0
VERTEX
  8
1
 42
0.0
 10
7.2401748E+001
 20
1.9292578E+002
 70
0
  0
SEQEND
  0
POLYLINE
  8
1
  6
CONTINUOUS
 62
3
 66
1
 40
5.0E-001
 41
5.0E-001
 70
0
  0
VERTEX
  8
1
 42
0.0
 10
7.1701748E+001
 20
1.9367568E+002
 70
0
  0
VERTEX
  8
1
 42
0.0
 10
7.1701748E+001
 20
1.9292578E+002
 70
0
  0
SEQEND
  0
POLYLINE
  8
1
  6
CONTINUOUS
 62
3
 66
1
 40
5.0E-001
 41
5.0E-001
 70
0
  0
VERTEX
  8
1
 42
0.0
 10
6.3301738E+001
 20
1.9302578E+002
 70
0
  0
VERTEX
  8
1
 42
0.0
 10
6.2601748E+001
 20
1.9302578E+002
 70
0
  0
SEQEND
  0
POLYLINE
  8
1
  6
CONTINUOUS
 62
3
 66
1
 40
5.0E-001
 41
5.0E-001
 70
0
  0
VERTEX
  8
1
 42
0.0
 10
6.3301738E+001
 20
1.9361728E+002
 70
0
  0
VERTEX
  8
1
 42
0.0
 10
6.3301738E+001
 20
1.9292578E+002
 70
0
  0
SEQEND
  0
POLYLINE
  8
1
  6
CONTINUOUS
 62
3
 66
1
 40
5.0E-001
 41
5.0E-001
 70
0
  0
VERTEX
  8
1
 42
0.0
 10
6.2601748E+001
 20
1.9367568E+002
 70
0
  0
VERTEX
  8
1
 42
0.0
 10
6.2601748E+001
 20
1.9292578E+002
 70
0
  0
SEQEND
  0
POLYLINE
  8
1
  6
CONTINUOUS
 62
3
 66
1
 40
5.0E-001
 41
5.0E-001
 70
0
  0
VERTEX
  8
1
 42
0.0
 10
5.4201748E+001
 20
1.9302578E+002
 70
0
  0
VERTEX
  8
1
 42
0.0
 10
5.3501758E+001
 20
1.9302578E+002
 70
0
  0
SEQEND
  0
POLYLINE
  8
1
  6
CONTINUOUS
 62
3
 66
1
 40
5.0E-001
 41
5.0E-001
 70
0
  0
VERTEX
  8
1
 42
0.0
 10
5.4201748E+001
 20
1.9361728E+002
 70
0
  0
VERTEX
  8
1
 42
0.0
 10
5.4201748E+001
 20
1.9292578E+002
 70
0
  0
SEQEND
  0
POLYLINE
  8
1
  6
CONTINUOUS
 62
3
 66
1
 40
5.0E-001
 41
5.0E-001
 70
0
  0
VERTEX
  8
1
 42
0.0
 10
5.3501758E+001
 20
1.9367568E+002
 70
0
  0
VERTEX
  8
1
 42
0.0
 10
5.3501758E+001
 20
1.9292578E+002
 70
0
  0
SEQEND
  0
POLYLINE
  8
1
  6
CONTINUOUS
 62
3
 66
1
 40
5.0E-001
 41
5.0E-001
 70
0
  0
VERTEX
  8
1
 42
0.0
 10
5.3201748E+001
 20
1.9292578E+002
 70
0
  0
VERTEX
  8
1
 42
0.0
 10
5.3201748E+001
 20
1.9407578E+002
 70
0
  0
SEQEND
  0
POLYLINE
  8
1
  6
CONTINUOUS
 62
3
 66
1
 40
5.0E-001
 41
5.0E-001
 70
0
  0
VERTEX
  8
1
 42
0.0
 10
4.5101748E+001
 20
1.9352578E+002
 70
0
  0
VERTEX
  8
1
 42
0.0
 10
4.5101748E+001
 20
1.9292578E+002
 70
0
  0
SEQEND
  0
INSERT
  2
*E1595
  8
1
 10
4.4551748E+001
 20
1.9322578E+002
 41
1.0
 42
1.0
 43
1.0
 50
2.7E+002
 62
3
  0
POLYLINE
  8
1
  6
CONTINUOUS
 62
3
 66
1
 40
5.0E-001
 41
5.0E-001
 70
0
  0
VERTEX
  8
1
 42
0.0
 10
4.4601748E+001
 20
1.9402578E+002
 70
0
  0
VERTEX
  8
1
 42
0.0
 10
4.4551748E+001
 20
1.9402578E+002
 70
0
  0
SEQEND
  0
POLYLINE
  8
1
  6
CONTINUOUS
 62
3
 66
1
 40
5.0E-001
 41
5.0E-001
 70
0
  0
VERTEX
  8
1
 42
4.1421356E-001
 10
4.5101748E+001
 20
1.9352578E+002
 70
0
  0
VERTEX
  8
1
 42
0.0
 10
4.4601748E+001
 20
1.9402578E+002
 70
0
  0
SEQEND
  0
POLYLINE
  8
1
  6
CONTINUOUS
 62
3
 66
1
 40
5.0E-001
 41
5.0E-001
 70
0
  0
VERTEX
  8
1
 42
0.0
 10
4.3777148E+001
 20
1.9302578E+002
 70
0
  0
VERTEX
  8
1
 42
0.0
 10
4.5101748E+001
 20
1.9302578E+002
 70
0
  0
SEQEND
  0
POLYLINE
  8
1
  6
CONTINUOUS
 62
3
 66
1
 40
5.0E-001
 41
5.0E-001
 70
0
  0
VERTEX
  8
1
 42
0.0
 10
4.7701738E+001
 20
1.9407578E+002
 70
0
  0
VERTEX
  8
1
 42
0.0
 10
4.7701738E+001
 20
1.9292578E+002
 70
0
  0
SEQEND
  0
POLYLINE
  8
1
  6
CONTINUOUS
 62
3
 66
1
 40
5.0E-001
 41
5.0E-001
 70
0
  0
VERTEX
  8
1
 42
0.0
 10
4.7701738E+001
 20
1.9362578E+002
 70
0
  0
VERTEX
  8
1
 42
0.0
 10
4.5101748E+001
 20
1.9362578E+002
 70
0
  0
SEQEND
  0
POLYLINE
  8
1
  6
CONTINUOUS
 62
3
 66
1
 40
5.0E-001
 41
5.0E-001
 70
0
  0
VERTEX
  8
1
 42
0.0
 10
8.1751758E+001
 20
1.9292578E+002
 70
0
  0
VERTEX
  8
1
 42
0.0
 10
8.1501738E+001
 20
1.9317578E+002
 70
0
  0
SEQEND
  0
POLYLINE
  8
1
  6
CONTINUOUS
 62
3
 66
1
 40
5.0E-001
 41
5.0E-001
 70
0
  0
VERTEX
  8
1
 42
0.0
 10
8.0551728E+001
 20
1.9292578E+002
 70
0
  0
VERTEX
  8
1
 42
0.0
 10
8.0801738E+001
 20
1.9317578E+002
 70
0
  0
SEQEND
  0
POLYLINE
  8
1
  6
CONTINUOUS
 62
3
 66
1
 40
5.0E-001
 41
5.0E-001
 70
0
  0
VERTEX
  8
1
 42
0.0
 10
7.2651748E+001
 20
1.9292578E+002
 70
0
  0
VERTEX
  8
1
 42
0.0
 10
7.2401748E+001
 20
1.9317578E+002
 70
0
  0
SEQEND
  0
POLYLINE
  8
1
  6
CONTINUOUS
 62
3
 66
1
 40
5.0E-001
 41
5.0E-001
 70
0
  0
VERTEX
  8
1
 42
0.0
 10
7.1701748E+001
 20
1.9317578E+002
 70
0
  0
VERTEX
  8
1
 42
0.0
 10
7.1451738E+001
 20
1.9292578E+002
 70
0
  0
SEQEND
  0
POLYLINE
  8
1
  6
CONTINUOUS
 62
3
 66
1
 40
5.0E-001
 41
5.0E-001
 70
0
  0
VERTEX
  8
1
 42
0.0
 10
6.3551758E+001
 20
1.9292578E+002
 70
0
  0
VERTEX
  8
1
 42
0.0
 10
6.3301738E+001
 20
1.9317578E+002
 70
0
  0
SEQEND
  0
POLYLINE
  8
1
  6
CONTINUOUS
 62
3
 66
1
 40
5.0E-001
 41
5.0E-001
 70
0
  0
VERTEX
  8
1
 42
0.0
 10
6.2351748E+001
 20
1.9292578E+002
 70
0
  0
VERTEX
  8
1
 42
0.0
 10
6.2601748E+001
 20
1.9317578E+002
 70
0
  0
SEQEND
  0
POLYLINE
  8
1
  6
CONTINUOUS
 62
3
 66
1
 40
5.0E-001
 41
5.0E-001
 70
0
  0
VERTEX
  8
1
 42
0.0
 10
5.4451748E+001
 20
1.9292578E+002
 70
0
  0
VERTEX
  8
1
 42
0.0
 10
5.4201748E+001
 20
1.9317578E+002
 70
0
  0
SEQEND
  0
POLYLINE
  8
1
  6
CONTINUOUS
 62
3
 66
1
 40
5.0E-001
 41
5.0E-001
 70
0
  0
VERTEX
  8
1
 42
0.0
 10
5.3251738E+001
 20
1.9292578E+002
 70
0
  0
VERTEX
  8
1
 42
0.0
 10
5.3501758E+001
 20
1.9317578E+002
 70
0
  0
SEQEND
  0
POLYLINE
  8
1
  6
CONTINUOUS
 62
3
 66
1
 40
5.0E-001
 41
5.0E-001
 70
0
  0
VERTEX
  8
1
 42
0.0
 10
8.7301738E+001
 20
1.9407578E+002
 70
0
  0
VERTEX
  8
1
 42
0.0
 10
8.1801738E+001
 20
1.9407578E+002
 70
0
  0
SEQEND
  0
POLYLINE
  8
1
  6
CONTINUOUS
 62
3
 66
1
 40
5.0E-001
 41
5.0E-001
 70
0
  0
VERTEX
  8
1
 42
0.0
 10
5.3201748E+001
 20
1.9407578E+002
 70
0
  0
VERTEX
  8
1
 42
0.0
 10
4.7701738E+001
 20
1.9407578E+002
 70
0
  0
SEQEND
  0
POLYLINE
  8
1
  6
CONTINUOUS
 62
3
 66
1
 40
5.0E-001
 41
5.0E-001
 70
0
  0
VERTEX
  8
1
 42
0.0
 10
8.9901748E+001
 20
1.9402578E+002
 70
0
  0
VERTEX
  8
1
 42
0.0
 10
9.0451748E+001
 20
1.9402578E+002
 70
0
  0
SEQEND
  0
POLYLINE
  8
1
  6
CONTINUOUS
 62
3
 66
1
 40
5.0E-001
 41
5.0E-001
 70
0
  0
VERTEX
  8
1
 42
0.0
 10
8.9601748E+001
 20
1.9362578E+002
 70
0
  0
VERTEX
  8
1
 42
0.0
 10
8.9901748E+001
 20
1.9402578E+002
 70
0
  0
SEQEND
  0
POLYLINE
  8
1
  6
CONTINUOUS
 62
3
 66
1
 40
5.0E-001
 41
5.0E-001
 70
0
  0
VERTEX
  8
1
 42
0.0
 10
4.4597128E+001
 20
1.9402578E+002
 70
0
  0
VERTEX
  8
1
 42
0.0
 10
4.5101748E+001
 20
1.9402578E+002
 70
0
  0
SEQEND
  0
POLYLINE
  8
1
  6
CONTINUOUS
 62
3
 66
1
 40
5.0E-001
 41
5.0E-001
 70
0
  0
VERTEX
  8
1
 42
0.0
 10
4.5401758E+001
 20
1.9362578E+002
 70
0
  0
VERTEX
  8
1
 42
0.0
 10
4.5101748E+001
 20
1.9402578E+002
 70
0
  0
SEQEND
  0
POLYLINE
  8
1
  6
CONTINUOUS
 62
3
 66
1
 40
5.0E-001
 41
5.0E-001
 70
0
  0
VERTEX
  8
1
 42
0.0
 10
4.4751748E+001
 20
1.7602578E+002
 70
0
  0
VERTEX
  8
1
 42
0.0
 10
4.4751748E+001
 20
1.7547578E+002
 70
0
  0
SEQEND
  0
POLYLINE
  8
1
  6
CONTINUOUS
 62
3
 66
1
 40
5.0E-001
 41
5.0E-001
 70
0
  0
VERTEX
  8
1
 42
0.0
 10
4.4751748E+001
 20
1.7602578E+002
 70
0
  0
VERTEX
  8
1
 42
0.0
 10
4.3751748E+001
 20
1.7602578E+002
 70
0
  0
SEQEND
  0
POLYLINE
  8
1
  6
CONTINUOUS
 62
3
 66
1
 40
5.0E-001
 41
5.0E-001
 70
0
  0
VERTEX
  8
1
 42
0.0
 10
6.6001738E+001
 20
1.9422578E+002
 70
0
  0
VERTEX
  8
1
 42
0.0
 10
6.5501738E+001
 20
1.9532578E+002
 70
0
  0
SEQEND
  0
POLYLINE
  8
1
  6
CONTINUOUS
 62
3
 66
1
 40
5.0E-001
 41
5.0E-001
 70
0
  0
VERTEX
  8
1
 42
0.0
 10
6.9501738E+001
 20
1.9552578E+002
 70
0
  0
VERTEX
  8
1
 42
0.0
 10
6.5501738E+001
 20
1.9552578E+002
 70
0
  0
SEQEND
  0
POLYLINE
  8
1
  6
CONTINUOUS
 62
3
 66
1
 40
5.0E-001
 41
5.0E-001
 70
0
  0
VERTEX
  8
1
 42
0.0
 10
6.9501738E+001
 20
1.9552578E+002
 70
0
  0
VERTEX
  8
1
 42
0.0
 10
6.9501738E+001
 20
1.9532578E+002
 70
0
  0
SEQEND
  0
POLYLINE
  8
1
  6
CONTINUOUS
 62
3
 66
1
 40
5.0E-001
 41
5.0E-001
 70
0
  0
VERTEX
  8
1
 42
0.0
 10
6.5501738E+001
 20
1.9552578E+002
 70
0
  0
VERTEX
  8
1
 42
0.0
 10
6.5501738E+001
 20
1.9532578E+002
 70
0
  0
SEQEND
  0
POLYLINE
  8
1
  6
CONTINUOUS
 62
3
 66
1
 40
5.0E-001
 41
5.0E-001
 70
0
  0
VERTEX
  8
1
 42
0.0
 10
6.9001738E+001
 20
1.9422578E+002
 70
0
  0
VERTEX
  8
1
 42
0.0
 10
6.9501738E+001
 20
1.9532578E+002
 70
0
  0
SEQEND
  0
INSERT
  2
*E1622
  8
1
 10
5.4451738E+001
 20
1.7087578E+002
 41
1.0
 42
1.0
 43
1.0
 50
2.7E+002
 62
3
  0
INSERT
  2
*E1623
  8
1
 10
9.0451738E+001
 20
1.5262578E+002
 41
1.0
 42
1.0
 43
1.0
 50
2.7E+002
 62
3
  0
INSERT
  2
*E1624
  8
1
 10
8.1154008E+001
 20
1.5217798E+002
 41
1.0
 42
1.0
 43
1.0
 50
2.7E+002
 62
3
  0
POLYLINE
  8
1
  6
CONTINUOUS
 62
3
 66
1
 40
5.0E-001
 41
5.0E-001
 70
0
  0
VERTEX
  8
1
 42
4.1421356E-001
 10
8.9901728E+001
 20
1.5232578E+002
 70
0
  0
VERTEX
  8
1
 42
0.0
 10
9.0401728E+001
 20
1.5182578E+002
 70
0
  0
SEQEND
  0
INSERT
  2
*E1626
  8
1
 10
7.2053998E+001
 20
1.5217798E+002
 41
1.0
 42
1.0
 43
1.0
 50
2.7E+002
 62
3
  0
INSERT
  2
*E1627
  8
1
 10
6.2954008E+001
 20
1.5217798E+002
 41
1.0
 42
1.0
 43
1.0
 50
2.7E+002
 62
3
  0
INSERT
  2
*E1628
  8
1
 10
5.3853998E+001
 20
1.5217798E+002
 41
1.0
 42
1.0
 43
1.0
 50
2.7E+002
 62
3
  0
POLYLINE
  8
1
  6
CONTINUOUS
 62
3
 66
1
 40
5.0E-001
 41
5.0E-001
 70
0
  0
VERTEX
  8
1
 42
4.1421356E-001
 10
4.3751748E+001
 20
1.5262578E+002
 70
0
  0
VERTEX
  8
1
 42
0.0
 10
4.4551748E+001
 20
1.5182578E+002
 70
0
  0
SEQEND
  0
INSERT
  2
*E1630
  8
1
 10
4.4601738E+001
 20
1.5232578E+002
 41
1.0
 42
1.0
 43
1.0
 50
2.7E+002
 62
3
  0
POLYLINE
  8
1
  6
CONTINUOUS
 62
3
 66
1
 40
5.0E-001
 41
5.0E-001
 70
0
  0
VERTEX
  8
1
 42
4.1421356E-001
 10
5.4951738E+001
 20
1.7497578E+002
 70
0
  0
VERTEX
  8
1
 42
0.0
 10
5.4451738E+001
 20
1.7547578E+002
 70
0
  0
SEQEND
  0
POLYLINE
  8
1
  6
CONTINUOUS
 62
3
 66
1
 40
5.0E-001
 41
5.0E-001
 70
0
  0
VERTEX
  8
1
 42
4.1421356E-001
 10
9.1251748E+001
 20
1.9322578E+002
 70
0
  0
VERTEX
  8
1
 42
0.0
 10
9.0451748E+001
 20
1.9402578E+002
 70
0
  0
SEQEND
  0
POLYLINE
  8
1
  6
CONTINUOUS
 62
3
 66
1
 40
5.0E-001
 41
5.0E-001
 70
0
  0
VERTEX
  8
1
 42
1.0804113
 10
8.150174E+001
 20
1.9361729E+002
 70
0
  0
VERTEX
  8
1
 42
0.0
 10
8.0801755E+001
 20
1.9367568E+002
 70
0
  0
SEQEND
  0
INSERT
  2
*E1634
  8
1
 10
9.0401748E+001
 20
1.9352578E+002
 41
1.0
 42
1.0
 43
1.0
 50
2.7E+002
 62
3
  0
POLYLINE
  8
1
  6
CONTINUOUS
 62
3
 66
1
 40
5.0E-001
 41
5.0E-001
 70
0
  0
VERTEX
  8
1
 42
1.0804113
 10
7.240175E+001
 20
1.9361729E+002
 70
0
  0
VERTEX
  8
1
 42
0.0
 10
7.1701765E+001
 20
1.9367568E+002
 70
0
  0
SEQEND
  0
POLYLINE
  8
1
  6
CONTINUOUS
 62
3
 66
1
 40
5.0E-001
 41
5.0E-001
 70
0
  0
VERTEX
  8
1
 42
1.0804113
 10
6.330174E+001
 20
1.9361729E+002
 70
0
  0
VERTEX
  8
1
 42
0.0
 10
6.2601755E+001
 20
1.9367568E+002
 70
0
  0
SEQEND
  0
POLYLINE
  8
1
  6
CONTINUOUS
 62
3
 66
1
 40
5.0E-001
 41
5.0E-001
 70
0
  0
VERTEX
  8
1
 42
1.0804113
 10
5.420175E+001
 20
1.9361729E+002
 70
0
  0
VERTEX
  8
1
 42
0.0
 10
5.3501765E+001
 20
1.9367568E+002
 70
0
  0
SEQEND
  0
INSERT
  2
*E1638
  8
1
 10
9.0451738E+001
 20
1.5262578E+002
 41
1.0
 42
1.0
 43
1.0
 50
2.7E+002
 62
3
  0
INSERT
  2
*E1639
  8
1
 10
4.4551748E+001
 20
1.5262578E+002
 41
1.0
 42
1.0
 43
1.0
 50
2.7E+002
 62
3
  0
POLYLINE
  8
1
  6
CONTINUOUS
 62
3
 66
1
 40
5.0E-001
 41
5.0E-001
 70
0
  0
VERTEX
  8
1
 42
4.1421351E-001
 10
4.4551747E+001
 20
1.9402578E+002
 70
0
  0
VERTEX
  8
1
 42
0.0
 10
4.3751748E+001
 20
1.9322578E+002
 70
0
  0
SEQEND
  0
INSERT
  2
*E1641
  8
1
 10
9.0451748E+001
 20
1.9322578E+002
 41
1.0
 42
1.0
 43
1.0
 50
2.7E+002
 62
3
  0
INSERT
  2
*E1642
  8
1
 10
8.7501758E+001
 20
1.9792578E+002
 41
2.25
 42
2.25
 43
2.25
 50
2.7E+002
 62
3
  0
INSERT
  2
*E1643
  8
1
 10
4.2501728E+001
 20
1.4792578E+002
 41
1.0
 42
1.0
 43
1.0
 50
2.7E+002
 62
3
  0
INSERT
  2
*E1644
  8
1
 10
8.7501758E+001
 20
1.9792578E+002
 41
1.0
 42
1.0
 43
1.0
 50
2.7E+002
 62
3
  0
INSERT
  2
*E1645
  8
1
 10
5.2501718E+001
 20
1.4792578E+002
 41
1.0
 42
1.0
 43
1.0
 50
2.7E+002
 62
3
  0
INSERT
  2
*E1646
  8
1
 10
4.2501728E+001
 20
1.4792578E+002
 41
1.0
 42
1.0
 43
1.0
 50
2.7E+002
 62
3
  0
INSERT
  2
*E1647
  8
1
 10
4.7501718E+001
 20
1.4792578E+002
 41
1.0
 42
1.0
 43
1.0
 50
2.7E+002
 62
3
  0
INSERT
  2
*E1648
  8
1
 10
5.2501718E+001
 20
1.4792578E+002
 41
1.0
 42
1.0
 43
1.0
 50
2.7E+002
 62
3
  0
POLYLINE
  8
1
  6
CONTINUOUS
 62
3
 66
1
 40
5.0E-001
 41
5.0E-001
 70
0
  0
VERTEX
  8
1
 42
0.0
 10
9.1251738E+001
 20
1.5262578E+002
 70
0
  0
VERTEX
  8
1
 42
0.0
 10
9.1251758E+001
 20
1.9792578E+002
 70
0
  0
SEQEND
  0
POLYLINE
  8
1
  6
CONTINUOUS
 62
3
 66
1
 40
5.0E-001
 41
5.0E-001
 70
0
  0
VERTEX
  8
1
 42
0.0
 10
4.7701738E+001
 20
1.5182578E+002
 70
0
  0
VERTEX
  8
1
 42
0.0
 10
4.4551748E+001
 20
1.5182578E+002
 70
0
  0
SEQEND
  0
POLYLINE
  8
1
  6
CONTINUOUS
 62
3
 66
1
 40
5.0E-001
 41
5.0E-001
 70
0
  0
VERTEX
  8
1
 42
0.0
 10
4.7701738E+001
 20
1.9402578E+002
 70
0
  0
VERTEX
  8
1
 42
0.0
 10
4.4551748E+001
 20
1.9402578E+002
 70
0
  0
SEQEND
  0
POLYLINE
  8
1
  6
CONTINUOUS
 62
3
 66
1
 40
5.0E-001
 41
5.0E-001
 70
0
  0
VERTEX
  8
1
 42
0.0
 10
8.3751758E+001
 20
1.9792578E+002
 70
0
  0
VERTEX
  8
1
 42
0.0
 10
8.3751758E+001
 20
1.9407578E+002
 70
0
  0
SEQEND
  0
POLYLINE
  8
1
  6
CONTINUOUS
 62
3
 66
1
 40
5.0E-001
 41
5.0E-001
 70
0
  0
VERTEX
  8
1
 42
0.0
 10
5.6251718E+001
 20
1.4792578E+002
 70
0
  0
VERTEX
  8
1
 42
0.0
 10
5.6251718E+001
 20
1.5082578E+002
 70
0
  0
SEQEND
  0
POLYLINE
  8
1
  6
CONTINUOUS
 62
3
 66
1
 40
5.0E-001
 41
5.0E-001
 70
0
  0
VERTEX
  8
1
 42
0.0
 10
5.1791118E+001
 20
1.4424368E+002
 70
0
  0
VERTEX
  8
1
 42
0.0
 10
4.2501728E+001
 20
1.4424368E+002
 70
0
  0
SEQEND
  0
POLYLINE
  8
1
  6
CONTINUOUS
 62
3
 66
1
 40
5.0E-001
 41
5.0E-001
 70
0
  0
VERTEX
  8
1
 42
0.0
 10
4.3751748E+001
 20
1.5262578E+002
 70
0
  0
VERTEX
  8
1
 42
0.0
 10
4.3751748E+001
 20
1.5122568E+002
 70
0
  0
SEQEND
  0
POLYLINE
  8
1
  6
CONTINUOUS
 62
3
 66
1
 40
5.0E-001
 41
5.0E-001
 70
0
  0
VERTEX
  8
1
 42
0.0
 10
4.6470958E+001
 20
1.4592578E+002
 70
0
  0
VERTEX
  8
1
 42
0.0
 10
4.3532518E+001
 20
1.4592578E+002
 70
0
  0
SEQEND
  0
POLYLINE
  8
1
  6
CONTINUOUS
 62
3
 66
1
 40
5.0E-001
 41
5.0E-001
 70
0
  0
VERTEX
  8
1
 42
0.0
 10
4.8532518E+001
 20
1.4992578E+002
 70
0
  0
VERTEX
  8
1
 42
0.0
 10
4.3691788E+001
 20
1.4992578E+002
 70
0
  0
SEQEND
  0
POLYLINE
  8
1
  6
CONTINUOUS
 62
3
 66
1
 40
5.0E-001
 41
5.0E-001
 70
0
  0
VERTEX
  8
1
 42
0.0
 10
5.3532518E+001
 20
1.4992578E+002
 70
0
  0
VERTEX
  8
1
 42
0.0
 10
5.1470958E+001
 20
1.4992578E+002
 70
0
  0
SEQEND
  0
POLYLINE
  8
1
  6
CONTINUOUS
 62
3
 66
1
 40
5.0E-001
 41
5.0E-001
 70
0
  0
VERTEX
  8
1
 42
0.0
 10
5.6251718E+001
 20
1.5082578E+002
 70
0
  0
VERTEX
  8
1
 42
0.0
 10
5.1251718E+001
 20
1.5082578E+002
 70
0
  0
SEQEND
  0
POLYLINE
  8
1
  6
CONTINUOUS
 62
3
 66
1
 40
5.0E-001
 41
5.0E-001
 70
0
  0
VERTEX
  8
1
 42
0.0
 10
6.9551758E+001
 20
1.9402578E+002
 70
0
  0
VERTEX
  8
1
 42
0.0
 10
6.9551758E+001
 20
1.9292578E+002
 70
0
  0
SEQEND
  0
POLYLINE
  8
1
  6
CONTINUOUS
 62
3
 66
1
 40
5.0E-001
 41
5.0E-001
 70
0
  0
VERTEX
  8
1
 42
0.0
 10
6.5451748E+001
 20
1.9402578E+002
 70
0
  0
VERTEX
  8
1
 42
0.0
 10
6.5451748E+001
 20
1.9292578E+002
 70
0
  0
SEQEND
  0
POLYLINE
  8
1
  6
CONTINUOUS
 62
3
 66
1
 40
5.0E-001
 41
5.0E-001
 70
0
  0
VERTEX
  8
1
 42
0.0
 10
7.0551738E+001
 20
1.5292578E+002
 70
0
  0
VERTEX
  8
1
 42
0.0
 10
7.0551738E+001
 20
1.5182578E+002
 70
0
  0
SEQEND
  0
POLYLINE
  8
1
  6
CONTINUOUS
 62
3
 66
1
 40
5.0E-001
 41
5.0E-001
 70
0
  0
VERTEX
  8
1
 42
0.0
 10
6.4451738E+001
 20
1.5292578E+002
 70
0
  0
VERTEX
  8
1
 42
0.0
 10
6.4451738E+001
 20
1.5182578E+002
 70
0
  0
SEQEND
  0
POLYLINE
  8
1
  6
CONTINUOUS
 62
3
 66
1
 40
5.0E-001
 41
5.0E-001
 70
0
  0
VERTEX
  8
1
 42
0.0
 10
6.4951748E+001
 20
1.9402578E+002
 70
0
  0
VERTEX
  8
1
 42
0.0
 10
6.4951748E+001
 20
1.9292578E+002
 70
0
  0
SEQEND
  0
POLYLINE
  8
1
  6
CONTINUOUS
 62
3
 66
1
 40
5.0E-001
 41
5.0E-001
 70
0
  0
VERTEX
  8
1
 42
0.0
 10
7.0051758E+001
 20
1.9402578E+002
 70
0
  0
VERTEX
  8
1
 42
0.0
 10
7.0051758E+001
 20
1.9292578E+002
 70
0
  0
SEQEND
  0
POLYLINE
  8
1
  6
CONTINUOUS
 62
3
 66
1
 40
5.0E-001
 41
5.0E-001
 70
0
  0
VERTEX
  8
1
 42
0.0
 10
5.1251718E+001
 20
1.5082578E+002
 70
0
  0
VERTEX
  8
1
 42
0.0
 10
5.1251718E+001
 20
1.5177578E+002
 70
0
  0
SEQEND
  0
POLYLINE
  8
1
  6
CONTINUOUS
 62
3
 66
1
 40
5.0E-001
 41
5.0E-001
 70
0
  0
VERTEX
  8
1
 42
0.0
 10
4.3751748E+001
 20
1.9322578E+002
 70
0
  0
VERTEX
  8
1
 42
0.0
 10
4.3751748E+001
 20
1.5262578E+002
 70
0
  0
SEQEND
  0
POLYLINE
  8
1
  6
CONTINUOUS
 62
3
 66
1
 40
5.0E-001
 41
5.0E-001
 70
0
  0
VERTEX
  8
1
 42
0.0
 10
8.1801738E+001
 20
1.5182578E+002
 70
0
  0
VERTEX
  8
1
 42
0.0
 10
7.0051738E+001
 20
1.5182578E+002
 70
0
  0
SEQEND
  0
POLYLINE
  8
1
  6
CONTINUOUS
 62
3
 66
1
 40
5.0E-001
 41
5.0E-001
 70
0
  0
VERTEX
  8
1
 42
0.0
 10
6.6001738E+001
 20
1.5162578E+002
 70
0
  0
VERTEX
  8
1
 42
0.0
 10
6.6001738E+001
 20
1.5182578E+002
 70
0
  0
SEQEND
  0
POLYLINE
  8
1
  6
CONTINUOUS
 62
3
 66
1
 40
5.0E-001
 41
5.0E-001
 70
0
  0
VERTEX
  8
1
 42
0.0
 10
6.4951738E+001
 20
1.5182578E+002
 70
0
  0
VERTEX
  8
1
 42
0.0
 10
5.3201738E+001
 20
1.5182578E+002
 70
0
  0
SEQEND
  0
POLYLINE
  8
1
  6
CONTINUOUS
 62
3
 66
1
 40
5.0E-001
 41
5.0E-001
 70
0
  0
VERTEX
  8
1
 42
0.0
 10
9.0451738E+001
 20
1.5182578E+002
 70
0
  0
VERTEX
  8
1
 42
0.0
 10
8.7301738E+001
 20
1.5182578E+002
 70
0
  0
SEQEND
  0
POLYLINE
  8
1
  6
CONTINUOUS
 62
3
 66
1
 40
5.0E-001
 41
5.0E-001
 70
0
  0
VERTEX
  8
1
 42
0.0
 10
8.1801738E+001
 20
1.9402578E+002
 70
0
  0
VERTEX
  8
1
 42
0.0
 10
5.3201748E+001
 20
1.9402578E+002
 70
0
  0
SEQEND
  0
POLYLINE
  8
1
  6
CONTINUOUS
 62
3
 66
1
 40
5.0E-001
 41
5.0E-001
 70
0
  0
VERTEX
  8
1
 42
0.0
 10
9.0451748E+001
 20
1.9402578E+002
 70
0
  0
VERTEX
  8
1
 42
0.0
 10
8.7301738E+001
 20
1.9402578E+002
 70
0
  0
SEQEND
  0
POLYLINE
  8
1
  6
CONTINUOUS
 62
3
 66
1
 40
5.0E-001
 41
5.0E-001
 70
0
  0
VERTEX
  8
1
 42
0.0
 10
4.7328418E+001
 20
1.7547578E+002
 70
0
  0
VERTEX
  8
1
 42
0.0
 10
4.7328418E+001
 20
1.7492578E+002
 70
0
  0
SEQEND
  0
POLYLINE
  8
1
  6
CONTINUOUS
 62
3
 66
1
 40
5.0E-001
 41
5.0E-001
 70
0
  0
VERTEX
  8
1
 42
0.0
 10
4.7328418E+001
 20
1.7405858E+002
 70
0
  0
VERTEX
  8
1
 42
0.0
 10
5.0275768E+001
 20
1.7405858E+002
 70
0
  0
SEQEND
  0
POLYLINE
  8
1
  6
CONTINUOUS
 62
3
 66
1
 40
5.0E-001
 41
5.0E-001
 70
0
  0
VERTEX
  8
1
 42
0.0
 10
4.6828418E+001
 20
1.7355858E+002
 70
0
  0
VERTEX
  8
1
 42
0.0
 10
4.6828418E+001
 20
1.7229608E+002
 70
0
  0
SEQEND
  0
POLYLINE
  8
1
  6
CONTINUOUS
 62
3
 66
1
 40
5.0E-001
 41
5.0E-001
 70
0
  0
VERTEX
  8
1
 42
4.1421351E-001
 10
4.7328418E+001
 20
1.7405858E+002
 70
0
  0
VERTEX
  8
1
 42
0.0
 10
4.6828418E+001
 20
1.7355858E+002
 70
0
  0
SEQEND
  0
POLYLINE
  8
1
  6
CONTINUOUS
 62
3
 66
1
 40
5.0E-001
 41
5.0E-001
 70
0
  0
VERTEX
  8
1
 42
0.0
 10
5.1828418E+001
 20
1.7530858E+002
 70
0
  0
VERTEX
  8
1
 42
0.0
 10
5.1828418E+001
 20
1.7290858E+002
 70
0
  0
SEQEND
  0
POLYLINE
  8
1
  6
CONTINUOUS
 62
3
 66
1
 40
5.0E-001
 41
5.0E-001
 70
0
  0
VERTEX
  8
1
 42
0.0
 10
4.9028398E+001
 20
1.7405858E+002
 70
0
  0
VERTEX
  8
1
 42
0.0
 10
4.9028398E+001
 20
1.7290858E+002
 70
0
  0
SEQEND
  0
INSERT
  2
*E1680
  8
1
 10
4.7086378E+001
 20
1.7391898E+002
 41
1.0
 42
1.0
 43
1.0
 50
2.7E+002
 62
3
  0
POLYLINE
  8
1
  6
CONTINUOUS
 62
3
 66
1
 40
5.0E-001
 41
5.0E-001
 70
0
  0
VERTEX
  8
1
 42
0.0
 10
4.7093088E+001
 20
1.7385518E+002
 70
0
  0
VERTEX
  8
1
 42
0.0
 10
4.9028398E+001
 20
1.7405858E+002
 70
0
  0
SEQEND
  0
POLYLINE
  8
1
  6
CONTINUOUS
 62
3
 66
1
 40
5.0E-001
 41
5.0E-001
 70
0
  0
VERTEX
  8
1
 42
0.0
 10
4.9975778E+001
 20
1.7405858E+002
 70
0
  0
VERTEX
  8
1
 42
0.0
 10
4.9975778E+001
 20
1.7290858E+002
 70
0
  0
SEQEND
  0
POLYLINE
  8
1
  6
CONTINUOUS
 62
3
 66
1
 40
5.0E-001
 41
5.0E-001
 70
0
  0
VERTEX
  8
1
 42
0.0
 10
4.9028398E+001
 20
1.7350858E+002
 70
0
  0
VERTEX
  8
1
 42
0.0
 10
4.9975778E+001
 20
1.7350858E+002
 70
0
  0
SEQEND
  0
POLYLINE
  8
1
  6
CONTINUOUS
 62
3
 66
1
 40
5.0E-001
 41
5.0E-001
 70
0
  0
VERTEX
  8
1
 42
0.0
 10
5.0275768E+001
 20
1.7480858E+002
 70
0
  0
VERTEX
  8
1
 42
0.0
 10
5.0275768E+001
 20
1.7290858E+002
 70
0
  0
SEQEND
  0
INSERT
  2
*E1685
  8
1
 10
5.0775768E+001
 20
1.7480858E+002
 41
1.0
 42
1.0
 43
1.0
 50
2.7E+002
 62
3
  0
POLYLINE
  8
1
  6
CONTINUOUS
 62
3
 66
1
 40
5.0E-001
 41
5.0E-001
 70
0
  0
VERTEX
  8
1
 42
0.0
 10
4.7326158E+001
 20
1.7037578E+002
 70
0
  0
VERTEX
  8
1
 42
0.0
 10
4.7326638E+001
 20
1.7092558E+002
 70
0
  0
SEQEND
  0
POLYLINE
  8
1
  6
CONTINUOUS
 62
3
 66
1
 40
5.0E-001
 41
5.0E-001
 70
0
  0
VERTEX
  8
1
 42
0.0
 10
4.7327958E+001
 20
1.7179608E+002
 70
0
  0
VERTEX
  8
1
 42
0.0
 10
5.0274798E+001
 20
1.7179348E+002
 70
0
  0
SEQEND
  0
POLYLINE
  8
1
  6
CONTINUOUS
 62
3
 66
1
 40
5.0E-001
 41
5.0E-001
 70
0
  0
VERTEX
  8
1
 42
0.0
 10
5.1826308E+001
 20
1.7054208E+002
 70
0
  0
VERTEX
  8
1
 42
0.0
 10
5.1828418E+001
 20
1.7294208E+002
 70
0
  0
SEQEND
  0
POLYLINE
  8
1
  6
CONTINUOUS
 62
3
 66
1
 40
5.0E-001
 41
5.0E-001
 70
0
  0
VERTEX
  8
1
 42
0.0
 10
4.9027418E+001
 20
1.7179458E+002
 70
0
  0
VERTEX
  8
1
 42
0.0
 10
4.9028428E+001
 20
1.7294458E+002
 70
0
  0
SEQEND
  0
POLYLINE
  8
1
  6
CONTINUOUS
 62
3
 66
1
 40
5.0E-001
 41
5.0E-001
 70
0
  0
VERTEX
  8
1
 42
9.3915998E-001
 10
4.7107288E+001
 20
1.7199627E+002
 70
0
  0
VERTEX
  8
1
 42
0.0
 10
4.7056382E+001
 20
1.7187869E+002
 70
0
  0
SEQEND
  0
POLYLINE
  8
1
  6
CONTINUOUS
 62
3
 66
1
 40
5.0E-001
 41
5.0E-001
 70
0
  0
VERTEX
  8
1
 42
0.0
 10
4.7092268E+001
 20
1.7199968E+002
 70
0
  0
VERTEX
  8
1
 42
0.0
 10
4.9027418E+001
 20
1.7179458E+002
 70
0
  0
SEQEND
  0
POLYLINE
  8
1
  6
CONTINUOUS
 62
3
 66
1
 40
5.0E-001
 41
5.0E-001
 70
0
  0
VERTEX
  8
1
 42
0.0
 10
4.9974778E+001
 20
1.7179368E+002
 70
0
  0
VERTEX
  8
1
 42
0.0
 10
4.9975778E+001
 20
1.7294368E+002
 70
0
  0
SEQEND
  0
POLYLINE
  8
1
  6
CONTINUOUS
 62
3
 66
1
 40
5.0E-001
 41
5.0E-001
 70
0
  0
VERTEX
  8
1
 42
0.0
 10
4.9027908E+001
 20
1.7234458E+002
 70
0
  0
VERTEX
  8
1
 42
0.0
 10
4.9975268E+001
 20
1.7234368E+002
 70
0
  0
SEQEND
  0
POLYLINE
  8
1
  6
CONTINUOUS
 62
3
 66
1
 40
5.0E-001
 41
5.0E-001
 70
0
  0
VERTEX
  8
1
 42
0.0
 10
5.0274118E+001
 20
1.7104348E+002
 70
0
  0
VERTEX
  8
1
 42
0.0
 10
5.0275798E+001
 20
1.7294348E+002
 70
0
  0
SEQEND
  0
POLYLINE
  8
1
  6
CONTINUOUS
 62
3
 66
1
 40
5.0E-001
 41
5.0E-001
 70
0
  0
VERTEX
  8
1
 42
4.1421407E-001
 10
5.0274118E+001
 20
1.7104342E+002
 70
0
  0
VERTEX
  8
1
 42
0.0
 10
5.0773678E+001
 20
1.7054298E+002
 70
0
  0
SEQEND
  0
POLYLINE
  8
1
  6
CONTINUOUS
 62
3
 66
1
 40
5.0E-001
 41
5.0E-001
 70
0
  0
VERTEX
  8
1
 42
4.1395441E-001
 10
4.6828418E+001
 20
1.7229608E+002
 70
0
  0
VERTEX
  8
1
 42
0.0
 10
4.7327975E+001
 20
1.7179608E+002
 70
0
  0
SEQEND
  0
POLYLINE
  8
1
  6
CONTINUOUS
 62
3
 66
1
 40
5.0E-001
 41
5.0E-001
 70
0
  0
VERTEX
  8
1
 42
0.0
 10
5.0775768E+001
 20
1.7530858E+002
 70
0
  0
VERTEX
  8
1
 42
0.0
 10
5.4824888E+001
 20
1.7530858E+002
 70
0
  0
SEQEND
  0
POLYLINE
  8
1
  6
CONTINUOUS
 62
3
 66
1
 40
5.0E-001
 41
5.0E-001
 70
0
  0
VERTEX
  8
1
 42
0.0
 10
5.0773678E+001
 20
1.7054298E+002
 70
0
  0
VERTEX
  8
1
 42
0.0
 10
5.4824918E+001
 20
1.7054298E+002
 70
0
  0
SEQEND
  0
POLYLINE
  8
1
  6
CONTINUOUS
 62
3
 66
1
 40
5.0E-001
 41
5.0E-001
 70
0
  0
VERTEX
  8
1
 42
0.0
 10
9.1251758E+001
 20
1.9212578E+002
 70
0
  0
VERTEX
  8
1
 42
0.0
 10
9.1251738E+001
 20
1.5372578E+002
 70
0
  0
SEQEND
  0
POLYLINE
  8
1
  6
CONTINUOUS
 62
3
 66
1
 40
5.0E-001
 41
5.0E-001
 70
0
  0
VERTEX
  8
1
 42
0.0
 10
4.3751748E+001
 20
1.6972578E+002
 70
0
  0
VERTEX
  8
1
 42
0.0
 10
4.3751748E+001
 20
1.5372578E+002
 70
0
  0
SEQEND
  0
POLYLINE
  8
1
  6
CONTINUOUS
 62
3
 66
1
 40
5.0E-001
 41
5.0E-001
 70
0
  0
VERTEX
  8
1
 42
0.0
 10
9.0451748E+001
 20
1.9292578E+002
 70
0
  0
VERTEX
  8
1
 42
0.0
 10
4.4551748E+001
 20
1.9292578E+002
 70
0
  0
SEQEND
  0
POLYLINE
  8
1
  6
CONTINUOUS
 62
3
 66
1
 40
5.0E-001
 41
5.0E-001
 70
0
  0
VERTEX
  8
1
 42
0.0
 10
9.0451738E+001
 20
1.5292578E+002
 70
0
  0
VERTEX
  8
1
 42
0.0
 10
4.4551748E+001
 20
1.5292578E+002
 70
0
  0
SEQEND
  0
POLYLINE
  8
1
  6
CONTINUOUS
 62
3
 66
1
 40
5.0E-001
 41
5.0E-001
 70
0
  0
VERTEX
  8
1
 42
4.1421356E-001
 10
9.1251748E+001
 20
1.9212578E+002
 70
0
  0
VERTEX
  8
1
 42
0.0
 10
9.0451748E+001
 20
1.9292578E+002
 70
0
  0
SEQEND
  0
POLYLINE
  8
1
  6
CONTINUOUS
 62
3
 66
1
 40
5.0E-001
 41
5.0E-001
 70
0
  0
VERTEX
  8
1
 42
4.1421402E-001
 10
4.4551747E+001
 20
1.9292578E+002
 70
0
  0
VERTEX
  8
1
 42
0.0
 10
4.3751748E+001
 20
1.9212578E+002
 70
0
  0
SEQEND
  0
POLYLINE
  8
1
  6
CONTINUOUS
 62
3
 66
1
 40
5.0E-001
 41
5.0E-001
 70
0
  0
VERTEX
  8
1
 42
4.1421356E-001
 10
4.3751748E+001
 20
1.5372578E+002
 70
0
  0
VERTEX
  8
1
 42
0.0
 10
4.4551748E+001
 20
1.5292578E+002
 70
0
  0
SEQEND
  0
POLYLINE
  8
1
  6
CONTINUOUS
 62
3
 66
1
 40
5.0E-001
 41
5.0E-001
 70
0
  0
VERTEX
  8
1
 42
4.1421356E-001
 10
9.0451738E+001
 20
1.5292578E+002
 70
0
  0
VERTEX
  8
1
 42
0.0
 10
9.1251738E+001
 20
1.5372578E+002
 70
0
  0
SEQEND
  0
POLYLINE
  8
1
  6
CONTINUOUS
 62
3
 66
1
 40
5.0E-001
 41
5.0E-001
 70
0
  0
VERTEX
  8
1
 42
1.0
 10
8.8301738E+001
 20
1.8562578E+002
 70
0
  0
VERTEX
  8
1
 42
1.0
 10
8.3101738E+001
 20
1.8562578E+002
 70
0
  0
VERTEX
  8
1
 42
0.0
 10
8.8301738E+001
 20
1.8562578E+002
 70
0
  0
SEQEND
  0
POLYLINE
  8
1
  6
CONTINUOUS
 62
3
 66
1
 40
5.0E-001
 41
5.0E-001
 70
0
  0
VERTEX
  8
1
 42
1.0
 10
7.9201748E+001
 20
1.8562578E+002
 70
0
  0
VERTEX
  8
1
 42
1.0
 10
7.4001748E+001
 20
1.8562578E+002
 70
0
  0
VERTEX
  8
1
 42
0.0
 10
7.9201748E+001
 20
1.8562578E+002
 70
0
  0
SEQEND
  0
POLYLINE
  8
1
  6
CONTINUOUS
 62
3
 66
1
 40
5.0E-001
 41
5.0E-001
 70
0
  0
VERTEX
  8
1
 42
1.0
 10
7.0101738E+001
 20
1.8562578E+002
 70
0
  0
VERTEX
  8
1
 42
1.0
 10
6.4901738E+001
 20
1.8562578E+002
 70
0
  0
VERTEX
  8
1
 42
0.0
 10
7.0101738E+001
 20
1.8562578E+002
 70
0
  0
SEQEND
  0
POLYLINE
  8
1
  6
CONTINUOUS
 62
3
 66
1
 40
5.0E-001
 41
5.0E-001
 70
0
  0
VERTEX
  8
1
 42
1.0
 10
6.1001748E+001
 20
1.8562578E+002
 70
0
  0
VERTEX
  8
1
 42
1.0
 10
5.5801748E+001
 20
1.8562578E+002
 70
0
  0
VERTEX
  8
1
 42
0.0
 10
6.1001748E+001
 20
1.8562578E+002
 70
0
  0
SEQEND
  0
POLYLINE
  8
1
  6
CONTINUOUS
 62
3
 66
1
 40
5.0E-001
 41
5.0E-001
 70
0
  0
VERTEX
  8
1
 42
1.0
 10
5.1901738E+001
 20
1.8562578E+002
 70
0
  0
VERTEX
  8
1
 42
1.0
 10
4.6701738E+001
 20
1.8562578E+002
 70
0
  0
VERTEX
  8
1
 42
0.0
 10
5.1901738E+001
 20
1.8562578E+002
 70
0
  0
SEQEND
  0
POLYLINE
  8
1
  6
CONTINUOUS
 62
3
 66
1
 40
5.0E-001
 41
5.0E-001
 70
0
  0
VERTEX
  8
1
 42
1.0
 10
8.8301738E+001
 20
1.6022578E+002
 70
0
  0
VERTEX
  8
1
 42
1.0
 10
8.3101738E+001
 20
1.6022578E+002
 70
0
  0
VERTEX
  8
1
 42
0.0
 10
8.8301738E+001
 20
1.6022578E+002
 70
0
  0
SEQEND
  0
POLYLINE
  8
1
  6
CONTINUOUS
 62
3
 66
1
 40
5.0E-001
 41
5.0E-001
 70
0
  0
VERTEX
  8
1
 42
1.0
 10
7.9201748E+001
 20
1.6022578E+002
 70
0
  0
VERTEX
  8
1
 42
1.0
 10
7.4001748E+001
 20
1.6022578E+002
 70
0
  0
VERTEX
  8
1
 42
0.0
 10
7.9201748E+001
 20
1.6022578E+002
 70
0
  0
SEQEND
  0
POLYLINE
  8
1
  6
CONTINUOUS
 62
3
 66
1
 40
5.0E-001
 41
5.0E-001
 70
0
  0
VERTEX
  8
1
 42
1.0
 10
7.0101738E+001
 20
1.6022578E+002
 70
0
  0
VERTEX
  8
1
 42
1.0
 10
6.4901738E+001
 20
1.6022578E+002
 70
0
  0
VERTEX
  8
1
 42
0.0
 10
7.0101738E+001
 20
1.6022578E+002
 70
0
  0
SEQEND
  0
POLYLINE
  8
1
  6
CONTINUOUS
 62
3
 66
1
 40
5.0E-001
 41
5.0E-001
 70
0
  0
VERTEX
  8
1
 42
1.0
 10
6.1001728E+001
 20
1.6022578E+002
 70
0
  0
VERTEX
  8
1
 42
1.0
 10
5.5801728E+001
 20
1.6022578E+002
 70
0
  0
VERTEX
  8
1
 42
0.0
 10
6.1001728E+001
 20
1.6022578E+002
 70
0
  0
SEQEND
  0
POLYLINE
  8
1
  6
CONTINUOUS
 62
3
 66
1
 40
5.0E-001
 41
5.0E-001
 70
0
  0
VERTEX
  8
1
 42
1.0
 10
5.1901738E+001
 20
1.6022578E+002
 70
0
  0
VERTEX
  8
1
 42
1.0
 10
4.6701738E+001
 20
1.6022578E+002
 70
0
  0
VERTEX
  8
1
 42
0.0
 10
5.1901738E+001
 20
1.6022578E+002
 70
0
  0
SEQEND
  0
POLYLINE
  8
1
  6
CONTINUOUS
 62
3
 66
1
 40
5.0E-001
 41
5.0E-001
 70
0
  0
VERTEX
  8
1
 42
0.0
 10
5.4951738E+001
 20
1.7502578E+002
 70
0
  0
VERTEX
  8
1
 42
0.0
 10
5.4951738E+001
 20
1.7082578E+002
 70
0
  0
SEQEND
  0
POLYLINE
  8
1
  6
CONTINUOUS
 62
3
 66
1
 40
5.0E-001
 41
5.0E-001
 70
0
  0
VERTEX
  8
1
 42
0.0
 10
5.4451738E+001
 20
1.7552578E+002
 70
0
  0
VERTEX
  8
1
 42
0.0
 10
4.5301748E+001
 20
1.7552578E+002
 70
0
  0
SEQEND
  0
POLYLINE
  8
1
  6
CONTINUOUS
 62
3
 66
1
 40
5.0E-001
 41
5.0E-001
 70
0
  0
VERTEX
  8
1
 42
0.0
 10
5.4451738E+001
 20
1.7032578E+002
 70
0
  0
VERTEX
  8
1
 42
0.0
 10
4.5301748E+001
 20
1.7032578E+002
 70
0
  0
SEQEND
  0
POLYLINE
  8
1
  6
CONTINUOUS
 62
3
 66
1
 40
5.0E-001
 41
5.0E-001
 70
0
  0
VERTEX
  8
1
 42
0.0
 10
4.5301748E+001
 20
1.7612578E+002
 70
0
  0
VERTEX
  8
1
 42
0.0
 10
4.3751748E+001
 20
1.7612578E+002
 70
0
  0
SEQEND
  0
POLYLINE
  8
1
  6
CONTINUOUS
 62
3
 66
1
 40
5.0E-001
 41
5.0E-001
 70
0
  0
VERTEX
  8
1
 42
0.0
 10
4.5301748E+001
 20
1.6972578E+002
 70
0
  0
VERTEX
  8
1
 42
0.0
 10
4.3751748E+001
 20
1.6972578E+002
 70
0
  0
SEQEND
  0
POLYLINE
  8
1
  6
CONTINUOUS
 62
3
 66
1
 40
5.0E-001
 41
5.0E-001
 70
0
  0
VERTEX
  8
1
 42
0.0
 10
4.5301748E+001
 20
1.7032578E+002
 70
0
  0
VERTEX
  8
1
 42
0.0
 10
4.5301748E+001
 20
1.6972578E+002
 70
0
  0
SEQEND
  0
POLYLINE
  8
1
  6
CONTINUOUS
 62
3
 66
1
 40
5.0E-001
 41
5.0E-001
 70
0
  0
VERTEX
  8
1
 42
0.0
 10
4.5301748E+001
 20
1.7612578E+002
 70
0
  0
VERTEX
  8
1
 42
0.0
 10
4.5301748E+001
 20
1.7552578E+002
 70
0
  0
SEQEND
  0
LINE
  8
1
  6
CENTERLINE
 62
1
 10
8.8821748E+001
 20
1.8562578E+002
 11
8.2581738E+001
 21
1.8562578E+002
  0
LINE
  8
1
  6
CENTERLINE
 62
1
 10
8.5701748E+001
 20
1.8250578E+002
 11
8.5701748E+001
 21
1.8874578E+002
  0
LINE
  8
1
  6
CENTERLINE
 62
1
 10
7.9721738E+001
 20
1.8562578E+002
 11
7.3481748E+001
 21
1.8562578E+002
  0
LINE
  8
1
  6
CENTERLINE
 62
1
 10
7.6601748E+001
 20
1.8250578E+002
 11
7.6601748E+001
 21
1.8874578E+002
  0
LINE
  8
1
  6
CENTERLINE
 62
1
 10
7.0621748E+001
 20
1.8562578E+002
 11
6.4381748E+001
 21
1.8562578E+002
  0
LINE
  8
1
  6
CENTERLINE
 62
1
 10
6.7501758E+001
 20
1.8250578E+002
 11
6.7501758E+001
 21
1.8874578E+002
  0
LINE
  8
1
  6
CENTERLINE
 62
1
 10
6.1521738E+001
 20
1.8562578E+002
 11
5.5281748E+001
 21
1.8562578E+002
  0
LINE
  8
1
  6
CENTERLINE
 62
1
 10
5.8401748E+001
 20
1.8250578E+002
 11
5.8401748E+001
 21
1.8874578E+002
  0
LINE
  8
1
  6
CENTERLINE
 62
1
 10
5.2421748E+001
 20
1.8562578E+002
 11
4.6181748E+001
 21
1.8562578E+002
  0
LINE
  8
1
  6
CENTERLINE
 62
1
 10
4.9301738E+001
 20
1.8250578E+002
 11
4.9301738E+001
 21
1.8874578E+002
  0
LINE
  8
1
  6
CENTERLINE
 62
1
 10
8.8821748E+001
 20
1.6022578E+002
 11
8.2581738E+001
 21
1.6022578E+002
  0
LINE
  8
1
  6
CENTERLINE
 62
1
 10
8.5701748E+001
 20
1.5710578E+002
 11
8.5701748E+001
 21
1.6334578E+002
  0
LINE
  8
1
  6
CENTERLINE
 62
1
 10
7.9721738E+001
 20
1.6022578E+002
 11
7.3481748E+001
 21
1.6022578E+002
  0
LINE
  8
1
  6
CENTERLINE
 62
1
 10
7.6601748E+001
 20
1.5710578E+002
 11
7.6601748E+001
 21
1.6334578E+002
  0
LINE
  8
1
  6
CENTERLINE
 62
1
 10
7.0621748E+001
 20
1.6022578E+002
 11
6.4381748E+001
 21
1.6022578E+002
  0
LINE
  8
1
  6
CENTERLINE
 62
1
 10
6.7501758E+001
 20
1.5710578E+002
 11
6.7501758E+001
 21
1.6334578E+002
  0
LINE
  8
1
  6
CENTERLINE
 62
1
 10
6.1521738E+001
 20
1.6022578E+002
 11
5.5281738E+001
 21
1.6022578E+002
  0
LINE
  8
1
  6
CENTERLINE
 62
1
 10
5.8401728E+001
 20
1.5710578E+002
 11
5.8401728E+001
 21
1.6334578E+002
  0
LINE
  8
1
  6
CENTERLINE
 62
1
 10
5.2421738E+001
 20
1.6022578E+002
 11
4.6181748E+001
 21
1.6022578E+002
  0
LINE
  8
1
  6
CENTERLINE
 62
1
 10
4.9301738E+001
 20
1.5710578E+002
 11
4.9301738E+001
 21
1.6334578E+002
  0
POLYLINE
  8
1
  6
CONTINUOUS
 62
3
 66
1
 40
5.0E-001
 41
5.0E-001
 70
0
  0
VERTEX
  8
1
 42
4.1421356E-001
 10
5.4951738E+001
 20
1.7502578E+002
 70
0
  0
VERTEX
  8
1
 42
0.0
 10
5.4451738E+001
 20
1.7552578E+002
 70
0
  0
SEQEND
  0
POLYLINE
  8
1
  6
CONTINUOUS
 62
3
 66
1
 40
5.0E-001
 41
5.0E-001
 70
0
  0
VERTEX
  8
1
 42
4.1421356E-001
 10
5.4451738E+001
 20
1.7032578E+002
 70
0
  0
VERTEX
  8
1
 42
0.0
 10
5.4951738E+001
 20
1.7082578E+002
 70
0
  0
SEQEND
  0
POLYLINE
  8
1
  6
CONTINUOUS
 62
3
 66
1
 40
5.0E-001
 41
5.0E-001
 70
0
  0
VERTEX
  8
1
 42
0.0
 10
7.6251738E+001
 20
1.7397578E+002
 70
0
  0
VERTEX
  8
1
 42
0.0
 10
7.6251738E+001
 20
1.7187578E+002
 70
0
  0
SEQEND
  0
POLYLINE
  8
1
  6
CONTINUOUS
 62
3
 66
1
 40
5.0E-001
 41
5.0E-001
 70
0
  0
VERTEX
  8
1
 42
0.0
 10
7.3751738E+001
 20
1.7397578E+002
 70
0
  0
VERTEX
  8
1
 42
0.0
 10
7.3751738E+001
 20
1.7187578E+002
 70
0
  0
SEQEND
  0
POLYLINE
  8
1
  6
CONTINUOUS
 62
3
 66
1
 40
5.0E-001
 41
5.0E-001
 70
0
  0
VERTEX
  8
1
 42
0.0
 10
6.2151748E+001
 20
1.7397578E+002
 70
0
  0
VERTEX
  8
1
 42
0.0
 10
6.2151748E+001
 20
1.7187578E+002
 70
0
  0
SEQEND
  0
POLYLINE
  8
1
  6
CONTINUOUS
 62
3
 66
1
 40
5.0E-001
 41
5.0E-001
 70
0
  0
VERTEX
  8
1
 42
0.0
 10
6.4651748E+001
 20
1.7397578E+002
 70
0
  0
VERTEX
  8
1
 42
0.0
 10
6.4651748E+001
 20
1.7187578E+002
 70
0
  0
SEQEND
  0
POLYLINE
  8
1
  6
CONTINUOUS
 62
3
 66
1
 40
5.0E-001
 41
5.0E-001
 70
0
  0
VERTEX
  8
1
 42
0.0
 10
7.6251738E+001
 20
1.7397578E+002
 70
0
  0
VERTEX
  8
1
 42
0.0
 10
7.3751738E+001
 20
1.7397578E+002
 70
0
  0
SEQEND
  0
POLYLINE
  8
1
  6
CONTINUOUS
 62
3
 66
1
 40
5.0E-001
 41
5.0E-001
 70
0
  0
VERTEX
  8
1
 42
0.0
 10
7.6251738E+001
 20
1.7187578E+002
 70
0
  0
VERTEX
  8
1
 42
0.0
 10
7.3751738E+001
 20
1.7187578E+002
 70
0
  0
SEQEND
  0
POLYLINE
  8
1
  6
CONTINUOUS
 62
3
 66
1
 40
5.0E-001
 41
5.0E-001
 70
0
  0
VERTEX
  8
1
 42
0.0
 10
6.4651748E+001
 20
1.7397578E+002
 70
0
  0
VERTEX
  8
1
 42
0.0
 10
6.2151748E+001
 20
1.7397578E+002
 70
0
  0
SEQEND
  0
POLYLINE
  8
1
  6
CONTINUOUS
 62
3
 66
1
 40
5.0E-001
 41
5.0E-001
 70
0
  0
VERTEX
  8
1
 42
0.0
 10
6.4651748E+001
 20
1.7187578E+002
 70
0
  0
VERTEX
  8
1
 42
0.0
 10
6.2151748E+001
 20
1.7187578E+002
 70
0
  0
SEQEND
  0
POLYLINE
  8
1
  6
CONTINUOUS
 62
3
 66
1
 40
5.0E-001
 41
5.0E-001
 70
0
  0
VERTEX
  8
1
 42
0.0
 10
7.6751738E+001
 20
1.7447578E+002
 70
0
  0
VERTEX
  8
1
 42
0.0
 10
7.3251738E+001
 20
1.7447578E+002
 70
0
  0
SEQEND
  0
POLYLINE
  8
1
  6
CONTINUOUS
 62
3
 66
1
 40
5.0E-001
 41
5.0E-001
 70
0
  0
VERTEX
  8
1
 42
0.0
 10
7.6751738E+001
 20
1.7137578E+002
 70
0
  0
VERTEX
  8
1
 42
0.0
 10
7.3251738E+001
 20
1.7137578E+002
 70
0
  0
SEQEND
  0
POLYLINE
  8
1
  6
CONTINUOUS
 62
3
 66
1
 40
5.0E-001
 41
5.0E-001
 70
0
  0
VERTEX
  8
1
 42
0.0
 10
7.6751738E+001
 20
1.7447578E+002
 70
0
  0
VERTEX
  8
1
 42
0.0
 10
7.6751738E+001
 20
1.7137578E+002
 70
0
  0
SEQEND
  0
POLYLINE
  8
1
  6
CONTINUOUS
 62
3
 66
1
 40
5.0E-001
 41
5.0E-001
 70
0
  0
VERTEX
  8
1
 42
0.0
 10
7.3251738E+001
 20
1.7447578E+002
 70
0
  0
VERTEX
  8
1
 42
0.0
 10
7.3251738E+001
 20
1.7137578E+002
 70
0
  0
SEQEND
  0
POLYLINE
  8
1
  6
CONTINUOUS
 62
3
 66
1
 40
5.0E-001
 41
5.0E-001
 70
0
  0
VERTEX
  8
1
 42
0.0
 10
6.5151748E+001
 20
1.7447578E+002
 70
0
  0
VERTEX
  8
1
 42
0.0
 10
6.5151748E+001
 20
1.7137578E+002
 70
0
  0
SEQEND
  0
POLYLINE
  8
1
  6
CONTINUOUS
 62
3
 66
1
 40
5.0E-001
 41
5.0E-001
 70
0
  0
VERTEX
  8
1
 42
0.0
 10
6.5151748E+001
 20
1.7137578E+002
 70
0
  0
VERTEX
  8
1
 42
0.0
 10
6.1651748E+001
 20
1.7137578E+002
 70
0
  0
SEQEND
  0
POLYLINE
  8
1
  6
CONTINUOUS
 62
3
 66
1
 40
5.0E-001
 41
5.0E-001
 70
0
  0
VERTEX
  8
1
 42
0.0
 10
6.1651748E+001
 20
1.7447578E+002
 70
0
  0
VERTEX
  8
1
 42
0.0
 10
6.1651748E+001
 20
1.7137578E+002
 70
0
  0
SEQEND
  0
POLYLINE
  8
1
  6
CONTINUOUS
 62
3
 66
1
 40
5.0E-001
 41
5.0E-001
 70
0
  0
VERTEX
  8
1
 42
0.0
 10
6.5151748E+001
 20
1.7447578E+002
 70
0
  0
VERTEX
  8
1
 42
0.0
 10
6.1651748E+001
 20
1.7447578E+002
 70
0
  0
SEQEND
  0
POLYLINE
  8
1
  6
CONTINUOUS
 62
3
 66
1
 40
5.0E-001
 41
5.0E-001
 70
0
  0
VERTEX
  8
1
 42
0.0
 10
7.6751738E+001
 20
1.7137578E+002
 70
0
  0
VERTEX
  8
1
 42
0.0
 10
7.6251738E+001
 20
1.7187578E+002
 70
0
  0
SEQEND
  0
POLYLINE
  8
1
  6
CONTINUOUS
 62
3
 66
1
 40
5.0E-001
 41
5.0E-001
 70
0
  0
VERTEX
  8
1
 42
0.0
 10
7.3251738E+001
 20
1.7137578E+002
 70
0
  0
VERTEX
  8
1
 42
0.0
 10
7.3751738E+001
 20
1.7187578E+002
 70
0
  0
SEQEND
  0
POLYLINE
  8
1
  6
CONTINUOUS
 62
3
 66
1
 40
5.0E-001
 41
5.0E-001
 70
0
  0
VERTEX
  8
1
 42
0.0
 10
7.3251738E+001
 20
1.7447578E+002
 70
0
  0
VERTEX
  8
1
 42
0.0
 10
7.3751738E+001
 20
1.7397578E+002
 70
0
  0
SEQEND
  0
POLYLINE
  8
1
  6
CONTINUOUS
 62
3
 66
1
 40
5.0E-001
 41
5.0E-001
 70
0
  0
VERTEX
  8
1
 42
0.0
 10
7.6751738E+001
 20
1.7447578E+002
 70
0
  0
VERTEX
  8
1
 42
0.0
 10
7.6251738E+001
 20
1.7397578E+002
 70
0
  0
SEQEND
  0
POLYLINE
  8
1
  6
CONTINUOUS
 62
3
 66
1
 40
5.0E-001
 41
5.0E-001
 70
0
  0
VERTEX
  8
1
 42
0.0
 10
6.1651748E+001
 20
1.7137578E+002
 70
0
  0
VERTEX
  8
1
 42
0.0
 10
6.2151748E+001
 20
1.7187578E+002
 70
0
  0
SEQEND
  0
POLYLINE
  8
1
  6
CONTINUOUS
 62
3
 66
1
 40
5.0E-001
 41
5.0E-001
 70
0
  0
VERTEX
  8
1
 42
0.0
 10
6.2151748E+001
 20
1.7397578E+002
 70
0
  0
VERTEX
  8
1
 42
0.0
 10
6.1651748E+001
 20
1.7447578E+002
 70
0
  0
SEQEND
  0
POLYLINE
  8
1
  6
CONTINUOUS
 62
3
 66
1
 40
5.0E-001
 41
5.0E-001
 70
0
  0
VERTEX
  8
1
 42
0.0
 10
6.5151748E+001
 20
1.7137578E+002
 70
0
  0
VERTEX
  8
1
 42
0.0
 10
6.4651748E+001
 20
1.7187578E+002
 70
0
  0
SEQEND
  0
POLYLINE
  8
1
  6
CONTINUOUS
 62
3
 66
1
 40
5.0E-001
 41
5.0E-001
 70
0
  0
VERTEX
  8
1
 42
0.0
 10
6.4651748E+001
 20
1.7397578E+002
 70
0
  0
VERTEX
  8
1
 42
0.0
 10
6.5151748E+001
 20
1.7447578E+002
 70
0
  0
SEQEND
  0
POLYLINE
  8
1
  6
CONTINUOUS
 62
3
 66
1
 40
5.0E-001
 41
5.0E-001
 70
0
  0
VERTEX
  8
1
 42
0.0
 10
5.4451738E+001
 20
1.7702578E+002
 70
0
  0
VERTEX
  8
1
 42
0.0
 10
4.3751748E+001
 20
1.7702578E+002
 70
0
  0
SEQEND
  0
POLYLINE
  8
1
  6
CONTINUOUS
 62
3
 66
1
 40
5.0E-001
 41
5.0E-001
 70
0
  0
VERTEX
  8
1
 42
0.0
 10
5.4451738E+001
 20
1.6882578E+002
 70
0
  0
VERTEX
  8
1
 42
0.0
 10
4.3751748E+001
 20
1.6882578E+002
 70
0
  0
SEQEND
  0
POLYLINE
  8
1
  6
CONTINUOUS
 62
3
 66
1
 40
5.0E-001
 41
5.0E-001
 70
0
  0
VERTEX
  8
1
 42
0.0
 10
5.6451738E+001
 20
1.7502578E+002
 70
0
  0
VERTEX
  8
1
 42
0.0
 10
5.6451738E+001
 20
1.7082578E+002
 70
0
  0
SEQEND
  0
POLYLINE
  8
1
  6
CONTINUOUS
 62
3
 66
1
 40
5.0E-001
 41
5.0E-001
 70
0
  0
VERTEX
  8
1
 42
4.1421356E-001
 10
5.6451738E+001
 20
1.7502578E+002
 70
0
  0
VERTEX
  8
1
 42
0.0
 10
5.4451738E+001
 20
1.7702578E+002
 70
0
  0
SEQEND
  0
POLYLINE
  8
1
  6
CONTINUOUS
 62
3
 66
1
 40
5.0E-001
 41
5.0E-001
 70
0
  0
VERTEX
  8
1
 42
4.1421356E-001
 10
5.4451738E+001
 20
1.6882578E+002
 70
0
  0
VERTEX
  8
1
 42
0.0
 10
5.6451738E+001
 20
1.7082578E+002
 70
0
  0
SEQEND
  0
POLYLINE
  8
1
  6
CONTINUOUS
 62
3
 66
1
 40
5.0E-001
 41
5.0E-001
 70
0
  0
VERTEX
  8
1
 42
0.0
 10
8.1801738E+001
 20
1.9407578E+002
 70
0
  0
VERTEX
  8
1
 42
0.0
 10
8.1801738E+001
 20
1.9292578E+002
 70
0
  0
SEQEND
  0
POLYLINE
  8
1
  6
CONTINUOUS
 62
3
 66
1
 40
5.0E-001
 41
5.0E-001
 70
0
  0
VERTEX
  8
1
 42
0.0
 10
4.5101738E+001
 20
1.5282578E+002
 70
0
  0
VERTEX
  8
1
 42
0.0
 10
4.3751748E+001
 20
1.5282578E+002
 70
0
  0
SEQEND
  0
POLYLINE
  8
1
  6
CONTINUOUS
 62
3
 66
1
 40
5.0E-001
 41
5.0E-001
 70
0
  0
VERTEX
  8
1
 42
0.0
 10
8.5301738E+001
 20
1.8499138E+002
 70
0
  0
VERTEX
  8
1
 42
0.0
 10
8.5301738E+001
 20
1.8305668E+002
 70
0
  0
SEQEND
  0
POLYLINE
  8
1
  6
CONTINUOUS
 62
3
 66
1
 40
5.0E-001
 41
5.0E-001
 70
0
  0
VERTEX
  8
1
 42
0.0
 10
8.6101748E+001
 20
1.8499138E+002
 70
0
  0
VERTEX
  8
1
 42
0.0
 10
8.6101748E+001
 20
1.8305668E+002
 70
0
  0
SEQEND
  0
POLYLINE
  8
1
  6
CONTINUOUS
 62
3
 66
1
 40
5.0E-001
 41
5.0E-001
 70
0
  0
VERTEX
  8
1
 42
0.0
 10
8.6336178E+001
 20
1.8522578E+002
 70
0
  0
VERTEX
  8
1
 42
0.0
 10
8.7201748E+001
 20
1.8522578E+002
 70
0
  0
SEQEND
  0
POLYLINE
  8
1
  6
CONTINUOUS
 62
3
 66
1
 40
5.0E-001
 41
5.0E-001
 70
0
  0
VERTEX
  8
1
 42
0.0
 10
8.6336178E+001
 20
1.8602578E+002
 70
0
  0
VERTEX
  8
1
 42
0.0
 10
8.7201748E+001
 20
1.8602578E+002
 70
0
  0
SEQEND
  0
POLYLINE
  8
1
  6
CONTINUOUS
 62
3
 66
1
 40
5.0E-001
 41
5.0E-001
 70
0
  0
VERTEX
  8
1
 42
0.0
 10
8.4201748E+001
 20
1.8602578E+002
 70
0
  0
VERTEX
  8
1
 42
0.0
 10
8.4201748E+001
 20
1.8522578E+002
 70
0
  0
SEQEND
  0
POLYLINE
  8
1
  6
CONTINUOUS
 62
3
 66
1
 40
5.0E-001
 41
5.0E-001
 70
0
  0
VERTEX
  8
1
 42
0.0
 10
8.7201748E+001
 20
1.8602578E+002
 70
0
  0
VERTEX
  8
1
 42
0.0
 10
8.7201748E+001
 20
1.8522578E+002
 70
0
  0
SEQEND
  0
POLYLINE
  8
1
  6
CONTINUOUS
 62
3
 66
1
 40
5.0E-001
 41
5.0E-001
 70
0
  0
VERTEX
  8
1
 42
0.0
 10
8.4201748E+001
 20
1.8602578E+002
 70
0
  0
VERTEX
  8
1
 42
0.0
 10
8.5067318E+001
 20
1.8602578E+002
 70
0
  0
SEQEND
  0
POLYLINE
  8
1
  6
CONTINUOUS
 62
3
 66
1
 40
5.0E-001
 41
5.0E-001
 70
0
  0
VERTEX
  8
1
 42
0.0
 10
8.4201748E+001
 20
1.8522578E+002
 70
0
  0
VERTEX
  8
1
 42
0.0
 10
8.5067318E+001
 20
1.8522578E+002
 70
0
  0
SEQEND
  0
POLYLINE
  8
1
  6
CONTINUOUS
 62
3
 66
1
 40
5.0E-001
 41
5.0E-001
 70
0
  0
VERTEX
  8
1
 42
0.0
 10
8.5301738E+001
 20
1.8819478E+002
 70
0
  0
VERTEX
  8
1
 42
0.0
 10
8.5301738E+001
 20
1.8626018E+002
 70
0
  0
SEQEND
  0
POLYLINE
  8
1
  6
CONTINUOUS
 62
3
 66
1
 40
5.0E-001
 41
5.0E-001
 70
0
  0
VERTEX
  8
1
 42
0.0
 10
8.6101748E+001
 20
1.8819478E+002
 70
0
  0
VERTEX
  8
1
 42
0.0
 10
8.6101748E+001
 20
1.8626018E+002
 70
0
  0
SEQEND
  0
POLYLINE
  8
1
  6
CONTINUOUS
 62
3
 66
1
 40
5.0E-001
 41
5.0E-001
 70
0
  0
VERTEX
  8
1
 42
0.0
 10
8.5171418E+001
 20
1.8615608E+002
 70
0
  0
VERTEX
  8
1
 42
0.0
 10
8.4782518E+001
 20
1.8654498E+002
 70
0
  0
SEQEND
  0
POLYLINE
  8
1
  6
CONTINUOUS
 62
3
 66
1
 40
5.0E-001
 41
5.0E-001
 70
0
  0
VERTEX
  8
1
 42
0.0
 10
8.6232068E+001
 20
1.8615608E+002
 70
0
  0
VERTEX
  8
1
 42
0.0
 10
8.6620988E+001
 20
1.8654498E+002
 70
0
  0
SEQEND
  0
POLYLINE
  8
1
  6
CONTINUOUS
 62
3
 66
1
 40
5.0E-001
 41
5.0E-001
 70
0
  0
VERTEX
  8
1
 42
0.0
 10
8.5171418E+001
 20
1.8509548E+002
 70
0
  0
VERTEX
  8
1
 42
0.0
 10
8.4782518E+001
 20
1.8470658E+002
 70
0
  0
SEQEND
  0
POLYLINE
  8
1
  6
CONTINUOUS
 62
3
 66
1
 40
5.0E-001
 41
5.0E-001
 70
0
  0
VERTEX
  8
1
 42
0.0
 10
8.6232068E+001
 20
1.8509548E+002
 70
0
  0
VERTEX
  8
1
 42
0.0
 10
8.6620988E+001
 20
1.8470658E+002
 70
0
  0
SEQEND
  0
POLYLINE
  8
1
  6
CONTINUOUS
 62
3
 66
1
 40
5.0E-001
 41
5.0E-001
 70
0
  0
VERTEX
  8
1
 42
0.0
 10
8.5301738E+001
 20
1.8712578E+002
 70
0
  0
VERTEX
  8
1
 42
0.0
 10
8.6101748E+001
 20
1.8712578E+002
 70
0
  0
SEQEND
  0
POLYLINE
  8
1
  6
CONTINUOUS
 62
3
 66
1
 40
5.0E-001
 41
5.0E-001
 70
0
  0
VERTEX
  8
1
 42
0.0
 10
8.5301738E+001
 20
1.8412578E+002
 70
0
  0
VERTEX
  8
1
 42
0.0
 10
8.6101748E+001
 20
1.8412578E+002
 70
0
  0
SEQEND
  0
POLYLINE
  8
1
  6
CONTINUOUS
 62
3
 66
1
 40
5.0E-001
 41
5.0E-001
 70
0
  0
VERTEX
  8
1
 42
1.1189405E-001
 10
8.5067319E+001
 20
1.8522578E+002
 70
0
  0
VERTEX
  8
1
 42
0.0
 10
8.5301747E+001
 20
1.8499135E+002
 70
0
  0
SEQEND
  0
POLYLINE
  8
1
  6
CONTINUOUS
 62
3
 66
1
 40
5.0E-001
 41
5.0E-001
 70
0
  0
VERTEX
  8
1
 42
1.1189405E-001
 10
8.5301747E+001
 20
1.8626021E+002
 70
0
  0
VERTEX
  8
1
 42
0.0
 10
8.5067319E+001
 20
1.8602578E+002
 70
0
  0
SEQEND
  0
INSERT
  2
*E1795
  8
1
 10
8.5701748E+001
 20
1.8562578E+002
 41
1.0
 42
1.0
 43
1.0
 50
2.7E+002
 62
3
  0
INSERT
  2
*E1796
  8
1
 10
8.5701748E+001
 20
1.8562578E+002
 41
1.0
 42
1.0
 43
1.0
 50
2.7E+002
 62
3
  0
POLYLINE
  8
1
  6
CONTINUOUS
 62
3
 66
1
 40
5.0E-001
 41
5.0E-001
 70
0
  0
VERTEX
  8
1
 42
0.0
 10
7.6201748E+001
 20
1.8499138E+002
 70
0
  0
VERTEX
  8
1
 42
0.0
 10
7.6201748E+001
 20
1.8305668E+002
 70
0
  0
SEQEND
  0
POLYLINE
  8
1
  6
CONTINUOUS
 62
3
 66
1
 40
5.0E-001
 41
5.0E-001
 70
0
  0
VERTEX
  8
1
 42
0.0
 10
7.7001758E+001
 20
1.8499138E+002
 70
0
  0
VERTEX
  8
1
 42
0.0
 10
7.7001758E+001
 20
1.8305668E+002
 70
0
  0
SEQEND
  0
POLYLINE
  8
1
  6
CONTINUOUS
 62
3
 66
1
 40
5.0E-001
 41
5.0E-001
 70
0
  0
VERTEX
  8
1
 42
0.0
 10
7.7236178E+001
 20
1.8522578E+002
 70
0
  0
VERTEX
  8
1
 42
0.0
 10
7.8101748E+001
 20
1.8522578E+002
 70
0
  0
SEQEND
  0
POLYLINE
  8
1
  6
CONTINUOUS
 62
3
 66
1
 40
5.0E-001
 41
5.0E-001
 70
0
  0
VERTEX
  8
1
 42
0.0
 10
7.7236178E+001
 20
1.8602578E+002
 70
0
  0
VERTEX
  8
1
 42
0.0
 10
7.8101748E+001
 20
1.8602578E+002
 70
0
  0
SEQEND
  0
POLYLINE
  8
1
  6
CONTINUOUS
 62
3
 66
1
 40
5.0E-001
 41
5.0E-001
 70
0
  0
VERTEX
  8
1
 42
0.0
 10
7.5101748E+001
 20
1.8602578E+002
 70
0
  0
VERTEX
  8
1
 42
0.0
 10
7.5101748E+001
 20
1.8522578E+002
 70
0
  0
SEQEND
  0
POLYLINE
  8
1
  6
CONTINUOUS
 62
3
 66
1
 40
5.0E-001
 41
5.0E-001
 70
0
  0
VERTEX
  8
1
 42
0.0
 10
7.8101748E+001
 20
1.8602578E+002
 70
0
  0
VERTEX
  8
1
 42
0.0
 10
7.8101748E+001
 20
1.8522578E+002
 70
0
  0
SEQEND
  0
POLYLINE
  8
1
  6
CONTINUOUS
 62
3
 66
1
 40
5.0E-001
 41
5.0E-001
 70
0
  0
VERTEX
  8
1
 42
0.0
 10
7.5101748E+001
 20
1.8602578E+002
 70
0
  0
VERTEX
  8
1
 42
0.0
 10
7.5967318E+001
 20
1.8602578E+002
 70
0
  0
SEQEND
  0
POLYLINE
  8
1
  6
CONTINUOUS
 62
3
 66
1
 40
5.0E-001
 41
5.0E-001
 70
0
  0
VERTEX
  8
1
 42
0.0
 10
7.5101748E+001
 20
1.8522578E+002
 70
0
  0
VERTEX
  8
1
 42
0.0
 10
7.5967318E+001
 20
1.8522578E+002
 70
0
  0
SEQEND
  0
POLYLINE
  8
1
  6
CONTINUOUS
 62
3
 66
1
 40
5.0E-001
 41
5.0E-001
 70
0
  0
VERTEX
  8
1
 42
0.0
 10
7.6201748E+001
 20
1.8819478E+002
 70
0
  0
VERTEX
  8
1
 42
0.0
 10
7.6201748E+001
 20
1.8626018E+002
 70
0
  0
SEQEND
  0
POLYLINE
  8
1
  6
CONTINUOUS
 62
3
 66
1
 40
5.0E-001
 41
5.0E-001
 70
0
  0
VERTEX
  8
1
 42
0.0
 10
7.7001758E+001
 20
1.8819478E+002
 70
0
  0
VERTEX
  8
1
 42
0.0
 10
7.7001758E+001
 20
1.8626018E+002
 70
0
  0
SEQEND
  0
POLYLINE
  8
1
  6
CONTINUOUS
 62
3
 66
1
 40
5.0E-001
 41
5.0E-001
 70
0
  0
VERTEX
  8
1
 42
0.0
 10
7.6071428E+001
 20
1.8615608E+002
 70
0
  0
VERTEX
  8
1
 42
0.0
 10
7.5682508E+001
 20
1.8654498E+002
 70
0
  0
SEQEND
  0
POLYLINE
  8
1
  6
CONTINUOUS
 62
3
 66
1
 40
5.0E-001
 41
5.0E-001
 70
0
  0
VERTEX
  8
1
 42
0.0
 10
7.7132078E+001
 20
1.8615608E+002
 70
0
  0
VERTEX
  8
1
 42
0.0
 10
7.7520978E+001
 20
1.8654498E+002
 70
0
  0
SEQEND
  0
POLYLINE
  8
1
  6
CONTINUOUS
 62
3
 66
1
 40
5.0E-001
 41
5.0E-001
 70
0
  0
VERTEX
  8
1
 42
0.0
 10
7.6071428E+001
 20
1.8509548E+002
 70
0
  0
VERTEX
  8
1
 42
0.0
 10
7.5682508E+001
 20
1.8470658E+002
 70
0
  0
SEQEND
  0
POLYLINE
  8
1
  6
CONTINUOUS
 62
3
 66
1
 40
5.0E-001
 41
5.0E-001
 70
0
  0
VERTEX
  8
1
 42
0.0
 10
7.7132078E+001
 20
1.8509548E+002
 70
0
  0
VERTEX
  8
1
 42
0.0
 10
7.7520978E+001
 20
1.8470658E+002
 70
0
  0
SEQEND
  0
POLYLINE
  8
1
  6
CONTINUOUS
 62
3
 66
1
 40
5.0E-001
 41
5.0E-001
 70
0
  0
VERTEX
  8
1
 42
1.1189405E-001
 10
7.5967319E+001
 20
1.8522578E+002
 70
0
  0
VERTEX
  8
1
 42
0.0
 10
7.6201747E+001
 20
1.8499135E+002
 70
0
  0
SEQEND
  0
POLYLINE
  8
1
  6
CONTINUOUS
 62
3
 66
1
 40
5.0E-001
 41
5.0E-001
 70
0
  0
VERTEX
  8
1
 42
1.1189405E-001
 10
7.6201747E+001
 20
1.8626021E+002
 70
0
  0
VERTEX
  8
1
 42
0.0
 10
7.5967319E+001
 20
1.8602578E+002
 70
0
  0
SEQEND
  0
INSERT
  2
*E1813
  8
1
 10
7.6601748E+001
 20
1.8562578E+002
 41
1.0
 42
1.0
 43
1.0
 50
2.7E+002
 62
3
  0
INSERT
  2
*E1814
  8
1
 10
7.6601748E+001
 20
1.8562578E+002
 41
1.0
 42
1.0
 43
1.0
 50
2.7E+002
 62
3
  0
POLYLINE
  8
1
  6
CONTINUOUS
 62
3
 66
1
 40
5.0E-001
 41
5.0E-001
 70
0
  0
VERTEX
  8
1
 42
0.0
 10
7.6201748E+001
 20
1.8712578E+002
 70
0
  0
VERTEX
  8
1
 42
0.0
 10
7.7001758E+001
 20
1.8712578E+002
 70
0
  0
SEQEND
  0
POLYLINE
  8
1
  6
CONTINUOUS
 62
3
 66
1
 40
5.0E-001
 41
5.0E-001
 70
0
  0
VERTEX
  8
1
 42
0.0
 10
7.6201748E+001
 20
1.8412578E+002
 70
0
  0
VERTEX
  8
1
 42
0.0
 10
7.7001758E+001
 20
1.8412578E+002
 70
0
  0
SEQEND
  0
POLYLINE
  8
1
  6
CONTINUOUS
 62
3
 66
1
 40
5.0E-001
 41
5.0E-001
 70
0
  0
VERTEX
  8
1
 42
0.0
 10
6.7101748E+001
 20
1.8499138E+002
 70
0
  0
VERTEX
  8
1
 42
0.0
 10
6.7101748E+001
 20
1.8305668E+002
 70
0
  0
SEQEND
  0
POLYLINE
  8
1
  6
CONTINUOUS
 62
3
 66
1
 40
5.0E-001
 41
5.0E-001
 70
0
  0
VERTEX
  8
1
 42
0.0
 10
6.7901748E+001
 20
1.8499138E+002
 70
0
  0
VERTEX
  8
1
 42
0.0
 10
6.7901748E+001
 20
1.8305668E+002
 70
0
  0
SEQEND
  0
POLYLINE
  8
1
  6
CONTINUOUS
 62
3
 66
1
 40
5.0E-001
 41
5.0E-001
 70
0
  0
VERTEX
  8
1
 42
0.0
 10
6.8136188E+001
 20
1.8522578E+002
 70
0
  0
VERTEX
  8
1
 42
0.0
 10
6.9001758E+001
 20
1.8522578E+002
 70
0
  0
SEQEND
  0
POLYLINE
  8
1
  6
CONTINUOUS
 62
3
 66
1
 40
5.0E-001
 41
5.0E-001
 70
0
  0
VERTEX
  8
1
 42
0.0
 10
6.8136188E+001
 20
1.8602578E+002
 70
0
  0
VERTEX
  8
1
 42
0.0
 10
6.9001758E+001
 20
1.8602578E+002
 70
0
  0
SEQEND
  0
POLYLINE
  8
1
  6
CONTINUOUS
 62
3
 66
1
 40
5.0E-001
 41
5.0E-001
 70
0
  0
VERTEX
  8
1
 42
0.0
 10
6.6001758E+001
 20
1.8602578E+002
 70
0
  0
VERTEX
  8
1
 42
0.0
 10
6.6001758E+001
 20
1.8522578E+002
 70
0
  0
SEQEND
  0
POLYLINE
  8
1
  6
CONTINUOUS
 62
3
 66
1
 40
5.0E-001
 41
5.0E-001
 70
0
  0
VERTEX
  8
1
 42
0.0
 10
6.9001758E+001
 20
1.8602578E+002
 70
0
  0
VERTEX
  8
1
 42
0.0
 10
6.9001758E+001
 20
1.8522578E+002
 70
0
  0
SEQEND
  0
POLYLINE
  8
1
  6
CONTINUOUS
 62
3
 66
1
 40
5.0E-001
 41
5.0E-001
 70
0
  0
VERTEX
  8
1
 42
0.0
 10
6.6001758E+001
 20
1.8602578E+002
 70
0
  0
VERTEX
  8
1
 42
0.0
 10
6.6867328E+001
 20
1.8602578E+002
 70
0
  0
SEQEND
  0
POLYLINE
  8
1
  6
CONTINUOUS
 62
3
 66
1
 40
5.0E-001
 41
5.0E-001
 70
0
  0
VERTEX
  8
1
 42
0.0
 10
6.6001758E+001
 20
1.8522578E+002
 70
0
  0
VERTEX
  8
1
 42
0.0
 10
6.6867328E+001
 20
1.8522578E+002
 70
0
  0
SEQEND
  0
POLYLINE
  8
1
  6
CONTINUOUS
 62
3
 66
1
 40
5.0E-001
 41
5.0E-001
 70
0
  0
VERTEX
  8
1
 42
0.0
 10
6.7101748E+001
 20
1.8819478E+002
 70
0
  0
VERTEX
  8
1
 42
0.0
 10
6.7101748E+001
 20
1.8626018E+002
 70
0
  0
SEQEND
  0
POLYLINE
  8
1
  6
CONTINUOUS
 62
3
 66
1
 40
5.0E-001
 41
5.0E-001
 70
0
  0
VERTEX
  8
1
 42
0.0
 10
6.7901748E+001
 20
1.8819478E+002
 70
0
  0
VERTEX
  8
1
 42
0.0
 10
6.7901748E+001
 20
1.8626018E+002
 70
0
  0
SEQEND
  0
POLYLINE
  8
1
  6
CONTINUOUS
 62
3
 66
1
 40
5.0E-001
 41
5.0E-001
 70
0
  0
VERTEX
  8
1
 42
0.0
 10
6.6971418E+001
 20
1.8615608E+002
 70
0
  0
VERTEX
  8
1
 42
0.0
 10
6.6582518E+001
 20
1.8654498E+002
 70
0
  0
SEQEND
  0
POLYLINE
  8
1
  6
CONTINUOUS
 62
3
 66
1
 40
5.0E-001
 41
5.0E-001
 70
0
  0
VERTEX
  8
1
 42
0.0
 10
6.8032068E+001
 20
1.8615608E+002
 70
0
  0
VERTEX
  8
1
 42
0.0
 10
6.8420988E+001
 20
1.8654498E+002
 70
0
  0
SEQEND
  0
POLYLINE
  8
1
  6
CONTINUOUS
 62
3
 66
1
 40
5.0E-001
 41
5.0E-001
 70
0
  0
VERTEX
  8
1
 42
0.0
 10
6.6971418E+001
 20
1.8509548E+002
 70
0
  0
VERTEX
  8
1
 42
0.0
 10
6.6582518E+001
 20
1.8470658E+002
 70
0
  0
SEQEND
  0
POLYLINE
  8
1
  6
CONTINUOUS
 62
3
 66
1
 40
5.0E-001
 41
5.0E-001
 70
0
  0
VERTEX
  8
1
 42
0.0
 10
6.8032068E+001
 20
1.8509548E+002
 70
0
  0
VERTEX
  8
1
 42
0.0
 10
6.8420988E+001
 20
1.8470658E+002
 70
0
  0
SEQEND
  0
POLYLINE
  8
1
  6
CONTINUOUS
 62
3
 66
1
 40
5.0E-001
 41
5.0E-001
 70
0
  0
VERTEX
  8
1
 42
1.1189405E-001
 10
6.6867329E+001
 20
1.8522578E+002
 70
0
  0
VERTEX
  8
1
 42
0.0
 10
6.7101757E+001
 20
1.8499135E+002
 70
0
  0
SEQEND
  0
POLYLINE
  8
1
  6
CONTINUOUS
 62
3
 66
1
 40
5.0E-001
 41
5.0E-001
 70
0
  0
VERTEX
  8
1
 42
1.1189405E-001
 10
6.7101757E+001
 20
1.8626021E+002
 70
0
  0
VERTEX
  8
1
 42
0.0
 10
6.6867329E+001
 20
1.8602578E+002
 70
0
  0
SEQEND
  0
INSERT
  2
*E1833
  8
1
 10
6.7501758E+001
 20
1.8562578E+002
 41
1.0
 42
1.0
 43
1.0
 50
2.7E+002
 62
3
  0
INSERT
  2
*E1834
  8
1
 10
6.7501758E+001
 20
1.8562578E+002
 41
1.0
 42
1.0
 43
1.0
 50
2.7E+002
 62
3
  0
POLYLINE
  8
1
  6
CONTINUOUS
 62
3
 66
1
 40
5.0E-001
 41
5.0E-001
 70
0
  0
VERTEX
  8
1
 42
0.0
 10
6.7101748E+001
 20
1.8712578E+002
 70
0
  0
VERTEX
  8
1
 42
0.0
 10
6.7901748E+001
 20
1.8712578E+002
 70
0
  0
SEQEND
  0
POLYLINE
  8
1
  6
CONTINUOUS
 62
3
 66
1
 40
5.0E-001
 41
5.0E-001
 70
0
  0
VERTEX
  8
1
 42
0.0
 10
6.7101748E+001
 20
1.8412578E+002
 70
0
  0
VERTEX
  8
1
 42
0.0
 10
6.7901748E+001
 20
1.8412578E+002
 70
0
  0
SEQEND
  0
POLYLINE
  8
1
  6
CONTINUOUS
 62
3
 66
1
 40
5.0E-001
 41
5.0E-001
 70
0
  0
VERTEX
  8
1
 42
0.0
 10
5.8001758E+001
 20
1.8499138E+002
 70
0
  0
VERTEX
  8
1
 42
0.0
 10
5.8001758E+001
 20
1.8305668E+002
 70
0
  0
SEQEND
  0
POLYLINE
  8
1
  6
CONTINUOUS
 62
3
 66
1
 40
5.0E-001
 41
5.0E-001
 70
0
  0
VERTEX
  8
1
 42
0.0
 10
5.8801758E+001
 20
1.8499138E+002
 70
0
  0
VERTEX
  8
1
 42
0.0
 10
5.8801758E+001
 20
1.8305668E+002
 70
0
  0
SEQEND
  0
POLYLINE
  8
1
  6
CONTINUOUS
 62
3
 66
1
 40
5.0E-001
 41
5.0E-001
 70
0
  0
VERTEX
  8
1
 42
0.0
 10
5.9036178E+001
 20
1.8522578E+002
 70
0
  0
VERTEX
  8
1
 42
0.0
 10
5.9901748E+001
 20
1.8522578E+002
 70
0
  0
SEQEND
  0
POLYLINE
  8
1
  6
CONTINUOUS
 62
3
 66
1
 40
5.0E-001
 41
5.0E-001
 70
0
  0
VERTEX
  8
1
 42
0.0
 10
5.9036178E+001
 20
1.8602578E+002
 70
0
  0
VERTEX
  8
1
 42
0.0
 10
5.9901748E+001
 20
1.8602578E+002
 70
0
  0
SEQEND
  0
POLYLINE
  8
1
  6
CONTINUOUS
 62
3
 66
1
 40
5.0E-001
 41
5.0E-001
 70
0
  0
VERTEX
  8
1
 42
0.0
 10
5.6901748E+001
 20
1.8602578E+002
 70
0
  0
VERTEX
  8
1
 42
0.0
 10
5.6901748E+001
 20
1.8522578E+002
 70
0
  0
SEQEND
  0
POLYLINE
  8
1
  6
CONTINUOUS
 62
3
 66
1
 40
5.0E-001
 41
5.0E-001
 70
0
  0
VERTEX
  8
1
 42
0.0
 10
5.9901748E+001
 20
1.8602578E+002
 70
0
  0
VERTEX
  8
1
 42
0.0
 10
5.9901748E+001
 20
1.8522578E+002
 70
0
  0
SEQEND
  0
POLYLINE
  8
1
  6
CONTINUOUS
 62
3
 66
1
 40
5.0E-001
 41
5.0E-001
 70
0
  0
VERTEX
  8
1
 42
0.0
 10
5.6901748E+001
 20
1.8602578E+002
 70
0
  0
VERTEX
  8
1
 42
0.0
 10
5.7767318E+001
 20
1.8602578E+002
 70
0
  0
SEQEND
  0
POLYLINE
  8
1
  6
CONTINUOUS
 62
3
 66
1
 40
5.0E-001
 41
5.0E-001
 70
0
  0
VERTEX
  8
1
 42
0.0
 10
5.6901748E+001
 20
1.8522578E+002
 70
0
  0
VERTEX
  8
1
 42
0.0
 10
5.7767318E+001
 20
1.8522578E+002
 70
0
  0
SEQEND
  0
POLYLINE
  8
1
  6
CONTINUOUS
 62
3
 66
1
 40
5.0E-001
 41
5.0E-001
 70
0
  0
VERTEX
  8
1
 42
0.0
 10
5.8001758E+001
 20
1.8819478E+002
 70
0
  0
VERTEX
  8
1
 42
0.0
 10
5.8001758E+001
 20
1.8626018E+002
 70
0
  0
SEQEND
  0
POLYLINE
  8
1
  6
CONTINUOUS
 62
3
 66
1
 40
5.0E-001
 41
5.0E-001
 70
0
  0
VERTEX
  8
1
 42
0.0
 10
5.8801758E+001
 20
1.8819478E+002
 70
0
  0
VERTEX
  8
1
 42
0.0
 10
5.8801758E+001
 20
1.8626018E+002
 70
0
  0
SEQEND
  0
POLYLINE
  8
1
  6
CONTINUOUS
 62
3
 66
1
 40
5.0E-001
 41
5.0E-001
 70
0
  0
VERTEX
  8
1
 42
0.0
 10
5.7871408E+001
 20
1.8615608E+002
 70
0
  0
VERTEX
  8
1
 42
0.0
 10
5.7482508E+001
 20
1.8654498E+002
 70
0
  0
SEQEND
  0
POLYLINE
  8
1
  6
CONTINUOUS
 62
3
 66
1
 40
5.0E-001
 41
5.0E-001
 70
0
  0
VERTEX
  8
1
 42
0.0
 10
5.8932078E+001
 20
1.8615608E+002
 70
0
  0
VERTEX
  8
1
 42
0.0
 10
5.9320978E+001
 20
1.8654498E+002
 70
0
  0
SEQEND
  0
POLYLINE
  8
1
  6
CONTINUOUS
 62
3
 66
1
 40
5.0E-001
 41
5.0E-001
 70
0
  0
VERTEX
  8
1
 42
0.0
 10
5.7871408E+001
 20
1.8509548E+002
 70
0
  0
VERTEX
  8
1
 42
0.0
 10
5.7482508E+001
 20
1.8470658E+002
 70
0
  0
SEQEND
  0
POLYLINE
  8
1
  6
CONTINUOUS
 62
3
 66
1
 40
5.0E-001
 41
5.0E-001
 70
0
  0
VERTEX
  8
1
 42
0.0
 10
5.8932078E+001
 20
1.8509548E+002
 70
0
  0
VERTEX
  8
1
 42
0.0
 10
5.9320978E+001
 20
1.8470658E+002
 70
0
  0
SEQEND
  0
POLYLINE
  8
1
  6
CONTINUOUS
 62
3
 66
1
 40
5.0E-001
 41
5.0E-001
 70
0
  0
VERTEX
  8
1
 42
1.1189405E-001
 10
5.7767319E+001
 20
1.8522578E+002
 70
0
  0
VERTEX
  8
1
 42
0.0
 10
5.8001747E+001
 20
1.8499135E+002
 70
0
  0
SEQEND
  0
POLYLINE
  8
1
  6
CONTINUOUS
 62
3
 66
1
 40
5.0E-001
 41
5.0E-001
 70
0
  0
VERTEX
  8
1
 42
1.1189405E-001
 10
5.8001747E+001
 20
1.8626021E+002
 70
0
  0
VERTEX
  8
1
 42
0.0
 10
5.7767319E+001
 20
1.8602578E+002
 70
0
  0
SEQEND
  0
INSERT
  2
*E1853
  8
1
 10
5.8401748E+001
 20
1.8562578E+002
 41
1.0
 42
1.0
 43
1.0
 50
2.7E+002
 62
3
  0
INSERT
  2
*E1854
  8
1
 10
5.8401748E+001
 20
1.8562578E+002
 41
1.0
 42
1.0
 43
1.0
 50
2.7E+002
 62
3
  0
POLYLINE
  8
1
  6
CONTINUOUS
 62
3
 66
1
 40
5.0E-001
 41
5.0E-001
 70
0
  0
VERTEX
  8
1
 42
0.0
 10
5.8001758E+001
 20
1.8712578E+002
 70
0
  0
VERTEX
  8
1
 42
0.0
 10
5.8801758E+001
 20
1.8712578E+002
 70
0
  0
SEQEND
  0
POLYLINE
  8
1
  6
CONTINUOUS
 62
3
 66
1
 40
5.0E-001
 41
5.0E-001
 70
0
  0
VERTEX
  8
1
 42
0.0
 10
5.8001758E+001
 20
1.8412578E+002
 70
0
  0
VERTEX
  8
1
 42
0.0
 10
5.8801758E+001
 20
1.8412578E+002
 70
0
  0
SEQEND
  0
POLYLINE
  8
1
  6
CONTINUOUS
 62
3
 66
1
 40
5.0E-001
 41
5.0E-001
 70
0
  0
VERTEX
  8
1
 42
0.0
 10
4.8901748E+001
 20
1.8499138E+002
 70
0
  0
VERTEX
  8
1
 42
0.0
 10
4.8901748E+001
 20
1.8305668E+002
 70
0
  0
SEQEND
  0
POLYLINE
  8
1
  6
CONTINUOUS
 62
3
 66
1
 40
5.0E-001
 41
5.0E-001
 70
0
  0
VERTEX
  8
1
 42
0.0
 10
4.9701748E+001
 20
1.8499138E+002
 70
0
  0
VERTEX
  8
1
 42
0.0
 10
4.9701748E+001
 20
1.8305668E+002
 70
0
  0
SEQEND
  0
POLYLINE
  8
1
  6
CONTINUOUS
 62
3
 66
1
 40
5.0E-001
 41
5.0E-001
 70
0
  0
VERTEX
  8
1
 42
0.0
 10
4.9936168E+001
 20
1.8522578E+002
 70
0
  0
VERTEX
  8
1
 42
0.0
 10
5.0801738E+001
 20
1.8522578E+002
 70
0
  0
SEQEND
  0
POLYLINE
  8
1
  6
CONTINUOUS
 62
3
 66
1
 40
5.0E-001
 41
5.0E-001
 70
0
  0
VERTEX
  8
1
 42
0.0
 10
4.9936168E+001
 20
1.8602578E+002
 70
0
  0
VERTEX
  8
1
 42
0.0
 10
5.0801738E+001
 20
1.8602578E+002
 70
0
  0
SEQEND
  0
POLYLINE
  8
1
  6
CONTINUOUS
 62
3
 66
1
 40
5.0E-001
 41
5.0E-001
 70
0
  0
VERTEX
  8
1
 42
0.0
 10
4.7801738E+001
 20
1.8602578E+002
 70
0
  0
VERTEX
  8
1
 42
0.0
 10
4.7801738E+001
 20
1.8522578E+002
 70
0
  0
SEQEND
  0
POLYLINE
  8
1
  6
CONTINUOUS
 62
3
 66
1
 40
5.0E-001
 41
5.0E-001
 70
0
  0
VERTEX
  8
1
 42
0.0
 10
5.0801738E+001
 20
1.8602578E+002
 70
0
  0
VERTEX
  8
1
 42
0.0
 10
5.0801738E+001
 20
1.8522578E+002
 70
0
  0
SEQEND
  0
POLYLINE
  8
1
  6
CONTINUOUS
 62
3
 66
1
 40
5.0E-001
 41
5.0E-001
 70
0
  0
VERTEX
  8
1
 42
0.0
 10
4.7801738E+001
 20
1.8602578E+002
 70
0
  0
VERTEX
  8
1
 42
0.0
 10
4.8667308E+001
 20
1.8602578E+002
 70
0
  0
SEQEND
  0
POLYLINE
  8
1
  6
CONTINUOUS
 62
3
 66
1
 40
5.0E-001
 41
5.0E-001
 70
0
  0
VERTEX
  8
1
 42
0.0
 10
4.7801738E+001
 20
1.8522578E+002
 70
0
  0
VERTEX
  8
1
 42
0.0
 10
4.8667308E+001
 20
1.8522578E+002
 70
0
  0
SEQEND
  0
POLYLINE
  8
1
  6
CONTINUOUS
 62
3
 66
1
 40
5.0E-001
 41
5.0E-001
 70
0
  0
VERTEX
  8
1
 42
0.0
 10
4.8901748E+001
 20
1.8819478E+002
 70
0
  0
VERTEX
  8
1
 42
0.0
 10
4.8901748E+001
 20
1.8626018E+002
 70
0
  0
SEQEND
  0
POLYLINE
  8
1
  6
CONTINUOUS
 62
3
 66
1
 40
5.0E-001
 41
5.0E-001
 70
0
  0
VERTEX
  8
1
 42
0.0
 10
4.9701748E+001
 20
1.8819478E+002
 70
0
  0
VERTEX
  8
1
 42
0.0
 10
4.9701748E+001
 20
1.8626018E+002
 70
0
  0
SEQEND
  0
POLYLINE
  8
1
  6
CONTINUOUS
 62
3
 66
1
 40
5.0E-001
 41
5.0E-001
 70
0
  0
VERTEX
  8
1
 42
0.0
 10
4.8771418E+001
 20
1.8615608E+002
 70
0
  0
VERTEX
  8
1
 42
0.0
 10
4.8382518E+001
 20
1.8654498E+002
 70
0
  0
SEQEND
  0
POLYLINE
  8
1
  6
CONTINUOUS
 62
3
 66
1
 40
5.0E-001
 41
5.0E-001
 70
0
  0
VERTEX
  8
1
 42
0.0
 10
4.9832078E+001
 20
1.8615608E+002
 70
0
  0
VERTEX
  8
1
 42
0.0
 10
5.0220988E+001
 20
1.8654498E+002
 70
0
  0
SEQEND
  0
POLYLINE
  8
1
  6
CONTINUOUS
 62
3
 66
1
 40
5.0E-001
 41
5.0E-001
 70
0
  0
VERTEX
  8
1
 42
0.0
 10
4.8771418E+001
 20
1.8509548E+002
 70
0
  0
VERTEX
  8
1
 42
0.0
 10
4.8382518E+001
 20
1.8470658E+002
 70
0
  0
SEQEND
  0
POLYLINE
  8
1
  6
CONTINUOUS
 62
3
 66
1
 40
5.0E-001
 41
5.0E-001
 70
0
  0
VERTEX
  8
1
 42
0.0
 10
4.9832078E+001
 20
1.8509548E+002
 70
0
  0
VERTEX
  8
1
 42
0.0
 10
5.0220988E+001
 20
1.8470658E+002
 70
0
  0
SEQEND
  0
POLYLINE
  8
1
  6
CONTINUOUS
 62
3
 66
1
 40
5.0E-001
 41
5.0E-001
 70
0
  0
VERTEX
  8
1
 42
1.1189405E-001
 10
4.8667309E+001
 20
1.8522578E+002
 70
0
  0
VERTEX
  8
1
 42
0.0
 10
4.8901737E+001
 20
1.8499135E+002
 70
0
  0
SEQEND
  0
POLYLINE
  8
1
  6
CONTINUOUS
 62
3
 66
1
 40
5.0E-001
 41
5.0E-001
 70
0
  0
VERTEX
  8
1
 42
1.1189405E-001
 10
4.8901737E+001
 20
1.8626021E+002
 70
0
  0
VERTEX
  8
1
 42
0.0
 10
4.8667309E+001
 20
1.8602578E+002
 70
0
  0
SEQEND
  0
INSERT
  2
*E1873
  8
1
 10
4.9301738E+001
 20
1.8562578E+002
 41
1.0
 42
1.0
 43
1.0
 50
2.7E+002
 62
3
  0
INSERT
  2
*E1874
  8
1
 10
4.9301738E+001
 20
1.8562578E+002
 41
1.0
 42
1.0
 43
1.0
 50
2.7E+002
 62
3
  0
POLYLINE
  8
1
  6
CONTINUOUS
 62
3
 66
1
 40
5.0E-001
 41
5.0E-001
 70
0
  0
VERTEX
  8
1
 42
0.0
 10
4.8901748E+001
 20
1.8712578E+002
 70
0
  0
VERTEX
  8
1
 42
0.0
 10
4.9701748E+001
 20
1.8712578E+002
 70
0
  0
SEQEND
  0
POLYLINE
  8
1
  6
CONTINUOUS
 62
3
 66
1
 40
5.0E-001
 41
5.0E-001
 70
0
  0
VERTEX
  8
1
 42
0.0
 10
4.8901748E+001
 20
1.8412578E+002
 70
0
  0
VERTEX
  8
1
 42
0.0
 10
4.9701748E+001
 20
1.8412578E+002
 70
0
  0
SEQEND
  0
POLYLINE
  8
1
  6
CONTINUOUS
 62
3
 66
1
 40
5.0E-001
 41
5.0E-001
 70
0
  0
VERTEX
  8
1
 42
0.0
 10
8.5301738E+001
 20
1.6086018E+002
 70
0
  0
VERTEX
  8
1
 42
0.0
 10
8.5301738E+001
 20
1.6279478E+002
 70
0
  0
SEQEND
  0
POLYLINE
  8
1
  6
CONTINUOUS
 62
3
 66
1
 40
5.0E-001
 41
5.0E-001
 70
0
  0
VERTEX
  8
1
 42
0.0
 10
8.6101748E+001
 20
1.6086018E+002
 70
0
  0
VERTEX
  8
1
 42
0.0
 10
8.6101748E+001
 20
1.6279478E+002
 70
0
  0
SEQEND
  0
POLYLINE
  8
1
  6
CONTINUOUS
 62
3
 66
1
 40
5.0E-001
 41
5.0E-001
 70
0
  0
VERTEX
  8
1
 42
0.0
 10
8.6336168E+001
 20
1.6062578E+002
 70
0
  0
VERTEX
  8
1
 42
0.0
 10
8.7201738E+001
 20
1.6062578E+002
 70
0
  0
SEQEND
  0
POLYLINE
  8
1
  6
CONTINUOUS
 62
3
 66
1
 40
5.0E-001
 41
5.0E-001
 70
0
  0
VERTEX
  8
1
 42
0.0
 10
8.6336168E+001
 20
1.5982578E+002
 70
0
  0
VERTEX
  8
1
 42
0.0
 10
8.7201738E+001
 20
1.5982578E+002
 70
0
  0
SEQEND
  0
POLYLINE
  8
1
  6
CONTINUOUS
 62
3
 66
1
 40
5.0E-001
 41
5.0E-001
 70
0
  0
VERTEX
  8
1
 42
0.0
 10
8.4201738E+001
 20
1.5982578E+002
 70
0
  0
VERTEX
  8
1
 42
0.0
 10
8.4201738E+001
 20
1.6062578E+002
 70
0
  0
SEQEND
  0
POLYLINE
  8
1
  6
CONTINUOUS
 62
3
 66
1
 40
5.0E-001
 41
5.0E-001
 70
0
  0
VERTEX
  8
1
 42
0.0
 10
8.7201738E+001
 20
1.5982578E+002
 70
0
  0
VERTEX
  8
1
 42
0.0
 10
8.7201738E+001
 20
1.6062578E+002
 70
0
  0
SEQEND
  0
POLYLINE
  8
1
  6
CONTINUOUS
 62
3
 66
1
 40
5.0E-001
 41
5.0E-001
 70
0
  0
VERTEX
  8
1
 42
0.0
 10
8.4201738E+001
 20
1.5982578E+002
 70
0
  0
VERTEX
  8
1
 42
0.0
 10
8.5067308E+001
 20
1.5982578E+002
 70
0
  0
SEQEND
  0
POLYLINE
  8
1
  6
CONTINUOUS
 62
3
 66
1
 40
5.0E-001
 41
5.0E-001
 70
0
  0
VERTEX
  8
1
 42
0.0
 10
8.4201738E+001
 20
1.6062578E+002
 70
0
  0
VERTEX
  8
1
 42
0.0
 10
8.5067308E+001
 20
1.6062578E+002
 70
0
  0
SEQEND
  0
POLYLINE
  8
1
  6
CONTINUOUS
 62
3
 66
1
 40
5.0E-001
 41
5.0E-001
 70
0
  0
VERTEX
  8
1
 42
0.0
 10
8.5301738E+001
 20
1.5765668E+002
 70
0
  0
VERTEX
  8
1
 42
0.0
 10
8.5301738E+001
 20
1.5959128E+002
 70
0
  0
SEQEND
  0
POLYLINE
  8
1
  6
CONTINUOUS
 62
3
 66
1
 40
5.0E-001
 41
5.0E-001
 70
0
  0
VERTEX
  8
1
 42
0.0
 10
8.6101748E+001
 20
1.5765668E+002
 70
0
  0
VERTEX
  8
1
 42
0.0
 10
8.6101748E+001
 20
1.5959128E+002
 70
0
  0
SEQEND
  0
POLYLINE
  8
1
  6
CONTINUOUS
 62
3
 66
1
 40
5.0E-001
 41
5.0E-001
 70
0
  0
VERTEX
  8
1
 42
0.0
 10
8.5171418E+001
 20
1.5969548E+002
 70
0
  0
VERTEX
  8
1
 42
0.0
 10
8.4782498E+001
 20
1.5930648E+002
 70
0
  0
SEQEND
  0
POLYLINE
  8
1
  6
CONTINUOUS
 62
3
 66
1
 40
5.0E-001
 41
5.0E-001
 70
0
  0
VERTEX
  8
1
 42
0.0
 10
8.6232068E+001
 20
1.5969548E+002
 70
0
  0
VERTEX
  8
1
 42
0.0
 10
8.6620968E+001
 20
1.5930648E+002
 70
0
  0
SEQEND
  0
POLYLINE
  8
1
  6
CONTINUOUS
 62
3
 66
1
 40
5.0E-001
 41
5.0E-001
 70
0
  0
VERTEX
  8
1
 42
0.0
 10
8.5171418E+001
 20
1.6075608E+002
 70
0
  0
VERTEX
  8
1
 42
0.0
 10
8.4782498E+001
 20
1.6114498E+002
 70
0
  0
SEQEND
  0
POLYLINE
  8
1
  6
CONTINUOUS
 62
3
 66
1
 40
5.0E-001
 41
5.0E-001
 70
0
  0
VERTEX
  8
1
 42
0.0
 10
8.6232068E+001
 20
1.6075608E+002
 70
0
  0
VERTEX
  8
1
 42
0.0
 10
8.6620968E+001
 20
1.6114498E+002
 70
0
  0
SEQEND
  0
POLYLINE
  8
1
  6
CONTINUOUS
 62
3
 66
1
 40
5.0E-001
 41
5.0E-001
 70
0
  0
VERTEX
  8
1
 42
0.0
 10
8.5301738E+001
 20
1.5872578E+002
 70
0
  0
VERTEX
  8
1
 42
0.0
 10
8.6101748E+001
 20
1.5872578E+002
 70
0
  0
SEQEND
  0
POLYLINE
  8
1
  6
CONTINUOUS
 62
3
 66
1
 40
5.0E-001
 41
5.0E-001
 70
0
  0
VERTEX
  8
1
 42
0.0
 10
8.5301738E+001
 20
1.6172578E+002
 70
0
  0
VERTEX
  8
1
 42
0.0
 10
8.6101748E+001
 20
1.6172578E+002
 70
0
  0
SEQEND
  0
INSERT
  2
*E1893
  8
1
 10
8.5701738E+001
 20
1.6022578E+002
 41
1.0
 42
1.0
 43
1.0
 50
2.7E+002
 62
3
  0
INSERT
  2
*E1894
  8
1
 10
8.5701738E+001
 20
1.6022578E+002
 41
1.0
 42
1.0
 43
1.0
 50
2.7E+002
 62
3
  0
POLYLINE
  8
1
  6
CONTINUOUS
 62
3
 66
1
 40
5.0E-001
 41
5.0E-001
 70
0
  0
VERTEX
  8
1
 42
1.1189405E-001
 10
8.6101738E+001
 20
1.5959135E+002
 70
0
  0
VERTEX
  8
1
 42
0.0
 10
8.6336166E+001
 20
1.5982578E+002
 70
0
  0
SEQEND
  0
POLYLINE
  8
1
  6
CONTINUOUS
 62
3
 66
1
 40
5.0E-001
 41
5.0E-001
 70
0
  0
VERTEX
  8
1
 42
1.1189401E-001
 10
8.6336166E+001
 20
1.6062578E+002
 70
0
  0
VERTEX
  8
1
 42
0.0
 10
8.6101739E+001
 20
1.6086021E+002
 70
0
  0
SEQEND
  0
POLYLINE
  8
1
  6
CONTINUOUS
 62
3
 66
1
 40
5.0E-001
 41
5.0E-001
 70
0
  0
VERTEX
  8
1
 42
0.0
 10
7.6201738E+001
 20
1.6086018E+002
 70
0
  0
VERTEX
  8
1
 42
0.0
 10
7.6201738E+001
 20
1.6279478E+002
 70
0
  0
SEQEND
  0
POLYLINE
  8
1
  6
CONTINUOUS
 62
3
 66
1
 40
5.0E-001
 41
5.0E-001
 70
0
  0
VERTEX
  8
1
 42
0.0
 10
7.7001738E+001
 20
1.6086018E+002
 70
0
  0
VERTEX
  8
1
 42
0.0
 10
7.7001738E+001
 20
1.6279478E+002
 70
0
  0
SEQEND
  0
POLYLINE
  8
1
  6
CONTINUOUS
 62
3
 66
1
 40
5.0E-001
 41
5.0E-001
 70
0
  0
VERTEX
  8
1
 42
0.0
 10
7.7236178E+001
 20
1.6062578E+002
 70
0
  0
VERTEX
  8
1
 42
0.0
 10
7.8101748E+001
 20
1.6062578E+002
 70
0
  0
SEQEND
  0
POLYLINE
  8
1
  6
CONTINUOUS
 62
3
 66
1
 40
5.0E-001
 41
5.0E-001
 70
0
  0
VERTEX
  8
1
 42
0.0
 10
7.7236178E+001
 20
1.5982578E+002
 70
0
  0
VERTEX
  8
1
 42
0.0
 10
7.8101748E+001
 20
1.5982578E+002
 70
0
  0
SEQEND
  0
POLYLINE
  8
1
  6
CONTINUOUS
 62
3
 66
1
 40
5.0E-001
 41
5.0E-001
 70
0
  0
VERTEX
  8
1
 42
0.0
 10
7.5101748E+001
 20
1.5982578E+002
 70
0
  0
VERTEX
  8
1
 42
0.0
 10
7.5101748E+001
 20
1.6062578E+002
 70
0
  0
SEQEND
  0
POLYLINE
  8
1
  6
CONTINUOUS
 62
3
 66
1
 40
5.0E-001
 41
5.0E-001
 70
0
  0
VERTEX
  8
1
 42
0.0
 10
7.8101748E+001
 20
1.5982578E+002
 70
0
  0
VERTEX
  8
1
 42
0.0
 10
7.8101748E+001
 20
1.6062578E+002
 70
0
  0
SEQEND
  0
POLYLINE
  8
1
  6
CONTINUOUS
 62
3
 66
1
 40
5.0E-001
 41
5.0E-001
 70
0
  0
VERTEX
  8
1
 42
0.0
 10
7.5101748E+001
 20
1.5982578E+002
 70
0
  0
VERTEX
  8
1
 42
0.0
 10
7.5967318E+001
 20
1.5982578E+002
 70
0
  0
SEQEND
  0
POLYLINE
  8
1
  6
CONTINUOUS
 62
3
 66
1
 40
5.0E-001
 41
5.0E-001
 70
0
  0
VERTEX
  8
1
 42
0.0
 10
7.5101748E+001
 20
1.6062578E+002
 70
0
  0
VERTEX
  8
1
 42
0.0
 10
7.5967318E+001
 20
1.6062578E+002
 70
0
  0
SEQEND
  0
POLYLINE
  8
1
  6
CONTINUOUS
 62
3
 66
1
 40
5.0E-001
 41
5.0E-001
 70
0
  0
VERTEX
  8
1
 42
0.0
 10
7.6201738E+001
 20
1.5765668E+002
 70
0
  0
VERTEX
  8
1
 42
0.0
 10
7.6201738E+001
 20
1.5959138E+002
 70
0
  0
SEQEND
  0
POLYLINE
  8
1
  6
CONTINUOUS
 62
3
 66
1
 40
5.0E-001
 41
5.0E-001
 70
0
  0
VERTEX
  8
1
 42
0.0
 10
7.7001738E+001
 20
1.5765668E+002
 70
0
  0
VERTEX
  8
1
 42
0.0
 10
7.7001738E+001
 20
1.5959138E+002
 70
0
  0
SEQEND
  0
POLYLINE
  8
1
  6
CONTINUOUS
 62
3
 66
1
 40
5.0E-001
 41
5.0E-001
 70
0
  0
VERTEX
  8
1
 42
0.0
 10
7.6071408E+001
 20
1.5969548E+002
 70
0
  0
VERTEX
  8
1
 42
0.0
 10
7.5682508E+001
 20
1.5930658E+002
 70
0
  0
SEQEND
  0
POLYLINE
  8
1
  6
CONTINUOUS
 62
3
 66
1
 40
5.0E-001
 41
5.0E-001
 70
0
  0
VERTEX
  8
1
 42
0.0
 10
7.7132068E+001
 20
1.5969548E+002
 70
0
  0
VERTEX
  8
1
 42
0.0
 10
7.7520978E+001
 20
1.5930658E+002
 70
0
  0
SEQEND
  0
POLYLINE
  8
1
  6
CONTINUOUS
 62
3
 66
1
 40
5.0E-001
 41
5.0E-001
 70
0
  0
VERTEX
  8
1
 42
0.0
 10
7.6071408E+001
 20
1.6075608E+002
 70
0
  0
VERTEX
  8
1
 42
0.0
 10
7.5682508E+001
 20
1.6114498E+002
 70
0
  0
SEQEND
  0
POLYLINE
  8
1
  6
CONTINUOUS
 62
3
 66
1
 40
5.0E-001
 41
5.0E-001
 70
0
  0
VERTEX
  8
1
 42
0.0
 10
7.7132068E+001
 20
1.6075608E+002
 70
0
  0
VERTEX
  8
1
 42
0.0
 10
7.7520978E+001
 20
1.6114498E+002
 70
0
  0
SEQEND
  0
INSERT
  2
*E1911
  8
1
 10
7.6601748E+001
 20
1.6022578E+002
 41
1.0
 42
1.0
 43
1.0
 50
2.7E+002
 62
3
  0
INSERT
  2
*E1912
  8
1
 10
7.6601748E+001
 20
1.6022578E+002
 41
1.0
 42
1.0
 43
1.0
 50
2.7E+002
 62
3
  0
POLYLINE
  8
1
  6
CONTINUOUS
 62
3
 66
1
 40
5.0E-001
 41
5.0E-001
 70
0
  0
VERTEX
  8
1
 42
1.1189405E-001
 10
7.7001748E+001
 20
1.5959135E+002
 70
0
  0
VERTEX
  8
1
 42
0.0
 10
7.7236176E+001
 20
1.5982578E+002
 70
0
  0
SEQEND
  0
POLYLINE
  8
1
  6
CONTINUOUS
 62
3
 66
1
 40
5.0E-001
 41
5.0E-001
 70
0
  0
VERTEX
  8
1
 42
1.1189401E-001
 10
7.7236176E+001
 20
1.6062578E+002
 70
0
  0
VERTEX
  8
1
 42
0.0
 10
7.7001749E+001
 20
1.6086021E+002
 70
0
  0
SEQEND
  0
POLYLINE
  8
1
  6
CONTINUOUS
 62
3
 66
1
 40
5.0E-001
 41
5.0E-001
 70
0
  0
VERTEX
  8
1
 42
0.0
 10
7.6201738E+001
 20
1.5872578E+002
 70
0
  0
VERTEX
  8
1
 42
0.0
 10
7.7001738E+001
 20
1.5872578E+002
 70
0
  0
SEQEND
  0
POLYLINE
  8
1
  6
CONTINUOUS
 62
3
 66
1
 40
5.0E-001
 41
5.0E-001
 70
0
  0
VERTEX
  8
1
 42
0.0
 10
7.6201738E+001
 20
1.6172578E+002
 70
0
  0
VERTEX
  8
1
 42
0.0
 10
7.7001738E+001
 20
1.6172578E+002
 70
0
  0
SEQEND
  0
POLYLINE
  8
1
  6
CONTINUOUS
 62
3
 66
1
 40
5.0E-001
 41
5.0E-001
 70
0
  0
VERTEX
  8
1
 42
0.0
 10
6.7101748E+001
 20
1.6086018E+002
 70
0
  0
VERTEX
  8
1
 42
0.0
 10
6.7101748E+001
 20
1.6279478E+002
 70
0
  0
SEQEND
  0
POLYLINE
  8
1
  6
CONTINUOUS
 62
3
 66
1
 40
5.0E-001
 41
5.0E-001
 70
0
  0
VERTEX
  8
1
 42
0.0
 10
6.7901748E+001
 20
1.6086018E+002
 70
0
  0
VERTEX
  8
1
 42
0.0
 10
6.7901748E+001
 20
1.6279478E+002
 70
0
  0
SEQEND
  0
POLYLINE
  8
1
  6
CONTINUOUS
 62
3
 66
1
 40
5.0E-001
 41
5.0E-001
 70
0
  0
VERTEX
  8
1
 42
0.0
 10
6.8136168E+001
 20
1.6062578E+002
 70
0
  0
VERTEX
  8
1
 42
0.0
 10
6.9001738E+001
 20
1.6062578E+002
 70
0
  0
SEQEND
  0
POLYLINE
  8
1
  6
CONTINUOUS
 62
3
 66
1
 40
5.0E-001
 41
5.0E-001
 70
0
  0
VERTEX
  8
1
 42
0.0
 10
6.8136168E+001
 20
1.5982578E+002
 70
0
  0
VERTEX
  8
1
 42
0.0
 10
6.9001738E+001
 20
1.5982578E+002
 70
0
  0
SEQEND
  0
POLYLINE
  8
1
  6
CONTINUOUS
 62
3
 66
1
 40
5.0E-001
 41
5.0E-001
 70
0
  0
VERTEX
  8
1
 42
0.0
 10
6.6001738E+001
 20
1.5982578E+002
 70
0
  0
VERTEX
  8
1
 42
0.0
 10
6.6001738E+001
 20
1.6062578E+002
 70
0
  0
SEQEND
  0
POLYLINE
  8
1
  6
CONTINUOUS
 62
3
 66
1
 40
5.0E-001
 41
5.0E-001
 70
0
  0
VERTEX
  8
1
 42
0.0
 10
6.9001738E+001
 20
1.5982578E+002
 70
0
  0
VERTEX
  8
1
 42
0.0
 10
6.9001738E+001
 20
1.6062578E+002
 70
0
  0
SEQEND
  0
POLYLINE
  8
1
  6
CONTINUOUS
 62
3
 66
1
 40
5.0E-001
 41
5.0E-001
 70
0
  0
VERTEX
  8
1
 42
0.0
 10
6.6001738E+001
 20
1.5982578E+002
 70
0
  0
VERTEX
  8
1
 42
0.0
 10
6.6867308E+001
 20
1.5982578E+002
 70
0
  0
SEQEND
  0
POLYLINE
  8
1
  6
CONTINUOUS
 62
3
 66
1
 40
5.0E-001
 41
5.0E-001
 70
0
  0
VERTEX
  8
1
 42
0.0
 10
6.6001738E+001
 20
1.6062578E+002
 70
0
  0
VERTEX
  8
1
 42
0.0
 10
6.6867308E+001
 20
1.6062578E+002
 70
0
  0
SEQEND
  0
POLYLINE
  8
1
  6
CONTINUOUS
 62
3
 66
1
 40
5.0E-001
 41
5.0E-001
 70
0
  0
VERTEX
  8
1
 42
0.0
 10
6.7101728E+001
 20
1.5765668E+002
 70
0
  0
VERTEX
  8
1
 42
0.0
 10
6.7101748E+001
 20
1.5959138E+002
 70
0
  0
SEQEND
  0
POLYLINE
  8
1
  6
CONTINUOUS
 62
3
 66
1
 40
5.0E-001
 41
5.0E-001
 70
0
  0
VERTEX
  8
1
 42
0.0
 10
6.7901728E+001
 20
1.5765668E+002
 70
0
  0
VERTEX
  8
1
 42
0.0
 10
6.7901748E+001
 20
1.5959138E+002
 70
0
  0
SEQEND
  0
POLYLINE
  8
1
  6
CONTINUOUS
 62
3
 66
1
 40
5.0E-001
 41
5.0E-001
 70
0
  0
VERTEX
  8
1
 42
0.0
 10
6.6971418E+001
 20
1.5969548E+002
 70
0
  0
VERTEX
  8
1
 42
0.0
 10
6.6582498E+001
 20
1.5930658E+002
 70
0
  0
SEQEND
  0
POLYLINE
  8
1
  6
CONTINUOUS
 62
3
 66
1
 40
5.0E-001
 41
5.0E-001
 70
0
  0
VERTEX
  8
1
 42
0.0
 10
6.8032068E+001
 20
1.5969548E+002
 70
0
  0
VERTEX
  8
1
 42
0.0
 10
6.8420978E+001
 20
1.5930648E+002
 70
0
  0
SEQEND
  0
POLYLINE
  8
1
  6
CONTINUOUS
 62
3
 66
1
 40
5.0E-001
 41
5.0E-001
 70
0
  0
VERTEX
  8
1
 42
0.0
 10
6.6971418E+001
 20
1.6075608E+002
 70
0
  0
VERTEX
  8
1
 42
0.0
 10
6.6582498E+001
 20
1.6114498E+002
 70
0
  0
SEQEND
  0
POLYLINE
  8
1
  6
CONTINUOUS
 62
3
 66
1
 40
5.0E-001
 41
5.0E-001
 70
0
  0
VERTEX
  8
1
 42
0.0
 10
6.8032068E+001
 20
1.6075608E+002
 70
0
  0
VERTEX
  8
1
 42
0.0
 10
6.8420978E+001
 20
1.6114498E+002
 70
0
  0
SEQEND
  0
INSERT
  2
*E1931
  8
1
 10
6.7501738E+001
 20
1.6022578E+002
 41
1.0
 42
1.0
 43
1.0
 50
2.7E+002
 62
3
  0
INSERT
  2
*E1932
  8
1
 10
6.7501738E+001
 20
1.6022578E+002
 41
1.0
 42
1.0
 43
1.0
 50
2.7E+002
 62
3
  0
POLYLINE
  8
1
  6
CONTINUOUS
 62
3
 66
1
 40
5.0E-001
 41
5.0E-001
 70
0
  0
VERTEX
  8
1
 42
1.1189405E-001
 10
6.7901738E+001
 20
1.5959135E+002
 70
0
  0
VERTEX
  8
1
 42
0.0
 10
6.8136166E+001
 20
1.5982578E+002
 70
0
  0
SEQEND
  0
POLYLINE
  8
1
  6
CONTINUOUS
 62
3
 66
1
 40
5.0E-001
 41
5.0E-001
 70
0
  0
VERTEX
  8
1
 42
1.1189401E-001
 10
6.8136166E+001
 20
1.6062578E+002
 70
0
  0
VERTEX
  8
1
 42
0.0
 10
6.7901739E+001
 20
1.6086021E+002
 70
0
  0
SEQEND
  0
POLYLINE
  8
1
  6
CONTINUOUS
 62
3
 66
1
 40
5.0E-001
 41
5.0E-001
 70
0
  0
VERTEX
  8
1
 42
0.0
 10
6.7101728E+001
 20
1.5872578E+002
 70
0
  0
VERTEX
  8
1
 42
0.0
 10
6.7901728E+001
 20
1.5872578E+002
 70
0
  0
SEQEND
  0
POLYLINE
  8
1
  6
CONTINUOUS
 62
3
 66
1
 40
5.0E-001
 41
5.0E-001
 70
0
  0
VERTEX
  8
1
 42
0.0
 10
6.7101748E+001
 20
1.6172578E+002
 70
0
  0
VERTEX
  8
1
 42
0.0
 10
6.7901748E+001
 20
1.6172578E+002
 70
0
  0
SEQEND
  0
POLYLINE
  8
1
  6
CONTINUOUS
 62
3
 66
1
 40
5.0E-001
 41
5.0E-001
 70
0
  0
VERTEX
  8
1
 42
0.0
 10
5.8001738E+001
 20
1.6086018E+002
 70
0
  0
VERTEX
  8
1
 42
0.0
 10
5.8001738E+001
 20
1.6279478E+002
 70
0
  0
SEQEND
  0
POLYLINE
  8
1
  6
CONTINUOUS
 62
3
 66
1
 40
5.0E-001
 41
5.0E-001
 70
0
  0
VERTEX
  8
1
 42
0.0
 10
5.8801738E+001
 20
1.6086018E+002
 70
0
  0
VERTEX
  8
1
 42
0.0
 10
5.8801738E+001
 20
1.6279478E+002
 70
0
  0
SEQEND
  0
POLYLINE
  8
1
  6
CONTINUOUS
 62
3
 66
1
 40
5.0E-001
 41
5.0E-001
 70
0
  0
VERTEX
  8
1
 42
0.0
 10
5.9036178E+001
 20
1.6062578E+002
 70
0
  0
VERTEX
  8
1
 42
0.0
 10
5.9901748E+001
 20
1.6062578E+002
 70
0
  0
SEQEND
  0
POLYLINE
  8
1
  6
CONTINUOUS
 62
3
 66
1
 40
5.0E-001
 41
5.0E-001
 70
0
  0
VERTEX
  8
1
 42
0.0
 10
5.9036178E+001
 20
1.5982578E+002
 70
0
  0
VERTEX
  8
1
 42
0.0
 10
5.9901748E+001
 20
1.5982578E+002
 70
0
  0
SEQEND
  0
POLYLINE
  8
1
  6
CONTINUOUS
 62
3
 66
1
 40
5.0E-001
 41
5.0E-001
 70
0
  0
VERTEX
  8
1
 42
0.0
 10
5.6901748E+001
 20
1.5982578E+002
 70
0
  0
VERTEX
  8
1
 42
0.0
 10
5.6901748E+001
 20
1.6062578E+002
 70
0
  0
SEQEND
  0
POLYLINE
  8
1
  6
CONTINUOUS
 62
3
 66
1
 40
5.0E-001
 41
5.0E-001
 70
0
  0
VERTEX
  8
1
 42
0.0
 10
5.9901748E+001
 20
1.5982578E+002
 70
0
  0
VERTEX
  8
1
 42
0.0
 10
5.9901748E+001
 20
1.6062578E+002
 70
0
  0
SEQEND
  0
POLYLINE
  8
1
  6
CONTINUOUS
 62
3
 66
1
 40
5.0E-001
 41
5.0E-001
 70
0
  0
VERTEX
  8
1
 42
0.0
 10
5.6901748E+001
 20
1.5982578E+002
 70
0
  0
VERTEX
  8
1
 42
0.0
 10
5.7767318E+001
 20
1.5982578E+002
 70
0
  0
SEQEND
  0
POLYLINE
  8
1
  6
CONTINUOUS
 62
3
 66
1
 40
5.0E-001
 41
5.0E-001
 70
0
  0
VERTEX
  8
1
 42
0.0
 10
5.6901748E+001
 20
1.6062578E+002
 70
0
  0
VERTEX
  8
1
 42
0.0
 10
5.7767318E+001
 20
1.6062578E+002
 70
0
  0
SEQEND
  0
POLYLINE
  8
1
  6
CONTINUOUS
 62
3
 66
1
 40
5.0E-001
 41
5.0E-001
 70
0
  0
VERTEX
  8
1
 42
0.0
 10
5.8001738E+001
 20
1.5765668E+002
 70
0
  0
VERTEX
  8
1
 42
0.0
 10
5.8001738E+001
 20
1.5959138E+002
 70
0
  0
SEQEND
  0
POLYLINE
  8
1
  6
CONTINUOUS
 62
3
 66
1
 40
5.0E-001
 41
5.0E-001
 70
0
  0
VERTEX
  8
1
 42
0.0
 10
5.8801738E+001
 20
1.5765668E+002
 70
0
  0
VERTEX
  8
1
 42
0.0
 10
5.8801738E+001
 20
1.5959138E+002
 70
0
  0
SEQEND
  0
POLYLINE
  8
1
  6
CONTINUOUS
 62
3
 66
1
 40
5.0E-001
 41
5.0E-001
 70
0
  0
VERTEX
  8
1
 42
0.0
 10
5.7871408E+001
 20
1.5969548E+002
 70
0
  0
VERTEX
  8
1
 42
0.0
 10
5.7482498E+001
 20
1.5930658E+002
 70
0
  0
SEQEND
  0
POLYLINE
  8
1
  6
CONTINUOUS
 62
3
 66
1
 40
5.0E-001
 41
5.0E-001
 70
0
  0
VERTEX
  8
1
 42
0.0
 10
5.8932068E+001
 20
1.5969548E+002
 70
0
  0
VERTEX
  8
1
 42
0.0
 10
5.9320978E+001
 20
1.5930658E+002
 70
0
  0
SEQEND
  0
POLYLINE
  8
1
  6
CONTINUOUS
 62
3
 66
1
 40
5.0E-001
 41
5.0E-001
 70
0
  0
VERTEX
  8
1
 42
0.0
 10
5.7871408E+001
 20
1.6075608E+002
 70
0
  0
VERTEX
  8
1
 42
0.0
 10
5.7482498E+001
 20
1.6114498E+002
 70
0
  0
SEQEND
  0
POLYLINE
  8
1
  6
CONTINUOUS
 62
3
 66
1
 40
5.0E-001
 41
5.0E-001
 70
0
  0
VERTEX
  8
1
 42
0.0
 10
5.8932068E+001
 20
1.6075608E+002
 70
0
  0
VERTEX
  8
1
 42
0.0
 10
5.9320978E+001
 20
1.6114498E+002
 70
0
  0
SEQEND
  0
INSERT
  2
*E1951
  8
1
 10
5.8401748E+001
 20
1.6022578E+002
 41
1.0
 42
1.0
 43
1.0
 50
2.7E+002
 62
3
  0
INSERT
  2
*E1952
  8
1
 10
5.8401748E+001
 20
1.6022578E+002
 41
1.0
 42
1.0
 43
1.0
 50
2.7E+002
 62
3
  0
POLYLINE
  8
1
  6
CONTINUOUS
 62
3
 66
1
 40
5.0E-001
 41
5.0E-001
 70
0
  0
VERTEX
  8
1
 42
1.1189405E-001
 10
5.8801748E+001
 20
1.5959135E+002
 70
0
  0
VERTEX
  8
1
 42
0.0
 10
5.9036176E+001
 20
1.5982578E+002
 70
0
  0
SEQEND
  0
POLYLINE
  8
1
  6
CONTINUOUS
 62
3
 66
1
 40
5.0E-001
 41
5.0E-001
 70
0
  0
VERTEX
  8
1
 42
1.1189401E-001
 10
5.9036176E+001
 20
1.6062578E+002
 70
0
  0
VERTEX
  8
1
 42
0.0
 10
5.8801749E+001
 20
1.6086021E+002
 70
0
  0
SEQEND
  0
POLYLINE
  8
1
  6
CONTINUOUS
 62
3
 66
1
 40
5.0E-001
 41
5.0E-001
 70
0
  0
VERTEX
  8
1
 42
0.0
 10
5.8001738E+001
 20
1.5872578E+002
 70
0
  0
VERTEX
  8
1
 42
0.0
 10
5.8801738E+001
 20
1.5872578E+002
 70
0
  0
SEQEND
  0
POLYLINE
  8
1
  6
CONTINUOUS
 62
3
 66
1
 40
5.0E-001
 41
5.0E-001
 70
0
  0
VERTEX
  8
1
 42
0.0
 10
5.8001738E+001
 20
1.6172578E+002
 70
0
  0
VERTEX
  8
1
 42
0.0
 10
5.8801738E+001
 20
1.6172578E+002
 70
0
  0
SEQEND
  0
POLYLINE
  8
1
  6
CONTINUOUS
 62
3
 66
1
 40
5.0E-001
 41
5.0E-001
 70
0
  0
VERTEX
  8
1
 42
0.0
 10
4.8901748E+001
 20
1.6086018E+002
 70
0
  0
VERTEX
  8
1
 42
0.0
 10
4.8901748E+001
 20
1.6279478E+002
 70
0
  0
SEQEND
  0
POLYLINE
  8
1
  6
CONTINUOUS
 62
3
 66
1
 40
5.0E-001
 41
5.0E-001
 70
0
  0
VERTEX
  8
1
 42
0.0
 10
4.9701738E+001
 20
1.6086018E+002
 70
0
  0
VERTEX
  8
1
 42
0.0
 10
4.9701738E+001
 20
1.6279488E+002
 70
0
  0
SEQEND
  0
POLYLINE
  8
1
  6
CONTINUOUS
 62
3
 66
1
 40
5.0E-001
 41
5.0E-001
 70
0
  0
VERTEX
  8
1
 42
0.0
 10
4.9936168E+001
 20
1.6062578E+002
 70
0
  0
VERTEX
  8
1
 42
0.0
 10
5.0801738E+001
 20
1.6062578E+002
 70
0
  0
SEQEND
  0
POLYLINE
  8
1
  6
CONTINUOUS
 62
3
 66
1
 40
5.0E-001
 41
5.0E-001
 70
0
  0
VERTEX
  8
1
 42
0.0
 10
4.9936168E+001
 20
1.5982578E+002
 70
0
  0
VERTEX
  8
1
 42
0.0
 10
5.0801738E+001
 20
1.5982578E+002
 70
0
  0
SEQEND
  0
POLYLINE
  8
1
  6
CONTINUOUS
 62
3
 66
1
 40
5.0E-001
 41
5.0E-001
 70
0
  0
VERTEX
  8
1
 42
0.0
 10
4.7801738E+001
 20
1.5982578E+002
 70
0
  0
VERTEX
  8
1
 42
0.0
 10
4.7801738E+001
 20
1.6062578E+002
 70
0
  0
SEQEND
  0
POLYLINE
  8
1
  6
CONTINUOUS
 62
3
 66
1
 40
5.0E-001
 41
5.0E-001
 70
0
  0
VERTEX
  8
1
 42
0.0
 10
5.0801738E+001
 20
1.5982578E+002
 70
0
  0
VERTEX
  8
1
 42
0.0
 10
5.0801738E+001
 20
1.6062578E+002
 70
0
  0
SEQEND
  0
POLYLINE
  8
1
  6
CONTINUOUS
 62
3
 66
1
 40
5.0E-001
 41
5.0E-001
 70
0
  0
VERTEX
  8
1
 42
0.0
 10
4.7801738E+001
 20
1.5982578E+002
 70
0
  0
VERTEX
  8
1
 42
0.0
 10
4.8667308E+001
 20
1.5982578E+002
 70
0
  0
SEQEND
  0
POLYLINE
  8
1
  6
CONTINUOUS
 62
3
 66
1
 40
5.0E-001
 41
5.0E-001
 70
0
  0
VERTEX
  8
1
 42
0.0
 10
4.7801738E+001
 20
1.6062578E+002
 70
0
  0
VERTEX
  8
1
 42
0.0
 10
4.8667308E+001
 20
1.6062578E+002
 70
0
  0
SEQEND
  0
POLYLINE
  8
1
  6
CONTINUOUS
 62
3
 66
1
 40
5.0E-001
 41
5.0E-001
 70
0
  0
VERTEX
  8
1
 42
0.0
 10
4.8901728E+001
 20
1.5765668E+002
 70
0
  0
VERTEX
  8
1
 42
0.0
 10
4.8901748E+001
 20
1.5959138E+002
 70
0
  0
SEQEND
  0
POLYLINE
  8
1
  6
CONTINUOUS
 62
3
 66
1
 40
5.0E-001
 41
5.0E-001
 70
0
  0
VERTEX
  8
1
 42
0.0
 10
4.9701738E+001
 20
1.5765678E+002
 70
0
  0
VERTEX
  8
1
 42
0.0
 10
4.9701738E+001
 20
1.5959138E+002
 70
0
  0
SEQEND
  0
POLYLINE
  8
1
  6
CONTINUOUS
 62
3
 66
1
 40
5.0E-001
 41
5.0E-001
 70
0
  0
VERTEX
  8
1
 42
0.0
 10
4.8771408E+001
 20
1.5969548E+002
 70
0
  0
VERTEX
  8
1
 42
0.0
 10
4.8382508E+001
 20
1.5930658E+002
 70
0
  0
SEQEND
  0
POLYLINE
  8
1
  6
CONTINUOUS
 62
3
 66
1
 40
5.0E-001
 41
5.0E-001
 70
0
  0
VERTEX
  8
1
 42
0.0
 10
4.9832078E+001
 20
1.5969548E+002
 70
0
  0
VERTEX
  8
1
 42
0.0
 10
5.0220978E+001
 20
1.5930658E+002
 70
0
  0
SEQEND
  0
POLYLINE
  8
1
  6
CONTINUOUS
 62
3
 66
1
 40
5.0E-001
 41
5.0E-001
 70
0
  0
VERTEX
  8
1
 42
0.0
 10
4.8771408E+001
 20
1.6075608E+002
 70
0
  0
VERTEX
  8
1
 42
0.0
 10
4.8382508E+001
 20
1.6114498E+002
 70
0
  0
SEQEND
  0
POLYLINE
  8
1
  6
CONTINUOUS
 62
3
 66
1
 40
5.0E-001
 41
5.0E-001
 70
0
  0
VERTEX
  8
1
 42
0.0
 10
4.9832078E+001
 20
1.6075608E+002
 70
0
  0
VERTEX
  8
1
 42
0.0
 10
5.0220978E+001
 20
1.6114498E+002
 70
0
  0
SEQEND
  0
INSERT
  2
*E1971
  8
1
 10
4.9301738E+001
 20
1.6022578E+002
 41
1.0
 42
1.0
 43
1.0
 50
2.7E+002
 62
3
  0
INSERT
  2
*E1972
  8
1
 10
4.9301738E+001
 20
1.6022578E+002
 41
1.0
 42
1.0
 43
1.0
 50
2.7E+002
 62
3
  0
POLYLINE
  8
1
  6
CONTINUOUS
 62
3
 66
1
 40
5.0E-001
 41
5.0E-001
 70
0
  0
VERTEX
  8
1
 42
1.1189405E-001
 10
4.9701738E+001
 20
1.5959135E+002
 70
0
  0
VERTEX
  8
1
 42
0.0
 10
4.9936166E+001
 20
1.5982578E+002
 70
0
  0
SEQEND
  0
POLYLINE
  8
1
  6
CONTINUOUS
 62
3
 66
1
 40
5.0E-001
 41
5.0E-001
 70
0
  0
VERTEX
  8
1
 42
1.1189401E-001
 10
4.9936166E+001
 20
1.6062578E+002
 70
0
  0
VERTEX
  8
1
 42
0.0
 10
4.9701739E+001
 20
1.6086021E+002
 70
0
  0
SEQEND
  0
POLYLINE
  8
1
  6
CONTINUOUS
 62
3
 66
1
 40
5.0E-001
 41
5.0E-001
 70
0
  0
VERTEX
  8
1
 42
0.0
 10
4.8901728E+001
 20
1.5872578E+002
 70
0
  0
VERTEX
  8
1
 42
0.0
 10
4.9701738E+001
 20
1.5872578E+002
 70
0
  0
SEQEND
  0
POLYLINE
  8
1
  6
CONTINUOUS
 62
3
 66
1
 40
5.0E-001
 41
5.0E-001
 70
0
  0
VERTEX
  8
1
 42
0.0
 10
4.8901748E+001
 20
1.6172578E+002
 70
0
  0
VERTEX
  8
1
 42
0.0
 10
4.9701738E+001
 20
1.6172578E+002
 70
0
  0
SEQEND
  0
LINE
  8
1
  6
CENTERLINE
 62
1
 10
8.7501758E+001
 20
1.9300258E+002
 11
8.7501758E+001
 21
2.0232918E+002
  0
LINE
  8
1
  6
CENTERLINE
 62
1
 10
9.2231768E+001
 20
1.9792578E+002
 11
8.2905238E+001
 21
1.9792578E+002
  0
DIMENSION
  8
1
  6
CONTINUOUS
 62
4
  2
*D1979
  3
DSTYLE3
 10
1.0982879E+002
 20
1.5182578E+002
 11
1.0682779E+002
 21
1.7284258E+002
 70
128
 13
8.1801838E+001
 23
1.9402578E+002
 14
8.1801838E+001
 24
1.5182578E+002
 40
1.25E-001
 50
9.0E+001
  0
LINE
  8
1
  6
CENTERLINE
 62
1
 10
5.7633348E+001
 20
1.4792578E+002
 11
3.7626438E+001
 21
1.4792578E+002
  0
LINE
  8
1
  6
CENTERLINE
 62
1
 10
5.2501718E+001
 20
1.4333458E+002
 11
5.2501718E+001
 21
1.5157328E+002
  0
LINE
  8
1
  6
CENTERLINE
 62
1
 10
4.7501718E+001
 20
1.4351188E+002
 11
4.7501738E+001
 21
1.5223668E+002
  0
LINE
  8
1
  6
CENTERLINE
 62
1
 10
4.2501748E+001
 20
1.5178538E+002
 11
4.2501728E+001
 21
1.4351188E+002
  0
POLYLINE
  8
1
  6
CONTINUOUS
 62
3
 66
1
 40
5.0E-001
 41
5.0E-001
 70
0
  0
VERTEX
  8
1
 42
0.0
 10
4.4751748E+001
 20
1.7037578E+002
 70
0
  0
VERTEX
  8
1
 42
0.0
 10
4.4751748E+001
 20
1.6982578E+002
 70
0
  0
SEQEND
  0
POLYLINE
  8
1
  6
CONTINUOUS
 62
3
 66
1
 40
5.0E-001
 41
5.0E-001
 70
0
  0
VERTEX
  8
1
 42
1.0
 10
5.4476748E+001
 20
1.7892578E+002
 70
0
  0
VERTEX
  8
1
 42
1.0
 10
5.2826748E+001
 20
1.7892578E+002
 70
0
  0
VERTEX
  8
1
 42
0.0
 10
5.4476748E+001
 20
1.7892578E+002
 70
0
  0
SEQEND
  0
POLYLINE
  8
1
  6
CONTINUOUS
 62
3
 66
1
 40
5.0E-001
 41
5.0E-001
 70
0
  0
VERTEX
  8
1
 42
1.0
 10
8.3001758E+001
 20
1.7292578E+002
 70
0
  0
VERTEX
  8
1
 42
1.0
 10
7.9501758E+001
 20
1.7292578E+002
 70
0
  0
VERTEX
  8
1
 42
0.0
 10
8.3001758E+001
 20
1.7292578E+002
 70
0
  0
SEQEND
  0
TEXT
  8
1
  6
CONTINUOUS
 62
4
 10
8.4245132E+001
 20
7.7156223E+001
 40
2.0
  1
2
  0
POLYLINE
  8
1
  6
CONTINUOUS
 62
3
 66
1
 40
5.0E-001
 41
5.0E-001
 70
0
  0
VERTEX
  8
1
 42
0.0
 10
3.3951698E+001
 20
1.9302578E+002
 70
0
  0
VERTEX
  8
1
 42
0.0
 10
3.3251718E+001
 20
1.9302578E+002
 70
0
  0
SEQEND
  0
POLYLINE
  8
1
  6
CONTINUOUS
 62
3
 66
1
 40
5.0E-001
 41
5.0E-001
 70
0
  0
VERTEX
  8
1
 42
0.0
 10
3.3251718E+001
 20
1.9367588E+002
 70
0
  0
VERTEX
  8
1
 42
0.0
 10
3.3251718E+001
 20
1.9292578E+002
 70
0
  0
SEQEND
  0
POLYLINE
  8
1
  6
CONTINUOUS
 62
3
 66
1
 40
5.0E-001
 41
5.0E-001
 70
0
  0
VERTEX
  8
1
 42
0.0
 10
3.2951698E+001
 20
1.9292578E+002
 70
0
  0
VERTEX
  8
1
 42
0.0
 10
3.2951698E+001
 20
1.9402578E+002
 70
0
  0
SEQEND
  0
POLYLINE
  8
1
  6
CONTINUOUS
 62
3
 66
1
 40
5.0E-001
 41
5.0E-001
 70
0
  0
VERTEX
  8
1
 42
0.0
 10
2.4851688E+001
 20
1.9352578E+002
 70
0
  0
VERTEX
  8
1
 42
0.0
 10
2.4851688E+001
 20
1.9292578E+002
 70
0
  0
SEQEND
  0
INSERT
  2
*E1992
  8
1
 10
2.4251718E+001
 20
1.9322578E+002
 41
1.0
 42
1.0
 43
1.0
 50
2.7E+002
 62
3
  0
POLYLINE
  8
1
  6
CONTINUOUS
 62
3
 66
1
 40
5.0E-001
 41
5.0E-001
 70
0
  0
VERTEX
  8
1
 42
0.0
 10
2.4351688E+001
 20
1.9402578E+002
 70
0
  0
VERTEX
  8
1
 42
0.0
 10
2.4301708E+001
 20
1.9402578E+002
 70
0
  0
SEQEND
  0
POLYLINE
  8
1
  6
CONTINUOUS
 62
3
 66
1
 40
5.0E-001
 41
5.0E-001
 70
0
  0
VERTEX
  8
1
 42
4.1421356E-001
 10
2.4851688E+001
 20
1.9352578E+002
 70
0
  0
VERTEX
  8
1
 42
0.0
 10
2.4351688E+001
 20
1.9402578E+002
 70
0
  0
SEQEND
  0
POLYLINE
  8
1
  6
CONTINUOUS
 62
3
 66
1
 40
5.0E-001
 41
5.0E-001
 70
0
  0
VERTEX
  8
1
 42
0.0
 10
3.2951698E+001
 20
1.9292578E+002
 70
0
  0
VERTEX
  8
1
 42
0.0
 10
3.2951698E+001
 20
1.9287578E+002
 70
0
  0
SEQEND
  0
POLYLINE
  8
1
  6
CONTINUOUS
 62
3
 66
1
 40
5.0E-001
 41
5.0E-001
 70
0
  0
VERTEX
  8
1
 42
0.0
 10
2.4247288E+001
 20
1.9402578E+002
 70
0
  0
VERTEX
  8
1
 42
0.0
 10
2.5151708E+001
 20
1.9402578E+002
 70
0
  0
SEQEND
  0
POLYLINE
  8
1
  6
CONTINUOUS
 62
3
 66
1
 40
5.0E-001
 41
5.0E-001
 70
0
  0
VERTEX
  8
1
 42
0.0
 10
2.5151708E+001
 20
1.9402578E+002
 70
0
  0
VERTEX
  8
1
 42
0.0
 10
2.5151708E+001
 20
1.9292578E+002
 70
0
  0
SEQEND
  0
POLYLINE
  8
1
  6
CONTINUOUS
 62
3
 66
1
 40
5.0E-001
 41
5.0E-001
 70
0
  0
VERTEX
  8
1
 42
0.0
 10
3.3251718E+001
 20
1.9292578E+002
 70
0
  0
VERTEX
  8
1
 42
0.0
 10
2.4851688E+001
 20
1.9292578E+002
 70
0
  0
SEQEND
  0
POLYLINE
  8
1
  6
CONTINUOUS
 62
3
 66
1
 40
5.0E-001
 41
5.0E-001
 70
0
  0
VERTEX
  8
1
 42
0.0
 10
2.4851688E+001
 20
1.9302578E+002
 70
0
  0
VERTEX
  8
1
 42
0.0
 10
2.3451728E+001
 20
1.9302578E+002
 70
0
  0
SEQEND
  0
POLYLINE
  8
1
  6
CONTINUOUS
 62
3
 66
1
 40
5.0E-001
 41
5.0E-001
 70
0
  0
VERTEX
  8
1
 42
0.0
 10
3.4251598E+001
 20
1.9402578E+002
 70
0
  0
VERTEX
  8
1
 42
0.0
 10
3.2951698E+001
 20
1.9402578E+002
 70
0
  0
SEQEND
  0
POLYLINE
  8
1
  6
CONTINUOUS
 62
3
 66
1
 40
5.0E-001
 41
5.0E-001
 70
0
  0
VERTEX
  8
1
 42
0.0
 10
3.3951578E+001
 20
1.9367588E+002
 70
0
  0
VERTEX
  8
1
 42
0.0
 10
3.3951578E+001
 20
1.9292578E+002
 70
0
  0
SEQEND
  0
POLYLINE
  8
1
  6
CONTINUOUS
 62
3
 66
1
 40
5.0E-001
 41
5.0E-001
 70
0
  0
VERTEX
  8
1
 42
0.0
 10
3.3951578E+001
 20
1.9292578E+002
 70
0
  0
VERTEX
  8
1
 42
0.0
 10
4.2351598E+001
 20
1.9292578E+002
 70
0
  0
SEQEND
  0
POLYLINE
  8
1
  6
CONTINUOUS
 62
3
 66
1
 40
5.0E-001
 41
5.0E-001
 70
0
  0
VERTEX
  8
1
 42
0.0
 10
3.4251598E+001
 20
1.9292578E+002
 70
0
  0
VERTEX
  8
1
 42
0.0
 10
3.4251598E+001
 20
1.9402578E+002
 70
0
  0
SEQEND
  0
POLYLINE
  8
1
  6
CONTINUOUS
 62
3
 66
1
 40
5.0E-001
 41
5.0E-001
 70
0
  0
VERTEX
  8
1
 42
0.0
 10
4.2051578E+001
 20
1.9292578E+002
 70
0
  0
VERTEX
  8
1
 42
0.0
 10
4.2051578E+001
 20
1.9402598E+002
 70
0
  0
SEQEND
  0
POLYLINE
  8
1
  6
CONTINUOUS
 62
3
 66
1
 40
5.0E-001
 41
5.0E-001
 70
0
  0
VERTEX
  8
1
 42
0.0
 10
3.4251598E+001
 20
1.9292578E+002
 70
0
  0
VERTEX
  8
1
 42
0.0
 10
3.4251598E+001
 20
1.9287578E+002
 70
0
  0
SEQEND
  0
POLYLINE
  8
1
  6
CONTINUOUS
 62
3
 66
1
 40
5.0E-001
 41
5.0E-001
 70
0
  0
VERTEX
  8
1
 42
0.0
 10
4.2851598E+001
 20
1.9402578E+002
 70
0
  0
VERTEX
  8
1
 42
0.0
 10
4.2901588E+001
 20
1.9402578E+002
 70
0
  0
SEQEND
  0
POLYLINE
  8
1
  6
CONTINUOUS
 62
3
 66
1
 40
5.0E-001
 41
5.0E-001
 70
0
  0
VERTEX
  8
1
 42
4.1421356E-001
 10
4.3751608E+001
 20
1.9322578E+002
 70
0
  0
VERTEX
  8
1
 42
0.0
 10
4.2951608E+001
 20
1.9402578E+002
 70
0
  0
SEQEND
  0
POLYLINE
  8
1
  6
CONTINUOUS
 62
3
 66
1
 40
5.0E-001
 41
5.0E-001
 70
0
  0
VERTEX
  8
1
 42
0.0
 10
4.2351598E+001
 20
1.9352578E+002
 70
0
  0
VERTEX
  8
1
 42
0.0
 10
4.2351598E+001
 20
1.9292578E+002
 70
0
  0
SEQEND
  0
POLYLINE
  8
1
  6
CONTINUOUS
 62
3
 66
1
 40
5.0E-001
 41
5.0E-001
 70
0
  0
VERTEX
  8
1
 42
0.0
 10
4.2956028E+001
 20
1.9402578E+002
 70
0
  0
VERTEX
  8
1
 42
0.0
 10
4.2051578E+001
 20
1.9402578E+002
 70
0
  0
SEQEND
  0
POLYLINE
  8
1
  6
CONTINUOUS
 62
3
 66
1
 40
5.0E-001
 41
5.0E-001
 70
0
  0
VERTEX
  8
1
 42
0.0
 10
4.2351598E+001
 20
1.9302578E+002
 70
0
  0
VERTEX
  8
1
 42
0.0
 10
4.3751598E+001
 20
1.9302578E+002
 70
0
  0
SEQEND
  0
INSERT
  2
*E2011
  8
1
 10
4.2851598E+001
 20
1.9352578E+002
 41
1.0
 42
1.0
 43
1.0
 50
2.7E+002
 62
3
  0
POLYLINE
  8
1
  6
CONTINUOUS
 62
3
 66
1
 40
5.0E-001
 41
5.0E-001
 70
0
  0
VERTEX
  8
1
 42
1.0000009
 10
3.3951587E+001
 20
1.9367588E+002
 70
0
  0
VERTEX
  8
1
 42
0.0
 10
3.3251728E+001
 20
1.9367588E+002
 70
0
  0
SEQEND
  0
POLYLINE
  8
1
  6
CONTINUOUS
 62
3
 66
1
 40
5.0E-001
 41
5.0E-001
 70
0
  0
VERTEX
  8
1
 42
0.0
 10
2.4351688E+001
 20
1.5182558E+002
 70
0
  0
VERTEX
  8
1
 42
0.0
 10
2.4301708E+001
 20
1.5182558E+002
 70
0
  0
SEQEND
  0
POLYLINE
  8
1
  6
CONTINUOUS
 62
3
 66
1
 40
5.0E-001
 41
5.0E-001
 70
0
  0
VERTEX
  8
1
 42
4.1421356E-001
 10
2.3451718E+001
 20
1.5262558E+002
 70
0
  0
VERTEX
  8
1
 42
0.0
 10
2.4251718E+001
 20
1.5182558E+002
 70
0
  0
SEQEND
  0
POLYLINE
  8
1
  6
CONTINUOUS
 62
3
 66
1
 40
5.0E-001
 41
5.0E-001
 70
0
  0
VERTEX
  8
1
 42
0.0
 10
3.3951698E+001
 20
1.5282558E+002
 70
0
  0
VERTEX
  8
1
 42
0.0
 10
3.3251718E+001
 20
1.5282558E+002
 70
0
  0
SEQEND
  0
POLYLINE
  8
1
  6
CONTINUOUS
 62
3
 66
1
 40
5.0E-001
 41
5.0E-001
 70
0
  0
VERTEX
  8
1
 42
0.0
 10
2.4247288E+001
 20
1.5182558E+002
 70
0
  0
VERTEX
  8
1
 42
0.0
 10
2.5151708E+001
 20
1.5182558E+002
 70
0
  0
SEQEND
  0
POLYLINE
  8
1
  6
CONTINUOUS
 62
3
 66
1
 40
5.0E-001
 41
5.0E-001
 70
0
  0
VERTEX
  8
1
 42
0.0
 10
2.9401708E+001
 20
1.5182558E+002
 70
0
  0
VERTEX
  8
1
 42
0.0
 10
2.6401708E+001
 20
1.5182558E+002
 70
0
  0
SEQEND
  0
POLYLINE
  8
1
  6
CONTINUOUS
 62
3
 66
1
 40
5.0E-001
 41
5.0E-001
 70
0
  0
VERTEX
  8
1
 42
0.0
 10
3.3251718E+001
 20
1.5292568E+002
 70
0
  0
VERTEX
  8
1
 42
0.0
 10
2.4851688E+001
 20
1.5292568E+002
 70
0
  0
SEQEND
  0
POLYLINE
  8
1
  6
CONTINUOUS
 62
3
 66
1
 40
5.0E-001
 41
5.0E-001
 70
0
  0
VERTEX
  8
1
 42
0.0
 10
2.4851688E+001
 20
1.5282558E+002
 70
0
  0
VERTEX
  8
1
 42
0.0
 10
2.3451728E+001
 20
1.5282558E+002
 70
0
  0
SEQEND
  0
INSERT
  2
*E2020
  8
1
 10
2.4351688E+001
 20
1.5232558E+002
 41
1.0
 42
1.0
 43
1.0
 50
2.7E+002
 62
3
  0
POLYLINE
  8
1
  6
CONTINUOUS
 62
3
 66
1
 40
5.0E-001
 41
5.0E-001
 70
0
  0
VERTEX
  8
1
 42
4.1421356E-001
 10
4.2351598E+001
 20
1.5232558E+002
 70
0
  0
VERTEX
  8
1
 42
0.0
 10
4.2851598E+001
 20
1.5182558E+002
 70
0
  0
SEQEND
  0
POLYLINE
  8
1
  6
CONTINUOUS
 62
3
 66
1
 40
5.0E-001
 41
5.0E-001
 70
0
  0
VERTEX
  8
1
 42
0.0
 10
4.2351598E+001
 20
1.5282558E+002
 70
0
  0
VERTEX
  8
1
 42
0.0
 10
4.3751598E+001
 20
1.5282558E+002
 70
0
  0
SEQEND
  0
POLYLINE
  8
1
  6
CONTINUOUS
 62
3
 66
1
 40
5.0E-001
 41
5.0E-001
 70
0
  0
VERTEX
  8
1
 42
0.0
 10
4.2956028E+001
 20
1.5182558E+002
 70
0
  0
VERTEX
  8
1
 42
0.0
 10
4.2051578E+001
 20
1.5182558E+002
 70
0
  0
SEQEND
  0
POLYLINE
  8
1
  6
CONTINUOUS
 62
3
 66
1
 40
5.0E-001
 41
5.0E-001
 70
0
  0
VERTEX
  8
1
 42
0.0
 10
4.2351598E+001
 20
1.5232558E+002
 70
0
  0
VERTEX
  8
1
 42
0.0
 10
4.2351598E+001
 20
1.5292578E+002
 70
0
  0
SEQEND
  0
INSERT
  2
*E2025
  8
1
 10
4.2951608E+001
 20
1.5262558E+002
 41
1.0
 42
1.0
 43
1.0
 50
2.7E+002
 62
3
  0
POLYLINE
  8
1
  6
CONTINUOUS
 62
3
 66
1
 40
5.0E-001
 41
5.0E-001
 70
0
  0
VERTEX
  8
1
 42
0.0
 10
4.2851598E+001
 20
1.5182558E+002
 70
0
  0
VERTEX
  8
1
 42
0.0
 10
4.2901588E+001
 20
1.5182558E+002
 70
0
  0
SEQEND
  0
POLYLINE
  8
1
  6
CONTINUOUS
 62
3
 66
1
 40
5.0E-001
 41
5.0E-001
 70
0
  0
VERTEX
  8
1
 42
0.0
 10
3.4251598E+001
 20
1.5292578E+002
 70
0
  0
VERTEX
  8
1
 42
0.0
 10
3.4251598E+001
 20
1.5182558E+002
 70
0
  0
SEQEND
  0
POLYLINE
  8
1
  6
CONTINUOUS
 62
3
 66
1
 40
5.0E-001
 41
5.0E-001
 70
0
  0
VERTEX
  8
1
 42
0.0
 10
4.2051578E+001
 20
1.5182558E+002
 70
0
  0
VERTEX
  8
1
 42
0.0
 10
4.2051578E+001
 20
1.5292578E+002
 70
0
  0
SEQEND
  0
POLYLINE
  8
1
  6
CONTINUOUS
 62
3
 66
1
 40
5.0E-001
 41
5.0E-001
 70
0
  0
VERTEX
  8
1
 42
0.0
 10
3.4251598E+001
 20
1.5292578E+002
 70
0
  0
VERTEX
  8
1
 42
0.0
 10
3.4251598E+001
 20
1.5182558E+002
 70
0
  0
SEQEND
  0
POLYLINE
  8
1
  6
CONTINUOUS
 62
3
 66
1
 40
5.0E-001
 41
5.0E-001
 70
0
  0
VERTEX
  8
1
 42
0.0
 10
3.3951578E+001
 20
1.5292568E+002
 70
0
  0
VERTEX
  8
1
 42
0.0
 10
4.2351598E+001
 20
1.5292568E+002
 70
0
  0
SEQEND
  0
POLYLINE
  8
1
  6
CONTINUOUS
 62
3
 66
1
 40
5.0E-001
 41
5.0E-001
 70
0
  0
VERTEX
  8
1
 42
0.0
 10
3.3951578E+001
 20
1.5217558E+002
 70
0
  0
VERTEX
  8
1
 42
0.0
 10
3.3951578E+001
 20
1.5292578E+002
 70
0
  0
SEQEND
  0
INSERT
  2
*E2032
  8
1
 10
3.3601658E+001
 20
1.5217558E+002
 41
1.0
 42
1.0
 43
1.0
 50
2.7E+002
 62
3
  0
POLYLINE
  8
1
  6
CONTINUOUS
 62
3
 66
1
 40
5.0E-001
 41
5.0E-001
 70
0
  0
VERTEX
  8
1
 42
0.0
 10
3.4251598E+001
 20
1.5182558E+002
 70
0
  0
VERTEX
  8
1
 42
0.0
 10
3.2951698E+001
 20
1.5182558E+002
 70
0
  0
SEQEND
  0
POLYLINE
  8
1
  6
CONTINUOUS
 62
3
 66
1
 40
5.0E-001
 41
5.0E-001
 70
0
  0
VERTEX
  8
1
 42
0.0
 10
4.4651588E+001
 20
1.7592578E+002
 70
0
  0
VERTEX
  8
1
 42
0.0
 10
4.4651588E+001
 20
1.7442578E+002
 70
0
  0
SEQEND
  0
POLYLINE
  8
1
  6
CONTINUOUS
 62
3
 66
1
 40
5.0E-001
 41
5.0E-001
 70
0
  0
VERTEX
  8
1
 42
0.0
 10
4.4951578E+001
 20
1.9462578E+002
 70
0
  0
VERTEX
  8
1
 42
0.0
 10
3.5851718E+001
 20
1.9462578E+002
 70
0
  0
SEQEND
  0
POLYLINE
  8
1
  6
CONTINUOUS
 62
3
 66
1
 40
5.0E-001
 41
5.0E-001
 70
0
  0
VERTEX
  8
1
 42
0.0
 10
3.4851718E+001
 20
1.9342578E+002
 70
0
  0
VERTEX
  8
1
 42
0.0
 10
3.4851718E+001
 20
1.9362578E+002
 70
0
  0
SEQEND
  0
POLYLINE
  8
1
  6
CONTINUOUS
 62
3
 66
1
 40
5.0E-001
 41
5.0E-001
 70
0
  0
VERTEX
  8
1
 42
4.1421356E-001
 10
3.5851718E+001
 20
1.9462578E+002
 70
0
  0
VERTEX
  8
1
 42
0.0
 10
3.4851718E+001
 20
1.9362578E+002
 70
0
  0
SEQEND
  0
POLYLINE
  8
1
  6
CONTINUOUS
 62
3
 66
1
 40
5.0E-001
 41
5.0E-001
 70
0
  0
VERTEX
  8
1
 42
4.1421356E-001
 10
3.4851718E+001
 20
1.9342578E+002
 70
0
  0
VERTEX
  8
1
 42
0.0
 10
3.5351718E+001
 20
1.9292578E+002
 70
0
  0
SEQEND
  0
POLYLINE
  8
1
  6
CONTINUOUS
 62
3
 66
1
 40
5.0E-001
 41
5.0E-001
 70
0
  0
VERTEX
  8
1
 42
0.0
 10
4.5109468E+001
 20
1.9402578E+002
 70
0
  0
VERTEX
  8
1
 42
0.0
 10
4.4951578E+001
 20
1.9462578E+002
 70
0
  0
SEQEND
  0
POLYLINE
  8
1
  6
CONTINUOUS
 62
3
 66
1
 40
5.0E-001
 41
5.0E-001
 70
0
  0
VERTEX
  8
1
 42
0.0
 10
4.7751598E+001
 20
1.9402578E+002
 70
0
  0
VERTEX
  8
1
 42
0.0
 10
4.7751598E+001
 20
1.9522578E+002
 70
0
  0
SEQEND
  0
POLYLINE
  8
1
  6
CONTINUOUS
 62
3
 66
1
 40
5.0E-001
 41
5.0E-001
 70
0
  0
VERTEX
  8
1
 42
0.0
 10
4.7251598E+001
 20
1.9572578E+002
 70
0
  0
VERTEX
  8
1
 42
0.0
 10
4.4951578E+001
 20
1.9572578E+002
 70
0
  0
SEQEND
  0
POLYLINE
  8
1
  6
CONTINUOUS
 62
3
 66
1
 40
5.0E-001
 41
5.0E-001
 70
0
  0
VERTEX
  8
1
 42
4.1421356E-001
 10
4.7751598E+001
 20
1.9522578E+002
 70
0
  0
VERTEX
  8
1
 42
0.0
 10
4.7251598E+001
 20
1.9572578E+002
 70
0
  0
SEQEND
  0
POLYLINE
  8
1
  6
CONTINUOUS
 62
3
 66
1
 40
5.0E-001
 41
5.0E-001
 70
0
  0
VERTEX
  8
1
 42
4.7633929E-001
 10
3.640016E+001
 20
1.9708254E+002
 70
0
  0
VERTEX
  8
1
 42
0.0
 10
3.2356095E+001
 20
1.9345079E+002
 70
0
  0
SEQEND
  0
POLYLINE
  8
1
  6
CONTINUOUS
 62
3
 66
1
 40
5.0E-001
 41
5.0E-001
 70
0
  0
VERTEX
  8
1
 42
4.2894112E-001
 10
3.1856728E+001
 20
1.9292578E+002
 70
0
  0
VERTEX
  8
1
 42
0.0
 10
3.2356102E+001
 20
1.9345078E+002
 70
0
  0
SEQEND
  0
POLYLINE
  8
1
  6
CONTINUOUS
 62
3
 66
1
 40
5.0E-001
 41
5.0E-001
 70
0
  0
VERTEX
  8
1
 42
0.0
 10
4.4951578E+001
 20
1.9572578E+002
 70
0
  0
VERTEX
  8
1
 42
0.0
 10
3.6400148E+001
 20
1.9708248E+002
 70
0
  0
SEQEND
  0
INSERT
  2
*E2046
  8
1
 10
3.5351718E+001
 20
1.5242568E+002
 41
1.0
 42
1.0
 43
1.0
 50
2.7E+002
 62
3
  0
POLYLINE
  8
1
  6
CONTINUOUS
 62
3
 66
1
 40
5.0E-001
 41
5.0E-001
 70
0
  0
VERTEX
  8
1
 42
0.0
 10
3.4851718E+001
 20
1.5242568E+002
 70
0
  0
VERTEX
  8
1
 42
0.0
 10
3.4851718E+001
 20
1.5222568E+002
 70
0
  0
SEQEND
  0
INSERT
  2
*E2048
  8
1
 10
3.5851718E+001
 20
1.5222568E+002
 41
1.0
 42
1.0
 43
1.0
 50
2.7E+002
 62
3
  0
POLYLINE
  8
1
  6
CONTINUOUS
 62
3
 66
1
 40
5.0E-001
 41
5.0E-001
 70
0
  0
VERTEX
  8
1
 42
0.0
 10
4.4951578E+001
 20
1.5122568E+002
 70
0
  0
VERTEX
  8
1
 42
0.0
 10
3.5851718E+001
 20
1.5122568E+002
 70
0
  0
SEQEND
  0
POLYLINE
  8
1
  6
CONTINUOUS
 62
3
 66
1
 40
5.0E-001
 41
5.0E-001
 70
0
  0
VERTEX
  8
1
 42
0.0
 10
4.5109508E+001
 20
1.5182578E+002
 70
0
  0
VERTEX
  8
1
 42
0.0
 10
4.4951578E+001
 20
1.5122568E+002
 70
0
  0
SEQEND
  0
POLYLINE
  8
1
  6
CONTINUOUS
 62
3
 66
1
 40
5.0E-001
 41
5.0E-001
 70
0
  0
VERTEX
  8
1
 42
0.0
 10
4.7751598E+001
 20
1.5177578E+002
 70
0
  0
VERTEX
  8
1
 42
0.0
 10
4.7751598E+001
 20
1.5062568E+002
 70
0
  0
SEQEND
  0
INSERT
  2
*E2052
  8
1
 10
4.7251598E+001
 20
1.5062568E+002
 41
1.0
 42
1.0
 43
1.0
 50
2.7E+002
 62
3
  0
POLYLINE
  8
1
  6
CONTINUOUS
 62
3
 66
1
 40
5.0E-001
 41
5.0E-001
 70
0
  0
VERTEX
  8
1
 42
0.0
 10
4.7251598E+001
 20
1.5012568E+002
 70
0
  0
VERTEX
  8
1
 42
0.0
 10
4.4951578E+001
 20
1.5012568E+002
 70
0
  0
SEQEND
  0
POLYLINE
  8
1
  6
CONTINUOUS
 62
3
 66
1
 40
5.0E-001
 41
5.0E-001
 70
0
  0
VERTEX
  8
1
 42
0.0
 10
4.4951578E+001
 20
1.5012568E+002
 70
0
  0
VERTEX
  8
1
 42
0.0
 10
3.6400148E+001
 20
1.4876888E+002
 70
0
  0
SEQEND
  0
INSERT
  2
*E2055
  8
1
 10
3.5851718E+001
 20
1.5222568E+002
 41
1.0
 42
1.0
 43
1.0
 50
2.7E+002
 62
3
  0
INSERT
  2
*E2056
  8
1
 10
3.1856728E+001
 20
1.5242568E+002
 41
1.0
 42
1.0
 43
1.0
 50
2.7E+002
 62
3
  0
POLYLINE
  8
1
  6
CONTINUOUS
 62
3
 66
1
 40
5.0E-001
 41
5.0E-001
 70
0
  0
VERTEX
  8
1
 42
0.0
 10
4.3751598E+001
 20
1.7442578E+002
 70
0
  0
VERTEX
  8
1
 42
0.0
 10
4.4651588E+001
 20
1.7442578E+002
 70
0
  0
SEQEND
  0
POLYLINE
  8
1
  6
CONTINUOUS
 62
3
 66
1
 40
5.0E-001
 41
5.0E-001
 70
0
  0
VERTEX
  8
1
 42
0.0
 10
4.3751598E+001
 20
1.7142578E+002
 70
0
  0
VERTEX
  8
1
 42
0.0
 10
4.4651588E+001
 20
1.7142578E+002
 70
0
  0
SEQEND
  0
POLYLINE
  8
1
  6
CONTINUOUS
 62
3
 66
1
 40
5.0E-001
 41
5.0E-001
 70
0
  0
VERTEX
  8
1
 42
0.0
 10
4.3751598E+001
 20
1.6992578E+002
 70
0
  0
VERTEX
  8
1
 42
0.0
 10
4.4651588E+001
 20
1.6992578E+002
 70
0
  0
SEQEND
  0
POLYLINE
  8
1
  6
CONTINUOUS
 62
3
 66
1
 40
5.0E-001
 41
5.0E-001
 70
0
  0
VERTEX
  8
1
 42
0.0
 10
4.4651588E+001
 20
1.7592578E+002
 70
0
  0
VERTEX
  8
1
 42
0.0
 10
4.3751598E+001
 20
1.7592578E+002
 70
0
  0
SEQEND
  0
POLYLINE
  8
1
  6
CONTINUOUS
 62
3
 66
1
 40
5.0E-001
 41
5.0E-001
 70
0
  0
VERTEX
  8
1
 42
0.0
 10
4.3751598E+001
 20
1.6992578E+002
 70
0
  0
VERTEX
  8
1
 42
0.0
 10
4.3751598E+001
 20
1.5232578E+002
 70
0
  0
SEQEND
  0
POLYLINE
  8
1
  6
CONTINUOUS
 62
3
 66
1
 40
5.0E-001
 41
5.0E-001
 70
0
  0
VERTEX
  8
1
 42
0.0
 10
4.3751598E+001
 20
1.7442578E+002
 70
0
  0
VERTEX
  8
1
 42
0.0
 10
4.3751598E+001
 20
1.7142578E+002
 70
0
  0
SEQEND
  0
POLYLINE
  8
1
  6
CONTINUOUS
 62
3
 66
1
 40
5.0E-001
 41
5.0E-001
 70
0
  0
VERTEX
  8
1
 42
0.0
 10
3.4935308E+001
 20
1.9402598E+002
 70
0
  0
VERTEX
  8
1
 42
0.0
 10
4.2951728E+001
 20
1.9402598E+002
 70
0
  0
SEQEND
  0
POLYLINE
  8
1
  6
CONTINUOUS
 62
3
 66
1
 40
5.0E-001
 41
5.0E-001
 70
0
  0
VERTEX
  8
1
 42
0.0
 10
2.3451728E+001
 20
1.9322578E+002
 70
0
  0
VERTEX
  8
1
 42
0.0
 10
2.3451728E+001
 20
1.5262558E+002
 70
0
  0
SEQEND
  0
POLYLINE
  8
1
  6
CONTINUOUS
 62
3
 66
1
 40
5.0E-001
 41
5.0E-001
 70
0
  0
VERTEX
  8
1
 42
0.0
 10
4.3751598E+001
 20
1.9352598E+002
 70
0
  0
VERTEX
  8
1
 42
0.0
 10
4.3751598E+001
 20
1.7592578E+002
 70
0
  0
SEQEND
  0
POLYLINE
  8
1
  6
CONTINUOUS
 62
3
 66
1
 40
5.0E-001
 41
5.0E-001
 70
0
  0
VERTEX
  8
1
 42
0.0
 10
3.2951698E+001
 20
1.5292578E+002
 70
0
  0
VERTEX
  8
1
 42
0.0
 10
3.2951698E+001
 20
1.5182558E+002
 70
0
  0
SEQEND
  0
POLYLINE
  8
1
  6
CONTINUOUS
 62
3
 66
1
 40
5.0E-001
 41
5.0E-001
 70
0
  0
VERTEX
  8
1
 42
0.0
 10
2.5151708E+001
 20
1.5182598E+002
 70
0
  0
VERTEX
  8
1
 42
0.0
 10
2.5151708E+001
 20
1.5292578E+002
 70
0
  0
SEQEND
  0
POLYLINE
  8
1
  6
CONTINUOUS
 62
3
 66
1
 40
5.0E-001
 41
5.0E-001
 70
0
  0
VERTEX
  8
1
 42
0.0
 10
3.2951698E+001
 20
1.5292578E+002
 70
0
  0
VERTEX
  8
1
 42
0.0
 10
3.2951698E+001
 20
1.5182558E+002
 70
0
  0
SEQEND
  0
POLYLINE
  8
1
  6
CONTINUOUS
 62
3
 66
1
 40
5.0E-001
 41
5.0E-001
 70
0
  0
VERTEX
  8
1
 42
0.0
 10
3.3251718E+001
 20
1.5217558E+002
 70
0
  0
VERTEX
  8
1
 42
0.0
 10
3.3251718E+001
 20
1.5292578E+002
 70
0
  0
SEQEND
  0
POLYLINE
  8
1
  6
CONTINUOUS
 62
3
 66
1
 40
5.0E-001
 41
5.0E-001
 70
0
  0
VERTEX
  8
1
 42
0.0
 10
2.4851688E+001
 20
1.5232558E+002
 70
0
  0
VERTEX
  8
1
 42
0.0
 10
2.4851688E+001
 20
1.5292578E+002
 70
0
  0
SEQEND
  0
POLYLINE
  8
1
  6
CONTINUOUS
 62
3
 66
1
 40
5.0E-001
 41
5.0E-001
 70
0
  0
VERTEX
  8
1
 42
0.0
 10
4.4651588E+001
 20
1.7142578E+002
 70
0
  0
VERTEX
  8
1
 42
0.0
 10
4.4651588E+001
 20
1.6992578E+002
 70
0
  0
SEQEND
  0
POLYLINE
  8
1
  6
CONTINUOUS
 62
3
 66
1
 40
5.0E-001
 41
5.0E-001
 70
0
  0
VERTEX
  8
1
 42
0.0
 10
3.6768378E+001
 20
1.5182598E+002
 70
0
  0
VERTEX
  8
1
 42
0.0
 10
4.2951728E+001
 20
1.5182598E+002
 70
0
  0
SEQEND
  0
POLYLINE
  8
1
  6
CONTINUOUS
 62
3
 66
1
 40
5.0E-001
 41
5.0E-001
 70
0
  0
VERTEX
  8
1
 42
0.0
 10
2.4251718E+001
 20
1.5182598E+002
 70
0
  0
VERTEX
  8
1
 42
0.0
 10
3.2374608E+001
 20
1.5182598E+002
 70
0
  0
SEQEND
  0
POLYLINE
  8
1
  6
CONTINUOUS
 62
3
 66
1
 40
5.0E-001
 41
5.0E-001
 70
0
  0
VERTEX
  8
1
 42
0.0
 10
2.4251718E+001
 20
1.9402598E+002
 70
0
  0
VERTEX
  8
1
 42
0.0
 10
3.2374668E+001
 20
1.9402598E+002
 70
0
  0
SEQEND
  0
INSERT
  2
*E2075
  8
1
 10
4.4251718E+001
 20
1.9352598E+002
 41
1.0
 42
1.0
 43
1.0
 50
2.7E+002
 62
3
  0
INSERT
  2
*E2076
  8
1
 10
4.0751718E+001
 20
1.9452598E+002
 41
1.0
 42
1.0
 43
1.0
 50
2.7E+002
 62
3
  0
POLYLINE
  8
1
  6
CONTINUOUS
 62
3
 66
1
 40
5.0E-001
 41
5.0E-001
 70
0
  0
VERTEX
  8
1
 42
0.0
 10
4.1251718E+001
 20
1.9452598E+002
 70
0
  0
VERTEX
  8
1
 42
0.0
 10
4.1251718E+001
 20
1.9462578E+002
 70
0
  0
SEQEND
  0
POLYLINE
  8
1
  6
CONTINUOUS
 62
3
 66
1
 40
5.0E-001
 41
5.0E-001
 70
0
  0
VERTEX
  8
1
 42
0.0
 10
4.4251718E+001
 20
1.9402598E+002
 70
0
  0
VERTEX
  8
1
 42
0.0
 10
4.5109408E+001
 20
1.9402598E+002
 70
0
  0
SEQEND
  0
POLYLINE
  8
1
  6
CONTINUOUS
 62
3
 66
1
 40
5.0E-001
 41
5.0E-001
 70
0
  0
VERTEX
  8
1
 42
4.1421356E-001
 10
4.3751718E+001
 20
1.5232578E+002
 70
0
  0
VERTEX
  8
1
 42
0.0
 10
4.4251718E+001
 20
1.5182578E+002
 70
0
  0
SEQEND
  0
POLYLINE
  8
1
  6
CONTINUOUS
 62
3
 66
1
 40
5.0E-001
 41
5.0E-001
 70
0
  0
VERTEX
  8
1
 42
0.0
 10
4.4251718E+001
 20
1.5182578E+002
 70
0
  0
VERTEX
  8
1
 42
0.0
 10
4.5109508E+001
 20
1.5182578E+002
 70
0
  0
SEQEND
  0
POLYLINE
  8
1
  6
CONTINUOUS
 62
3
 66
1
 40
5.0E-001
 41
5.0E-001
 70
0
  0
VERTEX
  8
1
 42
4.1421361E-001
 10
4.1251718E+001
 20
1.5132578E+002
 70
0
  0
VERTEX
  8
1
 42
0.0
 10
4.0751718E+001
 20
1.5182578E+002
 70
0
  0
SEQEND
  0
POLYLINE
  8
1
  6
CONTINUOUS
 62
3
 66
1
 40
5.0E-001
 41
5.0E-001
 70
0
  0
VERTEX
  8
1
 42
0.0
 10
4.1251718E+001
 20
1.5132578E+002
 70
0
  0
VERTEX
  8
1
 42
0.0
 10
4.1251718E+001
 20
1.5122568E+002
 70
0
  0
SEQEND
  0
POLYLINE
  8
1
  6
CONTINUOUS
 62
3
 66
1
 40
5.0E-001
 41
5.0E-001
 70
0
  0
VERTEX
  8
1
 42
0.0
 10
3.2051738E+001
 20
1.9352598E+002
 70
0
  0
VERTEX
  8
1
 42
0.0
 10
3.2051738E+001
 20
1.9402598E+002
 70
0
  0
SEQEND
  0
POLYLINE
  8
1
  6
CONTINUOUS
 62
3
 66
1
 40
5.0E-001
 41
5.0E-001
 70
0
  0
VERTEX
  8
1
 42
0.0
 10
3.2051738E+001
 20
1.9352598E+002
 70
0
  0
VERTEX
  8
1
 42
0.0
 10
3.2051738E+001
 20
1.9292578E+002
 70
0
  0
SEQEND
  0
POLYLINE
  8
1
  6
CONTINUOUS
 62
3
 66
1
 40
5.0E-001
 41
5.0E-001
 70
0
  0
VERTEX
  8
1
 42
0.0
 10
3.4935068E+001
 20
1.5182598E+002
 70
0
  0
VERTEX
  8
1
 42
0.0
 10
3.6768378E+001
 20
1.5182598E+002
 70
0
  0
SEQEND
  0
POLYLINE
  8
1
  6
CONTINUOUS
 62
3
 66
1
 40
5.0E-001
 41
5.0E-001
 70
0
  0
VERTEX
  8
1
 42
0.0
 10
3.2051738E+001
 20
1.5232548E+002
 70
0
  0
VERTEX
  8
1
 42
0.0
 10
3.2051738E+001
 20
1.5292568E+002
 70
0
  0
SEQEND
  0
POLYLINE
  8
1
  6
CONTINUOUS
 62
3
 66
1
 40
5.0E-001
 41
5.0E-001
 70
0
  0
VERTEX
  8
1
 42
0.0
 10
3.2051738E+001
 20
1.5232548E+002
 70
0
  0
VERTEX
  8
1
 42
0.0
 10
3.2051738E+001
 20
1.5182548E+002
 70
0
  0
SEQEND
  0
POLYLINE
  8
1
  6
CONTINUOUS
 62
3
 66
1
 40
5.0E-001
 41
5.0E-001
 70
0
  0
VERTEX
  8
1
 42
0.0
 10
4.8535008E+001
 20
1.7492578E+002
 70
0
  0
VERTEX
  8
1
 42
0.0
 10
4.4651588E+001
 20
1.7492578E+002
 70
0
  0
SEQEND
  0
POLYLINE
  8
1
  6
CONTINUOUS
 62
3
 66
1
 40
5.0E-001
 41
5.0E-001
 70
0
  0
VERTEX
  8
1
 42
0.0
 10
4.7327258E+001
 20
1.7162558E+002
 70
0
  0
VERTEX
  8
1
 42
0.0
 10
4.7327408E+001
 20
1.7179608E+002
 70
0
  0
SEQEND
  0
POLYLINE
  8
1
  6
CONTINUOUS
 62
3
 66
1
 40
5.0E-001
 41
5.0E-001
 70
0
  0
VERTEX
  8
1
 42
0.0
 10
4.7204508E+001
 20
1.7422578E+002
 70
0
  0
VERTEX
  8
1
 42
0.0
 10
4.7904518E+001
 20
1.7422578E+002
 70
0
  0
SEQEND
  0
POLYLINE
  8
1
  6
CONTINUOUS
 62
3
 66
1
 40
5.0E-001
 41
5.0E-001
 70
0
  0
VERTEX
  8
1
 42
0.0
 10
4.7904518E+001
 20
1.7422578E+002
 70
0
  0
VERTEX
  8
1
 42
0.0
 10
4.7949328E+001
 20
1.7405858E+002
 70
0
  0
SEQEND
  0
POLYLINE
  8
1
  6
CONTINUOUS
 62
3
 66
1
 40
5.0E-001
 41
5.0E-001
 70
0
  0
VERTEX
  8
1
 42
0.0
 10
4.8954258E+001
 20
1.7405858E+002
 70
0
  0
VERTEX
  8
1
 42
0.0
 10
4.9017978E+001
 20
1.7429638E+002
 70
0
  0
SEQEND
  0
POLYLINE
  8
1
  6
CONTINUOUS
 62
3
 66
1
 40
5.0E-001
 41
5.0E-001
 70
0
  0
VERTEX
  8
1
 42
4.9314646E-001
 10
4.901797E+001
 20
1.7429637E+002
 70
0
  0
VERTEX
  8
1
 42
0.0
 10
4.8535008E+001
 20
1.7492578E+002
 70
0
  0
SEQEND
  0
POLYLINE
  8
1
  6
CONTINUOUS
 62
3
 66
1
 40
5.0E-001
 41
5.0E-001
 70
0
  0
VERTEX
  8
1
 42
7.4445711E-001
 10
4.542225E+001
 20
1.7369217E+002
 70
0
  0
VERTEX
  8
1
 42
0.0
 10
4.542225E+001
 20
1.7215939E+002
 70
0
  0
SEQEND
  0
POLYLINE
  8
1
  6
CONTINUOUS
 62
3
 66
1
 40
5.0E-001
 41
5.0E-001
 70
0
  0
VERTEX
  8
1
 42
0.0
 10
4.7204508E+001
 20
1.7422578E+002
 70
0
  0
VERTEX
  8
1
 42
0.0
 10
4.5422248E+001
 20
1.7369218E+002
 70
0
  0
SEQEND
  0
POLYLINE
  8
1
  6
CONTINUOUS
 62
3
 66
1
 40
5.0E-001
 41
5.0E-001
 70
0
  0
VERTEX
  8
1
 42
0.0
 10
4.8953768E+001
 20
1.7179458E+002
 70
0
  0
VERTEX
  8
1
 42
0.0
 10
4.9017978E+001
 20
1.7155498E+002
 70
0
  0
SEQEND
  0
INSERT
  2
*E2097
  8
1
 10
4.8535008E+001
 20
1.7142558E+002
 41
1.0
 42
1.0
 43
1.0
 50
2.7E+002
 62
3
  0
POLYLINE
  8
1
  6
CONTINUOUS
 62
3
 66
1
 40
5.0E-001
 41
5.0E-001
 70
0
  0
VERTEX
  8
1
 42
0.0
 10
4.7904518E+001
 20
1.7162558E+002
 70
0
  0
VERTEX
  8
1
 42
0.0
 10
4.7950048E+001
 20
1.7179548E+002
 70
0
  0
SEQEND
  0
POLYLINE
  8
1
  6
CONTINUOUS
 62
3
 66
1
 40
5.0E-001
 41
5.0E-001
 70
0
  0
VERTEX
  8
1
 42
0.0
 10
4.7204508E+001
 20
1.7162558E+002
 70
0
  0
VERTEX
  8
1
 42
0.0
 10
4.7904518E+001
 20
1.7162558E+002
 70
0
  0
SEQEND
  0
POLYLINE
  8
1
  6
CONTINUOUS
 62
3
 66
1
 40
5.0E-001
 41
5.0E-001
 70
0
  0
VERTEX
  8
1
 42
0.0
 10
4.7204508E+001
 20
1.7162558E+002
 70
0
  0
VERTEX
  8
1
 42
0.0
 10
4.5422248E+001
 20
1.7215918E+002
 70
0
  0
SEQEND
  0
POLYLINE
  8
1
  6
CONTINUOUS
 62
3
 66
1
 40
5.0E-001
 41
5.0E-001
 70
0
  0
VERTEX
  8
1
 42
0.0
 10
4.8535008E+001
 20
1.7092558E+002
 70
0
  0
VERTEX
  8
1
 42
0.0
 10
4.4651588E+001
 20
1.7092558E+002
 70
0
  0
SEQEND
  0
POLYLINE
  8
1
  6
CONTINUOUS
 62
3
 66
1
 40
5.0E-001
 41
5.0E-001
 70
0
  0
VERTEX
  8
1
 42
0.0
 10
4.7328418E+001
 20
1.7422578E+002
 70
0
  0
VERTEX
  8
1
 42
0.0
 10
4.7328418E+001
 20
1.7405858E+002
 70
0
  0
SEQEND
  0
POLYLINE
  8
1
  6
CONTINUOUS
 62
3
 66
1
 40
5.0E-001
 41
5.0E-001
 70
0
  0
VERTEX
  8
1
 42
4.1421366E-001
 10
4.3751728E+001
 20
1.9212578E+002
 70
0
  0
VERTEX
  8
1
 42
0.0
 10
4.2951727E+001
 20
1.9292578E+002
 70
0
  0
SEQEND
  0
POLYLINE
  8
1
  6
CONTINUOUS
 62
3
 66
1
 40
5.0E-001
 41
5.0E-001
 70
0
  0
VERTEX
  8
1
 42
4.1421356E-001
 10
2.3451748E+001
 20
1.5372578E+002
 70
0
  0
VERTEX
  8
1
 42
0.0
 10
2.4251748E+001
 20
1.5292578E+002
 70
0
  0
SEQEND
  0
POLYLINE
  8
1
  6
CONTINUOUS
 62
3
 66
1
 40
5.0E-001
 41
5.0E-001
 70
0
  0
VERTEX
  8
1
 42
4.1421356E-001
 10
4.2951728E+001
 20
1.5292578E+002
 70
0
  0
VERTEX
  8
1
 42
0.0
 10
4.3751728E+001
 20
1.5372578E+002
 70
0
  0
SEQEND
  0
POLYLINE
  8
1
  6
CONTINUOUS
 62
3
 66
1
 40
5.0E-001
 41
5.0E-001
 70
0
  0
VERTEX
  8
1
 42
0.0
 10
4.2951728E+001
 20
1.5292578E+002
 70
0
  0
VERTEX
  8
1
 42
0.0
 10
2.4251748E+001
 20
1.5292578E+002
 70
0
  0
SEQEND
  0
POLYLINE
  8
1
  6
CONTINUOUS
 62
3
 66
1
 40
5.0E-001
 41
5.0E-001
 70
0
  0
VERTEX
  8
1
 42
0.0
 10
4.2951728E+001
 20
1.9292578E+002
 70
0
  0
VERTEX
  8
1
 42
0.0
 10
2.4251748E+001
 20
1.9292578E+002
 70
0
  0
SEQEND
  0
POLYLINE
  8
1
  6
CONTINUOUS
 62
3
 66
1
 40
5.0E-001
 41
5.0E-001
 70
0
  0
VERTEX
  8
1
 42
4.1421356E-001
 10
2.4251748E+001
 20
1.9292578E+002
 70
0
  0
VERTEX
  8
1
 42
0.0
 10
2.3451748E+001
 20
1.9212578E+002
 70
0
  0
SEQEND
  0
POLYLINE
  8
1
  6
CONTINUOUS
 62
3
 66
1
 40
5.0E-001
 41
5.0E-001
 70
0
  0
VERTEX
  8
1
 42
1.0
 10
4.0751738E+001
 20
1.6022568E+002
 70
0
  0
VERTEX
  8
1
 42
1.0
 10
3.5551738E+001
 20
1.6022568E+002
 70
0
  0
VERTEX
  8
1
 42
0.0
 10
4.0751738E+001
 20
1.6022568E+002
 70
0
  0
SEQEND
  0
POLYLINE
  8
1
  6
CONTINUOUS
 62
3
 66
1
 40
5.0E-001
 41
5.0E-001
 70
0
  0
VERTEX
  8
1
 42
0.0
 10
3.7751748E+001
 20
1.6086008E+002
 70
0
  0
VERTEX
  8
1
 42
0.0
 10
3.7751748E+001
 20
1.6279468E+002
 70
0
  0
SEQEND
  0
POLYLINE
  8
1
  6
CONTINUOUS
 62
3
 66
1
 40
5.0E-001
 41
5.0E-001
 70
0
  0
VERTEX
  8
1
 42
0.0
 10
3.8551768E+001
 20
1.6086008E+002
 70
0
  0
VERTEX
  8
1
 42
0.0
 10
3.8551768E+001
 20
1.6279468E+002
 70
0
  0
SEQEND
  0
POLYLINE
  8
1
  6
CONTINUOUS
 62
3
 66
1
 40
5.0E-001
 41
5.0E-001
 70
0
  0
VERTEX
  8
1
 42
0.0
 10
3.8786168E+001
 20
1.6062568E+002
 70
0
  0
VERTEX
  8
1
 42
0.0
 10
3.9651738E+001
 20
1.6062568E+002
 70
0
  0
SEQEND
  0
POLYLINE
  8
1
  6
CONTINUOUS
 62
3
 66
1
 40
5.0E-001
 41
5.0E-001
 70
0
  0
VERTEX
  8
1
 42
0.0
 10
3.8786168E+001
 20
1.5982568E+002
 70
0
  0
VERTEX
  8
1
 42
0.0
 10
3.9651738E+001
 20
1.5982568E+002
 70
0
  0
SEQEND
  0
POLYLINE
  8
1
  6
CONTINUOUS
 62
3
 66
1
 40
5.0E-001
 41
5.0E-001
 70
0
  0
VERTEX
  8
1
 42
0.0
 10
3.6651738E+001
 20
1.5982568E+002
 70
0
  0
VERTEX
  8
1
 42
0.0
 10
3.6651738E+001
 20
1.6062568E+002
 70
0
  0
SEQEND
  0
POLYLINE
  8
1
  6
CONTINUOUS
 62
3
 66
1
 40
5.0E-001
 41
5.0E-001
 70
0
  0
VERTEX
  8
1
 42
0.0
 10
3.9651738E+001
 20
1.5982568E+002
 70
0
  0
VERTEX
  8
1
 42
0.0
 10
3.9651738E+001
 20
1.6062568E+002
 70
0
  0
SEQEND
  0
POLYLINE
  8
1
  6
CONTINUOUS
 62
3
 66
1
 40
5.0E-001
 41
5.0E-001
 70
0
  0
VERTEX
  8
1
 42
0.0
 10
3.6651738E+001
 20
1.5982568E+002
 70
0
  0
VERTEX
  8
1
 42
0.0
 10
3.7517308E+001
 20
1.5982568E+002
 70
0
  0
SEQEND
  0
POLYLINE
  8
1
  6
CONTINUOUS
 62
3
 66
1
 40
5.0E-001
 41
5.0E-001
 70
0
  0
VERTEX
  8
1
 42
0.0
 10
3.6651738E+001
 20
1.6062568E+002
 70
0
  0
VERTEX
  8
1
 42
0.0
 10
3.7517308E+001
 20
1.6062568E+002
 70
0
  0
SEQEND
  0
POLYLINE
  8
1
  6
CONTINUOUS
 62
3
 66
1
 40
5.0E-001
 41
5.0E-001
 70
0
  0
VERTEX
  8
1
 42
0.0
 10
3.7751748E+001
 20
1.5765658E+002
 70
0
  0
VERTEX
  8
1
 42
0.0
 10
3.7751748E+001
 20
1.5959118E+002
 70
0
  0
SEQEND
  0
POLYLINE
  8
1
  6
CONTINUOUS
 62
3
 66
1
 40
5.0E-001
 41
5.0E-001
 70
0
  0
VERTEX
  8
1
 42
0.0
 10
3.8551768E+001
 20
1.5765658E+002
 70
0
  0
VERTEX
  8
1
 42
0.0
 10
3.8551768E+001
 20
1.5959118E+002
 70
0
  0
SEQEND
  0
POLYLINE
  8
1
  6
CONTINUOUS
 62
3
 66
1
 40
5.0E-001
 41
5.0E-001
 70
0
  0
VERTEX
  8
1
 42
0.0
 10
3.7621438E+001
 20
1.5969538E+002
 70
0
  0
VERTEX
  8
1
 42
0.0
 10
3.7232518E+001
 20
1.5930638E+002
 70
0
  0
SEQEND
  0
POLYLINE
  8
1
  6
CONTINUOUS
 62
3
 66
1
 40
5.0E-001
 41
5.0E-001
 70
0
  0
VERTEX
  8
1
 42
0.0
 10
3.8682078E+001
 20
1.5969538E+002
 70
0
  0
VERTEX
  8
1
 42
0.0
 10
3.9070988E+001
 20
1.5930638E+002
 70
0
  0
SEQEND
  0
POLYLINE
  8
1
  6
CONTINUOUS
 62
3
 66
1
 40
5.0E-001
 41
5.0E-001
 70
0
  0
VERTEX
  8
1
 42
0.0
 10
3.7621438E+001
 20
1.6075598E+002
 70
0
  0
VERTEX
  8
1
 42
0.0
 10
3.7232518E+001
 20
1.6114488E+002
 70
0
  0
SEQEND
  0
POLYLINE
  8
1
  6
CONTINUOUS
 62
3
 66
1
 40
5.0E-001
 41
5.0E-001
 70
0
  0
VERTEX
  8
1
 42
0.0
 10
3.8682078E+001
 20
1.6075598E+002
 70
0
  0
VERTEX
  8
1
 42
0.0
 10
3.9070988E+001
 20
1.6114488E+002
 70
0
  0
SEQEND
  0
POLYLINE
  8
1
  6
CONTINUOUS
 62
3
 66
1
 40
5.0E-001
 41
5.0E-001
 70
0
  0
VERTEX
  8
1
 42
0.0
 10
3.7751748E+001
 20
1.5872568E+002
 70
0
  0
VERTEX
  8
1
 42
0.0
 10
3.8551768E+001
 20
1.5872568E+002
 70
0
  0
SEQEND
  0
POLYLINE
  8
1
  6
CONTINUOUS
 62
3
 66
1
 40
5.0E-001
 41
5.0E-001
 70
0
  0
VERTEX
  8
1
 42
0.0
 10
3.7751748E+001
 20
1.6172568E+002
 70
0
  0
VERTEX
  8
1
 42
0.0
 10
3.8551768E+001
 20
1.6172568E+002
 70
0
  0
SEQEND
  0
INSERT
  2
*E2126
  8
1
 10
3.8151738E+001
 20
1.6022568E+002
 41
1.0
 42
1.0
 43
1.0
 50
2.7E+002
 62
3
  0
INSERT
  2
*E2127
  8
1
 10
3.8151738E+001
 20
1.6022568E+002
 41
1.0
 42
1.0
 43
1.0
 50
2.7E+002
 62
3
  0
POLYLINE
  8
1
  6
CONTINUOUS
 62
3
 66
1
 40
5.0E-001
 41
5.0E-001
 70
0
  0
VERTEX
  8
1
 42
1.1189405E-001
 10
3.8551738E+001
 20
1.5959125E+002
 70
0
  0
VERTEX
  8
1
 42
0.0
 10
3.8786166E+001
 20
1.5982568E+002
 70
0
  0
SEQEND
  0
POLYLINE
  8
1
  6
CONTINUOUS
 62
3
 66
1
 40
5.0E-001
 41
5.0E-001
 70
0
  0
VERTEX
  8
1
 42
1.1189401E-001
 10
3.8786166E+001
 20
1.6062568E+002
 70
0
  0
VERTEX
  8
1
 42
0.0
 10
3.8551739E+001
 20
1.6086011E+002
 70
0
  0
SEQEND
  0
POLYLINE
  8
1
  6
CONTINUOUS
 62
3
 66
1
 40
5.0E-001
 41
5.0E-001
 70
0
  0
VERTEX
  8
1
 42
1.0
 10
3.1651738E+001
 20
1.6022568E+002
 70
0
  0
VERTEX
  8
1
 42
1.0
 10
2.6451738E+001
 20
1.6022568E+002
 70
0
  0
VERTEX
  8
1
 42
0.0
 10
3.1651738E+001
 20
1.6022568E+002
 70
0
  0
SEQEND
  0
POLYLINE
  8
1
  6
CONTINUOUS
 62
3
 66
1
 40
5.0E-001
 41
5.0E-001
 70
0
  0
VERTEX
  8
1
 42
0.0
 10
2.8651738E+001
 20
1.6086008E+002
 70
0
  0
VERTEX
  8
1
 42
0.0
 10
2.8651738E+001
 20
1.6279468E+002
 70
0
  0
SEQEND
  0
POLYLINE
  8
1
  6
CONTINUOUS
 62
3
 66
1
 40
5.0E-001
 41
5.0E-001
 70
0
  0
VERTEX
  8
1
 42
0.0
 10
2.9451758E+001
 20
1.6086008E+002
 70
0
  0
VERTEX
  8
1
 42
0.0
 10
2.9451758E+001
 20
1.6279468E+002
 70
0
  0
SEQEND
  0
POLYLINE
  8
1
  6
CONTINUOUS
 62
3
 66
1
 40
5.0E-001
 41
5.0E-001
 70
0
  0
VERTEX
  8
1
 42
0.0
 10
2.9686168E+001
 20
1.6062568E+002
 70
0
  0
VERTEX
  8
1
 42
0.0
 10
3.0551738E+001
 20
1.6062568E+002
 70
0
  0
SEQEND
  0
POLYLINE
  8
1
  6
CONTINUOUS
 62
3
 66
1
 40
5.0E-001
 41
5.0E-001
 70
0
  0
VERTEX
  8
1
 42
0.0
 10
2.9686168E+001
 20
1.5982568E+002
 70
0
  0
VERTEX
  8
1
 42
0.0
 10
3.0551738E+001
 20
1.5982568E+002
 70
0
  0
SEQEND
  0
POLYLINE
  8
1
  6
CONTINUOUS
 62
3
 66
1
 40
5.0E-001
 41
5.0E-001
 70
0
  0
VERTEX
  8
1
 42
0.0
 10
2.7551738E+001
 20
1.5982568E+002
 70
0
  0
VERTEX
  8
1
 42
0.0
 10
2.7551738E+001
 20
1.6062568E+002
 70
0
  0
SEQEND
  0
POLYLINE
  8
1
  6
CONTINUOUS
 62
3
 66
1
 40
5.0E-001
 41
5.0E-001
 70
0
  0
VERTEX
  8
1
 42
0.0
 10
3.0551738E+001
 20
1.5982568E+002
 70
0
  0
VERTEX
  8
1
 42
0.0
 10
3.0551738E+001
 20
1.6062568E+002
 70
0
  0
SEQEND
  0
POLYLINE
  8
1
  6
CONTINUOUS
 62
3
 66
1
 40
5.0E-001
 41
5.0E-001
 70
0
  0
VERTEX
  8
1
 42
0.0
 10
2.7551738E+001
 20
1.5982568E+002
 70
0
  0
VERTEX
  8
1
 42
0.0
 10
2.8417308E+001
 20
1.5982568E+002
 70
0
  0
SEQEND
  0
POLYLINE
  8
1
  6
CONTINUOUS
 62
3
 66
1
 40
5.0E-001
 41
5.0E-001
 70
0
  0
VERTEX
  8
1
 42
0.0
 10
2.7551738E+001
 20
1.6062568E+002
 70
0
  0
VERTEX
  8
1
 42
0.0
 10
2.8417308E+001
 20
1.6062568E+002
 70
0
  0
SEQEND
  0
POLYLINE
  8
1
  6
CONTINUOUS
 62
3
 66
1
 40
5.0E-001
 41
5.0E-001
 70
0
  0
VERTEX
  8
1
 42
0.0
 10
2.8651738E+001
 20
1.5765658E+002
 70
0
  0
VERTEX
  8
1
 42
0.0
 10
2.8651738E+001
 20
1.5959118E+002
 70
0
  0
SEQEND
  0
POLYLINE
  8
1
  6
CONTINUOUS
 62
3
 66
1
 40
5.0E-001
 41
5.0E-001
 70
0
  0
VERTEX
  8
1
 42
0.0
 10
2.9451758E+001
 20
1.5765658E+002
 70
0
  0
VERTEX
  8
1
 42
0.0
 10
2.9451758E+001
 20
1.5959118E+002
 70
0
  0
SEQEND
  0
POLYLINE
  8
1
  6
CONTINUOUS
 62
3
 66
1
 40
5.0E-001
 41
5.0E-001
 70
0
  0
VERTEX
  8
1
 42
0.0
 10
2.8521428E+001
 20
1.5969538E+002
 70
0
  0
VERTEX
  8
1
 42
0.0
 10
2.8132518E+001
 20
1.5930638E+002
 70
0
  0
SEQEND
  0
POLYLINE
  8
1
  6
CONTINUOUS
 62
3
 66
1
 40
5.0E-001
 41
5.0E-001
 70
0
  0
VERTEX
  8
1
 42
0.0
 10
2.9582068E+001
 20
1.5969538E+002
 70
0
  0
VERTEX
  8
1
 42
0.0
 10
2.9970988E+001
 20
1.5930638E+002
 70
0
  0
SEQEND
  0
POLYLINE
  8
1
  6
CONTINUOUS
 62
3
 66
1
 40
5.0E-001
 41
5.0E-001
 70
0
  0
VERTEX
  8
1
 42
0.0
 10
2.8521428E+001
 20
1.6075598E+002
 70
0
  0
VERTEX
  8
1
 42
0.0
 10
2.8132518E+001
 20
1.6114488E+002
 70
0
  0
SEQEND
  0
POLYLINE
  8
1
  6
CONTINUOUS
 62
3
 66
1
 40
5.0E-001
 41
5.0E-001
 70
0
  0
VERTEX
  8
1
 42
0.0
 10
2.9582068E+001
 20
1.6075598E+002
 70
0
  0
VERTEX
  8
1
 42
0.0
 10
2.9970988E+001
 20
1.6114488E+002
 70
0
  0
SEQEND
  0
POLYLINE
  8
1
  6
CONTINUOUS
 62
3
 66
1
 40
5.0E-001
 41
5.0E-001
 70
0
  0
VERTEX
  8
1
 42
0.0
 10
2.8651738E+001
 20
1.5872568E+002
 70
0
  0
VERTEX
  8
1
 42
0.0
 10
2.9451758E+001
 20
1.5872568E+002
 70
0
  0
SEQEND
  0
POLYLINE
  8
1
  6
CONTINUOUS
 62
3
 66
1
 40
5.0E-001
 41
5.0E-001
 70
0
  0
VERTEX
  8
1
 42
0.0
 10
2.8651738E+001
 20
1.6172568E+002
 70
0
  0
VERTEX
  8
1
 42
0.0
 10
2.9451758E+001
 20
1.6172568E+002
 70
0
  0
SEQEND
  0
INSERT
  2
*E2147
  8
1
 10
2.9051738E+001
 20
1.6022568E+002
 41
1.0
 42
1.0
 43
1.0
 50
2.7E+002
 62
3
  0
INSERT
  2
*E2148
  8
1
 10
2.9051738E+001
 20
1.6022568E+002
 41
1.0
 42
1.0
 43
1.0
 50
2.7E+002
 62
3
  0
POLYLINE
  8
1
  6
CONTINUOUS
 62
3
 66
1
 40
5.0E-001
 41
5.0E-001
 70
0
  0
VERTEX
  8
1
 42
1.1189405E-001
 10
2.9451738E+001
 20
1.5959125E+002
 70
0
  0
VERTEX
  8
1
 42
0.0
 10
2.9686166E+001
 20
1.5982568E+002
 70
0
  0
SEQEND
  0
POLYLINE
  8
1
  6
CONTINUOUS
 62
3
 66
1
 40
5.0E-001
 41
5.0E-001
 70
0
  0
VERTEX
  8
1
 42
1.1189401E-001
 10
2.9686166E+001
 20
1.6062568E+002
 70
0
  0
VERTEX
  8
1
 42
0.0
 10
2.9451739E+001
 20
1.6086011E+002
 70
0
  0
SEQEND
  0
POLYLINE
  8
1
  6
CONTINUOUS
 62
3
 66
1
 40
5.0E-001
 41
5.0E-001
 70
0
  0
VERTEX
  8
1
 42
1.0
 10
4.0751738E+001
 20
1.8562578E+002
 70
0
  0
VERTEX
  8
1
 42
1.0
 10
3.5551738E+001
 20
1.8562578E+002
 70
0
  0
VERTEX
  8
1
 42
0.0
 10
4.0751738E+001
 20
1.8562578E+002
 70
0
  0
SEQEND
  0
POLYLINE
  8
1
  6
CONTINUOUS
 62
3
 66
1
 40
5.0E-001
 41
5.0E-001
 70
0
  0
VERTEX
  8
1
 42
0.0
 10
3.7751748E+001
 20
1.8626018E+002
 70
0
  0
VERTEX
  8
1
 42
0.0
 10
3.7751748E+001
 20
1.8819478E+002
 70
0
  0
SEQEND
  0
POLYLINE
  8
1
  6
CONTINUOUS
 62
3
 66
1
 40
5.0E-001
 41
5.0E-001
 70
0
  0
VERTEX
  8
1
 42
0.0
 10
3.8551768E+001
 20
1.8626018E+002
 70
0
  0
VERTEX
  8
1
 42
0.0
 10
3.8551768E+001
 20
1.8819478E+002
 70
0
  0
SEQEND
  0
POLYLINE
  8
1
  6
CONTINUOUS
 62
3
 66
1
 40
5.0E-001
 41
5.0E-001
 70
0
  0
VERTEX
  8
1
 42
0.0
 10
3.8786168E+001
 20
1.8602578E+002
 70
0
  0
VERTEX
  8
1
 42
0.0
 10
3.9651738E+001
 20
1.8602578E+002
 70
0
  0
SEQEND
  0
POLYLINE
  8
1
  6
CONTINUOUS
 62
3
 66
1
 40
5.0E-001
 41
5.0E-001
 70
0
  0
VERTEX
  8
1
 42
0.0
 10
3.8786168E+001
 20
1.8522578E+002
 70
0
  0
VERTEX
  8
1
 42
0.0
 10
3.9651738E+001
 20
1.8522578E+002
 70
0
  0
SEQEND
  0
POLYLINE
  8
1
  6
CONTINUOUS
 62
3
 66
1
 40
5.0E-001
 41
5.0E-001
 70
0
  0
VERTEX
  8
1
 42
0.0
 10
3.6651738E+001
 20
1.8522578E+002
 70
0
  0
VERTEX
  8
1
 42
0.0
 10
3.6651738E+001
 20
1.8602578E+002
 70
0
  0
SEQEND
  0
POLYLINE
  8
1
  6
CONTINUOUS
 62
3
 66
1
 40
5.0E-001
 41
5.0E-001
 70
0
  0
VERTEX
  8
1
 42
0.0
 10
3.9651738E+001
 20
1.8522578E+002
 70
0
  0
VERTEX
  8
1
 42
0.0
 10
3.9651738E+001
 20
1.8602578E+002
 70
0
  0
SEQEND
  0
POLYLINE
  8
1
  6
CONTINUOUS
 62
3
 66
1
 40
5.0E-001
 41
5.0E-001
 70
0
  0
VERTEX
  8
1
 42
0.0
 10
3.6651738E+001
 20
1.8522578E+002
 70
0
  0
VERTEX
  8
1
 42
0.0
 10
3.7517308E+001
 20
1.8522578E+002
 70
0
  0
SEQEND
  0
POLYLINE
  8
1
  6
CONTINUOUS
 62
3
 66
1
 40
5.0E-001
 41
5.0E-001
 70
0
  0
VERTEX
  8
1
 42
0.0
 10
3.6651738E+001
 20
1.8602578E+002
 70
0
  0
VERTEX
  8
1
 42
0.0
 10
3.7517308E+001
 20
1.8602578E+002
 70
0
  0
SEQEND
  0
POLYLINE
  8
1
  6
CONTINUOUS
 62
3
 66
1
 40
5.0E-001
 41
5.0E-001
 70
0
  0
VERTEX
  8
1
 42
0.0
 10
3.7751748E+001
 20
1.8305668E+002
 70
0
  0
VERTEX
  8
1
 42
0.0
 10
3.7751748E+001
 20
1.8499138E+002
 70
0
  0
SEQEND
  0
POLYLINE
  8
1
  6
CONTINUOUS
 62
3
 66
1
 40
5.0E-001
 41
5.0E-001
 70
0
  0
VERTEX
  8
1
 42
0.0
 10
3.8551768E+001
 20
1.8305668E+002
 70
0
  0
VERTEX
  8
1
 42
0.0
 10
3.8551768E+001
 20
1.8499138E+002
 70
0
  0
SEQEND
  0
POLYLINE
  8
1
  6
CONTINUOUS
 62
3
 66
1
 40
5.0E-001
 41
5.0E-001
 70
0
  0
VERTEX
  8
1
 42
0.0
 10
3.7621438E+001
 20
1.8509548E+002
 70
0
  0
VERTEX
  8
1
 42
0.0
 10
3.7232518E+001
 20
1.8470658E+002
 70
0
  0
SEQEND
  0
POLYLINE
  8
1
  6
CONTINUOUS
 62
3
 66
1
 40
5.0E-001
 41
5.0E-001
 70
0
  0
VERTEX
  8
1
 42
0.0
 10
3.8682078E+001
 20
1.8509548E+002
 70
0
  0
VERTEX
  8
1
 42
0.0
 10
3.9070988E+001
 20
1.8470658E+002
 70
0
  0
SEQEND
  0
POLYLINE
  8
1
  6
CONTINUOUS
 62
3
 66
1
 40
5.0E-001
 41
5.0E-001
 70
0
  0
VERTEX
  8
1
 42
0.0
 10
3.7621438E+001
 20
1.8615608E+002
 70
0
  0
VERTEX
  8
1
 42
0.0
 10
3.7232518E+001
 20
1.8654498E+002
 70
0
  0
SEQEND
  0
POLYLINE
  8
1
  6
CONTINUOUS
 62
3
 66
1
 40
5.0E-001
 41
5.0E-001
 70
0
  0
VERTEX
  8
1
 42
0.0
 10
3.8682078E+001
 20
1.8615608E+002
 70
0
  0
VERTEX
  8
1
 42
0.0
 10
3.9070988E+001
 20
1.8654498E+002
 70
0
  0
SEQEND
  0
POLYLINE
  8
1
  6
CONTINUOUS
 62
3
 66
1
 40
5.0E-001
 41
5.0E-001
 70
0
  0
VERTEX
  8
1
 42
0.0
 10
3.7751748E+001
 20
1.8412578E+002
 70
0
  0
VERTEX
  8
1
 42
0.0
 10
3.8551768E+001
 20
1.8412578E+002
 70
0
  0
SEQEND
  0
POLYLINE
  8
1
  6
CONTINUOUS
 62
3
 66
1
 40
5.0E-001
 41
5.0E-001
 70
0
  0
VERTEX
  8
1
 42
0.0
 10
3.7751748E+001
 20
1.8712578E+002
 70
0
  0
VERTEX
  8
1
 42
0.0
 10
3.8551768E+001
 20
1.8712578E+002
 70
0
  0
SEQEND
  0
INSERT
  2
*E2168
  8
1
 10
3.8151738E+001
 20
1.8562578E+002
 41
1.0
 42
1.0
 43
1.0
 50
2.7E+002
 62
3
  0
INSERT
  2
*E2169
  8
1
 10
3.8151738E+001
 20
1.8562578E+002
 41
1.0
 42
1.0
 43
1.0
 50
2.7E+002
 62
3
  0
POLYLINE
  8
1
  6
CONTINUOUS
 62
3
 66
1
 40
5.0E-001
 41
5.0E-001
 70
0
  0
VERTEX
  8
1
 42
1.1189405E-001
 10
3.8551738E+001
 20
1.8499135E+002
 70
0
  0
VERTEX
  8
1
 42
0.0
 10
3.8786166E+001
 20
1.8522578E+002
 70
0
  0
SEQEND
  0
POLYLINE
  8
1
  6
CONTINUOUS
 62
3
 66
1
 40
5.0E-001
 41
5.0E-001
 70
0
  0
VERTEX
  8
1
 42
1.1189401E-001
 10
3.8786166E+001
 20
1.8602578E+002
 70
0
  0
VERTEX
  8
1
 42
0.0
 10
3.8551739E+001
 20
1.8626021E+002
 70
0
  0
SEQEND
  0
POLYLINE
  8
1
  6
CONTINUOUS
 62
3
 66
1
 40
5.0E-001
 41
5.0E-001
 70
0
  0
VERTEX
  8
1
 42
1.0
 10
3.1651738E+001
 20
1.8562578E+002
 70
0
  0
VERTEX
  8
1
 42
1.0
 10
2.6451738E+001
 20
1.8562578E+002
 70
0
  0
VERTEX
  8
1
 42
0.0
 10
3.1651738E+001
 20
1.8562578E+002
 70
0
  0
SEQEND
  0
POLYLINE
  8
1
  6
CONTINUOUS
 62
3
 66
1
 40
5.0E-001
 41
5.0E-001
 70
0
  0
VERTEX
  8
1
 42
0.0
 10
2.8651738E+001
 20
1.8626018E+002
 70
0
  0
VERTEX
  8
1
 42
0.0
 10
2.8651738E+001
 20
1.8819478E+002
 70
0
  0
SEQEND
  0
POLYLINE
  8
1
  6
CONTINUOUS
 62
3
 66
1
 40
5.0E-001
 41
5.0E-001
 70
0
  0
VERTEX
  8
1
 42
0.0
 10
2.9451758E+001
 20
1.8626018E+002
 70
0
  0
VERTEX
  8
1
 42
0.0
 10
2.9451758E+001
 20
1.8819478E+002
 70
0
  0
SEQEND
  0
POLYLINE
  8
1
  6
CONTINUOUS
 62
3
 66
1
 40
5.0E-001
 41
5.0E-001
 70
0
  0
VERTEX
  8
1
 42
0.0
 10
2.9686168E+001
 20
1.8602578E+002
 70
0
  0
VERTEX
  8
1
 42
0.0
 10
3.0551738E+001
 20
1.8602578E+002
 70
0
  0
SEQEND
  0
POLYLINE
  8
1
  6
CONTINUOUS
 62
3
 66
1
 40
5.0E-001
 41
5.0E-001
 70
0
  0
VERTEX
  8
1
 42
0.0
 10
2.9686168E+001
 20
1.8522578E+002
 70
0
  0
VERTEX
  8
1
 42
0.0
 10
3.0551738E+001
 20
1.8522578E+002
 70
0
  0
SEQEND
  0
POLYLINE
  8
1
  6
CONTINUOUS
 62
3
 66
1
 40
5.0E-001
 41
5.0E-001
 70
0
  0
VERTEX
  8
1
 42
0.0
 10
2.7551738E+001
 20
1.8522578E+002
 70
0
  0
VERTEX
  8
1
 42
0.0
 10
2.7551738E+001
 20
1.8602578E+002
 70
0
  0
SEQEND
  0
POLYLINE
  8
1
  6
CONTINUOUS
 62
3
 66
1
 40
5.0E-001
 41
5.0E-001
 70
0
  0
VERTEX
  8
1
 42
0.0
 10
3.0551738E+001
 20
1.8522578E+002
 70
0
  0
VERTEX
  8
1
 42
0.0
 10
3.0551738E+001
 20
1.8602578E+002
 70
0
  0
SEQEND
  0
POLYLINE
  8
1
  6
CONTINUOUS
 62
3
 66
1
 40
5.0E-001
 41
5.0E-001
 70
0
  0
VERTEX
  8
1
 42
0.0
 10
2.7551738E+001
 20
1.8522578E+002
 70
0
  0
VERTEX
  8
1
 42
0.0
 10
2.8417308E+001
 20
1.8522578E+002
 70
0
  0
SEQEND
  0
POLYLINE
  8
1
  6
CONTINUOUS
 62
3
 66
1
 40
5.0E-001
 41
5.0E-001
 70
0
  0
VERTEX
  8
1
 42
0.0
 10
2.7551738E+001
 20
1.8602578E+002
 70
0
  0
VERTEX
  8
1
 42
0.0
 10
2.8417308E+001
 20
1.8602578E+002
 70
0
  0
SEQEND
  0
POLYLINE
  8
1
  6
CONTINUOUS
 62
3
 66
1
 40
5.0E-001
 41
5.0E-001
 70
0
  0
VERTEX
  8
1
 42
0.0
 10
2.8651738E+001
 20
1.8305668E+002
 70
0
  0
VERTEX
  8
1
 42
0.0
 10
2.8651738E+001
 20
1.8499138E+002
 70
0
  0
SEQEND
  0
POLYLINE
  8
1
  6
CONTINUOUS
 62
3
 66
1
 40
5.0E-001
 41
5.0E-001
 70
0
  0
VERTEX
  8
1
 42
0.0
 10
2.9451758E+001
 20
1.8305668E+002
 70
0
  0
VERTEX
  8
1
 42
0.0
 10
2.9451758E+001
 20
1.8499138E+002
 70
0
  0
SEQEND
  0
POLYLINE
  8
1
  6
CONTINUOUS
 62
3
 66
1
 40
5.0E-001
 41
5.0E-001
 70
0
  0
VERTEX
  8
1
 42
0.0
 10
2.8521428E+001
 20
1.8509548E+002
 70
0
  0
VERTEX
  8
1
 42
0.0
 10
2.8132518E+001
 20
1.8470658E+002
 70
0
  0
SEQEND
  0
POLYLINE
  8
1
  6
CONTINUOUS
 62
3
 66
1
 40
5.0E-001
 41
5.0E-001
 70
0
  0
VERTEX
  8
1
 42
0.0
 10
2.9582068E+001
 20
1.8509548E+002
 70
0
  0
VERTEX
  8
1
 42
0.0
 10
2.9970988E+001
 20
1.8470658E+002
 70
0
  0
SEQEND
  0
POLYLINE
  8
1
  6
CONTINUOUS
 62
3
 66
1
 40
5.0E-001
 41
5.0E-001
 70
0
  0
VERTEX
  8
1
 42
0.0
 10
2.8521428E+001
 20
1.8615608E+002
 70
0
  0
VERTEX
  8
1
 42
0.0
 10
2.8132518E+001
 20
1.8654498E+002
 70
0
  0
SEQEND
  0
POLYLINE
  8
1
  6
CONTINUOUS
 62
3
 66
1
 40
5.0E-001
 41
5.0E-001
 70
0
  0
VERTEX
  8
1
 42
0.0
 10
2.9582068E+001
 20
1.8615608E+002
 70
0
  0
VERTEX
  8
1
 42
0.0
 10
2.9970988E+001
 20
1.8654498E+002
 70
0
  0
SEQEND
  0
POLYLINE
  8
1
  6
CONTINUOUS
 62
3
 66
1
 40
5.0E-001
 41
5.0E-001
 70
0
  0
VERTEX
  8
1
 42
0.0
 10
2.8651738E+001
 20
1.8412578E+002
 70
0
  0
VERTEX
  8
1
 42
0.0
 10
2.9451758E+001
 20
1.8412578E+002
 70
0
  0
SEQEND
  0
POLYLINE
  8
1
  6
CONTINUOUS
 62
3
 66
1
 40
5.0E-001
 41
5.0E-001
 70
0
  0
VERTEX
  8
1
 42
0.0
 10
2.8651738E+001
 20
1.8712578E+002
 70
0
  0
VERTEX
  8
1
 42
0.0
 10
2.9451758E+001
 20
1.8712578E+002
 70
0
  0
SEQEND
  0
INSERT
  2
*E2189
  8
1
 10
2.9051738E+001
 20
1.8562578E+002
 41
1.0
 42
1.0
 43
1.0
 50
2.7E+002
 62
3
  0
INSERT
  2
*E2190
  8
1
 10
2.9051738E+001
 20
1.8562578E+002
 41
1.0
 42
1.0
 43
1.0
 50
2.7E+002
 62
3
  0
POLYLINE
  8
1
  6
CONTINUOUS
 62
3
 66
1
 40
5.0E-001
 41
5.0E-001
 70
0
  0
VERTEX
  8
1
 42
1.1189405E-001
 10
2.9451738E+001
 20
1.8499135E+002
 70
0
  0
VERTEX
  8
1
 42
0.0
 10
2.9686166E+001
 20
1.8522578E+002
 70
0
  0
SEQEND
  0
POLYLINE
  8
1
  6
CONTINUOUS
 62
3
 66
1
 40
5.0E-001
 41
5.0E-001
 70
0
  0
VERTEX
  8
1
 42
1.1189401E-001
 10
2.9686166E+001
 20
1.8602578E+002
 70
0
  0
VERTEX
  8
1
 42
0.0
 10
2.9451739E+001
 20
1.8626021E+002
 70
0
  0
SEQEND
  0
TEXT
  8
1
  6
CONTINUOUS
 62
4
 10
1.5224271E+002
 20
2.1911001E+002
 40
3.0
  1
43,5
 41
8.0E-001
  0
DIMENSION
  8
1
  6
CONTINUOUS
 62
4
  1
       
  2
*D2194
  3
DSTYLE2
 10
1.8406059E+002
 20
2.1784158E+002
 11
1.5882779E+002
 21
2.2084258E+002
 70
128
 13
1.4056059E+002
 23
1.9092608E+002
 14
1.8406059E+002
 24
1.9212608E+002
 40
1.25E-001
 50
0.0
  0
DIMENSION
  8
1
  6
CONTINUOUS
 62
4
  2
*D2195
  3
DSTYLE3
 10
2.3451728E+001
 20
2.1784158E+002
 11
5.6827788E+001
 21
2.2084258E+002
 70
128
 13
9.1251758E+001
 23
1.9212588E+002
 14
2.3451728E+001
 24
1.9212588E+002
 40
1.25E-001
 50
0.0
  0
TEXT
  8
1
  6
CONTINUOUS
 62
4
 10
1.5229713E+002
 20
2.1111193E+002
 40
3.0
  1
33,5
 41
8.0E-001
  0
DIMENSION
  8
1
  6
CONTINUOUS
 62
4
  1
       
  2
*D2197
  3
DSTYLE2
 10
1.4056059E+002
 20
2.0984158E+002
 11
1.5882779E+002
 21
2.1284258E+002
 70
128
 13
1.7416059E+002
 23
1.9062588E+002
 14
1.4056059E+002
 24
1.9092608E+002
 40
1.25E-001
 50
0.0
  0
TEXT
  8
1
  6
CONTINUOUS
 62
4
 10
1.5416374E+002
 20
2.2713109E+002
 40
3.0
  1
46,5
 41
8.0E-001
  0
DIMENSION
  8
1
  6
CONTINUOUS
 62
4
  1
       
  2
*D2199
  3
DSTYLE2
 10
1.8406059E+002
 20
2.2584158E+002
 11
1.5882779E+002
 21
2.2884258E+002
 70
128
 13
1.3756059E+002
 23
2.0167588E+002
 14
1.8406059E+002
 24
1.9212608E+002
 40
1.25E-001
 50
0.0
  0
POLYLINE
  8
1
  6
CONTINUOUS
 62
3
 66
1
 40
5.0E-001
 41
5.0E-001
 70
0
  0
VERTEX
  8
1
 42
0.0
 10
2.3451728E+001
 20
1.9212578E+002
 70
0
  0
VERTEX
  8
1
 42
0.0
 10
2.3451728E+001
 20
1.5372578E+002
 70
0
  0
SEQEND
  0
POLYLINE
  8
1
  6
CONTINUOUS
 62
3
 66
1
 40
5.0E-001
 41
5.0E-001
 70
0
  0
VERTEX
  8
1
 42
0.0
 10
1.6856059E+002
 20
1.9402598E+002
 70
0
  0
VERTEX
  8
1
 42
0.0
 10
1.3756059E+002
 20
1.9402598E+002
 70
0
  0
SEQEND
  0
POLYLINE
  8
1
  6
CONTINUOUS
 62
3
 66
1
 40
5.0E-001
 41
5.0E-001
 70
0
  0
VERTEX
  8
1
 42
0.0
 10
1.6856059E+002
 20
1.5182598E+002
 70
0
  0
VERTEX
  8
1
 42
0.0
 10
1.3756059E+002
 20
1.5182598E+002
 70
0
  0
SEQEND
  0
POLYLINE
  8
1
  6
CONTINUOUS
 62
3
 66
1
 40
5.0E-001
 41
5.0E-001
 70
0
  0
VERTEX
  8
1
 42
0.0
 10
1.4056059E+002
 20
1.5492598E+002
 70
0
  0
VERTEX
  8
1
 42
0.0
 10
1.3956059E+002
 20
1.5492598E+002
 70
0
  0
SEQEND
  0
POLYLINE
  8
1
  6
CONTINUOUS
 62
3
 66
1
 40
5.0E-001
 41
5.0E-001
 70
0
  0
VERTEX
  8
1
 42
0.0
 10
1.3956059E+002
 20
1.5492598E+002
 70
0
  0
VERTEX
  8
1
 42
0.0
 10
1.3756059E+002
 20
1.5439008E+002
 70
0
  0
SEQEND
  0
POLYLINE
  8
1
  6
CONTINUOUS
 62
3
 66
1
 40
5.0E-001
 41
5.0E-001
 70
0
  0
VERTEX
  8
1
 42
0.0
 10
1.3756059E+002
 20
1.5473708E+002
 70
0
  0
VERTEX
  8
1
 42
0.0
 10
1.3756059E+002
 20
1.5182598E+002
 70
0
  0
SEQEND
  0
POLYLINE
  8
1
  6
CONTINUOUS
 62
3
 66
1
 40
5.0E-001
 41
5.0E-001
 70
0
  0
VERTEX
  8
1
 42
0.0
 10
1.6856059E+002
 20
1.9302598E+002
 70
0
  0
VERTEX
  8
1
 42
0.0
 10
1.6856059E+002
 20
1.9402598E+002
 70
0
  0
SEQEND
  0
POLYLINE
  8
1
  6
CONTINUOUS
 62
3
 66
1
 40
5.0E-001
 41
5.0E-001
 70
0
  0
VERTEX
  8
1
 42
4.1421356E-001
 10
1.5946059E+002
 20
1.9302598E+002
 70
0
  0
VERTEX
  8
1
 42
0.0
 10
1.5896059E+002
 20
1.9252598E+002
 70
0
  0
SEQEND
  0
POLYLINE
  8
1
  6
CONTINUOUS
 62
3
 66
1
 40
5.0E-001
 41
5.0E-001
 70
0
  0
VERTEX
  8
1
 42
4.1421356E-001
 10
1.8326059E+002
 20
1.5292598E+002
 70
0
  0
VERTEX
  8
1
 42
0.0
 10
1.8406059E+002
 20
1.5372598E+002
 70
0
  0
SEQEND
  0
POLYLINE
  8
1
  6
CONTINUOUS
 62
3
 66
1
 40
5.0E-001
 41
5.0E-001
 70
0
  0
VERTEX
  8
1
 42
4.1421356E-001
 10
1.8406059E+002
 20
1.9212598E+002
 70
0
  0
VERTEX
  8
1
 42
0.0
 10
1.8326059E+002
 20
1.9292598E+002
 70
0
  0
SEQEND
  0
POLYLINE
  8
1
  6
CONTINUOUS
 62
3
 66
1
 40
5.0E-001
 41
5.0E-001
 70
0
  0
VERTEX
  8
1
 42
0.0
 10
1.8326059E+002
 20
1.9292598E+002
 70
0
  0
VERTEX
  8
1
 42
0.0
 10
1.8206059E+002
 20
1.9292598E+002
 70
0
  0
SEQEND
  0
POLYLINE
  8
1
  6
CONTINUOUS
 62
3
 66
1
 40
5.0E-001
 41
5.0E-001
 70
0
  0
VERTEX
  8
1
 42
0.0
 10
1.7406059E+002
 20
1.7032598E+002
 70
0
  0
VERTEX
  8
1
 42
0.0
 10
1.8206059E+002
 20
1.7032598E+002
 70
0
  0
SEQEND
  0
POLYLINE
  8
1
  6
CONTINUOUS
 62
3
 66
1
 40
5.0E-001
 41
5.0E-001
 70
0
  0
VERTEX
  8
1
 42
0.0
 10
1.7406059E+002
 20
1.7552598E+002
 70
0
  0
VERTEX
  8
1
 42
0.0
 10
1.8206059E+002
 20
1.7552598E+002
 70
0
  0
SEQEND
  0
POLYLINE
  8
1
  6
CONTINUOUS
 62
3
 66
1
 40
5.0E-001
 41
5.0E-001
 70
0
  0
VERTEX
  8
1
 42
0.0
 10
1.6856059E+002
 20
1.5182598E+002
 70
0
  0
VERTEX
  8
1
 42
0.0
 10
1.6856059E+002
 20
1.5282598E+002
 70
0
  0
SEQEND
  0
INSERT
  2
*E2214
  8
1
 10
1.5946059E+002
 20
1.5332598E+002
 41
1.0
 42
1.0
 43
1.0
 50
2.7E+002
 62
3
  0
POLYLINE
  8
1
  6
CONTINUOUS
 62
3
 66
1
 40
5.0E-001
 41
5.0E-001
 70
0
  0
VERTEX
  8
1
 42
0.0
 10
1.5896059E+002
 20
1.5332598E+002
 70
0
  0
VERTEX
  8
1
 42
0.0
 10
1.5896059E+002
 20
1.9252598E+002
 70
0
  0
SEQEND
  0
POLYLINE
  8
1
  6
CONTINUOUS
 62
3
 66
1
 40
5.0E-001
 41
5.0E-001
 70
0
  0
VERTEX
  8
1
 42
0.0
 10
1.7406059E+002
 20
1.7552598E+002
 70
0
  0
VERTEX
  8
1
 42
0.0
 10
1.7406059E+002
 20
1.7032598E+002
 70
0
  0
SEQEND
  0
POLYLINE
  8
1
  6
CONTINUOUS
 62
3
 66
1
 40
5.0E-001
 41
5.0E-001
 70
0
  0
VERTEX
  8
1
 42
0.0
 10
1.5506059E+002
 20
1.5033878E+002
 70
0
  0
VERTEX
  8
1
 42
0.0
 10
1.5506059E+002
 20
1.5182598E+002
 70
0
  0
SEQEND
  0
POLYLINE
  8
1
  6
CONTINUOUS
 62
3
 66
1
 40
5.0E-001
 41
5.0E-001
 70
0
  0
VERTEX
  8
1
 42
0.0
 10
1.5506059E+002
 20
1.5033878E+002
 70
0
  0
VERTEX
  8
1
 42
0.0
 10
1.5256059E+002
 20
1.5033878E+002
 70
0
  0
SEQEND
  0
POLYLINE
  8
1
  6
CONTINUOUS
 62
3
 66
1
 40
5.0E-001
 41
5.0E-001
 70
0
  0
VERTEX
  8
1
 42
0.0
 10
1.5506059E+002
 20
1.9551298E+002
 70
0
  0
VERTEX
  8
1
 42
0.0
 10
1.5256059E+002
 20
1.9551298E+002
 70
0
  0
SEQEND
  0
POLYLINE
  8
1
  6
CONTINUOUS
 62
3
 66
1
 40
5.0E-001
 41
5.0E-001
 70
0
  0
VERTEX
  8
1
 42
0.0
 10
1.5506059E+002
 20
1.9551298E+002
 70
0
  0
VERTEX
  8
1
 42
0.0
 10
1.5506059E+002
 20
1.9402578E+002
 70
0
  0
SEQEND
  0
POLYLINE
  8
1
  6
CONTINUOUS
 62
3
 66
1
 40
5.0E-001
 41
5.0E-001
 70
0
  0
VERTEX
  8
1
 42
0.0
 10
1.5256059E+002
 20
1.9402578E+002
 70
0
  0
VERTEX
  8
1
 42
0.0
 10
1.5256059E+002
 20
1.9551298E+002
 70
0
  0
SEQEND
  0
POLYLINE
  8
1
  6
CONTINUOUS
 62
3
 66
1
 40
5.0E-001
 41
5.0E-001
 70
0
  0
VERTEX
  8
1
 42
0.0
 10
1.4057399E+002
 20
1.9092598E+002
 70
0
  0
VERTEX
  8
1
 42
0.0
 10
1.3956059E+002
 20
1.9092598E+002
 70
0
  0
SEQEND
  0
POLYLINE
  8
1
  6
CONTINUOUS
 62
3
 66
1
 40
5.0E-001
 41
5.0E-001
 70
0
  0
VERTEX
  8
1
 42
0.0
 10
1.3756059E+002
 20
1.9146168E+002
 70
0
  0
VERTEX
  8
1
 42
0.0
 10
1.3956059E+002
 20
1.9092568E+002
 70
0
  0
SEQEND
  0
POLYLINE
  8
1
  6
CONTINUOUS
 62
3
 66
1
 40
5.0E-001
 41
5.0E-001
 70
0
  0
VERTEX
  8
1
 42
0.0
 10
1.5256059E+002
 20
1.5182598E+002
 70
0
  0
VERTEX
  8
1
 42
0.0
 10
1.5256059E+002
 20
1.5033878E+002
 70
0
  0
SEQEND
  0
POLYLINE
  8
1
  6
CONTINUOUS
 62
3
 66
1
 40
5.0E-001
 41
5.0E-001
 70
0
  0
VERTEX
  8
1
 42
0.0
 10
1.6906059E+002
 20
1.5282598E+002
 70
0
  0
VERTEX
  8
1
 42
0.0
 10
1.5946059E+002
 20
1.5282598E+002
 70
0
  0
SEQEND
  0
POLYLINE
  8
1
  6
CONTINUOUS
 62
3
 66
1
 40
5.0E-001
 41
5.0E-001
 70
0
  0
VERTEX
  8
1
 42
0.0
 10
1.6906059E+002
 20
1.9302598E+002
 70
0
  0
VERTEX
  8
1
 42
0.0
 10
1.5946059E+002
 20
1.9302598E+002
 70
0
  0
SEQEND
  0
POLYLINE
  8
1
  6
CONTINUOUS
 62
3
 66
1
 40
5.0E-001
 41
5.0E-001
 70
0
  0
VERTEX
  8
1
 42
0.0
 10
1.5906059E+002
 20
1.9712598E+002
 70
0
  0
VERTEX
  8
1
 42
0.0
 10
1.6906059E+002
 20
1.9712598E+002
 70
0
  0
SEQEND
  0
POLYLINE
  8
1
  6
CONTINUOUS
 62
3
 66
1
 40
5.0E-001
 41
5.0E-001
 70
0
  0
VERTEX
  8
1
 42
0.0
 10
1.6906059E+002
 20
1.9302598E+002
 70
0
  0
VERTEX
  8
1
 42
0.0
 10
1.6906059E+002
 20
1.9712598E+002
 70
0
  0
SEQEND
  0
POLYLINE
  8
1
  6
CONTINUOUS
 62
3
 66
1
 40
5.0E-001
 41
5.0E-001
 70
0
  0
VERTEX
  8
1
 42
0.0
 10
1.8206059E+002
 20
1.9302598E+002
 70
0
  0
VERTEX
  8
1
 42
0.0
 10
1.8106059E+002
 20
1.9402598E+002
 70
0
  0
SEQEND
  0
POLYLINE
  8
1
  6
CONTINUOUS
 62
3
 66
1
 40
5.0E-001
 41
5.0E-001
 70
0
  0
VERTEX
  8
1
 42
0.0
 10
1.8206059E+002
 20
1.5282578E+002
 70
0
  0
VERTEX
  8
1
 42
0.0
 10
1.8106059E+002
 20
1.5182578E+002
 70
0
  0
SEQEND
  0
POLYLINE
  8
1
  6
CONTINUOUS
 62
3
 66
1
 40
5.0E-001
 41
5.0E-001
 70
0
  0
VERTEX
  8
1
 42
0.0
 10
1.5906059E+002
 20
1.9402598E+002
 70
0
  0
VERTEX
  8
1
 42
0.0
 10
1.5906059E+002
 20
1.9712598E+002
 70
0
  0
SEQEND
  0
POLYLINE
  8
1
  6
CONTINUOUS
 62
3
 66
1
 40
5.0E-001
 41
5.0E-001
 70
0
  0
VERTEX
  8
1
 42
0.0
 10
1.8326059E+002
 20
1.5292598E+002
 70
0
  0
VERTEX
  8
1
 42
0.0
 10
1.8206059E+002
 20
1.5292598E+002
 70
0
  0
SEQEND
  0
POLYLINE
  8
1
  6
CONTINUOUS
 62
3
 66
1
 40
5.0E-001
 41
5.0E-001
 70
0
  0
VERTEX
  8
1
 42
0.0
 10
1.8106059E+002
 20
1.5182578E+002
 70
0
  0
VERTEX
  8
1
 42
0.0
 10
1.6906059E+002
 20
1.5182578E+002
 70
0
  0
SEQEND
  0
POLYLINE
  8
1
  6
CONTINUOUS
 62
3
 66
1
 40
5.0E-001
 41
5.0E-001
 70
0
  0
VERTEX
  8
1
 42
0.0
 10
1.8106059E+002
 20
1.9402598E+002
 70
0
  0
VERTEX
  8
1
 42
0.0
 10
1.6906059E+002
 20
1.9402598E+002
 70
0
  0
SEQEND
  0
POLYLINE
  8
1
  6
CONTINUOUS
 62
3
 66
1
 40
5.0E-001
 41
5.0E-001
 70
0
  0
VERTEX
  8
1
 42
0.0
 10
1.8206059E+002
 20
1.5282578E+002
 70
0
  0
VERTEX
  8
1
 42
0.0
 10
1.8206059E+002
 20
1.9302598E+002
 70
0
  0
SEQEND
  0
POLYLINE
  8
1
  6
CONTINUOUS
 62
3
 66
1
 40
5.0E-001
 41
5.0E-001
 70
0
  0
VERTEX
  8
1
 42
0.0
 10
1.6906059E+002
 20
1.5282598E+002
 70
0
  0
VERTEX
  8
1
 42
0.0
 10
1.6906059E+002
 20
1.4872578E+002
 70
0
  0
SEQEND
  0
POLYLINE
  8
1
  6
CONTINUOUS
 62
3
 66
1
 40
5.0E-001
 41
5.0E-001
 70
0
  0
VERTEX
  8
1
 42
0.0
 10
1.6906059E+002
 20
1.4872588E+002
 70
0
  0
VERTEX
  8
1
 42
0.0
 10
1.5906059E+002
 20
1.4872588E+002
 70
0
  0
SEQEND
  0
POLYLINE
  8
1
  6
CONTINUOUS
 62
3
 66
1
 40
5.0E-001
 41
5.0E-001
 70
0
  0
VERTEX
  8
1
 42
0.0
 10
1.5906059E+002
 20
1.4872588E+002
 70
0
  0
VERTEX
  8
1
 42
0.0
 10
1.5906059E+002
 20
1.5182598E+002
 70
0
  0
SEQEND
  0
POLYLINE
  8
1
  6
CONTINUOUS
 62
3
 66
1
 40
5.0E-001
 41
5.0E-001
 70
0
  0
VERTEX
  8
1
 42
0.0
 10
1.7486059E+002
 20
1.7177598E+002
 70
0
  0
VERTEX
  8
1
 42
0.0
 10
1.7926059E+002
 20
1.7177598E+002
 70
0
  0
SEQEND
  0
POLYLINE
  8
1
  6
CONTINUOUS
 62
3
 66
1
 40
5.0E-001
 41
5.0E-001
 70
0
  0
VERTEX
  8
1
 42
0.0
 10
1.7486059E+002
 20
1.7407598E+002
 70
0
  0
VERTEX
  8
1
 42
0.0
 10
1.7926059E+002
 20
1.7407598E+002
 70
0
  0
SEQEND
  0
POLYLINE
  8
1
  6
CONTINUOUS
 62
3
 66
1
 40
5.0E-001
 41
5.0E-001
 70
0
  0
VERTEX
  8
1
 42
0.0
 10
1.7926059E+002
 20
1.7102598E+002
 70
0
  0
VERTEX
  8
1
 42
0.0
 10
1.7926059E+002
 20
1.7482598E+002
 70
0
  0
SEQEND
  0
POLYLINE
  8
1
  6
CONTINUOUS
 62
3
 66
1
 40
5.0E-001
 41
5.0E-001
 70
0
  0
VERTEX
  8
1
 42
0.0
 10
1.7926059E+002
 20
1.7212598E+002
 70
0
  0
VERTEX
  8
1
 42
0.0
 10
1.7486059E+002
 20
1.7212598E+002
 70
0
  0
SEQEND
  0
POLYLINE
  8
1
  6
CONTINUOUS
 62
3
 66
1
 40
5.0E-001
 41
5.0E-001
 70
0
  0
VERTEX
  8
1
 42
0.0
 10
1.7486059E+002
 20
1.7032598E+002
 70
0
  0
VERTEX
  8
1
 42
0.0
 10
1.7486059E+002
 20
1.7552598E+002
 70
0
  0
SEQEND
  0
POLYLINE
  8
1
  6
CONTINUOUS
 62
3
 66
1
 40
5.0E-001
 41
5.0E-001
 70
0
  0
VERTEX
  8
1
 42
0.0
 10
1.7926059E+002
 20
1.7372598E+002
 70
0
  0
VERTEX
  8
1
 42
0.0
 10
1.7486059E+002
 20
1.7372598E+002
 70
0
  0
SEQEND
  0
POLYLINE
  8
1
  6
CONTINUOUS
 62
3
 66
1
 40
5.0E-001
 41
5.0E-001
 70
0
  0
VERTEX
  8
1
 42
4.1421356E-001
 10
1.7926059E+002
 20
1.7102598E+002
 70
0
  0
VERTEX
  8
1
 42
0.0
 10
1.7976059E+002
 20
1.7052598E+002
 70
0
  0
SEQEND
  0
POLYLINE
  8
1
  6
CONTINUOUS
 62
3
 66
1
 40
5.0E-001
 41
5.0E-001
 70
0
  0
VERTEX
  8
1
 42
4.1421356E-001
 10
1.8016059E+002
 20
1.7052598E+002
 70
0
  0
VERTEX
  8
1
 42
0.0
 10
1.8066059E+002
 20
1.7102598E+002
 70
0
  0
SEQEND
  0
POLYLINE
  8
1
  6
CONTINUOUS
 62
3
 66
1
 40
5.0E-001
 41
5.0E-001
 70
0
  0
VERTEX
  8
1
 42
0.0
 10
1.7486059E+002
 20
1.7532598E+002
 70
0
  0
VERTEX
  8
1
 42
0.0
 10
1.8016059E+002
 20
1.7532598E+002
 70
0
  0
SEQEND
  0
POLYLINE
  8
1
  6
CONTINUOUS
 62
3
 66
1
 40
5.0E-001
 41
5.0E-001
 70
0
  0
VERTEX
  8
1
 42
4.1421356E-001
 10
1.8066059E+002
 20
1.7482598E+002
 70
0
  0
VERTEX
  8
1
 42
0.0
 10
1.8016059E+002
 20
1.7532598E+002
 70
0
  0
SEQEND
  0
POLYLINE
  8
1
  6
CONTINUOUS
 62
3
 66
1
 40
5.0E-001
 41
5.0E-001
 70
0
  0
VERTEX
  8
1
 42
0.0
 10
1.8016059E+002
 20
1.7052598E+002
 70
0
  0
VERTEX
  8
1
 42
0.0
 10
1.7486059E+002
 20
1.7052598E+002
 70
0
  0
SEQEND
  0
POLYLINE
  8
1
  6
CONTINUOUS
 62
3
 66
1
 40
5.0E-001
 41
5.0E-001
 70
0
  0
VERTEX
  8
1
 42
0.0
 10
1.8066059E+002
 20
1.7102598E+002
 70
0
  0
VERTEX
  8
1
 42
0.0
 10
1.8066059E+002
 20
1.7482598E+002
 70
0
  0
SEQEND
  0
POLYLINE
  8
1
  6
CONTINUOUS
 62
3
 66
1
 40
5.0E-001
 41
5.0E-001
 70
0
  0
VERTEX
  8
1
 42
4.1421356E-001
 10
1.7976059E+002
 20
1.7532598E+002
 70
0
  0
VERTEX
  8
1
 42
0.0
 10
1.7926059E+002
 20
1.7482598E+002
 70
0
  0
SEQEND
  0
POLYLINE
  8
1
  6
CONTINUOUS
 62
3
 66
1
 40
5.0E-001
 41
5.0E-001
 70
0
  0
VERTEX
  8
1
 42
0.0
 10
1.4056059E+002
 20
1.5492598E+002
 70
0
  0
VERTEX
  8
1
 42
0.0
 10
1.4056059E+002
 20
1.9092598E+002
 70
0
  0
SEQEND
  0
POLYLINE
  8
1
  6
CONTINUOUS
 62
3
 66
1
 40
5.0E-001
 41
5.0E-001
 70
0
  0
VERTEX
  8
1
 42
0.0
 10
1.3756059E+002
 20
1.9146168E+002
 70
0
  0
VERTEX
  8
1
 42
0.0
 10
1.3756059E+002
 20
1.9402598E+002
 70
0
  0
SEQEND
  0
POLYLINE
  8
1
  6
CONTINUOUS
 62
3
 66
1
 40
5.0E-001
 41
5.0E-001
 70
0
  0
VERTEX
  8
1
 42
0.0
 10
1.8406059E+002
 20
1.5372598E+002
 70
0
  0
VERTEX
  8
1
 42
0.0
 10
1.8406059E+002
 20
1.9212598E+002
 70
0
  0
SEQEND
  0
LINE
  8
1
  6
CENTERLINE
 62
1
 10
4.1271738E+001
 20
1.8562578E+002
 11
3.5031748E+001
 21
1.8562578E+002
  0
LINE
  8
1
  6
CENTERLINE
 62
1
 10
3.8151738E+001
 20
1.8250578E+002
 11
3.8151738E+001
 21
1.8874578E+002
  0
LINE
  8
1
  6
CENTERLINE
 62
1
 10
3.2171728E+001
 20
1.8562578E+002
 11
2.5931738E+001
 21
1.8562578E+002
  0
LINE
  8
1
  6
CENTERLINE
 62
1
 10
2.9051738E+001
 20
1.8250578E+002
 11
2.9051738E+001
 21
1.8874578E+002
  0
LINE
  8
1
  6
CENTERLINE
 62
1
 10
3.2171728E+001
 20
1.6022568E+002
 11
2.5931738E+001
 21
1.6022568E+002
  0
LINE
  8
1
  6
CENTERLINE
 62
1
 10
2.9051738E+001
 20
1.5710568E+002
 11
2.9051738E+001
 21
1.6334568E+002
  0
LINE
  8
1
  6
CENTERLINE
 62
1
 10
4.1271738E+001
 20
1.6022568E+002
 11
3.5031748E+001
 21
1.6022568E+002
  0
LINE
  8
1
  6
CENTERLINE
 62
1
 10
3.8151738E+001
 20
1.5710568E+002
 11
3.8151738E+001
 21
1.6334568E+002
  0
TEXT
  8
1
  6
CONTINUOUS
 62
4
 10
8.2094884E+001
 20
7.129363
 40
2.8
  1
dimension drawing
 41
8.0E-001
  0
TEXT
  8
1
  6
CONTINUOUS
 62
4
 10
1.2947462E+002
 20
5.3206501E+001
 40
3.0
  1
attachment eyes breakable
 41
8.0E-001
  0
TEXT
  8
1
  6
CONTINUOUS
 62
4
 10
1.2642519E+002
 20
8.0842742E+001
 40
3.0
  1
Changes of dimensions reserved !
 41
8.0E-001
  0
TEXT
  8
1
  6
CONTINUOUS
 62
4
 10
2.5332194E+001
 20
8.0402182E+001
 40
3.0
  1
terminals :   1 ... 2,5mm  multiple-wire
 41
7.8139399E-001
  0
TEXT
  8
1
  6
CONTINUOUS
 62
4
 10
8.4381815E+001
 20
8.1912887E+001
 40
2.0
  1
2
  0
TEXT
  8
1
  6
CONTINUOUS
 62
4
 10
8.177364E+001
 20
6.3209946E+001
 40
2.0
  1
2
  0
TEXT
  8
1
  6
CONTINUOUS
 62
4
 10
6.3000066E+001
 20
6.1898666E+001
 40
3.0
  1
... 4 mm  eindraehtig
 41
7.5334285E-001
  0
LINE
  8
1
  6
CONTINUOUS
 62
4
 10
4.7780802E+001
 20
1.7290199E+002
 11
2.5974098E+001
 21
9.426802E+001
  0
TEXT
  8
1
  6
CONTINUOUS
 62
4
 10
3.0686621E+001
 20
1.0109898E+002
 40
3.0
  1
switching position indication
 41
8.0E-001
  0
LINE
  8
1
  6
CONTINUOUS
 62
4
 10
1.3347309E+002
 20
1.6303538E+002
 11
1.1791469E+002
 21
1.0783457E+002
  0
TEXT
  8
1
  6
CONTINUOUS
 62
4
 10
1.2476934E+002
 20
1.146068E+002
 40
3.0
  1
DIN rail 35 EN50022
 41
8.0E-001
  0
TEXT
  8
1
  6
CONTINUOUS
 62
4
 10
7.6296681E+001
 20
2.474233E+002
 40
3.0
  1
manual operation
 41
8.0E-001
  0
TEXT
  8
1
  6
CONTINUOUS
 62
4
 10
2.4895411E+001
 20
3.9288071E+001
 40
3.0
  1
weight : ca. 210g
 41
8.0E-001
  0
TEXT
  8
1
  6
CONTINUOUS
 62
4
 10
2.5089907E+001
 20
3.4036695E+001
 40
3.0
  1
Gewicht : ca. 210g 
 41
8.0E-001
  0
TEXT
  8
1
  6
CONTINUOUS
 62
4
 10
2.6010048E+001
 20
1.4918862E+001
 40
2.5
  1
c
 41
8.666667E-001
  0
TEXT
  8
1
  6
CONTINUOUS
 62
4
 10
3.3139448E+001
 20
1.5221792E+001
 40
2.2
  1
L12 185  2.8.04
 41
6.8621326E-001
  0
VIEWPORT
 67
1
  8
0
  6
CONTINUOUS
 62
3
100
AcDbViewport
 10
1.05E+002
 20
1.485E+002
 30
0.0
 40
2.97E+002
 41
2.97E+002
 68
1
 69
1
1001
ACAD
1000
MVIEW
1002
{
1070
16
1010
0.0
1020
0.0
1030
0.0
1010
0.0
1020
0.0
1030
1.0
1040
0.0
1040
2.97E+002
1040
4.2E+001
1040
1.485E+002
1040
5.0E+001
1040
0.0
1040
0.0
1070
0
1070
100
1070
1
1070
0
1070
0
1070
0
1070
0
1070
0
1040
0.0
1040
0.0
1040
0.0
1040
5.0E-001
1040
5.0E-001
1040
5.0E-001
1040
5.0E-001
1070
0
1002
{
1002
}
1002
}
  0
VIEWPORT
 67
1
  8
0
  6
CONTINUOUS
 62
3
100
AcDbViewport
 10
1.05E+002
 20
1.485E+002
 30
0.0
 40
2.1E+002
 41
2.97E+002
 68
2
 69
2
1001
ACAD
1000
MVIEW
1002
{
1070
16
1010
0.0
1020
0.0
1030
0.0
1010
0.0
1020
0.0
1030
1.0
1040
0.0
1040
2.97E+002
1040
1.05E+002
1040
1.485E+002
1040
5.0E+001
1040
0.0
1040
0.0
1070
0
1070
100
1070
1
1070
0
1070
0
1070
0
1070
0
1070
0
1040
0.0
1040
0.0
1040
0.0
1040
5.0E-001
1040
5.0E-001
1040
5.0E-001
1040
5.0E-001
1070
0
1002
{
1002
}
1002
}
  0
ENDSEC
  0
EOF
