  0
SECTION
  2
HEADER
  9
$ACADVER
  1
AC1009
999
I-DEAS 8 Not Encoded
  9
$EXTMIN
 10
0.0
 20
0.0
  9
$EXTMAX
 10
2.1E+002
 20
2.97E+002
  9
$TEXTSIZE
 40
1.25E-001
  9
$LTSCALE
 40
1.0
  9
$CLAYER
  8
1
  9
$CECOLOR
 62
1
  9
$DIMASZ
 40
1.25E-001
  9
$DIMEXO
 40
6.25E-002
  9
$DIMDLI
 40
2.5E-001
  9
$DIMEXE
 40
1.25E-001
  9
$DIMTP
 40
5.0E-003
  9
$DIMTM
 40
-5.0E-003
  9
$DIMTXT
 40
3.0
  9
$DIMLIM
 70
0
  9
$DIMTIH
 70
1
  9
$DIMTOH
 70
1
  9
$DIMSE1
 70
0
  9
$DIMSE2
 70
0
  9
$DIMTAD
 70
0
  9
$DIMASO
 70
1
  9
$DIMALT
 70
0
  9
$DIMALTD
 70
0
  9
$DIMTOFL
 70
1
  9
$DIMTIX
 70
0
  9
$DIMSAH
 70
0
  9
$DIMTFAC
 40
1.0
  9
$DIMGAP
 40
6.25E-002
  9
$LUNITS
 70
2
  9
$LUPREC
 70
3
  9
$FILLETRAD
 40
1.0E+001
  9
$AUNITS
 70
0
  9
$AUPREC
 70
1
  9
$CHAMFERA
 40
6.0
  9
$CHAMFERB
 40
6.0
  9
$ANGBASE
 50
0.0
  9
$ANGDIR
 70
0
  9
$PEXTMIN
 10
0.0
 20
0.0
 30
0.0
  9
$PEXTMAX
 10
2.1E+002
 20
2.97E+002
 30
0.0
  9
$PLIMMIN
 10
0.0
 20
0.0
  9
$PLIMMAX
 10
2.1E+002
 20
2.97E+002
  9
$PDMODE
 70
2
  9
$PDSIZE
 40
-1.0E-002
  9
$SPLINETYPE
 70
6
  9
$TILEMODE
 70
0
  0
ENDSEC
  0
SECTION
  2
TABLES
  0
TABLE
  2
VPORT
 70
2
  0
VPORT
  2
*Active
 70
0
 10
0.0
 20
0.0
 11
2.1E+002
 21
2.97E+002
 12
1.05E+002
 22
1.485E+002
 13
0.0
 23
0.0
 14
1.0
 24
1.0
 15
0.0
 25
0.0
 16
0.0
 26
0.0
 36
1.0
 17
0.0
 27
0.0
 37
0.0
 40
2.97E+002
 41
7.0707071E-001
 42
5.0E+001
 43
0.0
 44
0.0
 50
0.0
 51
0.0
 71
0
 72
100
 73
1
 74
3
 75
0
 76
0
 77
0
 78
0
  0
ENDTAB
  0
TABLE
  2
LTYPE
 70
7
  0
LTYPE
  2
HIDDENNEW00
  3
_ 
 70
64
 72
65
 73
3
 40
4.5
 49
1.5
 49
-1.5
 49
1.5
  0
LTYPE
  2
HIDDENNEW01
  3
_ 
 70
64
 72
65
 73
3
 40
4.5
 49
1.5
 49
-1.5
 49
1.5
  0
LTYPE
  2
HIDDEN
  3
_ 
 70
64
 72
65
 73
3
 40
4.5
 49
1.5
 49
-1.5
 49
1.5
  0
LTYPE
  2
CENTERLINE
  3
_ 
 70
64
 72
65
 73
5
 40
3.0E+001
 49
1.2E+001
 49
-1.5
 49
3.0
 49
-1.5
 49
1.2E+001
  0
LTYPE
  2
PHANTOM
  3
_ 
 70
64
 72
65
 73
7
 40
2.95E+001
 49
9.5
 49
-1.5
 49
3.0
 49
-1.5
 49
3.0
 49
-1.5
 49
9.5
  0
LTYPE
  2
SHORT_DASH
  3
_ 
 70
64
 72
65
 73
3
 40
3.0
 49
7.5E-001
 49
-1.5
 49
7.5E-001
  0
LTYPE
  2
LONG_DASH
  3
_ 
 70
64
 72
65
 73
3
 40
9.0
 49
2.25
 49
-4.5
 49
2.25
  0
ENDTAB
  0
TABLE
  2
LAYER
 70
258
  0
LAYER
  2
1
 70
0
 62
7
  6
CONTINUOUS
  0
LAYER
  2
Drafting_Hidden_Entities
 70
1
 62
7
  6
CONTINUOUS
  0
ENDTAB
  0
TABLE
  2
STYLE
 70
1
  0
STYLE
  2
STANDARD
 70
64
 40
0.0
 41
1.0
 50
0.0
 71
0
 42
1.0
  3
monotxt.shx
  4

  0
ENDTAB
  0
TABLE
  2
VIEW
 70
0
  0
ENDTAB
  0
TABLE
  2
DIMSTYLE
 70
3
  0
DIMSTYLE
  2
DSTYLE1
 70
0
  3

  4

  5

  6

  7

 40
1.0
 41
3.0
 42
0.0
 43
3.8E-001
 44
1.5
 45
1.0E-001
 46
0.0
 47
0.0
 48
0.0
 71
0
 72
0
 73
0
 74
0
 75
0
 76
0
 77
1
 78
11
140
2.8
141
9.0E-002
142
0.0
143
2.54E+001
144
1.0
145
0.0
146
1.0
147
1.5
170
0
171
2
172
0
173
0
174
0
175
0
176
0
177
0
178
0
  0
DIMSTYLE
  2
DSTYLE2
 70
0
  3

  4

  5

  6

  7

 40
1.0
 41
3.0
 42
1.5
 43
3.8E-001
 44
1.5
 45
1.0E-001
 46
0.0
 47
0.0
 48
0.0
 71
0
 72
0
 73
0
 74
0
 75
0
 76
0
 77
1
 78
11
140
2.8
141
9.0E-002
142
0.0
143
2.54E+001
144
1.0
145
0.0
146
1.0
147
1.5
170
0
171
2
172
0
173
0
174
0
175
0
176
0
177
0
178
0
  0
DIMSTYLE
  2
DSTYLE3
 70
0
  3

  4

  5

  6

  7

 40
1.0
 41
3.0
 42
0.0
 43
3.8E-001
 44
1.5
 45
1.0E-001
 46
0.0
 47
0.0
 48
0.0
 71
0
 72
0
 73
0
 74
0
 75
0
 76
0
 77
1
 78
11
140
3.0
141
9.0E-002
142
0.0
143
2.54E+001
144
1.0
145
0.0
146
1.0
147
1.5
170
0
171
2
172
0
173
0
174
0
175
0
176
0
177
0
178
0
  0
ENDTAB
  0
ENDSEC
  0
SECTION
  2
BLOCKS
  0
BLOCK
  2
*AH13
  3
*AH
 10
0.0
 20
0.0
 70
65
  0
LINE
  8
1
  6
CONTINUOUS
 62
0
 10
0.0
 20
0.0
 11
1.0
 21
-1.666679E-001
  0
LINE
  8
1
  6
CONTINUOUS
 62
0
 10
1.0
 20
-1.666679E-001
 11
1.0
 21
1.66668E-001
  0
LINE
  8
1
  6
CONTINUOUS
 62
0
 10
1.0
 20
1.66668E-001
 11
0.0
 21
0.0
  0
ENDBLK
  0
BLOCK
  2
XHXH1NEW02NEW00NEW00
 10
0.0
 20
0.0
 70
0
  0
POLYLINE
  8
254
  6
CONTINUOUS
 62
6
 66
1
 40
1.0E-003
 41
1.0E-003
 70
0
  0
VERTEX
  8
254
 42
0.0
 10
-2.2647095E-001
 20
-2.2647285E-001
 70
0
  0
VERTEX
  8
254
 42
0.0
 10
2.2647095E-001
 20
2.2647285E-001
 70
0
  0
SEQEND
  0
POLYLINE
  8
254
  6
CONTINUOUS
 62
6
 66
1
 40
1.0E-003
 41
1.0E-003
 70
0
  0
VERTEX
  8
254
 42
0.0
 10
-3.9656067E-001
 20
-6.7941666E-001
 70
0
  0
VERTEX
  8
254
 42
0.0
 10
4.2364502E-001
 20
1.4080048E-001
 70
0
  0
SEQEND
  0
POLYLINE
  8
254
  6
CONTINUOUS
 62
6
 66
1
 40
1.0E-003
 41
1.0E-003
 70
0
  0
VERTEX
  8
254
 42
0.0
 10
-5.6666565E-001
 20
-1.1323624
 70
0
  0
VERTEX
  8
254
 42
0.0
 10
4.2364502E-001
 20
-1.4204407E-001
 70
0
  0
SEQEND
  0
POLYLINE
  8
254
  6
CONTINUOUS
 62
6
 66
1
 40
1.0E-003
 41
1.0E-003
 70
0
  0
VERTEX
  8
254
 42
0.0
 10
-7.3677063E-001
 20
-1.5853081
 70
0
  0
VERTEX
  8
254
 42
0.0
 10
4.2364502E-001
 20
-4.248867E-001
 70
0
  0
SEQEND
  0
POLYLINE
  8
254
  6
CONTINUOUS
 62
6
 66
1
 40
1.0E-003
 41
1.0E-003
 70
0
  0
VERTEX
  8
254
 42
0.0
 10
8.1364441E-001
 20
-3.4885406E-002
 70
0
  0
VERTEX
  8
254
 42
0.0
 10
1.0749969
 20
2.2647285E-001
 70
0
  0
SEQEND
  0
POLYLINE
  8
254
  6
CONTINUOUS
 62
6
 66
1
 40
1.0E-003
 41
1.0E-003
 70
0
  0
VERTEX
  8
254
 42
0.0
 10
-6.9714355E-001
 20
-1.8285255
 70
0
  0
VERTEX
  8
254
 42
0.0
 10
4.2364502E-001
 20
-7.0773125E-001
 70
0
  0
SEQEND
  0
POLYLINE
  8
254
  6
CONTINUOUS
 62
6
 66
1
 40
1.0E-003
 41
1.0E-003
 70
0
  0
VERTEX
  8
254
 42
0.0
 10
8.1364441E-001
 20
-3.1772995E-001
 70
0
  0
VERTEX
  8
254
 42
0.0
 10
1.3111725
 20
1.7979813E-001
 70
0
  0
SEQEND
  0
POLYLINE
  8
254
  6
CONTINUOUS
 62
6
 66
1
 40
1.0E-003
 41
1.0E-003
 70
0
  0
VERTEX
  8
254
 42
0.0
 10
-8.928833E-001
 20
-2.3071117
 70
0
  0
VERTEX
  8
254
 42
0.0
 10
-8.0430603E-001
 20
-2.2185249
 70
0
  0
SEQEND
  0
POLYLINE
  8
254
  6
CONTINUOUS
 62
6
 66
1
 40
1.0E-003
 41
1.0E-003
 70
0
  0
VERTEX
  8
254
 42
0.0
 10
-4.1430664E-001
 20
-1.8285255
 70
0
  0
VERTEX
  8
254
 42
0.0
 10
4.2364502E-001
 20
-9.9057388E-001
 70
0
  0
SEQEND
  0
POLYLINE
  8
254
  6
CONTINUOUS
 62
6
 66
1
 40
1.0E-003
 41
1.0E-003
 70
0
  0
VERTEX
  8
254
 42
0.0
 10
8.1364441E-001
 20
-6.0057259E-001
 70
0
  0
VERTEX
  8
254
 42
0.0
 10
1.3883972
 20
-2.58255E-002
 70
0
  0
SEQEND
  0
POLYLINE
  8
254
  6
CONTINUOUS
 62
6
 66
1
 40
1.0E-003
 41
1.0E-003
 70
0
  0
VERTEX
  8
254
 42
0.0
 10
-1.0629883
 20
-2.7600574
 70
0
  0
VERTEX
  8
254
 42
0.0
 10
-5.2145386E-001
 20
-2.2185249
 70
0
  0
SEQEND
  0
POLYLINE
  8
254
  6
CONTINUOUS
 62
6
 66
1
 40
1.0E-003
 41
1.0E-003
 70
0
  0
VERTEX
  8
254
 42
0.0
 10
-1.3145447E-001
 20
-1.8285255
 70
0
  0
VERTEX
  8
254
 42
0.0
 10
4.2364502E-001
 20
-1.2734165
 70
0
  0
SEQEND
  0
POLYLINE
  8
254
  6
CONTINUOUS
 62
6
 66
1
 40
1.0E-003
 41
1.0E-003
 70
0
  0
VERTEX
  8
254
 42
0.0
 10
8.1364441E-001
 20
-8.8341522E-001
 70
0
  0
VERTEX
  8
254
 42
0.0
 10
1.4656067
 20
-2.3144722E-001
 70
0
  0
SEQEND
  0
POLYLINE
  8
254
  6
CONTINUOUS
 62
6
 66
1
 40
1.0E-003
 41
1.0E-003
 70
0
  0
VERTEX
  8
254
 42
0.0
 10
-1.2330933
 20
-3.2130032
 70
0
  0
VERTEX
  8
254
 42
0.0
 10
-2.3861694E-001
 20
-2.2185249
 70
0
  0
SEQEND
  0
POLYLINE
  8
254
  6
CONTINUOUS
 62
6
 66
1
 40
1.0E-003
 41
1.0E-003
 70
0
  0
VERTEX
  8
254
 42
0.0
 10
1.5138245E-001
 20
-1.8285255
 70
0
  0
VERTEX
  8
254
 42
0.0
 10
4.2364502E-001
 20
-1.5562611
 70
0
  0
SEQEND
  0
POLYLINE
  8
254
  6
CONTINUOUS
 62
6
 66
1
 40
1.0E-003
 41
1.0E-003
 70
0
  0
VERTEX
  8
254
 42
0.0
 10
8.1364441E-001
 20
-1.1662598
 70
0
  0
VERTEX
  8
254
 42
0.0
 10
1.5428314
 20
-4.3707085E-001
 70
0
  0
SEQEND
  0
POLYLINE
  8
254
  6
CONTINUOUS
 62
6
 66
1
 40
1.0E-003
 41
1.0E-003
 70
0
  0
VERTEX
  8
254
 42
0.0
 10
-1.4031982
 20
-3.665947
 70
0
  0
VERTEX
  8
254
 42
0.0
 10
4.4219971E-002
 20
-2.2185249
 70
0
  0
SEQEND
  0
POLYLINE
  8
254
  6
CONTINUOUS
 62
6
 66
1
 40
1.0E-003
 41
1.0E-003
 70
0
  0
VERTEX
  8
254
 42
0.0
 10
8.1364441E-001
 20
-1.4491024
 70
0
  0
VERTEX
  8
254
 42
0.0
 10
1.6200562
 20
-6.4269257E-001
 70
0
  0
SEQEND
  0
POLYLINE
  8
254
  6
CONTINUOUS
 62
6
 66
1
 40
1.0E-003
 41
1.0E-003
 70
0
  0
VERTEX
  8
254
 42
0.0
 10
-1.573288
 20
-4.1188927
 70
0
  0
VERTEX
  8
254
 42
0.0
 10
3.2707214E-001
 20
-2.2185249
 70
0
  0
SEQEND
  0
POLYLINE
  8
254
  6
CONTINUOUS
 62
6
 66
1
 40
1.0E-003
 41
1.0E-003
 70
0
  0
VERTEX
  8
254
 42
0.0
 10
8.1364441E-001
 20
-1.731945
 70
0
  0
VERTEX
  8
254
 42
0.0
 10
1.6972656
 20
-8.4831619E-001
 70
0
  0
SEQEND
  0
POLYLINE
  8
254
  6
CONTINUOUS
 62
6
 66
1
 40
1.0E-003
 41
1.0E-003
 70
0
  0
VERTEX
  8
254
 42
0.0
 10
-1.4450836
 20
-4.2735233
 70
0
  0
VERTEX
  8
254
 42
0.0
 10
4.2364502E-001
 20
-2.4047909
 70
0
  0
SEQEND
  0
POLYLINE
  8
254
  6
CONTINUOUS
 62
6
 66
1
 40
1.0E-003
 41
1.0E-003
 70
0
  0
VERTEX
  8
254
 42
0.0
 10
9.9990845E-001
 20
-1.8285255
 70
0
  0
VERTEX
  8
254
 42
0.0
 10
1.7744904
 20
-1.0539379
 70
0
  0
SEQEND
  0
POLYLINE
  8
254
  6
CONTINUOUS
 62
6
 66
1
 40
1.0E-003
 41
1.0E-003
 70
0
  0
VERTEX
  8
254
 42
0.0
 10
-1.1622314
 20
-4.2735233
 70
0
  0
VERTEX
  8
254
 42
0.0
 10
4.2364502E-001
 20
-2.6876335
 70
0
  0
SEQEND
  0
POLYLINE
  8
254
  6
CONTINUOUS
 62
6
 66
1
 40
1.0E-003
 41
1.0E-003
 70
0
  0
VERTEX
  8
254
 42
0.0
 10
8.1364441E-001
 20
-2.2976322
 70
0
  0
VERTEX
  8
254
 42
0.0
 10
8.9274597E-001
 20
-2.2185249
 70
0
  0
SEQEND
  0
POLYLINE
  8
254
  6
CONTINUOUS
 62
6
 66
1
 40
1.0E-003
 41
1.0E-003
 70
0
  0
VERTEX
  8
254
 42
0.0
 10
1.2827454
 20
-1.8285255
 70
0
  0
VERTEX
  8
254
 42
0.0
 10
1.8517151
 20
-1.2595596
 70
0
  0
SEQEND
  0
POLYLINE
  8
254
  6
CONTINUOUS
 62
6
 66
1
 40
1.0E-003
 41
1.0E-003
 70
0
  0
VERTEX
  8
254
 42
0.0
 10
3.1836395
 20
7.2372437E-002
 70
0
  0
VERTEX
  8
254
 42
0.0
 10
3.337738
 20
2.2647285E-001
 70
0
  0
SEQEND
  0
POLYLINE
  8
254
  6
CONTINUOUS
 62
6
 66
1
 40
1.0E-003
 41
1.0E-003
 70
0
  0
VERTEX
  8
254
 42
0.0
 10
-8.7939453E-001
 20
-4.2735233
 70
0
  0
VERTEX
  8
254
 42
0.0
 10
-3.0549622E-001
 20
-3.6996193
 70
0
  0
SEQEND
  0
POLYLINE
  8
254
  6
CONTINUOUS
 62
6
 66
1
 40
1.0E-003
 41
1.0E-003
 70
0
  0
VERTEX
  8
254
 42
0.0
 10
2.0599365E-002
 20
-3.3735256
 70
0
  0
VERTEX
  8
254
 42
0.0
 10
4.2364502E-001
 20
-2.9704762
 70
0
  0
SEQEND
  0
POLYLINE
  8
254
  6
CONTINUOUS
 62
6
 66
1
 40
1.0E-003
 41
1.0E-003
 70
0
  0
VERTEX
  8
254
 42
0.0
 10
8.1364441E-001
 20
-2.5804749
 70
0
  0
VERTEX
  8
254
 42
0.0
 10
1.1755981
 20
-2.2185249
 70
0
  0
SEQEND
  0
POLYLINE
  8
254
  6
CONTINUOUS
 62
6
 66
1
 40
1.0E-003
 41
1.0E-003
 70
0
  0
VERTEX
  8
254
 42
0.0
 10
1.5655975
 20
-1.8285255
 70
0
  0
VERTEX
  8
254
 42
0.0
 10
1.9289398
 20
-1.4651833
 70
0
  0
SEQEND
  0
POLYLINE
  8
254
  6
CONTINUOUS
 62
6
 66
1
 40
1.0E-003
 41
1.0E-003
 70
0
  0
VERTEX
  8
254
 42
0.0
 10
3.1836395
 20
-2.104702E-001
 70
0
  0
VERTEX
  8
254
 42
0.0
 10
3.620575
 20
2.2647285E-001
 70
0
  0
SEQEND
  0
POLYLINE
  8
254
  6
CONTINUOUS
 62
6
 66
1
 40
1.0E-003
 41
1.0E-003
 70
0
  0
VERTEX
  8
254
 42
0.0
 10
-5.9655762E-001
 20
-4.2735233
 70
0
  0
VERTEX
  8
254
 42
0.0
 10
-4.5779419E-001
 20
-4.1347656
 70
0
  0
SEQEND
  0
POLYLINE
  8
254
  6
CONTINUOUS
 62
6
 66
1
 40
1.0E-003
 41
1.0E-003
 70
0
  0
VERTEX
  8
254
 42
0.0
 10
3.0343628E-001
 20
-3.3735256
 70
0
  0
VERTEX
  8
254
 42
0.0
 10
4.2364502E-001
 20
-3.2533207
 70
0
  0
SEQEND
  0
POLYLINE
  8
254
  6
CONTINUOUS
 62
6
 66
1
 40
1.0E-003
 41
1.0E-003
 70
0
  0
VERTEX
  8
254
 42
0.0
 10
8.1364441E-001
 20
-2.8633194
 70
0
  0
VERTEX
  8
254
 42
0.0
 10
1.4584351
 20
-2.2185249
 70
0
  0
SEQEND
  0
POLYLINE
  8
254
  6
CONTINUOUS
 62
6
 66
1
 40
1.0E-003
 41
1.0E-003
 70
0
  0
VERTEX
  8
254
 42
0.0
 10
1.8484344
 20
-1.8285255
 70
0
  0
VERTEX
  8
254
 42
0.0
 10
2.0061493
 20
-1.670805
 70
0
  0
SEQEND
  0
POLYLINE
  8
254
  6
CONTINUOUS
 62
6
 66
1
 40
1.0E-003
 41
1.0E-003
 70
0
  0
VERTEX
  8
254
 42
0.0
 10
3.1836395
 20
-4.9331474E-001
 70
0
  0
VERTEX
  8
254
 42
0.0
 10
3.9034271
 20
2.2647285E-001
 70
0
  0
SEQEND
  0
POLYLINE
  8
254
  6
CONTINUOUS
 62
6
 66
1
 40
1.0E-003
 41
1.0E-003
 70
0
  0
VERTEX
  8
254
 42
0.0
 10
8.1364441E-001
 20
-3.146162
 70
0
  0
VERTEX
  8
254
 42
0.0
 10
1.741272
 20
-2.2185249
 70
0
  0
SEQEND
  0
POLYLINE
  8
254
  6
CONTINUOUS
 62
6
 66
1
 40
1.0E-003
 41
1.0E-003
 70
0
  0
VERTEX
  8
254
 42
0.0
 10
3.1836395
 20
-7.7615738E-001
 70
0
  0
VERTEX
  8
254
 42
0.0
 10
4.186264
 20
2.2647285E-001
 70
0
  0
SEQEND
  0
POLYLINE
  8
254
  6
CONTINUOUS
 62
6
 66
1
 40
1.0E-003
 41
1.0E-003
 70
0
  0
VERTEX
  8
254
 42
0.0
 10
8.6912537E-001
 20
-3.3735256
 70
0
  0
VERTEX
  8
254
 42
0.0
 10
2.0241241
 20
-2.2185249
 70
0
  0
SEQEND
  0
POLYLINE
  8
254
  6
CONTINUOUS
 62
6
 66
1
 40
1.0E-003
 41
1.0E-003
 70
0
  0
VERTEX
  8
254
 42
0.0
 10
3.1836395
 20
-1.059
 70
0
  0
VERTEX
  8
254
 42
0.0
 10
4.3386536
 20
9.6017838E-002
 70
0
  0
SEQEND
  0
POLYLINE
  8
254
  6
CONTINUOUS
 62
6
 66
1
 40
1.0E-003
 41
1.0E-003
 70
0
  0
VERTEX
  8
254
 42
0.0
 10
1.1519623
 20
-3.3735256
 70
0
  0
VERTEX
  8
254
 42
0.0
 10
2.1542511
 20
-2.3712425
 70
0
  0
SEQEND
  0
POLYLINE
  8
254
  6
CONTINUOUS
 62
6
 66
1
 40
1.0E-003
 41
1.0E-003
 70
0
  0
VERTEX
  8
254
 42
0.0
 10
3.1836395
 20
-1.3418446
 70
0
  0
VERTEX
  8
254
 42
0.0
 10
4.3386536
 20
-1.868248E-001
 70
0
  0
SEQEND
  0
POLYLINE
  8
254
  6
CONTINUOUS
 62
6
 66
1
 40
1.0E-003
 41
1.0E-003
 70
0
  0
VERTEX
  8
254
 42
0.0
 10
4.7286377
 20
2.0316124E-001
 70
0
  0
VERTEX
  8
254
 42
0.0
 10
4.7519531
 20
2.2647285E-001
 70
0
  0
SEQEND
  0
POLYLINE
  8
254
  6
CONTINUOUS
 62
6
 66
1
 40
1.0E-003
 41
1.0E-003
 70
0
  0
VERTEX
  8
254
 42
0.0
 10
1.4302368
 20
-3.3780994
 70
0
  0
VERTEX
  8
254
 42
0.0
 10
2.2314606
 20
-2.5768642
 70
0
  0
SEQEND
  0
POLYLINE
  8
254
  6
CONTINUOUS
 62
6
 66
1
 40
1.0E-003
 41
1.0E-003
 70
0
  0
VERTEX
  8
254
 42
0.0
 10
3.1836395
 20
-1.6246872
 70
0
  0
VERTEX
  8
254
 42
0.0
 10
4.3386536
 20
-4.6966743E-001
 70
0
  0
SEQEND
  0
POLYLINE
  8
254
  6
CONTINUOUS
 62
6
 66
1
 40
1.0E-003
 41
1.0E-003
 70
0
  0
VERTEX
  8
254
 42
0.0
 10
4.7286377
 20
-7.9683304E-002
 70
0
  0
VERTEX
  8
254
 42
0.0
 10
5.0330811
 20
2.2476578E-001
 70
0
  0
SEQEND
  0
POLYLINE
  8
254
  6
CONTINUOUS
 62
6
 66
1
 40
1.0E-003
 41
1.0E-003
 70
0
  0
VERTEX
  8
254
 42
0.0
 10
1.5035706
 20
-3.5876122
 70
0
  0
VERTEX
  8
254
 42
0.0
 10
2.3086853
 20
-2.7824879
 70
0
  0
SEQEND
  0
POLYLINE
  8
254
  6
CONTINUOUS
 62
6
 66
1
 40
1.0E-003
 41
1.0E-003
 70
0
  0
VERTEX
  8
254
 42
0.0
 10
3.2626495
 20
-1.8285255
 70
0
  0
VERTEX
  8
254
 42
0.0
 10
4.3386536
 20
-7.5251198E-001
 70
0
  0
SEQEND
  0
POLYLINE
  8
254
  6
CONTINUOUS
 62
6
 66
1
 40
1.0E-003
 41
1.0E-003
 70
0
  0
VERTEX
  8
254
 42
0.0
 10
4.7286377
 20
-3.6252594E-001
 70
0
  0
VERTEX
  8
254
 42
0.0
 10
5.2719421
 20
1.8078232E-001
 70
0
  0
SEQEND
  0
POLYLINE
  8
254
  6
CONTINUOUS
 62
6
 66
1
 40
1.0E-003
 41
1.0E-003
 70
0
  0
VERTEX
  8
254
 42
0.0
 10
1.576889
 20
-3.7971249
 70
0
  0
VERTEX
  8
254
 42
0.0
 10
2.38591
 20
-2.9881096
 70
0
  0
SEQEND
  0
POLYLINE
  8
254
  6
CONTINUOUS
 62
6
 66
1
 40
1.0E-003
 41
1.0E-003
 70
0
  0
VERTEX
  8
254
 42
0.0
 10
3.5454865
 20
-1.8285255
 70
0
  0
VERTEX
  8
254
 42
0.0
 10
4.3386536
 20
-1.0353546
 70
0
  0
SEQEND
  0
POLYLINE
  8
254
  6
CONTINUOUS
 62
6
 66
1
 40
1.0E-003
 41
1.0E-003
 70
0
  0
VERTEX
  8
254
 42
0.0
 10
4.7286377
 20
-6.4536858E-001
 70
0
  0
VERTEX
  8
254
 42
0.0
 10
5.4707031
 20
9.6696854E-002
 70
0
  0
SEQEND
  0
POLYLINE
  8
254
  6
CONTINUOUS
 62
6
 66
1
 40
1.0E-003
 41
1.0E-003
 70
0
  0
VERTEX
  8
254
 42
0.0
 10
1.6502228
 20
-4.0066376
 70
0
  0
VERTEX
  8
254
 42
0.0
 10
2.4631348
 20
-3.1937332
 70
0
  0
SEQEND
  0
POLYLINE
  8
254
  6
CONTINUOUS
 62
6
 66
1
 40
1.0E-003
 41
1.0E-003
 70
0
  0
VERTEX
  8
254
 42
0.0
 10
3.1836395
 20
-2.473217
 70
0
  0
VERTEX
  8
254
 42
0.0
 10
3.438324
 20
-2.2185249
 70
0
  0
SEQEND
  0
POLYLINE
  8
254
  6
CONTINUOUS
 62
6
 66
1
 40
1.0E-003
 41
1.0E-003
 70
0
  0
VERTEX
  8
254
 42
0.0
 10
3.8283234
 20
-1.8285255
 70
0
  0
VERTEX
  8
254
 42
0.0
 10
4.3386536
 20
-1.3181992
 70
0
  0
SEQEND
  0
POLYLINE
  8
254
  6
CONTINUOUS
 62
6
 66
1
 40
1.0E-003
 41
1.0E-003
 70
0
  0
VERTEX
  8
254
 42
0.0
 10
4.7286377
 20
-9.2821312E-001
 70
0
  0
VERTEX
  8
254
 42
0.0
 10
5.6378021
 20
-1.9039154E-002
 70
0
  0
SEQEND
  0
POLYLINE
  8
254
  6
CONTINUOUS
 62
6
 66
1
 40
1.0E-003
 41
1.0E-003
 70
0
  0
VERTEX
  8
254
 42
0.0
 10
1.7235565
 20
-4.2161503
 70
0
  0
VERTEX
  8
254
 42
0.0
 10
2.5403442
 20
-3.3993549
 70
0
  0
SEQEND
  0
POLYLINE
  8
254
  6
CONTINUOUS
 62
6
 66
1
 40
1.0E-003
 41
1.0E-003
 70
0
  0
VERTEX
  8
254
 42
0.0
 10
3.1836395
 20
-2.7560596
 70
0
  0
VERTEX
  8
254
 42
0.0
 10
3.7211761
 20
-2.2185249
 70
0
  0
SEQEND
  0
POLYLINE
  8
254
  6
CONTINUOUS
 62
6
 66
1
 40
1.0E-003
 41
1.0E-003
 70
0
  0
VERTEX
  8
254
 42
0.0
 10
4.1111755
 20
-1.8285255
 70
0
  0
VERTEX
  8
254
 42
0.0
 10
4.3386536
 20
-1.6010418
 70
0
  0
SEQEND
  0
POLYLINE
  8
254
  6
CONTINUOUS
 62
6
 66
1
 40
1.0E-003
 41
1.0E-003
 70
0
  0
VERTEX
  8
254
 42
0.0
 10
4.7286377
 20
-1.2110558
 70
0
  0
VERTEX
  8
254
 42
0.0
 10
5.7763824
 20
-1.633091E-001
 70
0
  0
SEQEND
  0
POLYLINE
  8
254
  6
CONTINUOUS
 62
6
 66
1
 40
1.0E-003
 41
1.0E-003
 70
0
  0
VERTEX
  8
254
 42
0.0
 10
1.9490204
 20
-4.2735233
 70
0
  0
VERTEX
  8
254
 42
0.0
 10
2.617569
 20
-3.6049767
 70
0
  0
SEQEND
  0
POLYLINE
  8
254
  6
CONTINUOUS
 62
6
 66
1
 40
1.0E-003
 41
1.0E-003
 70
0
  0
VERTEX
  8
254
 42
0.0
 10
3.1836395
 20
-3.0389042
 70
0
  0
VERTEX
  8
254
 42
0.0
 10
4.0040131
 20
-2.2185249
 70
0
  0
SEQEND
  0
POLYLINE
  8
254
  6
CONTINUOUS
 62
6
 66
1
 40
1.0E-003
 41
1.0E-003
 70
0
  0
VERTEX
  8
254
 42
0.0
 10
4.7286377
 20
-1.4938984
 70
0
  0
VERTEX
  8
254
 42
0.0
 10
5.885849
 20
-3.3667946E-001
 70
0
  0
SEQEND
  0
POLYLINE
  8
254
  6
CONTINUOUS
 62
6
 66
1
 40
1.0E-003
 41
1.0E-003
 70
0
  0
VERTEX
  8
254
 42
0.0
 10
2.2318726
 20
-4.2735233
 70
0
  0
VERTEX
  8
254
 42
0.0
 10
2.6947937
 20
-3.8106003
 70
0
  0
SEQEND
  0
POLYLINE
  8
254
  6
CONTINUOUS
 62
6
 66
1
 40
1.0E-003
 41
1.0E-003
 70
0
  0
VERTEX
  8
254
 42
0.0
 10
3.1836395
 20
-3.3217468
 70
0
  0
VERTEX
  8
254
 42
0.0
 10
4.2868652
 20
-2.2185249
 70
0
  0
SEQEND
  0
POLYLINE
  8
254
  6
CONTINUOUS
 62
6
 66
1
 40
1.0E-003
 41
1.0E-003
 70
0
  0
VERTEX
  8
254
 42
0.0
 10
4.7286377
 20
-1.7767429
 70
0
  0
VERTEX
  8
254
 42
0.0
 10
5.9616241
 20
-5.4375839E-001
 70
0
  0
SEQEND
  0
POLYLINE
  8
254
  6
CONTINUOUS
 62
6
 66
1
 40
1.0E-003
 41
1.0E-003
 70
0
  0
VERTEX
  8
254
 42
0.0
 10
6.693634
 20
1.8826294E-001
 70
0
  0
VERTEX
  8
254
 42
0.0
 10
6.731842
 20
2.2647285E-001
 70
0
  0
SEQEND
  0
POLYLINE
  8
254
  6
CONTINUOUS
 62
6
 66
1
 40
1.0E-003
 41
1.0E-003
 70
0
  0
VERTEX
  8
254
 42
0.0
 10
2.5147095
 20
-4.2735233
 70
0
  0
VERTEX
  8
254
 42
0.0
 10
2.7720032
 20
-4.016222
 70
0
  0
SEQEND
  0
POLYLINE
  8
254
  6
CONTINUOUS
 62
6
 66
1
 40
1.0E-003
 41
1.0E-003
 70
0
  0
VERTEX
  8
254
 42
0.0
 10
3.1836395
 20
-3.6045914
 70
0
  0
VERTEX
  8
254
 42
0.0
 10
4.3386536
 20
-2.4495716
 70
0
  0
SEQEND
  0
POLYLINE
  8
254
  6
CONTINUOUS
 62
6
 66
1
 40
1.0E-003
 41
1.0E-003
 70
0
  0
VERTEX
  8
254
 42
0.0
 10
4.9597015
 20
-1.8285255
 70
0
  0
VERTEX
  8
254
 42
0.0
 10
5.9921417
 20
-7.9607391E-001
 70
0
  0
SEQEND
  0
POLYLINE
  8
254
  6
CONTINUOUS
 62
6
 66
1
 40
1.0E-003
 41
1.0E-003
 70
0
  0
VERTEX
  8
254
 42
0.0
 10
6.693634
 20
-9.4581604E-002
 70
0
  0
VERTEX
  8
254
 42
0.0
 10
7.0146942
 20
2.2647285E-001
 70
0
  0
SEQEND
  0
POLYLINE
  8
254
  6
CONTINUOUS
 62
6
 66
1
 40
1.0E-003
 41
1.0E-003
 70
0
  0
VERTEX
  8
254
 42
0.0
 10
2.7975464
 20
-4.2735233
 70
0
  0
VERTEX
  8
254
 42
0.0
 10
2.8492279
 20
-4.2218456
 70
0
  0
SEQEND
  0
POLYLINE
  8
254
  6
CONTINUOUS
 62
6
 66
1
 40
1.0E-003
 41
1.0E-003
 70
0
  0
VERTEX
  8
254
 42
0.0
 10
3.1836395
 20
-3.887434
 70
0
  0
VERTEX
  8
254
 42
0.0
 10
4.3386536
 20
-2.7324142
 70
0
  0
SEQEND
  0
POLYLINE
  8
254
  6
CONTINUOUS
 62
6
 66
1
 40
1.0E-003
 41
1.0E-003
 70
0
  0
VERTEX
  8
254
 42
0.0
 10
4.7286377
 20
-2.3424282
 70
0
  0
VERTEX
  8
254
 42
0.0
 10
4.8525391
 20
-2.2185249
 70
0
  0
SEQEND
  0
POLYLINE
  8
254
  6
CONTINUOUS
 62
6
 66
1
 40
1.0E-003
 41
1.0E-003
 70
0
  0
VERTEX
  8
254
 42
0.0
 10
5.2425385
 20
-1.8285255
 70
0
  0
VERTEX
  8
254
 42
0.0
 10
5.9243927
 20
-1.1466713
 70
0
  0
SEQEND
  0
POLYLINE
  8
254
  6
CONTINUOUS
 62
6
 66
1
 40
1.0E-003
 41
1.0E-003
 70
0
  0
VERTEX
  8
254
 42
0.0
 10
6.693634
 20
-3.7742424E-001
 70
0
  0
VERTEX
  8
254
 42
0.0
 10
7.2975311
 20
2.2647285E-001
 70
0
  0
SEQEND
  0
POLYLINE
  8
254
  6
CONTINUOUS
 62
6
 66
1
 40
1.0E-003
 41
1.0E-003
 70
0
  0
VERTEX
  8
254
 42
0.0
 10
3.1836395
 20
-4.1702766
 70
0
  0
VERTEX
  8
254
 42
0.0
 10
4.3386536
 20
-3.0152588
 70
0
  0
SEQEND
  0
POLYLINE
  8
254
  6
CONTINUOUS
 62
6
 66
1
 40
1.0E-003
 41
1.0E-003
 70
0
  0
VERTEX
  8
254
 42
0.0
 10
4.7286377
 20
-2.6252728
 70
0
  0
VERTEX
  8
254
 42
0.0
 10
5.1353912
 20
-2.2185249
 70
0
  0
SEQEND
  0
POLYLINE
  8
254
  6
CONTINUOUS
 62
6
 66
1
 40
1.0E-003
 41
1.0E-003
 70
0
  0
VERTEX
  8
254
 42
0.0
 10
5.5253754
 20
-1.8285255
 70
0
  0
VERTEX
  8
254
 42
0.0
 10
5.618103
 20
-1.7358074
 70
0
  0
SEQEND
  0
POLYLINE
  8
254
  6
CONTINUOUS
 62
6
 66
1
 40
1.0E-003
 41
1.0E-003
 70
0
  0
VERTEX
  8
254
 42
0.0
 10
6.693634
 20
-6.6026688E-001
 70
0
  0
VERTEX
  8
254
 42
0.0
 10
7.580368
 20
2.2647285E-001
 70
0
  0
SEQEND
  0
POLYLINE
  8
254
  6
CONTINUOUS
 62
6
 66
1
 40
1.0E-003
 41
1.0E-003
 70
0
  0
VERTEX
  8
254
 42
0.0
 10
3.3632355
 20
-4.2735233
 70
0
  0
VERTEX
  8
254
 42
0.0
 10
4.3386536
 20
-3.2981014
 70
0
  0
SEQEND
  0
POLYLINE
  8
254
  6
CONTINUOUS
 62
6
 66
1
 40
1.0E-003
 41
1.0E-003
 70
0
  0
VERTEX
  8
254
 42
0.0
 10
4.7286377
 20
-2.9081154
 70
0
  0
VERTEX
  8
254
 42
0.0
 10
5.4182281
 20
-2.2185249
 70
0
  0
SEQEND
  0
POLYLINE
  8
254
  6
CONTINUOUS
 62
6
 66
1
 40
1.0E-003
 41
1.0E-003
 70
0
  0
VERTEX
  8
254
 42
0.0
 10
6.693634
 20
-9.4311142E-001
 70
0
  0
VERTEX
  8
254
 42
0.0
 10
7.8486481
 20
2.1190834E-001
 70
0
  0
SEQEND
  0
POLYLINE
  8
254
  6
CONTINUOUS
 62
6
 66
1
 40
1.0E-003
 41
1.0E-003
 70
0
  0
VERTEX
  8
254
 42
0.0
 10
3.6460724
 20
-4.2735233
 70
0
  0
VERTEX
  8
254
 42
0.0
 10
4.3386536
 20
-3.5809441
 70
0
  0
SEQEND
  0
POLYLINE
  8
254
  6
CONTINUOUS
 62
6
 66
1
 40
1.0E-003
 41
1.0E-003
 70
0
  0
VERTEX
  8
254
 42
0.0
 10
4.7286377
 20
-3.1909599
 70
0
  0
VERTEX
  8
254
 42
0.0
 10
5.7010651
 20
-2.2185249
 70
0
  0
SEQEND
  0
POLYLINE
  8
254
  6
CONTINUOUS
 62
6
 66
1
 40
1.0E-003
 41
1.0E-003
 70
0
  0
VERTEX
  8
254
 42
0.0
 10
6.693634
 20
-1.2259541
 70
0
  0
VERTEX
  8
254
 42
0.0
 10
7.8486481
 20
-7.0936203E-002
 70
0
  0
SEQEND
  0
POLYLINE
  8
254
  6
CONTINUOUS
 62
6
 66
1
 40
1.0E-003
 41
1.0E-003
 70
0
  0
VERTEX
  8
254
 42
0.0
 10
3.9289246
 20
-4.2735233
 70
0
  0
VERTEX
  8
254
 42
0.0
 10
4.3386536
 20
-3.8637886
 70
0
  0
SEQEND
  0
POLYLINE
  8
254
  6
CONTINUOUS
 62
6
 66
1
 40
1.0E-003
 41
1.0E-003
 70
0
  0
VERTEX
  8
254
 42
0.0
 10
4.7286377
 20
-3.4738026
 70
0
  0
VERTEX
  8
254
 42
0.0
 10
5.9839172
 20
-2.2185249
 70
0
  0
SEQEND
  0
POLYLINE
  8
254
  6
CONTINUOUS
 62
6
 66
1
 40
1.0E-003
 41
1.0E-003
 70
0
  0
VERTEX
  8
254
 42
0.0
 10
6.693634
 20
-1.5087986
 70
0
  0
VERTEX
  8
254
 42
0.0
 10
7.8486481
 20
-3.5377884E-001
 70
0
  0
SEQEND
  0
POLYLINE
  8
254
  6
CONTINUOUS
 62
6
 66
1
 40
1.0E-003
 41
1.0E-003
 70
0
  0
VERTEX
  8
254
 42
0.0
 10
8.2386322
 20
3.6207199E-002
 70
0
  0
VERTEX
  8
254
 42
0.0
 10
8.428894
 20
2.2647285E-001
 70
0
  0
SEQEND
  0
POLYLINE
  8
254
  6
CONTINUOUS
 62
6
 66
1
 40
1.0E-003
 41
1.0E-003
 70
0
  0
VERTEX
  8
254
 42
0.0
 10
4.2117615
 20
-4.2735233
 70
0
  0
VERTEX
  8
254
 42
0.0
 10
4.3386536
 20
-4.1466312
 70
0
  0
SEQEND
  0
POLYLINE
  8
254
  6
CONTINUOUS
 62
6
 66
1
 40
1.0E-003
 41
1.0E-003
 70
0
  0
VERTEX
  8
254
 42
0.0
 10
4.7286377
 20
-3.7566452
 70
0
  0
VERTEX
  8
254
 42
0.0
 10
6.181076
 20
-2.3042011
 70
0
  0
SEQEND
  0
POLYLINE
  8
254
  6
CONTINUOUS
 62
6
 66
1
 40
1.0E-003
 41
1.0E-003
 70
0
  0
VERTEX
  8
254
 42
0.0
 10
6.693634
 20
-1.7916412
 70
0
  0
VERTEX
  8
254
 42
0.0
 10
7.8486481
 20
-6.3662148E-001
 70
0
  0
SEQEND
  0
POLYLINE
  8
254
  6
CONTINUOUS
 62
6
 66
1
 40
1.0E-003
 41
1.0E-003
 70
0
  0
VERTEX
  8
254
 42
0.0
 10
8.2386322
 20
-2.4663544E-001
 70
0
  0
VERTEX
  8
254
 42
0.0
 10
8.6889954
 20
2.0372772E-001
 70
0
  0
SEQEND
  0
POLYLINE
  8
254
  6
CONTINUOUS
 62
6
 66
1
 40
1.0E-003
 41
1.0E-003
 70
0
  0
VERTEX
  8
254
 42
0.0
 10
4.7286377
 20
-4.0394897
 70
0
  0
VERTEX
  8
254
 42
0.0
 10
6.2656097
 20
-2.5025082
 70
0
  0
SEQEND
  0
POLYLINE
  8
254
  6
CONTINUOUS
 62
6
 66
1
 40
1.0E-003
 41
1.0E-003
 70
0
  0
VERTEX
  8
254
 42
0.0
 10
6.9395905
 20
-1.8285255
 70
0
  0
VERTEX
  8
254
 42
0.0
 10
7.8486481
 20
-9.1946602E-001
 70
0
  0
SEQEND
  0
POLYLINE
  8
254
  6
CONTINUOUS
 62
6
 66
1
 40
1.0E-003
 41
1.0E-003
 70
0
  0
VERTEX
  8
254
 42
0.0
 10
8.2386322
 20
-5.2947998E-001
 70
0
  0
VERTEX
  8
254
 42
0.0
 10
8.9050598
 20
1.3694763E-001
 70
0
  0
SEQEND
  0
POLYLINE
  8
254
  6
CONTINUOUS
 62
6
 66
1
 40
1.0E-003
 41
1.0E-003
 70
0
  0
VERTEX
  8
254
 42
0.0
 10
4.7774506
 20
-4.2735233
 70
0
  0
VERTEX
  8
254
 42
0.0
 10
6.3190155
 20
-2.7319412
 70
0
  0
SEQEND
  0
POLYLINE
  8
254
  6
CONTINUOUS
 62
6
 66
1
 40
1.0E-003
 41
1.0E-003
 70
0
  0
VERTEX
  8
254
 42
0.0
 10
6.693634
 20
-2.3573284
 70
0
  0
VERTEX
  8
254
 42
0.0
 10
6.8324432
 20
-2.2185249
 70
0
  0
SEQEND
  0
POLYLINE
  8
254
  6
CONTINUOUS
 62
6
 66
1
 40
1.0E-003
 41
1.0E-003
 70
0
  0
VERTEX
  8
254
 42
0.0
 10
7.2224274
 20
-1.8285255
 70
0
  0
VERTEX
  8
254
 42
0.0
 10
7.8486481
 20
-1.2023087
 70
0
  0
SEQEND
  0
POLYLINE
  8
254
  6
CONTINUOUS
 62
6
 66
1
 40
1.0E-003
 41
1.0E-003
 70
0
  0
VERTEX
  8
254
 42
0.0
 10
8.2386322
 20
-8.1232262E-001
 70
0
  0
VERTEX
  8
254
 42
0.0
 10
9.0850067
 20
3.4049988E-002
 70
0
  0
SEQEND
  0
POLYLINE
  8
254
  6
CONTINUOUS
 62
6
 66
1
 40
1.0E-003
 41
1.0E-003
 70
0
  0
VERTEX
  8
254
 42
0.0
 10
5.0675201
 20
-4.2662849
 70
0
  0
VERTEX
  8
254
 42
0.0
 10
6.3274994
 20
-3.0063057
 70
0
  0
SEQEND
  0
POLYLINE
  8
254
  6
CONTINUOUS
 62
6
 66
1
 40
1.0E-003
 41
1.0E-003
 70
0
  0
VERTEX
  8
254
 42
0.0
 10
6.693634
 20
-2.6401711
 70
0
  0
VERTEX
  8
254
 42
0.0
 10
7.1152802
 20
-2.2185249
 70
0
  0
SEQEND
  0
POLYLINE
  8
254
  6
CONTINUOUS
 62
6
 66
1
 40
1.0E-003
 41
1.0E-003
 70
0
  0
VERTEX
  8
254
 42
0.0
 10
7.5052795
 20
-1.8285255
 70
0
  0
VERTEX
  8
254
 42
0.0
 10
7.8486481
 20
-1.4851513
 70
0
  0
SEQEND
  0
POLYLINE
  8
254
  6
CONTINUOUS
 62
6
 66
1
 40
1.0E-003
 41
1.0E-003
 70
0
  0
VERTEX
  8
254
 42
0.0
 10
8.2386322
 20
-1.0951672
 70
0
  0
VERTEX
  8
254
 42
0.0
 10
9.2350922
 20
-9.869957E-002
 70
0
  0
SEQEND
  0
POLYLINE
  8
254
  6
CONTINUOUS
 62
6
 66
1
 40
1.0E-003
 41
1.0E-003
 70
0
  0
VERTEX
  8
254
 42
0.0
 10
5.416275
 20
-4.2003727
 70
0
  0
VERTEX
  8
254
 42
0.0
 10
6.2580872
 20
-3.3585587
 70
0
  0
SEQEND
  0
POLYLINE
  8
254
  6
CONTINUOUS
 62
6
 66
1
 40
1.0E-003
 41
1.0E-003
 70
0
  0
VERTEX
  8
254
 42
0.0
 10
6.693634
 20
-2.9230137
 70
0
  0
VERTEX
  8
254
 42
0.0
 10
7.3981171
 20
-2.2185249
 70
0
  0
SEQEND
  0
POLYLINE
  8
254
  6
CONTINUOUS
 62
6
 66
1
 40
1.0E-003
 41
1.0E-003
 70
0
  0
VERTEX
  8
254
 42
0.0
 10
7.7881165
 20
-1.8285255
 70
0
  0
VERTEX
  8
254
 42
0.0
 10
7.8486481
 20
-1.7679958
 70
0
  0
SEQEND
  0
POLYLINE
  8
254
  6
CONTINUOUS
 62
6
 66
1
 40
1.0E-003
 41
1.0E-003
 70
0
  0
VERTEX
  8
254
 42
0.0
 10
8.2386322
 20
-1.3780098
 70
0
  0
VERTEX
  8
254
 42
0.0
 10
9.3569641
 20
-2.5967217E-001
 70
0
  0
SEQEND
  0
POLYLINE
  8
254
  6
CONTINUOUS
 62
6
 66
1
 40
1.0E-003
 41
1.0E-003
 70
0
  0
VERTEX
  8
254
 42
0.0
 10
6.693634
 20
-3.2058582
 70
0
  0
VERTEX
  8
254
 42
0.0
 10
7.6809692
 20
-2.2185249
 70
0
  0
SEQEND
  0
POLYLINE
  8
254
  6
CONTINUOUS
 62
6
 66
1
 40
1.0E-003
 41
1.0E-003
 70
0
  0
VERTEX
  8
254
 42
0.0
 10
8.2386322
 20
-1.6608524
 70
0
  0
VERTEX
  8
254
 42
0.0
 10
9.4486694
 20
-4.5081711E-001
 70
0
  0
SEQEND
  0
POLYLINE
  8
254
  6
CONTINUOUS
 62
6
 66
1
 40
1.0E-003
 41
1.0E-003
 70
0
  0
VERTEX
  8
254
 42
0.0
 10
6.693634
 20
-3.4887009
 70
0
  0
VERTEX
  8
254
 42
0.0
 10
7.8486481
 20
-2.3336811
 70
0
  0
SEQEND
  0
POLYLINE
  8
254
  6
CONTINUOUS
 62
6
 66
1
 40
1.0E-003
 41
1.0E-003
 70
0
  0
VERTEX
  8
254
 42
0.0
 10
8.3538055
 20
-1.8285255
 70
0
  0
VERTEX
  8
254
 42
0.0
 10
9.4981384
 20
-6.8418121E-001
 70
0
  0
SEQEND
  0
POLYLINE
  8
254
  6
CONTINUOUS
 62
6
 66
1
 40
1.0E-003
 41
1.0E-003
 70
0
  0
VERTEX
  8
254
 42
0.0
 10
6.693634
 20
-3.7715435
 70
0
  0
VERTEX
  8
254
 42
0.0
 10
7.8486481
 20
-2.6165256
 70
0
  0
SEQEND
  0
POLYLINE
  8
254
  6
CONTINUOUS
 62
6
 66
1
 40
1.0E-003
 41
1.0E-003
 70
0
  0
VERTEX
  8
254
 42
0.0
 10
8.2386322
 20
-2.2265396
 70
0
  0
VERTEX
  8
254
 42
0.0
 10
8.2466431
 20
-2.2185249
 70
0
  0
SEQEND
  0
POLYLINE
  8
254
  6
CONTINUOUS
 62
6
 66
1
 40
1.0E-003
 41
1.0E-003
 70
0
  0
VERTEX
  8
254
 42
0.0
 10
8.6366425
 20
-1.8285255
 70
0
  0
VERTEX
  8
254
 42
0.0
 10
9.4822998
 20
-9.8287392E-001
 70
0
  0
SEQEND
  0
POLYLINE
  8
254
  6
CONTINUOUS
 62
6
 66
1
 40
1.0E-003
 41
1.0E-003
 70
0
  0
VERTEX
  8
254
 42
0.0
 10
6.693634
 20
-4.054388
 70
0
  0
VERTEX
  8
254
 42
0.0
 10
7.8486481
 20
-2.8993683
 70
0
  0
SEQEND
  0
POLYLINE
  8
254
  6
CONTINUOUS
 62
6
 66
1
 40
1.0E-003
 41
1.0E-003
 70
0
  0
VERTEX
  8
254
 42
0.0
 10
8.2386322
 20
-2.5093822
 70
0
  0
VERTEX
  8
254
 42
0.0
 10
8.5294952
 20
-2.2185249
 70
0
  0
SEQEND
  0
POLYLINE
  8
254
  6
CONTINUOUS
 62
6
 66
1
 40
1.0E-003
 41
1.0E-003
 70
0
  0
VERTEX
  8
254
 42
0.0
 10
8.9194946
 20
-1.8285255
 70
0
  0
VERTEX
  8
254
 42
0.0
 10
9.0524445
 20
-1.6955605
 70
0
  0
SEQEND
  0
POLYLINE
  8
254
  6
CONTINUOUS
 62
6
 66
1
 40
1.0E-003
 41
1.0E-003
 70
0
  0
VERTEX
  8
254
 42
0.0
 10
6.7573395
 20
-4.2735233
 70
0
  0
VERTEX
  8
254
 42
0.0
 10
7.8486481
 20
-3.1822128
 70
0
  0
SEQEND
  0
POLYLINE
  8
254
  6
CONTINUOUS
 62
6
 66
1
 40
1.0E-003
 41
1.0E-003
 70
0
  0
VERTEX
  8
254
 42
0.0
 10
8.2386322
 20
-2.7922268
 70
0
  0
VERTEX
  8
254
 42
0.0
 10
8.8123322
 20
-2.2185249
 70
0
  0
SEQEND
  0
POLYLINE
  8
254
  6
CONTINUOUS
 62
6
 66
1
 40
1.0E-003
 41
1.0E-003
 70
0
  0
VERTEX
  8
254
 42
0.0
 10
9.2023315
 20
-1.8285255
 70
0
  0
VERTEX
  8
254
 42
0.0
 10
9.2325897
 20
-1.7982578
 70
0
  0
SEQEND
  0
POLYLINE
  8
254
  6
CONTINUOUS
 62
6
 66
1
 40
1.0E-003
 41
1.0E-003
 70
0
  0
VERTEX
  8
254
 42
0.0
 10
7.0401917
 20
-4.2735233
 70
0
  0
VERTEX
  8
254
 42
0.0
 10
7.8486481
 20
-3.4650555
 70
0
  0
SEQEND
  0
POLYLINE
  8
254
  6
CONTINUOUS
 62
6
 66
1
 40
1.0E-003
 41
1.0E-003
 70
0
  0
VERTEX
  8
254
 42
0.0
 10
8.2386322
 20
-3.0750694
 70
0
  0
VERTEX
  8
254
 42
0.0
 10
9.0951691
 20
-2.2185249
 70
0
  0
SEQEND
  0
POLYLINE
  8
254
  6
CONTINUOUS
 62
6
 66
1
 40
1.0E-003
 41
1.0E-003
 70
0
  0
VERTEX
  8
254
 42
0.0
 10
7.3230286
 20
-4.2735233
 70
0
  0
VERTEX
  8
254
 42
0.0
 10
7.8486481
 20
-3.7478981
 70
0
  0
SEQEND
  0
POLYLINE
  8
254
  6
CONTINUOUS
 62
6
 66
1
 40
1.0E-003
 41
1.0E-003
 70
0
  0
VERTEX
  8
254
 42
0.0
 10
8.2386322
 20
-3.3579121
 70
0
  0
VERTEX
  8
254
 42
0.0
 10
9.3780212
 20
-2.2185249
 70
0
  0
SEQEND
  0
POLYLINE
  8
254
  6
CONTINUOUS
 62
6
 66
1
 40
1.0E-003
 41
1.0E-003
 70
0
  0
VERTEX
  8
254
 42
0.0
 10
7.6058655
 20
-4.2735233
 70
0
  0
VERTEX
  8
254
 42
0.0
 10
7.8486481
 20
-4.0307426
 70
0
  0
SEQEND
  0
POLYLINE
  8
254
  6
CONTINUOUS
 62
6
 66
1
 40
1.0E-003
 41
1.0E-003
 70
0
  0
VERTEX
  8
254
 42
0.0
 10
8.2386322
 20
-3.6407566
 70
0
  0
VERTEX
  8
254
 42
0.0
 10
9.6507568
 20
-2.228632
 70
0
  0
SEQEND
  0
POLYLINE
  8
254
  6
CONTINUOUS
 62
6
 66
1
 40
1.0E-003
 41
1.0E-003
 70
0
  0
VERTEX
  8
254
 42
0.0
 10
8.2386322
 20
-3.9235992
 70
0
  0
VERTEX
  8
254
 42
0.0
 10
9.7415924
 20
-2.4206371
 70
0
  0
SEQEND
  0
POLYLINE
  8
254
  6
CONTINUOUS
 62
6
 66
1
 40
1.0E-003
 41
1.0E-003
 70
0
  0
VERTEX
  8
254
 42
0.0
 10
8.2386322
 20
-4.2064419
 70
0
  0
VERTEX
  8
254
 42
0.0
 10
9.8081055
 20
-2.6369629
 70
0
  0
SEQEND
  0
POLYLINE
  8
254
  6
CONTINUOUS
 62
6
 66
1
 40
1.0E-003
 41
1.0E-003
 70
0
  0
VERTEX
  8
254
 42
0.0
 10
8.4543915
 20
-4.2735233
 70
0
  0
VERTEX
  8
254
 42
0.0
 10
9.8392181
 20
-2.8886967
 70
0
  0
SEQEND
  0
POLYLINE
  8
254
  6
CONTINUOUS
 62
6
 66
1
 40
1.0E-003
 41
1.0E-003
 70
0
  0
VERTEX
  8
254
 42
0.0
 10
8.7687836
 20
-4.2419796
 70
0
  0
VERTEX
  8
254
 42
0.0
 10
9.8147125
 20
-3.196043
 70
0
  0
SEQEND
  0
POLYLINE
  8
254
  6
CONTINUOUS
 62
6
 66
1
 40
1.0E-003
 41
1.0E-003
 70
0
  0
VERTEX
  8
254
 42
0.0
 10
9.275238
 20
-4.0183601
 70
0
  0
VERTEX
  8
254
 42
0.0
 10
9.5876312
 20
-3.7059689
 70
0
  0
SEQEND
  0
ENDBLK
  0
BLOCK
  2
RAHMENA4
 10
0.0
 20
0.0
 70
0
  0
POLYLINE
  8
1
  6
CONTINUOUS
 62
6
 66
1
 40
7.0E-001
 41
7.0E-001
 70
0
  0
VERTEX
  8
1
 42
0.0
 10
1.9000008E+001
 20
2.9150003E+002
 70
0
  0
VERTEX
  8
1
 42
0.0
 10
1.9000008E+001
 20
5.5
 70
0
  0
SEQEND
  0
POLYLINE
  8
1
  6
CONTINUOUS
 62
6
 66
1
 40
7.0E-001
 41
7.0E-001
 70
0
  0
VERTEX
  8
1
 42
0.0
 10
2.05E+002
 20
5.5
 70
0
  0
VERTEX
  8
1
 42
0.0
 10
1.9000008E+001
 20
5.5
 70
0
  0
SEQEND
  0
POLYLINE
  8
1
  6
CONTINUOUS
 62
6
 66
1
 40
7.0E-001
 41
7.0E-001
 70
0
  0
VERTEX
  8
1
 42
0.0
 10
5.0
 20
5.5
 70
0
  0
VERTEX
  8
1
 42
0.0
 10
5.0
 20
1.045E+002
 70
0
  0
SEQEND
  0
POLYLINE
  8
1
  6
CONTINUOUS
 62
6
 66
1
 40
7.0E-001
 41
7.0E-001
 70
0
  0
VERTEX
  8
1
 42
0.0
 10
5.0
 20
1.045E+002
 70
0
  0
VERTEX
  8
1
 42
0.0
 10
1.9000008E+001
 20
1.045E+002
 70
0
  0
SEQEND
  0
POLYLINE
  8
1
  6
CONTINUOUS
 62
6
 66
1
 40
1.0E-003
 41
1.0E-003
 70
0
  0
VERTEX
  8
1
 42
0.0
 10
1.9000008E+001
 20
1.335E+002
 70
0
  0
VERTEX
  8
1
 42
0.0
 10
1.4500008E+001
 20
1.335E+002
 70
0
  0
SEQEND
  0
POLYLINE
  8
1
  6
CONTINUOUS
 62
6
 66
1
 40
1.0E-003
 41
1.0E-003
 70
0
  0
VERTEX
  8
1
 42
0.0
 10
1.9000008E+001
 20
1.435E+002
 70
0
  0
VERTEX
  8
1
 42
0.0
 10
1.4500008E+001
 20
1.435E+002
 70
0
  0
SEQEND
  0
POLYLINE
  8
1
  6
CONTINUOUS
 62
6
 66
1
 40
1.0E-003
 41
1.0E-003
 70
0
  0
VERTEX
  8
1
 42
0.0
 10
1.9000008E+001
 20
1.5350002E+002
 70
0
  0
VERTEX
  8
1
 42
0.0
 10
1.4500008E+001
 20
1.5350002E+002
 70
0
  0
SEQEND
  0
POLYLINE
  8
1
  6
CONTINUOUS
 62
6
 66
1
 40
1.0E-003
 41
1.0E-003
 70
0
  0
VERTEX
  8
1
 42
0.0
 10
1.9000008E+001
 20
1.6350002E+002
 70
0
  0
VERTEX
  8
1
 42
0.0
 10
1.4500008E+001
 20
1.6350002E+002
 70
0
  0
SEQEND
  0
POLYLINE
  8
1
  6
CONTINUOUS
 62
6
 66
1
 40
1.0E-003
 41
1.0E-003
 70
0
  0
VERTEX
  8
1
 42
0.0
 10
1.9000008E+001
 20
1.7350002E+002
 70
0
  0
VERTEX
  8
1
 42
0.0
 10
1.4500008E+001
 20
1.7350002E+002
 70
0
  0
SEQEND
  0
POLYLINE
  8
1
  6
CONTINUOUS
 62
6
 66
1
 40
1.0E-003
 41
1.0E-003
 70
0
  0
VERTEX
  8
1
 42
0.0
 10
1.9000008E+001
 20
1.285E+002
 70
0
  0
VERTEX
  8
1
 42
0.0
 10
1.7000008E+001
 20
1.285E+002
 70
0
  0
SEQEND
  0
POLYLINE
  8
1
  6
CONTINUOUS
 62
6
 66
1
 40
1.0E-003
 41
1.0E-003
 70
0
  0
VERTEX
  8
1
 42
0.0
 10
1.9000008E+001
 20
1.385E+002
 70
0
  0
VERTEX
  8
1
 42
0.0
 10
1.7000008E+001
 20
1.385E+002
 70
0
  0
SEQEND
  0
POLYLINE
  8
1
  6
CONTINUOUS
 62
6
 66
1
 40
1.0E-003
 41
1.0E-003
 70
0
  0
VERTEX
  8
1
 42
0.0
 10
1.9000008E+001
 20
1.4850002E+002
 70
0
  0
VERTEX
  8
1
 42
0.0
 10
1.2345772E+001
 20
1.4850002E+002
 70
0
  0
SEQEND
  0
POLYLINE
  8
1
  6
CONTINUOUS
 62
6
 66
1
 40
1.0E-003
 41
1.0E-003
 70
0
  0
VERTEX
  8
1
 42
0.0
 10
1.9000008E+001
 20
1.5850002E+002
 70
0
  0
VERTEX
  8
1
 42
0.0
 10
1.7000008E+001
 20
1.5850002E+002
 70
0
  0
SEQEND
  0
POLYLINE
  8
1
  6
CONTINUOUS
 62
6
 66
1
 40
1.0E-003
 41
1.0E-003
 70
0
  0
VERTEX
  8
1
 42
0.0
 10
1.9000008E+001
 20
1.6850002E+002
 70
0
  0
VERTEX
  8
1
 42
0.0
 10
1.7000008E+001
 20
1.6850002E+002
 70
0
  0
SEQEND
  0
POLYLINE
  8
1
  6
CONTINUOUS
 62
6
 66
1
 40
1.0E-003
 41
1.0E-003
 70
0
  0
VERTEX
  8
1
 42
0.0
 10
1.7568611E+001
 20
1.235E+002
 70
0
  0
VERTEX
  8
1
 42
0.0
 10
1.9000008E+001
 20
1.235E+002
 70
0
  0
SEQEND
  0
POLYLINE
  8
1
  6
CONTINUOUS
 62
6
 66
1
 40
1.0E-003
 41
1.0E-003
 70
0
  0
VERTEX
  8
1
 42
0.0
 10
1.9000008E+001
 20
1.235E+002
 70
0
  0
VERTEX
  8
1
 42
0.0
 10
1.5000008E+001
 20
1.235E+002
 70
0
  0
SEQEND
  0
POLYLINE
  8
1
  6
CONTINUOUS
 62
6
 66
1
 40
1.0E-003
 41
1.0E-003
 70
0
  0
VERTEX
  8
1
 42
0.0
 10
1.9000008E+001
 20
1.235E+002
 70
0
  0
VERTEX
  8
1
 42
0.0
 10
1.4500008E+001
 20
1.235E+002
 70
0
  0
SEQEND
  0
POLYLINE
  8
1
  6
CONTINUOUS
 62
3
 66
1
 40
1.0E-003
 41
1.0E-003
 70
0
  0
VERTEX
  8
1
 42
0.0
 10
1.6487923E+001
 20
2.0867195E+002
 70
0
  0
VERTEX
  8
1
 42
0.0
 10
1.3487923E+001
 20
2.0867195E+002
 70
0
  0
SEQEND
  0
POLYLINE
  8
1
  6
CONTINUOUS
 62
3
 66
1
 40
1.0E-003
 41
1.0E-003
 70
0
  0
VERTEX
  8
1
 42
0.0
 10
1.3487923E+001
 20
2.2806367E+002
 70
0
  0
VERTEX
  8
1
 42
0.0
 10
1.6487923E+001
 20
2.2806367E+002
 70
0
  0
SEQEND
  0
POLYLINE
  8
1
  6
CONTINUOUS
 62
3
 66
1
 40
1.0E-003
 41
1.0E-003
 70
0
  0
VERTEX
  8
1
 42
0.0
 10
1.3487923E+001
 20
2.3106367E+002
 70
0
  0
VERTEX
  8
1
 42
0.0
 10
1.6487923E+001
 20
2.3106367E+002
 70
0
  0
SEQEND
  0
POLYLINE
  8
1
  6
CONTINUOUS
 62
3
 66
1
 40
1.0E-003
 41
1.0E-003
 70
0
  0
VERTEX
  8
1
 42
0.0
 10
1.6487923E+001
 20
2.1167192E+002
 70
0
  0
VERTEX
  8
1
 42
0.0
 10
1.3487923E+001
 20
2.1167192E+002
 70
0
  0
SEQEND
  0
POLYLINE
  8
1
  6
CONTINUOUS
 62
3
 66
1
 40
1.0E-003
 41
1.0E-003
 70
0
  0
VERTEX
  8
1
 42
0.0
 10
1.3487923E+001
 20
2.2806367E+002
 70
0
  0
VERTEX
  8
1
 42
0.0
 10
1.3487923E+001
 20
2.3106367E+002
 70
0
  0
SEQEND
  0
POLYLINE
  8
1
  6
CONTINUOUS
 62
3
 66
1
 40
1.0E-003
 41
1.0E-003
 70
0
  0
VERTEX
  8
1
 42
0.0
 10
1.3487923E+001
 20
2.0867195E+002
 70
0
  0
VERTEX
  8
1
 42
0.0
 10
1.3487923E+001
 20
2.1167192E+002
 70
0
  0
SEQEND
  0
POLYLINE
  8
1
  6
CONTINUOUS
 62
3
 66
1
 40
1.0E-003
 41
1.0E-003
 70
0
  0
VERTEX
  8
1
 42
0.0
 10
1.6487923E+001
 20
2.2806367E+002
 70
0
  0
VERTEX
  8
1
 42
0.0
 10
1.6487923E+001
 20
2.3106367E+002
 70
0
  0
SEQEND
  0
POLYLINE
  8
1
  6
CONTINUOUS
 62
4
 66
1
 40
1.0E-003
 41
1.0E-003
 70
0
  0
VERTEX
  8
1
 42
0.0
 10
2.1E+002
 20
0.0
 70
0
  0
VERTEX
  8
1
 42
0.0
 10
2.1E+002
 20
2.9700003E+002
 70
0
  0
SEQEND
  0
POLYLINE
  8
1
  6
CONTINUOUS
 62
6
 66
1
 40
7.0E-001
 41
7.0E-001
 70
0
  0
VERTEX
  8
1
 42
0.0
 10
2.05E+002
 20
2.9150003E+002
 70
0
  0
VERTEX
  8
1
 42
0.0
 10
2.05E+002
 20
5.5
 70
0
  0
SEQEND
  0
POLYLINE
  8
1
  6
CONTINUOUS
 62
6
 66
1
 40
7.0E-001
 41
7.0E-001
 70
0
  0
VERTEX
  8
1
 42
0.0
 10
1.9000008E+001
 20
2.9150003E+002
 70
0
  0
VERTEX
  8
1
 42
0.0
 10
2.05E+002
 20
2.9150003E+002
 70
0
  0
SEQEND
  0
LINE
  8
1
  6
CONTINUOUS
 62
6
 10
3.0000008E+001
 20
2.6550003E+002
 11
2.05E+002
 21
2.6550003E+002
  0
POLYLINE
  8
1
  6
CONTINUOUS
 62
6
 66
1
 40
7.0E-001
 41
7.0E-001
 70
0
  0
VERTEX
  8
1
 42
0.0
 10
2.05E+002
 20
2.7800003E+002
 70
0
  0
VERTEX
  8
1
 42
0.0
 10
3.0000008E+001
 20
2.7800003E+002
 70
0
  0
SEQEND
  0
POLYLINE
  8
1
  6
CONTINUOUS
 62
6
 66
1
 40
7.0E-001
 41
7.0E-001
 70
0
  0
VERTEX
  8
1
 42
0.0
 10
3.0000008E+001
 20
2.9150003E+002
 70
0
  0
VERTEX
  8
1
 42
0.0
 10
3.0000008E+001
 20
2.6550003E+002
 70
0
  0
SEQEND
  0
POLYLINE
  8
1
  6
CONTINUOUS
 62
6
 66
1
 40
5.0E-001
 41
5.0E-001
 70
0
  0
VERTEX
  8
1
 42
0.0
 10
3.7000008E+001
 20
2.9150003E+002
 70
0
  0
VERTEX
  8
1
 42
0.0
 10
3.7000008E+001
 20
2.6550003E+002
 70
0
  0
SEQEND
  0
LINE
  8
1
  6
CONTINUOUS
 62
6
 10
4.2000008E+001
 20
2.9150003E+002
 11
4.2000008E+001
 21
2.6550003E+002
  0
POLYLINE
  8
1
  6
CONTINUOUS
 62
6
 66
1
 40
7.0E-001
 41
7.0E-001
 70
0
  0
VERTEX
  8
1
 42
0.0
 10
5.4000008E+001
 20
2.9150003E+002
 70
0
  0
VERTEX
  8
1
 42
0.0
 10
5.4000008E+001
 20
2.6550003E+002
 70
0
  0
SEQEND
  0
POLYLINE
  8
1
  6
CONTINUOUS
 62
6
 66
1
 40
5.0E-001
 41
5.0E-001
 70
0
  0
VERTEX
  8
1
 42
0.0
 10
1.2000001E+002
 20
2.9150003E+002
 70
0
  0
VERTEX
  8
1
 42
0.0
 10
1.2000001E+002
 20
2.6550003E+002
 70
0
  0
SEQEND
  0
POLYLINE
  8
1
  6
CONTINUOUS
 62
6
 66
1
 40
5.0E-001
 41
5.0E-001
 70
0
  0
VERTEX
  8
1
 42
0.0
 10
1.61E+002
 20
2.9150003E+002
 70
0
  0
VERTEX
  8
1
 42
0.0
 10
1.61E+002
 20
2.6550003E+002
 70
0
  0
SEQEND
  0
POLYLINE
  8
1
  6
CONTINUOUS
 62
6
 66
1
 40
5.0E-001
 41
5.0E-001
 70
0
  0
VERTEX
  8
1
 42
0.0
 10
1.66E+002
 20
2.9150003E+002
 70
0
  0
VERTEX
  8
1
 42
0.0
 10
1.66E+002
 20
2.6550003E+002
 70
0
  0
SEQEND
  0
POLYLINE
  8
1
  6
CONTINUOUS
 62
6
 66
1
 40
5.0E-001
 41
5.0E-001
 70
0
  0
VERTEX
  8
1
 42
0.0
 10
1.76E+002
 20
2.9150003E+002
 70
0
  0
VERTEX
  8
1
 42
0.0
 10
1.76E+002
 20
2.6550003E+002
 70
0
  0
SEQEND
  0
POLYLINE
  8
1
  6
CONTINUOUS
 62
6
 66
1
 40
5.0E-001
 41
5.0E-001
 70
0
  0
VERTEX
  8
1
 42
0.0
 10
1.92E+002
 20
2.9150003E+002
 70
0
  0
VERTEX
  8
1
 42
0.0
 10
1.92E+002
 20
2.6550003E+002
 70
0
  0
SEQEND
  0
LINE
  8
1
  6
CONTINUOUS
 62
6
 10
3.0000008E+001
 20
2.7175003E+002
 11
2.05E+002
 21
2.7175003E+002
  0
POLYLINE
  8
1
  6
CONTINUOUS
 62
6
 66
1
 40
5.0E-001
 41
5.0E-001
 70
0
  0
VERTEX
  8
1
 42
0.0
 10
1.66E+002
 20
2.8475003E+002
 70
0
  0
VERTEX
  8
1
 42
0.0
 10
1.92E+002
 20
2.8475003E+002
 70
0
  0
SEQEND
  0
POLYLINE
  8
1
  6
CONTINUOUS
 62
4
 66
1
 40
1.0E-003
 41
1.0E-003
 70
0
  0
VERTEX
  8
1
 42
0.0
 10
0.0
 20
2.9700003E+002
 70
0
  0
VERTEX
  8
1
 42
0.0
 10
2.1E+002
 20
2.9700003E+002
 70
0
  0
SEQEND
  0
POLYLINE
  8
1
  6
CONTINUOUS
 62
6
 66
1
 40
1.0E-003
 41
1.0E-003
 70
0
  0
VERTEX
  8
1
 42
0.0
 10
2.05E+002
 20
2.5925003E+002
 70
0
  0
VERTEX
  8
1
 42
0.0
 10
2.0E+002
 20
2.5925003E+002
 70
0
  0
SEQEND
  0
POLYLINE
  8
1
  6
CONTINUOUS
 62
6
 66
1
 40
1.0E-003
 41
1.0E-003
 70
0
  0
VERTEX
  8
1
 42
0.0
 10
2.05E+002
 20
2.53E+002
 70
0
  0
VERTEX
  8
1
 42
0.0
 10
2.0E+002
 20
2.53E+002
 70
0
  0
SEQEND
  0
POLYLINE
  8
1
  6
CONTINUOUS
 62
6
 66
1
 40
1.0E-003
 41
1.0E-003
 70
0
  0
VERTEX
  8
1
 42
0.0
 10
2.05E+002
 20
2.4674998E+002
 70
0
  0
VERTEX
  8
1
 42
0.0
 10
2.0E+002
 20
2.4674998E+002
 70
0
  0
SEQEND
  0
POLYLINE
  8
1
  6
CONTINUOUS
 62
6
 66
1
 40
1.0E-003
 41
1.0E-003
 70
0
  0
VERTEX
  8
1
 42
0.0
 10
2.05E+002
 20
2.4049998E+002
 70
0
  0
VERTEX
  8
1
 42
0.0
 10
2.0E+002
 20
2.4049998E+002
 70
0
  0
SEQEND
  0
POLYLINE
  8
1
  6
CONTINUOUS
 62
6
 66
1
 40
1.0E-003
 41
1.0E-003
 70
0
  0
VERTEX
  8
1
 42
0.0
 10
2.05E+002
 20
2.3424998E+002
 70
0
  0
VERTEX
  8
1
 42
0.0
 10
2.0E+002
 20
2.3424998E+002
 70
0
  0
SEQEND
  0
POLYLINE
  8
1
  6
CONTINUOUS
 62
6
 66
1
 40
1.0E-003
 41
1.0E-003
 70
0
  0
VERTEX
  8
1
 42
0.0
 10
2.05E+002
 20
2.2800002E+002
 70
0
  0
VERTEX
  8
1
 42
0.0
 10
2.0E+002
 20
2.2800002E+002
 70
0
  0
SEQEND
  0
POLYLINE
  8
1
  6
CONTINUOUS
 62
6
 66
1
 40
1.0E-003
 41
1.0E-003
 70
0
  0
VERTEX
  8
1
 42
0.0
 10
2.05E+002
 20
2.2175002E+002
 70
0
  0
VERTEX
  8
1
 42
0.0
 10
2.0E+002
 20
2.2175002E+002
 70
0
  0
SEQEND
  0
POLYLINE
  8
1
  6
CONTINUOUS
 62
6
 66
1
 40
1.0E-003
 41
1.0E-003
 70
0
  0
VERTEX
  8
1
 42
0.0
 10
2.05E+002
 20
2.1550002E+002
 70
0
  0
VERTEX
  8
1
 42
0.0
 10
2.0E+002
 20
2.1550002E+002
 70
0
  0
SEQEND
  0
POLYLINE
  8
1
  6
CONTINUOUS
 62
6
 66
1
 40
1.0E-003
 41
1.0E-003
 70
0
  0
VERTEX
  8
1
 42
0.0
 10
2.05E+002
 20
2.9150003E+002
 70
0
  0
VERTEX
  8
1
 42
0.0
 10
2.075E+002
 20
2.9150003E+002
 70
0
  0
SEQEND
  0
POLYLINE
  8
1
  6
CONTINUOUS
 62
6
 66
1
 40
1.0E-003
 41
1.0E-003
 70
0
  0
VERTEX
  8
1
 42
0.0
 10
2.05E+002
 20
2.3175002E+002
 70
0
  0
VERTEX
  8
1
 42
0.0
 10
2.075E+002
 20
2.3175002E+002
 70
0
  0
SEQEND
  0
POLYLINE
  8
1
  6
CONTINUOUS
 62
6
 66
1
 40
1.0E-003
 41
1.0E-003
 70
0
  0
VERTEX
  8
1
 42
0.0
 10
2.05E+002
 20
1.7200002E+002
 70
0
  0
VERTEX
  8
1
 42
0.0
 10
2.075E+002
 20
1.7200002E+002
 70
0
  0
SEQEND
  0
POLYLINE
  8
1
  6
CONTINUOUS
 62
6
 66
1
 40
1.0E-003
 41
1.0E-003
 70
0
  0
VERTEX
  8
1
 42
0.0
 10
2.05E+002
 20
1.1225E+002
 70
0
  0
VERTEX
  8
1
 42
0.0
 10
2.075E+002
 20
1.1225E+002
 70
0
  0
SEQEND
  0
POLYLINE
  8
1
  6
CONTINUOUS
 62
6
 66
1
 40
1.0E-003
 41
1.0E-003
 70
0
  0
VERTEX
  8
1
 42
0.0
 10
2.05E+002
 20
2.9150003E+002
 70
0
  0
VERTEX
  8
1
 42
0.0
 10
2.05E+002
 20
2.9400003E+002
 70
0
  0
SEQEND
  0
POLYLINE
  8
1
  6
CONTINUOUS
 62
6
 66
1
 40
1.0E-003
 41
1.0E-003
 70
0
  0
VERTEX
  8
1
 42
0.0
 10
1.585E+002
 20
2.9150003E+002
 70
0
  0
VERTEX
  8
1
 42
0.0
 10
1.585E+002
 20
2.9400003E+002
 70
0
  0
SEQEND
  0
POLYLINE
  8
1
  6
CONTINUOUS
 62
6
 66
1
 40
1.0E-003
 41
1.0E-003
 70
0
  0
VERTEX
  8
1
 42
0.0
 10
1.1200001E+002
 20
2.9150003E+002
 70
0
  0
VERTEX
  8
1
 42
0.0
 10
1.1200001E+002
 20
2.9400003E+002
 70
0
  0
SEQEND
  0
POLYLINE
  8
1
  6
CONTINUOUS
 62
6
 66
1
 40
1.0E-003
 41
1.0E-003
 70
0
  0
VERTEX
  8
1
 42
0.0
 10
1.9000008E+001
 20
2.9150003E+002
 70
0
  0
VERTEX
  8
1
 42
0.0
 10
1.9000008E+001
 20
2.9400003E+002
 70
0
  0
SEQEND
  0
POLYLINE
  8
1
  6
CONTINUOUS
 62
6
 66
1
 40
1.0E-003
 41
1.0E-003
 70
0
  0
VERTEX
  8
1
 42
0.0
 10
6.5500008E+001
 20
2.9150003E+002
 70
0
  0
VERTEX
  8
1
 42
0.0
 10
6.5500008E+001
 20
2.9400003E+002
 70
0
  0
SEQEND
  0
POLYLINE
  8
1
  6
CONTINUOUS
 62
6
 66
1
 40
7.0E-001
 41
7.0E-001
 70
0
  0
VERTEX
  8
1
 42
0.0
 10
1.0650001E+002
 20
5.5
 70
0
  0
VERTEX
  8
1
 42
0.0
 10
1.0650001E+002
 20
1.5
 70
0
  0
SEQEND
  0
POLYLINE
  8
1
  6
CONTINUOUS
 62
6
 66
1
 40
7.0E-001
 41
7.0E-001
 70
0
  0
VERTEX
  8
1
 42
0.0
 10
1.0350001E+002
 20
5.5
 70
0
  0
VERTEX
  8
1
 42
0.0
 10
1.0350001E+002
 20
1.5
 70
0
  0
SEQEND
  0
POLYLINE
  8
1
  6
CONTINUOUS
 62
6
 66
1
 40
7.0E-001
 41
7.0E-001
 70
0
  0
VERTEX
  8
1
 42
0.0
 10
1.0650001E+002
 20
2.9150003E+002
 70
0
  0
VERTEX
  8
1
 42
0.0
 10
1.0650001E+002
 20
2.9550003E+002
 70
0
  0
SEQEND
  0
POLYLINE
  8
1
  6
CONTINUOUS
 62
6
 66
1
 40
7.0E-001
 41
7.0E-001
 70
0
  0
VERTEX
  8
1
 42
0.0
 10
1.0350001E+002
 20
2.9150003E+002
 70
0
  0
VERTEX
  8
1
 42
0.0
 10
1.0350001E+002
 20
2.9550003E+002
 70
0
  0
SEQEND
  0
POLYLINE
  8
1
  6
CONTINUOUS
 62
6
 66
1
 40
1.0E-003
 41
1.0E-003
 70
0
  0
VERTEX
  8
1
 42
0.0
 10
2.05E+002
 20
5.25E+001
 70
0
  0
VERTEX
  8
1
 42
0.0
 10
2.075E+002
 20
5.25E+001
 70
0
  0
SEQEND
  0
POLYLINE
  8
1
  6
CONTINUOUS
 62
6
 66
1
 40
7.0E-001
 41
7.0E-001
 70
0
  0
VERTEX
  8
1
 42
0.0
 10
1.9000008E+001
 20
5.5
 70
0
  0
VERTEX
  8
1
 42
0.0
 10
5.0
 20
5.5
 70
0
  0
SEQEND
  0
POLYLINE
  8
1
  6
CONTINUOUS
 62
4
 66
1
 40
1.0E-003
 41
1.0E-003
 70
0
  0
VERTEX
  8
1
 42
0.0
 10
0.0
 20
0.0
 70
0
  0
VERTEX
  8
1
 42
0.0
 10
2.1E+002
 20
0.0
 70
0
  0
SEQEND
  0
POLYLINE
  8
1
  6
CONTINUOUS
 62
3
 66
1
 40
1.0E-003
 41
1.0E-003
 70
0
  0
VERTEX
  8
1
 42
0.0
 10
1.6487923E+001
 20
2.1167192E+002
 70
0
  0
VERTEX
  8
1
 42
0.0
 10
1.6487923E+001
 20
2.0867195E+002
 70
0
  0
SEQEND
  0
POLYLINE
  8
1
  6
CONTINUOUS
 62
3
 66
1
 40
1.0E-003
 41
1.0E-003
 70
0
  0
VERTEX
  8
1
 42
0.0
 10
1.6487923E+001
 20
2.1167192E+002
 70
0
  0
VERTEX
  8
1
 42
0.0
 10
1.6487923E+001
 20
2.0867195E+002
 70
0
  0
SEQEND
  0
TEXT
  8
1
  6
CONTINUOUS
 62
3
 10
2.065E+002
 20
2.6162503E+002
 40
2.0
  1
A
  0
TEXT
  8
1
  6
CONTINUOUS
 62
3
 10
2.065E+002
 20
2.0187502E+002
 40
2.0
  1
B
  0
TEXT
  8
1
  6
CONTINUOUS
 62
3
 10
2.065E+002
 20
1.42125E+002
 40
2.0
  1
C
  0
TEXT
  8
1
  6
CONTINUOUS
 62
3
 10
2.065E+002
 20
8.2375E+001
 40
2.0
  1
D
  0
TEXT
  8
1
  6
CONTINUOUS
 62
3
 10
1.6509621E+001
 20
2.1872429E+002
 40
2.0
  1
"grob"
 41
6.5E-001
 50
9.0000003E+001
  0
TEXT
  8
1
  6
CONTINUOUS
 62
3
 10
1.6487923E+001
 20
1.9736339E+002
 40
2.0
  1
"mittel"
 41
6.5E-001
 50
9.0000003E+001
  0
TEXT
  8
1
  6
CONTINUOUS
 62
3
 10
5.8622437
 20
1.9528923E+002
 40
2.0
  1
Allgemeintoleranzen nach
 41
8.0E-001
 50
9.0000003E+001
  0
TEXT
  8
1
  6
CONTINUOUS
 62
3
 10
5.8622437
 20
1.2295421E+002
 40
2.0
  1
Rauheits-Symbole nach GZN 020007
 41
8.0E-001
 50
9.0000003E+001
  0
TEXT
  8
1
  6
CONTINUOUS
 62
3
 10
9.8622437
 20
1.2295421E+002
 40
2.0
  1
    entsprechend DIN ISO 1302
 41
8.0E-001
 50
9.0000003E+001
  0
TEXT
  8
1
  6
CONTINUOUS
 62
6
 10
1.306617E+001
 20
1.2349451E+002
 40
2.0
  1
0
 41
5.25E-001
 50
9.0000003E+001
  0
TEXT
  8
1
  6
CONTINUOUS
 62
6
 10
1.306617E+001
 20
1.7212105E+002
 40
2.0
  1
50
 41
6.75E-001
 50
9.0000003E+001
  0
POLYLINE
  8
1
  6
CONTINUOUS
 62
4
 66
1
 40
1.0E-003
 41
1.0E-003
 70
0
  0
VERTEX
  8
1
 42
0.0
 10
0.0
 20
2.9700003E+002
 70
0
  0
VERTEX
  8
1
 42
0.0
 10
0.0
 20
0.0
 70
0
  0
SEQEND
  0
POLYLINE
  8
1
  6
CONTINUOUS
 62
4
 66
1
 40
1.0E-003
 41
1.0E-003
 70
0
  0
VERTEX
  8
1
 42
0.0
 10
0.0
 20
0.0
 70
0
  0
VERTEX
  8
1
 42
0.0
 10
0.0
 20
2.9700003E+002
 70
0
  0
SEQEND
  0
TEXT
  8
1
  6
CONTINUOUS
 62
3
 10
1.7001917E+002
 20
2.8040002E+002
 40
2.0
  1
I
 41
3.17E-001
  0
TEXT
  8
1
  6
CONTINUOUS
 62
3
 10
4.2250008E+001
 20
2.9300003E+002
 40
2.0
  1
1
  0
TEXT
  8
1
  6
CONTINUOUS
 62
3
 10
8.8750008E+001
 20
2.9300003E+002
 40
2.0
  1
2
  0
TEXT
  8
1
  6
CONTINUOUS
 62
3
 10
1.3525E+002
 20
2.9300003E+002
 40
2.0
  1
3
  0
TEXT
  8
1
  6
CONTINUOUS
 62
3
 10
1.8175E+002
 20
2.9300003E+002
 40
2.0
  1
4
  0
TEXT
  8
1
  6
CONTINUOUS
 62
3
 10
3.0841621E+001
 20
2.8556284E+002
 40
2.0
  1
Ein-
 41
7.925E-001
  0
TEXT
  8
1
  6
CONTINUOUS
 62
3
 10
3.0841621E+001
 20
2.8256284E+002
 40
2.0
  1
heit
 41
7.925E-001
  0
TEXT
  8
1
  6
CONTINUOUS
 62
3
 10
3.8324684E+001
 20
2.8350003E+002
 40
2.0
  1
ZC
 41
7.925E-001
  0
TEXT
  8
1
  6
CONTINUOUS
 62
3
 10
1.6235593E+002
 20
2.8350003E+002
 40
2.0
  1
EC
 41
7.925E-001
  0
TEXT
  8
1
  6
CONTINUOUS
 62
3
 10
1.6759302E+002
 20
2.8716838E+002
 40
2.0
  1
Aend.
 41
8.0E-001
  0
TEXT
  8
1
  6
CONTINUOUS
 62
3
 10
1.7796625E+002
 20
2.8715002E+002
 40
2.0
  1
Masse/E
 41
7.925E-001
  0
TEXT
  8
1
  6
CONTINUOUS
 62
3
 10
1.2262052E+002
 20
2.8350003E+002
 40
2.0
  1
Ident-Nummer
 41
7.925E-001
  0
TEXT
  8
1
  6
CONTINUOUS
 62
3
 10
5.6489449E+001
 20
2.8350003E+002
 40
2.0
  1
Text
 41
7.925E-001
  0
TEXT
  8
1
  6
CONTINUOUS
 62
3
 10
4.343354E+001
 20
2.8350003E+002
 40
2.0
  1
Pos.-Nr.
 41
6.0E-001
  0
TEXT
  8
1
  6
CONTINUOUS
 62
3
 10
1.8364273E+002
 20
2.8040002E+002
 40
2.0
  1
II
 41
7.5E-001
  0
TEXT
  8
1
  6
CONTINUOUS
 62
3
 10
1.9726633E+002
 20
2.8350003E+002
 40
2.0
  1
III
 41
7.5E-001
  0
TEXT
  8
1
  6
CONTINUOUS
 62
3
 10
8.58746
 20
8.773347
 40
1.7
  1
Fuer diese Unterlage behalten wir uns alle Rechte, auch fuer den Fall der Patent-
 41
6.8E-001
 50
9.0000003E+001
  0
TEXT
  8
1
  6
CONTINUOUS
 62
3
 10
1.1408791E+001
 20
8.3925096
 40
1.7
  1
erteilung und der Eintragung eines anderen gewerblichen Schutzrechtes, vor.
 41
6.8E-001
 50
9.0000003E+001
  0
TEXT
  8
1
  6
CONTINUOUS
 62
3
 10
1.4298791E+001
 20
8.3925096
 40
1.7
  1
Missbraeuchliche Verwendung, wie insbesondere Vervielfaeltigung und Weitergabe an
 41
6.8E-001
 50
9.0000003E+001
  0
TEXT
  8
1
  6
CONTINUOUS
 62
3
 10
1.7188792E+001
 20
8.3925096
 40
1.7
  1
Dritte ist nicht gestattet: sie kann zivil- und strafrechtlich geahndet werden.
 41
6.8E-001
 50
9.0000003E+001
  0
TEXT
  8
1
  6
CONTINUOUS
 62
3
 10
1.0199852E+001
 20
2.0239064E+002
 40
2.0
  1
ISO 2768
 41
8.0E-001
 50
9.0000003E+001
  0
POLYLINE
  8
1
  6
CONTINUOUS
 62
6
 66
1
 40
7.0E-001
 41
7.0E-001
 70
0
  0
VERTEX
  8
1
 42
0.0
 10
1.8999985E+001
 20
3.1E+001
 70
0
  0
VERTEX
  8
1
 42
0.0
 10
2.05E+002
 20
3.1E+001
 70
0
  0
SEQEND
  0
POLYLINE
  8
1
  6
CONTINUOUS
 62
6
 66
1
 40
7.0E-001
 41
7.0E-001
 70
0
  0
VERTEX
  8
1
 42
0.0
 10
1.8999985E+001
 20
1.4E+001
 70
0
  0
VERTEX
  8
1
 42
0.0
 10
5.85E+001
 20
1.4E+001
 70
0
  0
SEQEND
  0
LINE
  8
1
  6
CONTINUOUS
 62
6
 10
2.4499985E+001
 20
3.1E+001
 11
2.4499985E+001
 21
1.4E+001
  0
TEXT
  8
1
  6
CONTINUOUS
 62
3
 10
2.2718704E+001
 20
1.9207314E+001
 40
2.0
  1
Aend.
 41
5.0E-001
 50
9.0000003E+001
  0
LINE
  8
1
  6
CONTINUOUS
 62
6
 10
2.4499985E+001
 20
2.675E+001
 11
5.85E+001
 21
2.675E+001
  0
POLYLINE
  8
1
  6
CONTINUOUS
 62
6
 66
1
 40
5.0E-001
 41
5.0E-001
 70
0
  0
VERTEX
  8
1
 42
0.0
 10
1.465E+002
 20
2.675E+001
 70
0
  0
VERTEX
  8
1
 42
0.0
 10
2.05E+002
 20
2.675E+001
 70
0
  0
SEQEND
  0
POLYLINE
  8
1
  6
CONTINUOUS
 62
1
 66
1
 40
1.0E-003
 41
1.0E-003
 70
0
  0
VERTEX
  8
1
 42
0.0
 10
1.75E+002
 20
3.1E+001
 70
0
  0
VERTEX
  8
1
 42
0.0
 10
1.75E+002
 20
2.25E+001
 70
0
  0
SEQEND
  0
POLYLINE
  8
1
  6
CONTINUOUS
 62
6
 66
1
 40
7.0E-001
 41
7.0E-001
 70
0
  0
VERTEX
  8
1
 42
0.0
 10
1.465E+002
 20
3.1E+001
 70
0
  0
VERTEX
  8
1
 42
0.0
 10
1.465E+002
 20
5.5
 70
0
  0
SEQEND
  0
POLYLINE
  8
1
  6
CONTINUOUS
 62
6
 66
1
 40
7.0E-001
 41
7.0E-001
 70
0
  0
VERTEX
  8
1
 42
0.0
 10
1.35E+002
 20
3.0795013E+001
 70
0
  0
VERTEX
  8
1
 42
0.0
 10
1.35E+002
 20
1.4E+001
 70
0
  0
SEQEND
  0
POLYLINE
  8
1
  6
CONTINUOUS
 62
6
 66
1
 40
7.0E-001
 41
7.0E-001
 70
0
  0
VERTEX
  8
1
 42
0.0
 10
9.75E+001
 20
3.1E+001
 70
0
  0
VERTEX
  8
1
 42
0.0
 10
9.75E+001
 20
1.4E+001
 70
0
  0
SEQEND
  0
POLYLINE
  8
1
  6
CONTINUOUS
 62
6
 66
1
 40
7.0E-001
 41
7.0E-001
 70
0
  0
VERTEX
  8
1
 42
0.0
 10
5.85E+001
 20
3.1E+001
 70
0
  0
VERTEX
  8
1
 42
0.0
 10
5.85E+001
 20
1.4E+001
 70
0
  0
SEQEND
  0
POLYLINE
  8
1
  6
CONTINUOUS
 62
6
 66
1
 40
5.0E-001
 41
5.0E-001
 70
0
  0
VERTEX
  8
1
 42
0.0
 10
5.85E+001
 20
2.25E+001
 70
0
  0
VERTEX
  8
1
 42
0.0
 10
1.35E+002
 20
2.25E+001
 70
0
  0
SEQEND
  0
POLYLINE
  8
1
  6
CONTINUOUS
 62
6
 66
1
 40
5.0E-001
 41
5.0E-001
 70
0
  0
VERTEX
  8
1
 42
0.0
 10
5.85E+001
 20
1.825E+001
 70
0
  0
VERTEX
  8
1
 42
0.0
 10
1.35E+002
 20
1.825E+001
 70
0
  0
SEQEND
  0
POLYLINE
  8
1
  6
CONTINUOUS
 62
6
 66
1
 40
7.0E-001
 41
7.0E-001
 70
0
  0
VERTEX
  8
1
 42
0.0
 10
5.85E+001
 20
1.4E+001
 70
0
  0
VERTEX
  8
1
 42
0.0
 10
2.05E+002
 20
1.4E+001
 70
0
  0
SEQEND
  0
POLYLINE
  8
1
  6
CONTINUOUS
 62
6
 66
1
 40
7.0E-001
 41
7.0E-001
 70
0
  0
VERTEX
  8
1
 42
0.0
 10
1.35E+002
 20
2.25E+001
 70
0
  0
VERTEX
  8
1
 42
0.0
 10
2.05E+002
 20
2.25E+001
 70
0
  0
SEQEND
  0
POLYLINE
  8
1
  6
CONTINUOUS
 62
6
 66
1
 40
7.0E-001
 41
7.0E-001
 70
0
  0
VERTEX
  8
1
 42
0.0
 10
1.58E+002
 20
2.25E+001
 70
0
  0
VERTEX
  8
1
 42
0.0
 10
1.58E+002
 20
1.4E+001
 70
0
  0
SEQEND
  0
POLYLINE
  8
1
  6
CONTINUOUS
 62
110
 66
1
 40
7.0E-001
 41
7.0E-001
 70
0
  0
VERTEX
  8
1
 42
0.0
 10
1.68E+002
 20
2.25E+001
 70
0
  0
VERTEX
  8
1
 42
0.0
 10
1.68E+002
 20
1.4E+001
 70
0
  0
SEQEND
  0
POLYLINE
  8
1
  6
CONTINUOUS
 62
110
 66
1
 40
7.0E-001
 41
7.0E-001
 70
0
  0
VERTEX
  8
1
 42
0.0
 10
1.795E+002
 20
2.25E+001
 70
0
  0
VERTEX
  8
1
 42
0.0
 10
1.795E+002
 20
1.4E+001
 70
0
  0
SEQEND
  0
POLYLINE
  8
1
  6
CONTINUOUS
 62
110
 66
1
 40
7.0E-001
 41
7.0E-001
 70
0
  0
VERTEX
  8
1
 42
0.0
 10
1.915E+002
 20
2.25E+001
 70
0
  0
VERTEX
  8
1
 42
0.0
 10
1.915E+002
 20
1.4E+001
 70
0
  0
SEQEND
  0
LINE
  8
1
  6
HIDDEN
 62
6
 10
1.465E+002
 20
7.0
 11
2.05E+002
 21
7.0
  0
LINE
  8
1
  6
CONTINUOUS
 62
6
 10
2.4499985E+001
 20
2.25E+001
 11
5.85E+001
 21
2.25E+001
  0
LINE
  8
1
  6
CONTINUOUS
 62
6
 10
2.4499985E+001
 20
1.825E+001
 11
5.85E+001
 21
1.825E+001
  0
POLYLINE
  8
1
  6
CONTINUOUS
 62
6
 66
1
 40
5.0E-001
 41
5.0E-001
 70
0
  0
VERTEX
  8
1
 42
0.0
 10
5.85E+001
 20
2.675E+001
 70
0
  0
VERTEX
  8
1
 42
0.0
 10
1.35E+002
 20
2.675E+001
 70
0
  0
SEQEND
  0
POLYLINE
  8
1
  6
CONTINUOUS
 62
6
 66
1
 40
7.0E-001
 41
7.0E-001
 70
0
  0
VERTEX
  8
1
 42
0.0
 10
3.3999985E+001
 20
1.4E+001
 70
0
  0
VERTEX
  8
1
 42
0.0
 10
3.3999985E+001
 20
5.5
 70
0
  0
SEQEND
  0
POLYLINE
  8
1
  6
HIDDEN
 62
3
 66
1
 40
1.0E-003
 41
1.0E-003
 70
0
  0
VERTEX
  8
1
 42
0.0
 10
1.5225E+002
 20
1.825E+001
 70
0
  0
VERTEX
  8
1
 42
0.0
 10
1.5225E+002
 20
1.4E+001
 70
0
  0
SEQEND
  0
POLYLINE
  8
1
  6
HIDDEN
 62
3
 66
1
 40
1.0E-003
 41
1.0E-003
 70
0
  0
VERTEX
  8
1
 42
0.0
 10
1.63E+002
 20
1.825E+001
 70
0
  0
VERTEX
  8
1
 42
0.0
 10
1.63E+002
 20
1.4E+001
 70
0
  0
SEQEND
  0
POLYLINE
  8
1
  6
CONTINUOUS
 62
3
 66
1
 40
1.0E-003
 41
1.0E-003
 70
0
  0
VERTEX
  8
1
 42
0.0
 10
1.7079001E+002
 20
2.7410446E+001
 70
0
  0
VERTEX
  8
1
 42
0.0
 10
1.7079001E+002
 20
3.0034676E+001
 70
0
  0
SEQEND
  0
POLYLINE
  8
1
  6
CONTINUOUS
 62
3
 66
1
 40
1.0E-003
 41
1.0E-003
 70
0
  0
VERTEX
  8
1
 42
0.0
 10
1.7079001E+002
 20
3.0034676E+001
 70
0
  0
VERTEX
  8
1
 42
0.0
 10
1.7397659E+002
 20
3.0034676E+001
 70
0
  0
SEQEND
  0
POLYLINE
  8
1
  6
CONTINUOUS
 62
3
 66
1
 40
1.0E-003
 41
1.0E-003
 70
0
  0
VERTEX
  8
1
 42
0.0
 10
1.7397659E+002
 20
3.0034676E+001
 70
0
  0
VERTEX
  8
1
 42
0.0
 10
1.7397659E+002
 20
2.7410446E+001
 70
0
  0
SEQEND
  0
POLYLINE
  8
1
  6
CONTINUOUS
 62
3
 66
1
 40
1.0E-003
 41
1.0E-003
 70
0
  0
VERTEX
  8
1
 42
0.0
 10
1.7397659E+002
 20
2.7410446E+001
 70
0
  0
VERTEX
  8
1
 42
0.0
 10
1.7079001E+002
 20
2.7410446E+001
 70
0
  0
SEQEND
  0
POLYLINE
  8
1
  6
CONTINUOUS
 62
3
 66
1
 40
1.0E-003
 41
1.0E-003
 70
0
  0
VERTEX
  8
1
 42
0.0
 10
2.0079001E+002
 20
2.7410446E+001
 70
0
  0
VERTEX
  8
1
 42
0.0
 10
2.0079001E+002
 20
3.0034676E+001
 70
0
  0
SEQEND
  0
POLYLINE
  8
1
  6
CONTINUOUS
 62
3
 66
1
 40
1.0E-003
 41
1.0E-003
 70
0
  0
VERTEX
  8
1
 42
0.0
 10
2.0079001E+002
 20
3.0034676E+001
 70
0
  0
VERTEX
  8
1
 42
0.0
 10
2.0397659E+002
 20
3.0034676E+001
 70
0
  0
SEQEND
  0
POLYLINE
  8
1
  6
CONTINUOUS
 62
3
 66
1
 40
1.0E-003
 41
1.0E-003
 70
0
  0
VERTEX
  8
1
 42
0.0
 10
2.0397659E+002
 20
3.0034676E+001
 70
0
  0
VERTEX
  8
1
 42
0.0
 10
2.0397659E+002
 20
2.7410446E+001
 70
0
  0
SEQEND
  0
POLYLINE
  8
1
  6
CONTINUOUS
 62
3
 66
1
 40
1.0E-003
 41
1.0E-003
 70
0
  0
VERTEX
  8
1
 42
0.0
 10
2.0397659E+002
 20
2.7410446E+001
 70
0
  0
VERTEX
  8
1
 42
0.0
 10
2.0079001E+002
 20
2.7410446E+001
 70
0
  0
SEQEND
  0
POLYLINE
  8
1
  6
CONTINUOUS
 62
3
 66
1
 40
1.0E-003
 41
1.0E-003
 70
0
  0
VERTEX
  8
1
 42
0.0
 10
1.7079001E+002
 20
2.3160446E+001
 70
0
  0
VERTEX
  8
1
 42
0.0
 10
1.7079001E+002
 20
2.5784676E+001
 70
0
  0
SEQEND
  0
POLYLINE
  8
1
  6
CONTINUOUS
 62
3
 66
1
 40
1.0E-003
 41
1.0E-003
 70
0
  0
VERTEX
  8
1
 42
0.0
 10
1.7079001E+002
 20
2.5784676E+001
 70
0
  0
VERTEX
  8
1
 42
0.0
 10
1.7397659E+002
 20
2.5784676E+001
 70
0
  0
SEQEND
  0
POLYLINE
  8
1
  6
CONTINUOUS
 62
3
 66
1
 40
1.0E-003
 41
1.0E-003
 70
0
  0
VERTEX
  8
1
 42
0.0
 10
1.7397659E+002
 20
2.5784676E+001
 70
0
  0
VERTEX
  8
1
 42
0.0
 10
1.7397659E+002
 20
2.3160446E+001
 70
0
  0
SEQEND
  0
POLYLINE
  8
1
  6
CONTINUOUS
 62
3
 66
1
 40
1.0E-003
 41
1.0E-003
 70
0
  0
VERTEX
  8
1
 42
0.0
 10
1.7397659E+002
 20
2.3160446E+001
 70
0
  0
VERTEX
  8
1
 42
0.0
 10
1.7079001E+002
 20
2.3160446E+001
 70
0
  0
SEQEND
  0
LINE
  8
1
  6
CONTINUOUS
 62
6
 10
3.1499985E+001
 20
3.1E+001
 11
3.1499985E+001
 21
1.4E+001
  0
POLYLINE
  8
1
  6
CONTINUOUS
 62
3
 66
1
 40
1.0E-003
 41
1.0E-003
 70
0
  0
VERTEX
  8
1
 42
0.0
 10
1.3877496E+002
 20
2.025E+001
 70
0
  0
VERTEX
  8
1
 42
0.0
 10
1.3877496E+002
 20
1.625E+001
 70
0
  0
SEQEND
  0
POLYLINE
  8
1
  6
CONTINUOUS
 62
3
 66
1
 40
1.0E-003
 41
1.0E-003
 70
0
  0
VERTEX
  8
1
 42
0.0
 10
1.3601489E+002
 20
1.925E+001
 70
0
  0
VERTEX
  8
1
 42
0.0
 10
1.3601489E+002
 20
1.725E+001
 70
0
  0
SEQEND
  0
POLYLINE
  8
1
  6
CONTINUOUS
 62
3
 66
1
 40
1.0E-003
 41
1.0E-003
 70
0
  0
VERTEX
  8
1
 42
0.0
 10
1.3601489E+002
 20
1.925E+001
 70
0
  0
VERTEX
  8
1
 42
0.0
 10
1.3877496E+002
 20
2.025E+001
 70
0
  0
SEQEND
  0
POLYLINE
  8
1
  6
CONTINUOUS
 62
3
 66
1
 40
1.0E-003
 41
1.0E-003
 70
0
  0
VERTEX
  8
1
 42
0.0
 10
1.3601489E+002
 20
1.725E+001
 70
0
  0
VERTEX
  8
1
 42
0.0
 10
1.3877496E+002
 20
1.625E+001
 70
0
  0
SEQEND
  0
POLYLINE
  8
1
  6
HIDDEN
 62
3
 66
1
 40
1.0E-003
 41
1.0E-003
 70
0
  0
VERTEX
  8
1
 42
0.0
 10
1.4252081E+002
 20
2.0649994E+001
 70
0
  0
VERTEX
  8
1
 42
0.0
 10
1.4252081E+002
 20
1.5849998E+001
 70
0
  0
SEQEND
  0
POLYLINE
  8
1
  6
HIDDEN
 62
3
 66
1
 40
1.0E-003
 41
1.0E-003
 70
0
  0
VERTEX
  8
1
 42
0.0
 10
1.4492081E+002
 20
1.825E+001
 70
0
  0
VERTEX
  8
1
 42
0.0
 10
1.3581775E+002
 20
1.825E+001
 70
0
  0
SEQEND
  0
TEXT
  8
1
  6
CONTINUOUS
 62
3
 10
5.9224213E+001
 20
2.3520981E+001
 40
2.0
  1
Ersatz fuer:
 41
6.0E-001
  0
TEXT
  8
1
  6
CONTINUOUS
 62
3
 10
5.9224213E+001
 20
1.9296745E+001
 40
2.0
  1
Ers. durch:
 41
6.5308091E-001
  0
TEXT
  8
1
  6
CONTINUOUS
 62
3
 10
5.9096191E+001
 20
1.4944511E+001
 40
2.0
  1
Zust. Stelle:
 41
6.3073385E-001
  0
TEXT
  8
1
  6
CONTINUOUS
 62
3
 10
9.8266327E+001
 20
2.7745209E+001
 40
2.0
  1
Ausgest.:
 41
6.0E-001
  0
TEXT
  8
1
  6
CONTINUOUS
 62
3
 10
9.8138336E+001
 20
2.3648987E+001
 40
2.0
  1
Geprueft:
 41
6.0E-001
  0
TEXT
  8
1
  6
CONTINUOUS
 62
3
 10
9.8138336E+001
 20
1.9424751E+001
 40
2.0
  1
Normgepr.:
 41
6.0E-001
  0
TEXT
  8
1
  6
CONTINUOUS
 62
3
 10
9.8138336E+001
 20
1.5072517E+001
 40
2.0
  1
Freigeg.:
 41
6.0E-001
  0
TEXT
  8
1
  6
CONTINUOUS
 62
3
 10
3.4718704E+001
 20
1.0957314E+001
 40
2.0
  1
Titel:
 41
5.9703E-001
  0
TEXT
  8
1
  6
CONTINUOUS
 62
3
 10
1.3619501E+002
 20
2.7965616E+001
 40
2.0
  1
Massstab
 41
6.0E-001
  0
TEXT
  8
1
  6
CONTINUOUS
 62
3
 10
1.7571872E+002
 20
2.7957314E+001
 40
2.0
  1
Sep.SL anderer Nr.
 41
6.0E-001
  0
TEXT
  8
1
  6
CONTINUOUS
 62
3
 10
1.4721872E+002
 20
1.9457314E+001
 40
2.0
  1
Dok.-Art
 41
6.0E-001
  0
TEXT
  8
1
  6
CONTINUOUS
 62
3
 10
1.5971872E+002
 20
1.9457314E+001
 40
2.0
  1
Format
 41
6.0E-001
  0
TEXT
  8
1
  6
CONTINUOUS
 62
3
 10
1.6971872E+002
 20
1.9457314E+001
 40
2.0
  1
Sprache
 41
6.0E-001
  0
TEXT
  8
1
  6
CONTINUOUS
 62
3
 10
1.8171872E+002
 20
1.9457314E+001
 40
2.0
  1
Bl. Nr.
 41
6.0E-001
  0
TEXT
  8
1
  6
CONTINUOUS
 62
3
 10
1.9221872E+002
 20
1.9457314E+001
 40
2.0
  1
Anz. Bl.
 41
6.0E-001
  0
TEXT
  8
1
  6
CONTINUOUS
 62
3
 10
1.4721872E+002
 20
2.7957314E+001
 40
2.0
  1
Sep.SL gleicher Nr.
 41
6.0E-001
  0
TEXT
  8
1
  6
CONTINUOUS
 62
3
 10
1.472323E+002
 20
2.3457428E+001
 40
2.0
  1
O
 41
6.3E-001
  0
TEXT
  8
1
  6
CONTINUOUS
 62
3
 10
1.486723E+002
 20
2.3457428E+001
 40
2.0
  1
hne sep. Stckl.:
 41
6.3727875E-001
  0
TEXT
  8
1
  6
CONTINUOUS
 62
6
 10
1.7570981E+002
 20
2.3817909E+001
 40
2.0
  1
 
 41
8.1E-001
  0
TEXT
  8
1
  6
CONTINUOUS
 62
3
 10
1.7603071E+002
 20
2.3683216E+001
 40
2.0
  1
Uebern. Stelle:
 41
6.0127615E-001
  0
TEXT
  8
1
  6
CONTINUOUS
 62
3
 10
1.595E+002
 20
1.5E+001
 40
2.5
  1
A
  0
TEXT
  8
1
  6
CONTINUOUS
 62
3
 10
1.645E+002
 20
1.5E+001
 40
2.5
  1
4
  0
TEXT
  8
1
  6
CONTINUOUS
 62
3
 10
1.7312595E+002
 20
1.5027565E+001
 40
2.5
  1
D
  0
TEXT
  8
1
  6
CONTINUOUS
 62
3
 10
1.8441553E+002
 20
1.5027565E+001
 40
2.5
  1
1
  0
TEXT
  8
1
  6
CONTINUOUS
 62
3
 10
1.9647238E+002
 20
1.5027565E+001
 40
2.5
  1
1
  0
TEXT
  8
1
  6
CONTINUOUS
 62
3
 10
5.9352203E+001
 20
2.7617203E+001
 40
2.0
  1
E
 41
6.3E-001
  0
TEXT
  8
1
  6
CONTINUOUS
 62
3
 10
6.0612213E+001
 20
2.7617203E+001
 40
2.0
  1
ntst. aus:
 41
6.09444E-001
  0
POLYLINE
  8
1
  6
CONTINUOUS
 62
3
 66
1
 40
1.0E-003
 41
1.0E-003
 70
0
  0
VERTEX
  8
1
 42
0.0
 10
2.0301865E+001
 20
7.3082472
 70
0
  0
VERTEX
  8
1
 42
0.0
 10
2.1426865E+001
 20
7.3082472
 70
0
  0
SEQEND
  0
POLYLINE
  8
1
  6
CONTINUOUS
 62
3
 66
1
 40
1.0E-003
 41
1.0E-003
 70
0
  0
VERTEX
  8
1
 42
0.0
 10
2.1426865E+001
 20
7.3082472
 70
0
  0
VERTEX
  8
1
 42
0.0
 10
2.1741867E+001
 20
8.2082449
 70
0
  0
SEQEND
  0
POLYLINE
  8
1
  6
CONTINUOUS
 62
3
 66
1
 40
1.0E-003
 41
1.0E-003
 70
0
  0
VERTEX
  8
1
 42
0.0
 10
2.1741867E+001
 20
8.2082449
 70
0
  0
VERTEX
  8
1
 42
0.0
 10
2.2356873E+001
 20
8.2082449
 70
0
  0
SEQEND
  0
POLYLINE
  8
1
  6
CONTINUOUS
 62
3
 66
1
 40
1.0E-003
 41
1.0E-003
 70
0
  0
VERTEX
  8
1
 42
0.0
 10
2.2356873E+001
 20
8.2082449
 70
0
  0
VERTEX
  8
1
 42
0.0
 10
2.2356873E+001
 20
9.3632456
 70
0
  0
SEQEND
  0
POLYLINE
  8
1
  6
CONTINUOUS
 62
3
 66
1
 40
1.0E-003
 41
1.0E-003
 70
0
  0
VERTEX
  8
1
 42
0.0
 10
2.2356873E+001
 20
9.3632456
 70
0
  0
VERTEX
  8
1
 42
0.0
 10
2.1073608E+001
 20
9.3632456
 70
0
  0
SEQEND
  0
POLYLINE
  8
1
  6
CONTINUOUS
 62
3
 66
1
 40
1.0E-003
 41
1.0E-003
 70
0
  0
VERTEX
  8
1
 42
0.0
 10
2.1073608E+001
 20
9.3632456
 70
0
  0
VERTEX
  8
1
 42
0.0
 10
2.0301865E+001
 20
7.3082472
 70
0
  0
SEQEND
  0
POLYLINE
  8
1
  6
CONTINUOUS
 62
3
 66
1
 40
1.0E-003
 41
1.0E-003
 70
0
  0
VERTEX
  8
1
 42
0.0
 10
2.4801865E+001
 20
7.3082472
 70
0
  0
VERTEX
  8
1
 42
0.0
 10
2.3676865E+001
 20
7.3082472
 70
0
  0
SEQEND
  0
POLYLINE
  8
1
  6
CONTINUOUS
 62
3
 66
1
 40
1.0E-003
 41
1.0E-003
 70
0
  0
VERTEX
  8
1
 42
0.0
 10
2.3676865E+001
 20
7.3082472
 70
0
  0
VERTEX
  8
1
 42
0.0
 10
2.3361862E+001
 20
8.2082449
 70
0
  0
SEQEND
  0
POLYLINE
  8
1
  6
CONTINUOUS
 62
3
 66
1
 40
1.0E-003
 41
1.0E-003
 70
0
  0
VERTEX
  8
1
 42
0.0
 10
2.3361862E+001
 20
8.2082449
 70
0
  0
VERTEX
  8
1
 42
0.0
 10
2.2746872E+001
 20
8.2082449
 70
0
  0
SEQEND
  0
POLYLINE
  8
1
  6
CONTINUOUS
 62
3
 66
1
 40
1.0E-003
 41
1.0E-003
 70
0
  0
VERTEX
  8
1
 42
0.0
 10
2.2746872E+001
 20
8.2082449
 70
0
  0
VERTEX
  8
1
 42
0.0
 10
2.2746872E+001
 20
9.3632456
 70
0
  0
SEQEND
  0
POLYLINE
  8
1
  6
CONTINUOUS
 62
3
 66
1
 40
1.0E-003
 41
1.0E-003
 70
0
  0
VERTEX
  8
1
 42
0.0
 10
2.2746872E+001
 20
9.3632456
 70
0
  0
VERTEX
  8
1
 42
0.0
 10
2.4030121E+001
 20
9.3632456
 70
0
  0
SEQEND
  0
POLYLINE
  8
1
  6
CONTINUOUS
 62
3
 66
1
 40
1.0E-003
 41
1.0E-003
 70
0
  0
VERTEX
  8
1
 42
0.0
 10
2.4030121E+001
 20
9.3632456
 70
0
  0
VERTEX
  8
1
 42
0.0
 10
2.4801865E+001
 20
7.3082472
 70
0
  0
SEQEND
  0
POLYLINE
  8
1
  6
CONTINUOUS
 62
3
 66
1
 40
1.0E-003
 41
1.0E-003
 70
0
  0
VERTEX
  8
1
 42
0.0
 10
2.2356873E+001
 20
9.753245
 70
0
  0
VERTEX
  8
1
 42
0.0
 10
2.1105118E+001
 20
9.753245
 70
0
  0
SEQEND
  0
POLYLINE
  8
1
  6
CONTINUOUS
 62
3
 66
1
 40
1.0E-003
 41
1.0E-003
 70
0
  0
VERTEX
  8
1
 42
0.0
 10
2.2356873E+001
 20
1.1808243E+001
 70
0
  0
VERTEX
  8
1
 42
0.0
 10
2.2356873E+001
 20
9.753245
 70
0
  0
SEQEND
  0
POLYLINE
  8
1
  6
CONTINUOUS
 62
3
 66
1
 40
1.0E-003
 41
1.0E-003
 70
0
  0
VERTEX
  8
1
 42
0.0
 10
2.2356873E+001
 20
1.1808243E+001
 70
0
  0
VERTEX
  8
1
 42
0.0
 10
2.1876862E+001
 20
1.1808243E+001
 70
0
  0
SEQEND
  0
POLYLINE
  8
1
  6
CONTINUOUS
 62
3
 66
1
 40
1.0E-003
 41
1.0E-003
 70
0
  0
VERTEX
  8
1
 42
0.0
 10
2.1876862E+001
 20
1.1808243E+001
 70
0
  0
VERTEX
  8
1
 42
0.0
 10
2.1105118E+001
 20
9.753245
 70
0
  0
SEQEND
  0
POLYLINE
  8
1
  6
CONTINUOUS
 62
3
 66
1
 40
1.0E-003
 41
1.0E-003
 70
0
  0
VERTEX
  8
1
 42
0.0
 10
2.2746872E+001
 20
9.753245
 70
0
  0
VERTEX
  8
1
 42
0.0
 10
2.3998611E+001
 20
9.753245
 70
0
  0
SEQEND
  0
POLYLINE
  8
1
  6
CONTINUOUS
 62
3
 66
1
 40
1.0E-003
 41
1.0E-003
 70
0
  0
VERTEX
  8
1
 42
0.0
 10
2.2746872E+001
 20
1.1808243E+001
 70
0
  0
VERTEX
  8
1
 42
0.0
 10
2.2746872E+001
 20
9.753245
 70
0
  0
SEQEND
  0
POLYLINE
  8
1
  6
CONTINUOUS
 62
3
 66
1
 40
1.0E-003
 41
1.0E-003
 70
0
  0
VERTEX
  8
1
 42
0.0
 10
2.2746872E+001
 20
1.1808243E+001
 70
0
  0
VERTEX
  8
1
 42
0.0
 10
2.3226868E+001
 20
1.1808243E+001
 70
0
  0
SEQEND
  0
POLYLINE
  8
1
  6
CONTINUOUS
 62
3
 66
1
 40
1.0E-003
 41
1.0E-003
 70
0
  0
VERTEX
  8
1
 42
0.0
 10
2.3226868E+001
 20
1.1808243E+001
 70
0
  0
VERTEX
  8
1
 42
0.0
 10
2.3998611E+001
 20
9.753245
 70
0
  0
SEQEND
  0
POLYLINE
  8
1
  6
CONTINUOUS
 62
3
 66
1
 40
1.0E-003
 41
1.0E-003
 70
0
  0
VERTEX
  8
1
 42
0.0
 10
2.5116867E+001
 20
9.3632456
 70
0
  0
VERTEX
  8
1
 42
0.0
 10
2.5116867E+001
 20
7.3082472
 70
0
  0
SEQEND
  0
POLYLINE
  8
1
  6
CONTINUOUS
 62
3
 66
1
 40
1.0E-003
 41
1.0E-003
 70
0
  0
VERTEX
  8
1
 42
0.0
 10
2.5116867E+001
 20
7.3082472
 70
0
  0
VERTEX
  8
1
 42
0.0
 10
2.6271881E+001
 20
7.3082472
 70
0
  0
SEQEND
  0
POLYLINE
  8
1
  6
CONTINUOUS
 62
3
 66
1
 40
1.0E-003
 41
1.0E-003
 70
0
  0
VERTEX
  8
1
 42
0.0
 10
2.6271881E+001
 20
9.3632456
 70
0
  0
VERTEX
  8
1
 42
0.0
 10
2.6271881E+001
 20
7.3082472
 70
0
  0
SEQEND
  0
POLYLINE
  8
1
  6
CONTINUOUS
 62
3
 66
1
 40
1.0E-003
 41
1.0E-003
 70
0
  0
VERTEX
  8
1
 42
0.0
 10
2.5116867E+001
 20
9.3632456
 70
0
  0
VERTEX
  8
1
 42
0.0
 10
2.6271881E+001
 20
9.3632456
 70
0
  0
SEQEND
  0
POLYLINE
  8
1
  6
CONTINUOUS
 62
3
 66
1
 40
1.0E-003
 41
1.0E-003
 70
0
  0
VERTEX
  8
1
 42
0.0
 10
2.5116867E+001
 20
9.753245
 70
0
  0
VERTEX
  8
1
 42
0.0
 10
2.6271881E+001
 20
9.753245
 70
0
  0
SEQEND
  0
POLYLINE
  8
1
  6
CONTINUOUS
 62
3
 66
1
 40
1.0E-003
 41
1.0E-003
 70
0
  0
VERTEX
  8
1
 42
0.0
 10
2.5116867E+001
 20
1.1808243E+001
 70
0
  0
VERTEX
  8
1
 42
0.0
 10
2.5116867E+001
 20
9.753245
 70
0
  0
SEQEND
  0
POLYLINE
  8
1
  6
CONTINUOUS
 62
3
 66
1
 40
1.0E-003
 41
1.0E-003
 70
0
  0
VERTEX
  8
1
 42
0.0
 10
2.5116867E+001
 20
1.1808243E+001
 70
0
  0
VERTEX
  8
1
 42
0.0
 10
2.6271881E+001
 20
1.1808243E+001
 70
0
  0
SEQEND
  0
POLYLINE
  8
1
  6
CONTINUOUS
 62
3
 66
1
 40
1.0E-003
 41
1.0E-003
 70
0
  0
VERTEX
  8
1
 42
0.0
 10
2.6271881E+001
 20
1.1808243E+001
 70
0
  0
VERTEX
  8
1
 42
0.0
 10
2.6271881E+001
 20
9.753245
 70
0
  0
SEQEND
  0
POLYLINE
  8
1
  6
CONTINUOUS
 62
3
 66
1
 40
1.0E-003
 41
1.0E-003
 70
0
  0
VERTEX
  8
1
 42
0.0
 10
2.6661865E+001
 20
9.3632456
 70
0
  0
VERTEX
  8
1
 42
0.0
 10
2.6661865E+001
 20
7.3082472
 70
0
  0
SEQEND
  0
POLYLINE
  8
1
  6
CONTINUOUS
 62
3
 66
1
 40
1.0E-003
 41
1.0E-003
 70
0
  0
VERTEX
  8
1
 42
0.0
 10
2.6661865E+001
 20
7.3082472
 70
0
  0
VERTEX
  8
1
 42
0.0
 10
2.691687E+001
 20
7.3082472
 70
0
  0
SEQEND
  0
POLYLINE
  8
1
  6
CONTINUOUS
 62
3
 66
1
 40
1.0E-003
 41
1.0E-003
 70
0
  0
VERTEX
  8
1
 42
0.0
 10
2.6661865E+001
 20
9.3632456
 70
0
  0
VERTEX
  8
1
 42
0.0
 10
2.8068161E+001
 20
9.3632456
 70
0
  0
SEQEND
  0
POLYLINE
  8
1
  6
CONTINUOUS
 62
3
 66
1
 40
1.0E-003
 41
1.0E-003
 70
0
  0
VERTEX
  8
1
 42
0.0
 10
2.6661865E+001
 20
1.1808243E+001
 70
0
  0
VERTEX
  8
1
 42
0.0
 10
2.6661865E+001
 20
9.753245
 70
0
  0
SEQEND
  0
POLYLINE
  8
1
  6
CONTINUOUS
 62
3
 66
1
 40
1.0E-003
 41
1.0E-003
 70
0
  0
VERTEX
  8
1
 42
0.0
 10
2.6661865E+001
 20
9.753245
 70
0
  0
VERTEX
  8
1
 42
0.0
 10
2.7706482E+001
 20
9.753245
 70
0
  0
SEQEND
  0
POLYLINE
  8
1
  6
CONTINUOUS
 62
3
 66
1
 40
1.0E-003
 41
1.0E-003
 70
0
  0
VERTEX
  8
1
 42
0.0
 10
2.6661865E+001
 20
1.1808243E+001
 70
0
  0
VERTEX
  8
1
 42
0.0
 10
2.691687E+001
 20
1.1808243E+001
 70
0
  0
SEQEND
  0
POLYLINE
  8
1
  6
CONTINUOUS
 62
3
 66
1
 40
1.0E-003
 41
1.0E-003
 70
0
  0
VERTEX
  8
1
 42
0.0
 10
2.8626862E+001
 20
9.3632456
 70
0
  0
VERTEX
  8
1
 42
0.0
 10
2.8626862E+001
 20
7.3082472
 70
0
  0
SEQEND
  0
POLYLINE
  8
1
  6
CONTINUOUS
 62
3
 66
1
 40
1.0E-003
 41
1.0E-003
 70
0
  0
VERTEX
  8
1
 42
0.0
 10
2.8626862E+001
 20
7.3082472
 70
0
  0
VERTEX
  8
1
 42
0.0
 10
2.9781876E+001
 20
7.3082472
 70
0
  0
SEQEND
  0
POLYLINE
  8
1
  6
CONTINUOUS
 62
3
 66
1
 40
1.0E-003
 41
1.0E-003
 70
0
  0
VERTEX
  8
1
 42
0.0
 10
2.9781876E+001
 20
9.3632456
 70
0
  0
VERTEX
  8
1
 42
0.0
 10
2.9781876E+001
 20
7.3082472
 70
0
  0
SEQEND
  0
POLYLINE
  8
1
  6
CONTINUOUS
 62
3
 66
1
 40
1.0E-003
 41
1.0E-003
 70
0
  0
VERTEX
  8
1
 42
0.0
 10
2.8626862E+001
 20
9.3632456
 70
0
  0
VERTEX
  8
1
 42
0.0
 10
2.9781876E+001
 20
9.3632456
 70
0
  0
SEQEND
  0
POLYLINE
  8
1
  6
CONTINUOUS
 62
3
 66
1
 40
1.0E-003
 41
1.0E-003
 70
0
  0
VERTEX
  8
1
 42
0.0
 10
2.8626862E+001
 20
1.1808243E+001
 70
0
  0
VERTEX
  8
1
 42
0.0
 10
2.8626862E+001
 20
9.753245
 70
0
  0
SEQEND
  0
POLYLINE
  8
1
  6
CONTINUOUS
 62
3
 66
1
 40
1.0E-003
 41
1.0E-003
 70
0
  0
VERTEX
  8
1
 42
0.0
 10
2.8626862E+001
 20
9.753245
 70
0
  0
VERTEX
  8
1
 42
0.0
 10
2.9781876E+001
 20
9.753245
 70
0
  0
SEQEND
  0
POLYLINE
  8
1
  6
CONTINUOUS
 62
3
 66
1
 40
1.0E-003
 41
1.0E-003
 70
0
  0
VERTEX
  8
1
 42
0.0
 10
2.9781876E+001
 20
1.1808243E+001
 70
0
  0
VERTEX
  8
1
 42
0.0
 10
2.9781876E+001
 20
9.753245
 70
0
  0
SEQEND
  0
POLYLINE
  8
1
  6
CONTINUOUS
 62
3
 66
1
 40
1.0E-003
 41
1.0E-003
 70
0
  0
VERTEX
  8
1
 42
0.0
 10
2.8626862E+001
 20
1.1808243E+001
 70
0
  0
VERTEX
  8
1
 42
0.0
 10
2.9781876E+001
 20
1.1808243E+001
 70
0
  0
SEQEND
  0
POLYLINE
  8
1
  6
CONTINUOUS
 62
3
 66
1
 40
1.0E-003
 41
1.0E-003
 70
0
  0
VERTEX
  8
1
 42
0.0
 10
3.017186E+001
 20
9.3632456
 70
0
  0
VERTEX
  8
1
 42
0.0
 10
3.017186E+001
 20
7.3082472
 70
0
  0
SEQEND
  0
POLYLINE
  8
1
  6
CONTINUOUS
 62
3
 66
1
 40
1.0E-003
 41
1.0E-003
 70
0
  0
VERTEX
  8
1
 42
0.0
 10
3.017186E+001
 20
7.3082472
 70
0
  0
VERTEX
  8
1
 42
0.0
 10
3.0426865E+001
 20
7.3082472
 70
0
  0
SEQEND
  0
POLYLINE
  8
1
  6
CONTINUOUS
 62
3
 66
1
 40
1.0E-003
 41
1.0E-003
 70
0
  0
VERTEX
  8
1
 42
0.0
 10
3.017186E+001
 20
9.3632456
 70
0
  0
VERTEX
  8
1
 42
0.0
 10
3.1578156E+001
 20
9.3632456
 70
0
  0
SEQEND
  0
POLYLINE
  8
1
  6
CONTINUOUS
 62
3
 66
1
 40
1.0E-003
 41
1.0E-003
 70
0
  0
VERTEX
  8
1
 42
0.0
 10
3.017186E+001
 20
1.1808243E+001
 70
0
  0
VERTEX
  8
1
 42
0.0
 10
3.017186E+001
 20
9.753245
 70
0
  0
SEQEND
  0
POLYLINE
  8
1
  6
CONTINUOUS
 62
3
 66
1
 40
1.0E-003
 41
1.0E-003
 70
0
  0
VERTEX
  8
1
 42
0.0
 10
3.017186E+001
 20
9.753245
 70
0
  0
VERTEX
  8
1
 42
0.0
 10
3.1216476E+001
 20
9.753245
 70
0
  0
SEQEND
  0
POLYLINE
  8
1
  6
CONTINUOUS
 62
3
 66
1
 40
1.0E-003
 41
1.0E-003
 70
0
  0
VERTEX
  8
1
 42
0.0
 10
3.017186E+001
 20
1.1808243E+001
 70
0
  0
VERTEX
  8
1
 42
0.0
 10
3.0426865E+001
 20
1.1808243E+001
 70
0
  0
SEQEND
  0
INSERT
  2
XHXH1NEW02NEW00NEW00
  8
1
 10
2.1933228E+001
 20
1.1581771E+001
  0
POLYLINE
  8
1
  6
CONTINUOUS
 62
3
 66
1
 40
1.0E-003
 41
1.0E-003
 70
0
  0
VERTEX
  8
1
 42
1.0
 10
1.4452078E+002
 20
1.825E+001
 70
0
  0
VERTEX
  8
1
 42
1.0
 10
1.4052078E+002
 20
1.825E+001
 70
0
  0
VERTEX
  8
1
 42
0.0
 10
1.4452078E+002
 20
1.825E+001
 70
0
  0
SEQEND
  0
POLYLINE
  8
1
  6
CONTINUOUS
 62
3
 66
1
 40
1.0E-003
 41
1.0E-003
 70
0
  0
VERTEX
  8
1
 42
1.0
 10
1.4352078E+002
 20
1.825E+001
 70
0
  0
VERTEX
  8
1
 42
1.0
 10
1.4152078E+002
 20
1.825E+001
 70
0
  0
VERTEX
  8
1
 42
0.0
 10
1.4352078E+002
 20
1.825E+001
 70
0
  0
SEQEND
  0
POLYLINE
  8
1
  6
CONTINUOUS
 62
3
 66
1
 40
1.0E-003
 41
1.0E-003
 70
0
  0
VERTEX
  8
1
 42
5.8600137E-001
 10
2.691687E+001
 20
7.3082456
 70
0
  0
VERTEX
  8
1
 42
0.0
 10
2.8068163E+001
 20
9.3632459
 70
0
  0
SEQEND
  0
POLYLINE
  8
1
  6
CONTINUOUS
 62
3
 66
1
 40
1.0E-003
 41
1.0E-003
 70
0
  0
VERTEX
  8
1
 42
6.2051509E-002
 10
2.7706476E+001
 20
9.7532445
 70
0
  0
VERTEX
  8
1
 42
0.0
 10
2.7413674E+001
 20
9.9135089
 70
0
  0
SEQEND
  0
POLYLINE
  8
1
  6
CONTINUOUS
 62
3
 66
1
 40
1.0E-003
 41
1.0E-003
 70
0
  0
VERTEX
  8
1
 42
7.7160142E-001
 10
2.7413674E+001
 20
9.9135095
 70
0
  0
VERTEX
  8
1
 42
0.0
 10
2.691687E+001
 20
1.1808246E+001
 70
0
  0
SEQEND
  0
POLYLINE
  8
1
  6
CONTINUOUS
 62
3
 66
1
 40
1.0E-003
 41
1.0E-003
 70
0
  0
VERTEX
  8
1
 42
5.8600137E-001
 10
3.0426865E+001
 20
7.3082456
 70
0
  0
VERTEX
  8
1
 42
0.0
 10
3.1578157E+001
 20
9.3632459
 70
0
  0
SEQEND
  0
POLYLINE
  8
1
  6
CONTINUOUS
 62
3
 66
1
 40
1.0E-003
 41
1.0E-003
 70
0
  0
VERTEX
  8
1
 42
6.2051509E-002
 10
3.1216471E+001
 20
9.7532445
 70
0
  0
VERTEX
  8
1
 42
0.0
 10
3.0923669E+001
 20
9.9135089
 70
0
  0
SEQEND
  0
POLYLINE
  8
1
  6
CONTINUOUS
 62
3
 66
1
 40
1.0E-003
 41
1.0E-003
 70
0
  0
VERTEX
  8
1
 42
7.7160142E-001
 10
3.0923669E+001
 20
9.9135095
 70
0
  0
VERTEX
  8
1
 42
0.0
 10
3.0426865E+001
 20
1.1808246E+001
 70
0
  0
SEQEND
  0
POINT
  8
Drafting_Hidden_Entities
  6
CONTINUOUS
 62
1
 10
0.0
 20
0.0
  0
ENDBLK
  0
BLOCK
  2
*XH29
  3
*XH
 10
0.0
 20
0.0
 70
65
  0
LINE
  8
1
  6
CONTINUOUS
 62
4
 10
-7.5E-001
 20
-7.5E-001
 11
7.5E-001
 21
7.5E-001
  0
LINE
  8
1
  6
CONTINUOUS
 62
4
 10
-2.8713203
 20
-7.5E-001
 11
-1.3713203
 21
7.5E-001
  0
LINE
  8
1
  6
CONTINUOUS
 62
4
 10
-4.9926407
 20
-7.5E-001
 11
-3.4926407
 21
7.5E-001
  0
LINE
  8
1
  6
CONTINUOUS
 62
4
 10
-7.113961
 20
-7.5E-001
 11
-5.613961
 21
7.5E-001
  0
LINE
  8
1
  6
CONTINUOUS
 62
4
 10
-9.2352814
 20
-7.5E-001
 11
-7.7352814
 21
7.5E-001
  0
LINE
  8
1
  6
CONTINUOUS
 62
4
 10
-1.1356602E+001
 20
-7.5E-001
 11
-9.8566017
 21
7.5E-001
  0
LINE
  8
1
  6
CONTINUOUS
 62
4
 10
-1.3477922E+001
 20
-7.5E-001
 11
-1.1977922E+001
 21
7.5E-001
  0
LINE
  8
1
  6
CONTINUOUS
 62
4
 10
-1.5599242E+001
 20
-7.5E-001
 11
-1.4099242E+001
 21
7.5E-001
  0
LINE
  8
1
  6
CONTINUOUS
 62
4
 10
-1.7720563E+001
 20
-7.5E-001
 11
-1.6220563E+001
 21
7.5E-001
  0
LINE
  8
1
  6
CONTINUOUS
 62
4
 10
-1.9841883E+001
 20
-7.5E-001
 11
-1.8341883E+001
 21
7.5E-001
  0
LINE
  8
1
  6
CONTINUOUS
 62
4
 10
-2.1963203E+001
 20
-7.5E-001
 11
-2.0463203E+001
 21
7.5E-001
  0
LINE
  8
1
  6
CONTINUOUS
 62
4
 10
-2.4084524E+001
 20
-7.5E-001
 11
-2.2584524E+001
 21
7.5E-001
  0
LINE
  8
1
  6
CONTINUOUS
 62
4
 10
-2.6205844E+001
 20
-7.5E-001
 11
-2.4705844E+001
 21
7.5E-001
  0
LINE
  8
1
  6
CONTINUOUS
 62
4
 10
-2.8327164E+001
 20
-7.5E-001
 11
-2.6827164E+001
 21
7.5E-001
  0
LINE
  8
1
  6
CONTINUOUS
 62
4
 10
-3.0448485E+001
 20
-7.5E-001
 11
-2.8948485E+001
 21
7.5E-001
  0
LINE
  8
1
  6
CONTINUOUS
 62
4
 10
-3.2569805E+001
 20
-7.5E-001
 11
-3.1069805E+001
 21
7.5E-001
  0
LINE
  8
1
  6
CONTINUOUS
 62
4
 10
-3.4691125E+001
 20
-7.5E-001
 11
-3.3191125E+001
 21
7.5E-001
  0
LINE
  8
1
  6
CONTINUOUS
 62
4
 10
-3.6812446E+001
 20
-7.5E-001
 11
-3.5312446E+001
 21
7.5E-001
  0
LINE
  8
1
  6
CONTINUOUS
 62
4
 10
-3.8933766E+001
 20
-7.5E-001
 11
-3.7433766E+001
 21
7.5E-001
  0
LINE
  8
1
  6
CONTINUOUS
 62
4
 10
-4.1055087E+001
 20
-7.5E-001
 11
-3.9555087E+001
 21
7.5E-001
  0
LINE
  8
1
  6
CONTINUOUS
 62
4
 10
-4.3176407E+001
 20
-7.5E-001
 11
-4.1676407E+001
 21
7.5E-001
  0
LINE
  8
1
  6
CONTINUOUS
 62
4
 10
-4.5297727E+001
 20
-7.5E-001
 11
-4.3797727E+001
 21
7.5E-001
  0
LINE
  8
1
  6
CONTINUOUS
 62
4
 10
-4.6907151E+001
 20
-2.3810345E-001
 11
-4.5919048E+001
 21
7.5E-001
  0
ENDBLK
  0
BLOCK
  2
*D1192
  3
*D
 10
0.0
 20
0.0
 70
65
  0
LINE
  8
1
  6
CONTINUOUS
 62
4
 10
7.6083847E+001
 20
1.8324609E+002
 11
6.1580072E+001
 21
1.8324609E+002
  0
LINE
  8
1
  6
CONTINUOUS
 62
4
 10
8.2862587E+001
 20
1.9789609E+002
 11
6.1580072E+001
 21
1.9789609E+002
  0
SOLID
  8
1
  6
CONTINUOUS
 62
0
 10
6.3080072E+001
 20
1.8324609E+002
 11
6.3580076E+001
 21
1.8624609E+002
 12
6.2580068E+001
 22
1.8624609E+002
 13
6.2580068E+001
 23
1.8624609E+002
  0
SOLID
  8
1
  6
CONTINUOUS
 62
0
 10
6.3080072E+001
 20
1.9789609E+002
 11
6.2580068E+001
 21
1.9489609E+002
 12
6.3580076E+001
 22
1.9489609E+002
 13
6.3580076E+001
 23
1.9489609E+002
  0
LINE
  8
1
  6
CONTINUOUS
 62
4
 10
6.3080072E+001
 20
1.8324609E+002
 11
6.3080072E+001
 21
1.9070721E+002
  0
LINE
  8
1
  6
CONTINUOUS
 62
4
 10
6.3080072E+001
 20
1.9789609E+002
 11
6.3080072E+001
 21
1.9070721E+002
  0
ENDBLK
  0
BLOCK
  2
*D1200
  3
*D
 10
0.0
 20
0.0
 70
65
  0
LINE
  8
1
  6
CONTINUOUS
 62
4
 10
8.1362587E+001
 20
1.9789609E+002
 11
6.6930554E+001
 21
1.9789609E+002
  0
LINE
  8
1
  6
CONTINUOUS
 62
4
 10
8.1362587E+001
 20
2.0805609E+002
 11
6.6930554E+001
 21
2.0805609E+002
  0
SOLID
  8
1
  6
CONTINUOUS
 62
0
 10
6.8430554E+001
 20
1.9789609E+002
 11
6.8930558E+001
 21
2.0089609E+002
 12
6.793055E+001
 22
2.0089609E+002
 13
6.793055E+001
 23
2.0089609E+002
  0
SOLID
  8
1
  6
CONTINUOUS
 62
0
 10
6.8430554E+001
 20
2.0805609E+002
 11
6.793055E+001
 21
2.0505609E+002
 12
6.8930558E+001
 22
2.0505609E+002
 13
6.8930558E+001
 23
2.0505609E+002
  0
LINE
  8
1
  6
CONTINUOUS
 62
4
 10
6.8430554E+001
 20
1.9789609E+002
 11
6.8430554E+001
 21
2.0280699E+002
  0
LINE
  8
1
  6
CONTINUOUS
 62
4
 10
6.8430554E+001
 20
2.0805609E+002
 11
6.8430554E+001
 21
2.0280699E+002
  0
ENDBLK
  0
BLOCK
  2
*D1269
  3
*D
 10
0.0
 20
0.0
 70
65
  0
LINE
  8
1
  6
CONTINUOUS
 62
4
 10
8.2862587E+001
 20
1.9789609E+002
 11
6.6930554E+001
 21
1.9789609E+002
  0
LINE
  8
1
  6
CONTINUOUS
 62
4
 10
8.2862587E+001
 20
1.8773609E+002
 11
6.6930554E+001
 21
1.8773609E+002
  0
SOLID
  8
1
  6
CONTINUOUS
 62
0
 10
6.8430554E+001
 20
1.9789609E+002
 11
6.793055E+001
 21
1.9489609E+002
 12
6.8930558E+001
 22
1.9489609E+002
 13
6.8930558E+001
 23
1.9489609E+002
  0
SOLID
  8
1
  6
CONTINUOUS
 62
0
 10
6.8430554E+001
 20
1.8773609E+002
 11
6.8930558E+001
 21
1.9073609E+002
 12
6.793055E+001
 22
1.9073609E+002
 13
6.793055E+001
 23
1.9073609E+002
  0
LINE
  8
1
  6
CONTINUOUS
 62
4
 10
6.8430554E+001
 20
1.9789609E+002
 11
6.8430554E+001
 21
1.9238829E+002
  0
LINE
  8
1
  6
CONTINUOUS
 62
4
 10
6.8430554E+001
 20
1.8773609E+002
 11
6.8430554E+001
 21
1.9238829E+002
  0
ENDBLK
  0
BLOCK
  2
*D1272
  3
*D
 10
0.0
 20
0.0
 70
65
  0
LINE
  8
1
  6
CONTINUOUS
 62
4
 10
1.1908405E+002
 20
2.3074609E+002
 11
1.3185423E+002
 21
2.3074609E+002
  0
LINE
  8
1
  6
CONTINUOUS
 62
4
 10
1.1908405E+002
 20
1.8324609E+002
 11
1.3185423E+002
 21
1.8324609E+002
  0
SOLID
  8
1
  6
CONTINUOUS
 62
0
 10
1.3035423E+002
 20
2.3074609E+002
 11
1.2985422E+002
 21
2.2774609E+002
 12
1.3085423E+002
 22
2.2774609E+002
 13
1.3085423E+002
 23
2.2774609E+002
  0
SOLID
  8
1
  6
CONTINUOUS
 62
0
 10
1.3035423E+002
 20
1.8324609E+002
 11
1.3085423E+002
 21
1.8624609E+002
 12
1.2985422E+002
 22
1.8624609E+002
 13
1.2985422E+002
 23
1.8624609E+002
  0
LINE
  8
1
  6
CONTINUOUS
 62
4
 10
1.3035423E+002
 20
2.3074609E+002
 11
1.3035423E+002
 21
2.0171614E+002
  0
LINE
  8
1
  6
CONTINUOUS
 62
4
 10
1.3035423E+002
 20
1.8324609E+002
 11
1.3035423E+002
 21
2.0171614E+002
  0
ENDBLK
  0
BLOCK
  2
*E1421
  3
*E1421
 10
1.1153395E+002
 20
2.2784609E+002
 70
65
  0
ARC
  8
1
  6
CONTINUOUS
 62
3
 10
1.1153395E+002
 20
2.2784609E+002
 40
5.0E-001
 50
2.7E+002
 51
3.6E+002
  0
ENDBLK
  0
BLOCK
  2
*E1424
  3
*E1424
 10
1.0903395E+002
 20
2.2784609E+002
 70
65
  0
ARC
  8
1
  6
CONTINUOUS
 62
3
 10
1.0903395E+002
 20
2.2784609E+002
 40
5.0E-001
 50
0.0
 51
9.0E+001
  0
ENDBLK
  0
BLOCK
  2
*E1427
  3
*E1427
 10
1.0903395E+002
 20
2.1024609E+002
 70
65
  0
ARC
  8
1
  6
CONTINUOUS
 62
3
 10
1.0903395E+002
 20
2.1024609E+002
 40
5.0E-001
 50
0.0
 51
9.0E+001
  0
ENDBLK
  0
BLOCK
  2
*E1429
  3
*E1429
 10
1.1153395E+002
 20
2.1024609E+002
 70
65
  0
ARC
  8
1
  6
CONTINUOUS
 62
3
 10
1.1153395E+002
 20
2.1024609E+002
 40
5.0E-001
 50
2.7E+002
 51
3.6E+002
  0
ENDBLK
  0
BLOCK
  2
*E1431
  3
*E1431
 10
1.1153395E+002
 20
2.0064609E+002
 70
65
  0
ARC
  8
1
  6
CONTINUOUS
 62
3
 10
1.1153395E+002
 20
2.0064609E+002
 40
5.0E-001
 50
2.7E+002
 51
3.6E+002
  0
ENDBLK
  0
BLOCK
  2
*E1433
  3
*E1433
 10
1.0903395E+002
 20
2.0064609E+002
 70
65
  0
ARC
  8
1
  6
CONTINUOUS
 62
3
 10
1.0903395E+002
 20
2.0064609E+002
 40
5.0E-001
 50
0.0
 51
9.0E+001
  0
ENDBLK
  0
BLOCK
  2
*E1435
  3
*E1435
 10
1.1153395E+002
 20
1.9154609E+002
 70
65
  0
ARC
  8
1
  6
CONTINUOUS
 62
3
 10
1.1153395E+002
 20
1.9154609E+002
 40
5.0E-001
 50
2.7E+002
 51
3.6E+002
  0
ENDBLK
  0
BLOCK
  2
*E1437
  3
*E1437
 10
1.0903395E+002
 20
1.9154609E+002
 70
65
  0
ARC
  8
1
  6
CONTINUOUS
 62
3
 10
1.0903395E+002
 20
1.9154609E+002
 40
5.0E-001
 50
0.0
 51
9.0E+001
  0
ENDBLK
  0
BLOCK
  2
*E1439
  3
*E1439
 10
1.0903395E+002
 20
1.8574609E+002
 70
65
  0
ARC
  8
1
  6
CONTINUOUS
 62
3
 10
1.0903395E+002
 20
1.8574609E+002
 40
5.0E-001
 50
9.0E+001
 51
1.8E+002
  0
ENDBLK
  0
BLOCK
  2
*E1442
  3
*E1442
 10
1.1153395E+002
 20
1.8574609E+002
 70
65
  0
ARC
  8
1
  6
CONTINUOUS
 62
3
 10
1.1153395E+002
 20
1.8574609E+002
 40
5.0E-001
 50
1.8E+002
 51
2.7E+002
  0
ENDBLK
  0
BLOCK
  2
*E1445
  3
*E1445
 10
1.1153395E+002
 20
1.9514609E+002
 70
65
  0
ARC
  8
1
  6
CONTINUOUS
 62
3
 10
1.1153395E+002
 20
1.9514609E+002
 40
5.0E-001
 50
1.8E+002
 51
2.7E+002
  0
ENDBLK
  0
BLOCK
  2
*E1446
  3
*E1446
 10
1.0903395E+002
 20
1.9514609E+002
 70
65
  0
ARC
  8
1
  6
CONTINUOUS
 62
3
 10
1.0903395E+002
 20
1.9514609E+002
 40
5.0E-001
 50
9.0E+001
 51
1.8E+002
  0
ENDBLK
  0
BLOCK
  2
*E1449
  3
*E1449
 10
1.1153395E+002
 20
2.0424609E+002
 70
65
  0
ARC
  8
1
  6
CONTINUOUS
 62
3
 10
1.1153395E+002
 20
2.0424609E+002
 40
5.0E-001
 50
1.8E+002
 51
2.7E+002
  0
ENDBLK
  0
BLOCK
  2
*E1451
  3
*E1451
 10
1.0903395E+002
 20
2.0424609E+002
 70
65
  0
ARC
  8
1
  6
CONTINUOUS
 62
3
 10
1.0903395E+002
 20
2.0424609E+002
 40
5.0E-001
 50
9.0E+001
 51
1.8E+002
  0
ENDBLK
  0
BLOCK
  2
*E1453
  3
*E1453
 10
1.1153395E+002
 20
2.1334609E+002
 70
65
  0
ARC
  8
1
  6
CONTINUOUS
 62
3
 10
1.1153395E+002
 20
2.1334609E+002
 40
5.0E-001
 50
1.8E+002
 51
2.7E+002
  0
ENDBLK
  0
BLOCK
  2
*E1455
  3
*E1455
 10
1.0903395E+002
 20
2.1334609E+002
 70
65
  0
ARC
  8
1
  6
CONTINUOUS
 62
3
 10
1.0903395E+002
 20
2.1334609E+002
 40
5.0E-001
 50
9.0E+001
 51
1.8E+002
  0
ENDBLK
  0
BLOCK
  2
*E1457
  3
*E1457
 10
1.1153395E+002
 20
2.2244609E+002
 70
65
  0
ARC
  8
1
  6
CONTINUOUS
 62
3
 10
1.1153395E+002
 20
2.2244609E+002
 40
5.0E-001
 50
1.8E+002
 51
2.7E+002
  0
ENDBLK
  0
BLOCK
  2
*E1458
  3
*E1458
 10
1.0903395E+002
 20
2.2244609E+002
 70
65
  0
ARC
  8
1
  6
CONTINUOUS
 62
3
 10
1.0903395E+002
 20
2.2244609E+002
 40
5.0E-001
 50
9.0E+001
 51
1.8E+002
  0
ENDBLK
  0
BLOCK
  2
*E1459
  3
*E1459
 10
1.1153395E+002
 20
2.2124609E+002
 70
65
  0
ARC
  8
1
  6
CONTINUOUS
 62
3
 10
1.1153395E+002
 20
2.2124609E+002
 40
5.0E-001
 50
2.7E+002
 51
3.6E+002
  0
ENDBLK
  0
BLOCK
  2
*E1461
  3
*E1461
 10
1.0903395E+002
 20
2.2124609E+002
 70
65
  0
ARC
  8
1
  6
CONTINUOUS
 62
3
 10
1.0903395E+002
 20
2.2124609E+002
 40
5.0E-001
 50
0.0
 51
9.0E+001
  0
ENDBLK
  0
BLOCK
  2
*D1592
  3
*D
 10
0.0
 20
0.0
 70
65
  0
LINE
  8
1
  6
CONTINUOUS
 62
4
 10
8.2862587E+001
 20
2.0805609E+002
 11
6.6930554E+001
 21
2.0805609E+002
  0
LINE
  8
1
  6
CONTINUOUS
 62
4
 10
8.2862587E+001
 20
2.1821609E+002
 11
6.6930554E+001
 21
2.1821609E+002
  0
SOLID
  8
1
  6
CONTINUOUS
 62
0
 10
6.8430554E+001
 20
2.0805609E+002
 11
6.8930558E+001
 21
2.1105609E+002
 12
6.793055E+001
 22
2.1105609E+002
 13
6.793055E+001
 23
2.1105609E+002
  0
SOLID
  8
1
  6
CONTINUOUS
 62
0
 10
6.8430554E+001
 20
2.1821609E+002
 11
6.793055E+001
 21
2.1521609E+002
 12
6.8930558E+001
 22
2.1521609E+002
 13
6.8930558E+001
 23
2.1521609E+002
  0
LINE
  8
1
  6
CONTINUOUS
 62
4
 10
6.8430554E+001
 20
2.0805609E+002
 11
6.8430554E+001
 21
2.1270749E+002
  0
LINE
  8
1
  6
CONTINUOUS
 62
4
 10
6.8430554E+001
 20
2.1821609E+002
 11
6.8430554E+001
 21
2.1270749E+002
  0
ENDBLK
  0
BLOCK
  2
*D1594
  3
*D
 10
0.0
 20
0.0
 70
65
  0
LINE
  8
1
  6
CONTINUOUS
 62
4
 10
8.2862587E+001
 20
2.1821609E+002
 11
6.6930554E+001
 21
2.1821609E+002
  0
LINE
  8
1
  6
CONTINUOUS
 62
4
 10
8.2862587E+001
 20
2.2583609E+002
 11
6.6930554E+001
 21
2.2583609E+002
  0
SOLID
  8
1
  6
CONTINUOUS
 62
0
 10
6.8430554E+001
 20
2.1821609E+002
 11
6.793055E+001
 21
2.1521609E+002
 12
6.8930558E+001
 22
2.1521609E+002
 13
6.8930558E+001
 23
2.1521609E+002
  0
SOLID
  8
1
  6
CONTINUOUS
 62
0
 10
6.8430554E+001
 20
2.2583609E+002
 11
6.8930558E+001
 21
2.2883609E+002
 12
6.793055E+001
 22
2.2883609E+002
 13
6.793055E+001
 23
2.2883609E+002
  0
LINE
  8
1
  6
CONTINUOUS
 62
4
 10
6.8430554E+001
 20
2.1221609E+002
 11
6.8430554E+001
 21
2.2583609E+002
  0
LINE
  8
1
  6
CONTINUOUS
 62
4
 10
6.8430554E+001
 20
2.2583609E+002
 11
6.8430554E+001
 21
2.372779E+002
  0
ENDBLK
  0
BLOCK
  2
*D1596
  3
*D
 10
0.0
 20
0.0
 70
65
  0
LINE
  8
1
  6
CONTINUOUS
 62
4
 10
7.5583847E+001
 20
1.3046799E+002
 11
6.6776148E+001
 21
1.3046799E+002
  0
LINE
  8
1
  6
CONTINUOUS
 62
4
 10
8.3183847E+001
 20
1.1896796E+002
 11
6.6776148E+001
 21
1.1896796E+002
  0
SOLID
  8
1
  6
CONTINUOUS
 62
0
 10
6.8276148E+001
 20
1.3046799E+002
 11
6.7776144E+001
 21
1.2746799E+002
 12
6.8776152E+001
 22
1.2746799E+002
 13
6.8776152E+001
 23
1.2746799E+002
  0
SOLID
  8
1
  6
CONTINUOUS
 62
0
 10
6.8276148E+001
 20
1.1896796E+002
 11
6.8776152E+001
 21
1.2196796E+002
 12
6.7776144E+001
 22
1.2196796E+002
 13
6.7776144E+001
 23
1.2196796E+002
  0
LINE
  8
1
  6
CONTINUOUS
 62
4
 10
6.8276148E+001
 20
1.3046799E+002
 11
6.8276148E+001
 21
1.2516159E+002
  0
LINE
  8
1
  6
CONTINUOUS
 62
4
 10
6.8276148E+001
 20
1.1896796E+002
 11
6.8276148E+001
 21
1.2516159E+002
  0
ENDBLK
  0
BLOCK
  2
*D1597
  3
*D
 10
0.0
 20
0.0
 70
65
  0
LINE
  8
1
  6
CONTINUOUS
 62
4
 10
8.3183847E+001
 20
1.1896796E+002
 11
6.6776148E+001
 21
1.1896796E+002
  0
LINE
  8
1
  6
CONTINUOUS
 62
4
 10
8.4651797E+001
 20
1.1496796E+002
 11
6.6776148E+001
 21
1.1496796E+002
  0
SOLID
  8
1
  6
CONTINUOUS
 62
0
 10
6.8276148E+001
 20
1.1896796E+002
 11
6.8776152E+001
 21
1.2196796E+002
 12
6.7776144E+001
 22
1.2196796E+002
 13
6.7776144E+001
 23
1.2196796E+002
  0
SOLID
  8
1
  6
CONTINUOUS
 62
0
 10
6.8276148E+001
 20
1.1496796E+002
 11
6.7776144E+001
 21
1.1196796E+002
 12
6.8776152E+001
 22
1.1196796E+002
 13
6.8776152E+001
 23
1.1196796E+002
  0
LINE
  8
1
  6
CONTINUOUS
 62
4
 10
6.8276148E+001
 20
1.2496796E+002
 11
6.8276148E+001
 21
1.1896796E+002
  0
LINE
  8
1
  6
CONTINUOUS
 62
4
 10
6.8276148E+001
 20
1.0896796E+002
 11
6.8276148E+001
 21
1.1896796E+002
  0
TEXT
  8
1
  6
CONTINUOUS
 62
4
 10
6.6775148E+001
 20
1.1539521E+002
 40
3.0
  1
4
 41
8.0E-001
 50
9.0E+001
 51
1.0
  0
ENDBLK
  0
BLOCK
  2
*D1598
  3
*D
 10
0.0
 20
0.0
 70
65
  0
LINE
  8
1
  6
CONTINUOUS
 62
4
 10
8.4383857E+001
 20
1.1896796E+002
 11
6.0160424E+001
 21
1.1896796E+002
  0
LINE
  8
1
  6
CONTINUOUS
 62
4
 10
7.4983857E+001
 20
1.5996799E+002
 11
6.0160424E+001
 21
1.5996799E+002
  0
SOLID
  8
1
  6
CONTINUOUS
 62
0
 10
6.1660424E+001
 20
1.1896796E+002
 11
6.2160428E+001
 21
1.2196796E+002
 12
6.116042E+001
 22
1.2196796E+002
 13
6.116042E+001
 23
1.2196796E+002
  0
SOLID
  8
1
  6
CONTINUOUS
 62
0
 10
6.1660424E+001
 20
1.5996799E+002
 11
6.116042E+001
 21
1.5696799E+002
 12
6.2160428E+001
 22
1.5696799E+002
 13
6.2160428E+001
 23
1.5696799E+002
  0
LINE
  8
1
  6
CONTINUOUS
 62
4
 10
6.1660424E+001
 20
1.1896796E+002
 11
6.1660424E+001
 21
1.4239654E+002
  0
LINE
  8
1
  6
CONTINUOUS
 62
4
 10
6.1660424E+001
 20
1.5996799E+002
 11
6.1660424E+001
 21
1.4239654E+002
  0
TEXT
  8
1
  6
CONTINUOUS
 62
4
 10
6.0159424E+001
 20
1.3939654E+002
 40
3.0
  1
41
 50
9.0E+001
 51
1.0
  0
ENDBLK
  0
BLOCK
  2
*D1600
  3
*D
 10
0.0
 20
0.0
 70
65
  0
LINE
  8
1
  6
CONTINUOUS
 62
4
 10
1.0978395E+002
 20
1.1596786E+002
 11
1.0978395E+002
 21
1.0349708E+002
  0
LINE
  8
1
  6
CONTINUOUS
 62
4
 10
1.1078395E+002
 20
1.1596786E+002
 11
1.1078395E+002
 21
1.0349708E+002
  0
SOLID
  8
1
  6
CONTINUOUS
 62
0
 10
1.0978395E+002
 20
1.0499708E+002
 11
1.0678395E+002
 21
1.0549708E+002
 12
1.0678395E+002
 22
1.0449707E+002
 13
1.0678395E+002
 23
1.0449707E+002
  0
SOLID
  8
1
  6
CONTINUOUS
 62
0
 10
1.1078395E+002
 20
1.0499708E+002
 11
1.1378395E+002
 21
1.0449707E+002
 12
1.1378395E+002
 22
1.0549708E+002
 13
1.1378395E+002
 23
1.0549708E+002
  0
LINE
  8
1
  6
CONTINUOUS
 62
4
 10
1.0378395E+002
 20
1.0499708E+002
 11
1.1078395E+002
 21
1.0499708E+002
  0
LINE
  8
1
  6
CONTINUOUS
 62
4
 10
1.1078395E+002
 20
1.0499708E+002
 11
1.2657003E+002
 21
1.0499708E+002
  0
ENDBLK
  0
BLOCK
  2
*D1629
  3
*D
 10
0.0
 20
0.0
 70
65
  0
LINE
  8
1
  6
CONTINUOUS
 62
4
 10
8.4883957E+001
 20
2.2971099E+002
 11
8.4883957E+001
 21
2.3760145E+002
  0
LINE
  8
1
  6
CONTINUOUS
 62
4
 10
1.1028395E+002
 20
2.2971099E+002
 11
1.1028395E+002
 21
2.3760145E+002
  0
SOLID
  8
1
  6
CONTINUOUS
 62
0
 10
8.4883957E+001
 20
2.3610145E+002
 11
8.7883957E+001
 21
2.3560145E+002
 12
8.7883957E+001
 22
2.3660145E+002
 13
8.7883957E+001
 23
2.3660145E+002
  0
SOLID
  8
1
  6
CONTINUOUS
 62
0
 10
1.1028395E+002
 20
2.3610145E+002
 11
1.0728395E+002
 21
2.3660145E+002
 12
1.0728395E+002
 22
2.3560145E+002
 13
1.0728395E+002
 23
2.3560145E+002
  0
LINE
  8
1
  6
CONTINUOUS
 62
4
 10
8.4883957E+001
 20
2.3610145E+002
 11
9.6521474E+001
 21
2.3610145E+002
  0
LINE
  8
1
  6
CONTINUOUS
 62
4
 10
1.1028395E+002
 20
2.3610145E+002
 11
9.6521474E+001
 21
2.3610145E+002
  0
ENDBLK
  0
BLOCK
  2
*E1637
  3
*E1637
 10
1.0183395E+002
 20
1.2296799E+002
 70
65
  0
ARC
  8
1
  6
CONTINUOUS
 62
3
 10
1.0183395E+002
 20
1.2296799E+002
 40
1.0
 50
1.8E+002
 51
2.7E+002
  0
ENDBLK
  0
BLOCK
  2
*D1645
  3
*D
 10
0.0
 20
0.0
 70
65
  0
LINE
  8
1
  6
CONTINUOUS
 62
4
 10
7.4983947E+001
 20
2.1599619E+002
 11
7.4983947E+001
 21
2.4348876E+002
  0
LINE
  8
1
  6
CONTINUOUS
 62
4
 10
1.2018395E+002
 20
2.1599619E+002
 11
1.2018395E+002
 21
2.4348876E+002
  0
SOLID
  8
1
  6
CONTINUOUS
 62
0
 10
7.4983947E+001
 20
2.4198876E+002
 11
7.7983947E+001
 21
2.4148876E+002
 12
7.7983947E+001
 22
2.4248876E+002
 13
7.7983947E+001
 23
2.4248876E+002
  0
SOLID
  8
1
  6
CONTINUOUS
 62
0
 10
1.2018395E+002
 20
2.4198876E+002
 11
1.1718395E+002
 21
2.4248876E+002
 12
1.1718395E+002
 22
2.4148876E+002
 13
1.1718395E+002
 23
2.4148876E+002
  0
LINE
  8
1
  6
CONTINUOUS
 62
4
 10
7.4983947E+001
 20
2.4198876E+002
 11
9.8297013E+001
 21
2.4198876E+002
  0
LINE
  8
1
  6
CONTINUOUS
 62
4
 10
1.2018395E+002
 20
2.4198876E+002
 11
9.8297013E+001
 21
2.4198876E+002
  0
ENDBLK
  0
BLOCK
  2
*E1646
  3
*E1646
 10
1.0293395E+002
 20
1.3893869E+002
 70
65
  0
ARC
  8
1
  6
CONTINUOUS
 62
3
 10
1.0293395E+002
 20
1.3893869E+002
 40
5.292705E-001
 50
9.2E+001
 51
2.6800004E+002
  0
ENDBLK
  0
BLOCK
  2
*E1647
  3
*E1647
 10
1.0293395E+002
 20
1.3634829E+002
 70
65
  0
ARC
  8
1
  6
CONTINUOUS
 62
3
 10
1.0293395E+002
 20
1.3634829E+002
 40
6.19673E-001
 50
9.2E+001
 51
2.6800003E+002
  0
ENDBLK
  0
BLOCK
  2
*E1654
  3
*E1654
 10
1.1888395E+002
 20
1.4116799E+002
 70
65
  0
ARC
  8
1
  6
CONTINUOUS
 62
3
 10
1.1888395E+002
 20
1.4116799E+002
 40
8.0E-001
 50
1.8E+002
 51
2.7E+002
  0
ENDBLK
  0
BLOCK
  2
*E1657
  3
*E1657
 10
1.1848395E+002
 20
1.3816799E+002
 70
65
  0
ARC
  8
1
  6
CONTINUOUS
 62
3
 10
1.1848395E+002
 20
1.3816799E+002
 40
8.0E-001
 50
2.1000013E+002
 51
2.7E+002
  0
ENDBLK
  0
BLOCK
  2
*E1661
  3
*E1661
 10
1.1848395E+002
 20
1.4956079E+002
 70
65
  0
ARC
  8
1
  6
CONTINUOUS
 62
3
 10
1.1848395E+002
 20
1.4956079E+002
 40
8.0E-001
 50
1.8E+002
 51
2.7E+002
  0
ENDBLK
  0
ENDSEC
  0
SECTION
  2
ENTITIES
  0
INSERT
  2
RAHMENA4
  8
1
 10
0.0
 20
0.0
  0
TEXT
  8
1
  6
CONTINUOUS
 62
4
 10
1.2570488E+002
 20
7.2178722E+001
 40
3.0
  1
Massaenderungen vorbehalten!
 41
8.4482171E-001
  0
TEXT
  8
1
  6
CONTINUOUS
 62
4
 10
1.3746449E+002
 20
2.3447794E+001
 40
3.5
  1
1:1
 41
6.2085333E-001
  0
TEXT
  8
1
  6
CONTINUOUS
 62
4
 10
1.1125099E+002
 20
2.7732474E+001
 40
2.4
  1
5.6.89 Dietzel
 41
6.0E-001
  0
TEXT
  8
1
  6
CONTINUOUS
 62
4
 10
1.5035809E+002
 20
7.138935
 40
5.0
  1
GJL 120 0421
 41
8.0E-001
  0
TEXT
  8
1
  6
CONTINUOUS
 62
4
 10
7.6372616E+001
 20
1.4834318E+001
 40
2.5
  1
STO/CLD
 41
1.083333
  0
TEXT
  8
1
  6
CONTINUOUS
 62
4
 10
2.612286E+001
 20
2.7763551E+001
 40
2.5
  1
-
 41
7.6E-001
  0
TEXT
  8
1
  6
CONTINUOUS
 62
1
 10
8.7342709E+001
 20
6.906801
 40
5.0
  1
Massbild 
 41
9.4753028E-001
 72
1
 11
6.6023278E+001
 21
6.906801
  0
TEXT
  8
1
  6
CONTINUOUS
 62
4
 10
3.323499E+001
 20
2.7765431E+001
 40
2.2
  1
JL 121 0030
 41
7.0E-001
  0
TEXT
  8
1
  6
CONTINUOUS
 62
4
 10
3.321847E+001
 20
2.3423511E+001
 40
2.2
  1
ohne KAE 16.4.92
 41
7.0E-001
  0
LINE
  8
1
  6
CENTERLINE
 62
1
 10
9.7583947E+001
 20
2.3252639E+002
 11
9.7583947E+001
 21
1.8170939E+002
  0
POLYLINE
  8
1
  6
CONTINUOUS
 62
3
 66
1
 40
5.0E-001
 41
5.0E-001
 70
0
  0
VERTEX
  8
1
 42
0.0
 10
7.4983947E+001
 20
1.9799609E+002
 70
0
  0
VERTEX
  8
1
 42
0.0
 10
7.4983947E+001
 20
2.0449609E+002
 70
0
  0
SEQEND
  0
POLYLINE
  8
1
  6
CONTINUOUS
 62
3
 66
1
 40
5.0E-001
 41
5.0E-001
 70
0
  0
VERTEX
  8
1
 42
0.0
 10
1.2018395E+002
 20
1.9799609E+002
 70
0
  0
VERTEX
  8
1
 42
0.0
 10
1.2018395E+002
 20
2.0449609E+002
 70
0
  0
SEQEND
  0
LINE
  8
1
  6
CENTERLINE
 62
1
 10
7.3656097E+001
 20
2.0699609E+002
 11
1.2165755E+002
 21
2.0699609E+002
  0
POLYLINE
  8
1
  6
CONTINUOUS
 62
3
 66
1
 40
5.0E-001
 41
5.0E-001
 70
0
  0
VERTEX
  8
1
 42
0.0
 10
1.1908395E+002
 20
2.3074609E+002
 70
0
  0
VERTEX
  8
1
 42
0.0
 10
7.6083947E+001
 20
2.3074609E+002
 70
0
  0
SEQEND
  0
POLYLINE
  8
1
  6
CONTINUOUS
 62
3
 66
1
 40
5.0E-001
 41
5.0E-001
 70
0
  0
VERTEX
  8
1
 42
0.0
 10
1.1908395E+002
 20
1.8324609E+002
 70
0
  0
VERTEX
  8
1
 42
0.0
 10
9.9083957E+001
 20
1.8324609E+002
 70
0
  0
SEQEND
  0
POLYLINE
  8
1
  6
CONTINUOUS
 62
3
 66
1
 40
5.0E-001
 41
5.0E-001
 70
0
  0
VERTEX
  8
1
 42
0.0
 10
7.5583947E+001
 20
1.8374609E+002
 70
0
  0
VERTEX
  8
1
 42
0.0
 10
7.5583947E+001
 20
1.9749609E+002
 70
0
  0
SEQEND
  0
POLYLINE
  8
1
  6
CONTINUOUS
 62
3
 66
1
 40
5.0E-001
 41
5.0E-001
 70
0
  0
VERTEX
  8
1
 42
0.0
 10
1.1958395E+002
 20
1.8374609E+002
 70
0
  0
VERTEX
  8
1
 42
0.0
 10
1.1958395E+002
 20
1.9749609E+002
 70
0
  0
SEQEND
  0
POLYLINE
  8
1
  6
CONTINUOUS
 62
3
 66
1
 40
5.0E-001
 41
5.0E-001
 70
0
  0
VERTEX
  8
1
 42
0.0
 10
1.1968395E+002
 20
2.1649609E+002
 70
0
  0
VERTEX
  8
1
 42
0.0
 10
1.1958395E+002
 20
2.1649609E+002
 70
0
  0
SEQEND
  0
POLYLINE
  8
1
  6
CONTINUOUS
 62
3
 66
1
 40
5.0E-001
 41
5.0E-001
 70
0
  0
VERTEX
  8
1
 42
0.0
 10
7.5483947E+001
 20
1.9749609E+002
 70
0
  0
VERTEX
  8
1
 42
0.0
 10
7.5583947E+001
 20
1.9749609E+002
 70
0
  0
SEQEND
  0
POLYLINE
  8
1
  6
CONTINUOUS
 62
3
 66
1
 40
5.0E-001
 41
5.0E-001
 70
0
  0
VERTEX
  8
1
 42
0.0
 10
7.5583947E+001
 20
2.1649609E+002
 70
0
  0
VERTEX
  8
1
 42
0.0
 10
7.5483947E+001
 20
2.1649609E+002
 70
0
  0
SEQEND
  0
POLYLINE
  8
1
  6
CONTINUOUS
 62
3
 66
1
 40
5.0E-001
 41
5.0E-001
 70
0
  0
VERTEX
  8
1
 42
0.0
 10
7.5583947E+001
 20
2.1649609E+002
 70
0
  0
VERTEX
  8
1
 42
0.0
 10
7.5583947E+001
 20
2.3024609E+002
 70
0
  0
SEQEND
  0
POLYLINE
  8
1
  6
CONTINUOUS
 62
3
 66
1
 40
5.0E-001
 41
5.0E-001
 70
0
  0
VERTEX
  8
1
 42
0.0
 10
1.1958395E+002
 20
2.1649609E+002
 70
0
  0
VERTEX
  8
1
 42
0.0
 10
1.1958395E+002
 20
2.3024609E+002
 70
0
  0
SEQEND
  0
POLYLINE
  8
1
  6
CONTINUOUS
 62
3
 66
1
 40
5.0E-001
 41
5.0E-001
 70
0
  0
VERTEX
  8
1
 42
0.0
 10
1.1958395E+002
 20
1.9749609E+002
 70
0
  0
VERTEX
  8
1
 42
0.0
 10
1.1968395E+002
 20
1.9749609E+002
 70
0
  0
SEQEND
  0
POLYLINE
  8
1
  6
CONTINUOUS
 62
3
 66
1
 40
5.0E-001
 41
5.0E-001
 70
0
  0
VERTEX
  8
1
 42
4.1421356E-001
 10
7.6083947E+001
 20
2.3074609E+002
 70
0
  0
VERTEX
  8
1
 42
0.0
 10
7.5583947E+001
 20
2.3024609E+002
 70
0
  0
SEQEND
  0
POLYLINE
  8
1
  6
CONTINUOUS
 62
3
 66
1
 40
5.0E-001
 41
5.0E-001
 70
0
  0
VERTEX
  8
1
 42
4.1421356E-001
 10
7.5583947E+001
 20
1.8374609E+002
 70
0
  0
VERTEX
  8
1
 42
0.0
 10
7.6083947E+001
 20
1.8324609E+002
 70
0
  0
SEQEND
  0
POLYLINE
  8
1
  6
CONTINUOUS
 62
3
 66
1
 40
5.0E-001
 41
5.0E-001
 70
0
  0
VERTEX
  8
1
 42
4.1421356E-001
 10
1.1908395E+002
 20
1.8324609E+002
 70
0
  0
VERTEX
  8
1
 42
0.0
 10
1.1958395E+002
 20
1.8374609E+002
 70
0
  0
SEQEND
  0
POLYLINE
  8
1
  6
CONTINUOUS
 62
3
 66
1
 40
5.0E-001
 41
5.0E-001
 70
0
  0
VERTEX
  8
1
 42
4.1421356E-001
 10
1.1958395E+002
 20
2.3024609E+002
 70
0
  0
VERTEX
  8
1
 42
0.0
 10
1.1908395E+002
 20
2.3074609E+002
 70
0
  0
SEQEND
  0
POLYLINE
  8
1
  6
CONTINUOUS
 62
3
 66
1
 40
5.0E-001
 41
5.0E-001
 70
0
  0
VERTEX
  8
1
 42
4.1421356E-001
 10
1.2018395E+002
 20
2.1599609E+002
 70
0
  0
VERTEX
  8
1
 42
0.0
 10
1.1968395E+002
 20
2.1649609E+002
 70
0
  0
SEQEND
  0
POLYLINE
  8
1
  6
CONTINUOUS
 62
3
 66
1
 40
5.0E-001
 41
5.0E-001
 70
0
  0
VERTEX
  8
1
 42
4.1421356E-001
 10
1.1968395E+002
 20
1.9749609E+002
 70
0
  0
VERTEX
  8
1
 42
0.0
 10
1.2018395E+002
 20
1.9799609E+002
 70
0
  0
SEQEND
  0
POLYLINE
  8
1
  6
CONTINUOUS
 62
3
 66
1
 40
5.0E-001
 41
5.0E-001
 70
0
  0
VERTEX
  8
1
 42
4.1421356E-001
 10
7.4983947E+001
 20
1.9799609E+002
 70
0
  0
VERTEX
  8
1
 42
0.0
 10
7.5483947E+001
 20
1.9749609E+002
 70
0
  0
SEQEND
  0
POLYLINE
  8
1
  6
CONTINUOUS
 62
3
 66
1
 40
5.0E-001
 41
5.0E-001
 70
0
  0
VERTEX
  8
1
 42
4.1421356E-001
 10
7.5483947E+001
 20
2.1649609E+002
 70
0
  0
VERTEX
  8
1
 42
0.0
 10
7.4983947E+001
 20
2.1599609E+002
 70
0
  0
SEQEND
  0
LINE
  8
1
  6
CENTERLINE
 62
1
 10
8.4883957E+001
 20
1.8356349E+002
 11
8.4883957E+001
 21
2.2971089E+002
  0
POLYLINE
  8
1
  6
CONTINUOUS
 62
3
 66
1
 40
5.0E-001
 41
5.0E-001
 70
0
  0
VERTEX
  8
1
 42
0.0
 10
8.6583947E+001
 20
1.8324609E+002
 70
0
  0
VERTEX
  8
1
 42
0.0
 10
8.6583947E+001
 20
1.8424609E+002
 70
0
  0
SEQEND
  0
POLYLINE
  8
1
  6
CONTINUOUS
 62
3
 66
1
 40
5.0E-001
 41
5.0E-001
 70
0
  0
VERTEX
  8
1
 42
0.0
 10
8.3183947E+001
 20
1.8324609E+002
 70
0
  0
VERTEX
  8
1
 42
0.0
 10
8.3183947E+001
 20
1.8424609E+002
 70
0
  0
SEQEND
  0
POLYLINE
  8
1
  6
CONTINUOUS
 62
3
 66
1
 40
5.0E-001
 41
5.0E-001
 70
0
  0
VERTEX
  8
1
 42
0.0
 10
8.5633957E+001
 20
1.8424609E+002
 70
0
  0
VERTEX
  8
1
 42
0.0
 10
8.5633957E+001
 20
1.8574609E+002
 70
0
  0
SEQEND
  0
POLYLINE
  8
1
  6
CONTINUOUS
 62
3
 66
1
 40
5.0E-001
 41
5.0E-001
 70
0
  0
VERTEX
  8
1
 42
0.0
 10
8.4133957E+001
 20
1.8424609E+002
 70
0
  0
VERTEX
  8
1
 42
0.0
 10
8.4133957E+001
 20
1.8574609E+002
 70
0
  0
SEQEND
  0
POLYLINE
  8
1
  6
CONTINUOUS
 62
3
 66
1
 40
5.0E-001
 41
5.0E-001
 70
0
  0
VERTEX
  8
1
 42
1.0
 10
9.9333947E+001
 20
2.0699609E+002
 70
0
  0
VERTEX
  8
1
 42
1.0
 10
9.5833947E+001
 20
2.0699609E+002
 70
0
  0
VERTEX
  8
1
 42
0.0
 10
9.9333947E+001
 20
2.0699609E+002
 70
0
  0
SEQEND
  0
POLYLINE
  8
1
  6
CONTINUOUS
 62
3
 66
1
 40
5.0E-001
 41
5.0E-001
 70
0
  0
VERTEX
  8
1
 42
1.0
 10
1.0083395E+002
 20
2.0699609E+002
 70
0
  0
VERTEX
  8
1
 42
1.0
 10
9.4333947E+001
 20
2.0699609E+002
 70
0
  0
VERTEX
  8
1
 42
0.0
 10
1.0083395E+002
 20
2.0699609E+002
 70
0
  0
SEQEND
  0
POLYLINE
  8
1
  6
CONTINUOUS
 62
3
 66
1
 40
5.0E-001
 41
5.0E-001
 70
0
  0
VERTEX
  8
1
 42
0.0
 10
9.6083947E+001
 20
1.8344609E+002
 70
0
  0
VERTEX
  8
1
 42
0.0
 10
9.6083947E+001
 20
1.8324609E+002
 70
0
  0
SEQEND
  0
POLYLINE
  8
1
  6
CONTINUOUS
 62
3
 66
1
 40
5.0E-001
 41
5.0E-001
 70
0
  0
VERTEX
  8
1
 42
0.0
 10
9.9083957E+001
 20
1.8344609E+002
 70
0
  0
VERTEX
  8
1
 42
0.0
 10
9.9083957E+001
 20
1.8324609E+002
 70
0
  0
SEQEND
  0
POLYLINE
  8
1
  6
CONTINUOUS
 62
3
 66
1
 40
5.0E-001
 41
5.0E-001
 70
0
  0
VERTEX
  8
1
 42
0.0
 10
8.6583947E+001
 20
1.8624609E+002
 70
0
  0
VERTEX
  8
1
 42
0.0
 10
8.6133957E+001
 20
1.8624609E+002
 70
0
  0
SEQEND
  0
POLYLINE
  8
1
  6
CONTINUOUS
 62
3
 66
1
 40
5.0E-001
 41
5.0E-001
 70
0
  0
VERTEX
  8
1
 42
0.0
 10
9.9608947E+001
 20
1.8474609E+002
 70
0
  0
VERTEX
  8
1
 42
0.0
 10
9.5558947E+001
 20
1.8474609E+002
 70
0
  0
SEQEND
  0
POLYLINE
  8
1
  6
CONTINUOUS
 62
3
 66
1
 40
5.0E-001
 41
5.0E-001
 70
0
  0
VERTEX
  8
1
 42
0.0
 10
8.6583947E+001
 20
1.9104609E+002
 70
0
  0
VERTEX
  8
1
 42
0.0
 10
8.6133957E+001
 20
1.9104609E+002
 70
0
  0
SEQEND
  0
POLYLINE
  8
1
  6
CONTINUOUS
 62
3
 66
1
 40
5.0E-001
 41
5.0E-001
 70
0
  0
VERTEX
  8
1
 42
0.0
 10
9.5558947E+001
 20
1.8454609E+002
 70
0
  0
VERTEX
  8
1
 42
0.0
 10
9.5558947E+001
 20
1.8474609E+002
 70
0
  0
SEQEND
  0
POLYLINE
  8
1
  6
CONTINUOUS
 62
3
 66
1
 40
5.0E-001
 41
5.0E-001
 70
0
  0
VERTEX
  8
1
 42
0.0
 10
9.9608947E+001
 20
1.8474609E+002
 70
0
  0
VERTEX
  8
1
 42
0.0
 10
9.9608947E+001
 20
1.8454609E+002
 70
0
  0
SEQEND
  0
POLYLINE
  8
1
  6
CONTINUOUS
 62
3
 66
1
 40
5.0E-001
 41
5.0E-001
 70
0
  0
VERTEX
  8
1
 42
0.0
 10
9.6083947E+001
 20
1.8344609E+002
 70
0
  0
VERTEX
  8
1
 42
0.0
 10
9.5558947E+001
 20
1.8454609E+002
 70
0
  0
SEQEND
  0
POLYLINE
  8
1
  6
CONTINUOUS
 62
3
 66
1
 40
5.0E-001
 41
5.0E-001
 70
0
  0
VERTEX
  8
1
 42
0.0
 10
9.9083957E+001
 20
1.8344609E+002
 70
0
  0
VERTEX
  8
1
 42
0.0
 10
9.9608947E+001
 20
1.8454609E+002
 70
0
  0
SEQEND
  0
POLYLINE
  8
1
  6
CONTINUOUS
 62
3
 66
1
 40
5.0E-001
 41
5.0E-001
 70
0
  0
VERTEX
  8
1
 42
0.0
 10
9.6083947E+001
 20
1.8324609E+002
 70
0
  0
VERTEX
  8
1
 42
0.0
 10
7.6083947E+001
 20
1.8324609E+002
 70
0
  0
SEQEND
  0
POLYLINE
  8
1
  6
CONTINUOUS
 62
3
 66
1
 40
5.0E-001
 41
5.0E-001
 70
0
  0
VERTEX
  8
1
 42
0.0
 10
8.3183947E+001
 20
1.9564609E+002
 70
0
  0
VERTEX
  8
1
 42
0.0
 10
8.6583947E+001
 20
1.9564609E+002
 70
0
  0
SEQEND
  0
POLYLINE
  8
1
  6
CONTINUOUS
 62
3
 66
1
 40
5.0E-001
 41
5.0E-001
 70
0
  0
VERTEX
  8
1
 42
0.0
 10
8.6583947E+001
 20
2.0014609E+002
 70
0
  0
VERTEX
  8
1
 42
0.0
 10
8.6133957E+001
 20
2.0014609E+002
 70
0
  0
SEQEND
  0
POLYLINE
  8
1
  6
CONTINUOUS
 62
3
 66
1
 40
5.0E-001
 41
5.0E-001
 70
0
  0
VERTEX
  8
1
 42
0.0
 10
8.6583947E+001
 20
2.0474609E+002
 70
0
  0
VERTEX
  8
1
 42
0.0
 10
8.3183947E+001
 20
2.0474609E+002
 70
0
  0
SEQEND
  0
POLYLINE
  8
1
  6
CONTINUOUS
 62
3
 66
1
 40
5.0E-001
 41
5.0E-001
 70
0
  0
VERTEX
  8
1
 42
0.0
 10
8.6583947E+001
 20
2.0974609E+002
 70
0
  0
VERTEX
  8
1
 42
0.0
 10
8.6133957E+001
 20
2.0974609E+002
 70
0
  0
SEQEND
  0
POLYLINE
  8
1
  6
CONTINUOUS
 62
3
 66
1
 40
5.0E-001
 41
5.0E-001
 70
0
  0
VERTEX
  8
1
 42
0.0
 10
8.6583947E+001
 20
2.1384609E+002
 70
0
  0
VERTEX
  8
1
 42
0.0
 10
8.3183947E+001
 20
2.1384609E+002
 70
0
  0
SEQEND
  0
POLYLINE
  8
1
  6
CONTINUOUS
 62
3
 66
1
 40
5.0E-001
 41
5.0E-001
 70
0
  0
VERTEX
  8
1
 42
0.0
 10
8.6583947E+001
 20
2.2074609E+002
 70
0
  0
VERTEX
  8
1
 42
0.0
 10
8.3183947E+001
 20
2.2074609E+002
 70
0
  0
SEQEND
  0
POLYLINE
  8
1
  6
CONTINUOUS
 62
3
 66
1
 40
5.0E-001
 41
5.0E-001
 70
0
  0
VERTEX
  8
1
 42
0.0
 10
8.6583947E+001
 20
2.2294609E+002
 70
0
  0
VERTEX
  8
1
 42
0.0
 10
8.3183947E+001
 20
2.2294609E+002
 70
0
  0
SEQEND
  0
POLYLINE
  8
1
  6
CONTINUOUS
 62
3
 66
1
 40
5.0E-001
 41
5.0E-001
 70
0
  0
VERTEX
  8
1
 42
0.0
 10
8.6583947E+001
 20
2.2734609E+002
 70
0
  0
VERTEX
  8
1
 42
0.0
 10
8.6133957E+001
 20
2.2734609E+002
 70
0
  0
SEQEND
  0
POLYLINE
  8
1
  6
CONTINUOUS
 62
3
 66
1
 40
5.0E-001
 41
5.0E-001
 70
0
  0
VERTEX
  8
1
 42
0.0
 10
8.6583947E+001
 20
1.8424609E+002
 70
0
  0
VERTEX
  8
1
 42
0.0
 10
8.3183947E+001
 20
1.8424609E+002
 70
0
  0
SEQEND
  0
POLYLINE
  8
1
  6
CONTINUOUS
 62
3
 66
1
 40
5.0E-001
 41
5.0E-001
 70
0
  0
VERTEX
  8
1
 42
0.0
 10
8.3183947E+001
 20
1.8624609E+002
 70
0
  0
VERTEX
  8
1
 42
0.0
 10
8.3183947E+001
 20
1.9104609E+002
 70
0
  0
SEQEND
  0
POLYLINE
  8
1
  6
CONTINUOUS
 62
3
 66
1
 40
5.0E-001
 41
5.0E-001
 70
0
  0
VERTEX
  8
1
 42
0.0
 10
8.6583947E+001
 20
1.8624609E+002
 70
0
  0
VERTEX
  8
1
 42
0.0
 10
8.6583947E+001
 20
1.9104609E+002
 70
0
  0
SEQEND
  0
POLYLINE
  8
1
  6
CONTINUOUS
 62
3
 66
1
 40
5.0E-001
 41
5.0E-001
 70
0
  0
VERTEX
  8
1
 42
0.0
 10
8.5633957E+001
 20
2.0064609E+002
 70
0
  0
VERTEX
  8
1
 42
0.0
 10
8.5633957E+001
 20
2.0424609E+002
 70
0
  0
SEQEND
  0
POLYLINE
  8
1
  6
CONTINUOUS
 62
3
 66
1
 40
5.0E-001
 41
5.0E-001
 70
0
  0
VERTEX
  8
1
 42
0.0
 10
8.4133957E+001
 20
2.0064609E+002
 70
0
  0
VERTEX
  8
1
 42
0.0
 10
8.4133957E+001
 20
2.0424609E+002
 70
0
  0
SEQEND
  0
POLYLINE
  8
1
  6
CONTINUOUS
 62
3
 66
1
 40
5.0E-001
 41
5.0E-001
 70
0
  0
VERTEX
  8
1
 42
0.0
 10
8.3183947E+001
 20
1.9564609E+002
 70
0
  0
VERTEX
  8
1
 42
0.0
 10
8.3183947E+001
 20
2.0014609E+002
 70
0
  0
SEQEND
  0
POLYLINE
  8
1
  6
CONTINUOUS
 62
3
 66
1
 40
5.0E-001
 41
5.0E-001
 70
0
  0
VERTEX
  8
1
 42
0.0
 10
8.6583947E+001
 20
1.9564609E+002
 70
0
  0
VERTEX
  8
1
 42
0.0
 10
8.6583947E+001
 20
2.0014609E+002
 70
0
  0
SEQEND
  0
POLYLINE
  8
1
  6
CONTINUOUS
 62
3
 66
1
 40
5.0E-001
 41
5.0E-001
 70
0
  0
VERTEX
  8
1
 42
0.0
 10
8.4133957E+001
 20
1.9154609E+002
 70
0
  0
VERTEX
  8
1
 42
0.0
 10
8.4133957E+001
 20
1.9514609E+002
 70
0
  0
SEQEND
  0
POLYLINE
  8
1
  6
CONTINUOUS
 62
3
 66
1
 40
5.0E-001
 41
5.0E-001
 70
0
  0
VERTEX
  8
1
 42
0.0
 10
8.5633957E+001
 20
1.9154609E+002
 70
0
  0
VERTEX
  8
1
 42
0.0
 10
8.5633957E+001
 20
1.9514609E+002
 70
0
  0
SEQEND
  0
POLYLINE
  8
1
  6
CONTINUOUS
 62
3
 66
1
 40
5.0E-001
 41
5.0E-001
 70
0
  0
VERTEX
  8
1
 42
0.0
 10
8.3183947E+001
 20
2.0474609E+002
 70
0
  0
VERTEX
  8
1
 42
0.0
 10
8.3183947E+001
 20
2.0974609E+002
 70
0
  0
SEQEND
  0
POLYLINE
  8
1
  6
CONTINUOUS
 62
3
 66
1
 40
5.0E-001
 41
5.0E-001
 70
0
  0
VERTEX
  8
1
 42
0.0
 10
8.6583947E+001
 20
2.0474609E+002
 70
0
  0
VERTEX
  8
1
 42
0.0
 10
8.6583947E+001
 20
2.0974609E+002
 70
0
  0
SEQEND
  0
POLYLINE
  8
1
  6
CONTINUOUS
 62
3
 66
1
 40
5.0E-001
 41
5.0E-001
 70
0
  0
VERTEX
  8
1
 42
0.0
 10
8.4133957E+001
 20
2.1024609E+002
 70
0
  0
VERTEX
  8
1
 42
0.0
 10
8.4133957E+001
 20
2.1334609E+002
 70
0
  0
SEQEND
  0
POLYLINE
  8
1
  6
CONTINUOUS
 62
3
 66
1
 40
5.0E-001
 41
5.0E-001
 70
0
  0
VERTEX
  8
1
 42
0.0
 10
8.5633957E+001
 20
2.1024609E+002
 70
0
  0
VERTEX
  8
1
 42
0.0
 10
8.5633957E+001
 20
2.1334609E+002
 70
0
  0
SEQEND
  0
POLYLINE
  8
1
  6
CONTINUOUS
 62
3
 66
1
 40
5.0E-001
 41
5.0E-001
 70
0
  0
VERTEX
  8
1
 42
0.0
 10
8.3183947E+001
 20
2.1384609E+002
 70
0
  0
VERTEX
  8
1
 42
0.0
 10
8.3183947E+001
 20
2.2074609E+002
 70
0
  0
SEQEND
  0
POLYLINE
  8
1
  6
CONTINUOUS
 62
3
 66
1
 40
5.0E-001
 41
5.0E-001
 70
0
  0
VERTEX
  8
1
 42
0.0
 10
8.6583947E+001
 20
2.1384609E+002
 70
0
  0
VERTEX
  8
1
 42
0.0
 10
8.6583947E+001
 20
2.2074609E+002
 70
0
  0
SEQEND
  0
POLYLINE
  8
1
  6
CONTINUOUS
 62
3
 66
1
 40
5.0E-001
 41
5.0E-001
 70
0
  0
VERTEX
  8
1
 42
0.0
 10
8.4133957E+001
 20
2.2124609E+002
 70
0
  0
VERTEX
  8
1
 42
0.0
 10
8.4133957E+001
 20
2.2244609E+002
 70
0
  0
SEQEND
  0
POLYLINE
  8
1
  6
CONTINUOUS
 62
3
 66
1
 40
5.0E-001
 41
5.0E-001
 70
0
  0
VERTEX
  8
1
 42
0.0
 10
8.5633957E+001
 20
2.2124609E+002
 70
0
  0
VERTEX
  8
1
 42
0.0
 10
8.5633957E+001
 20
2.2244609E+002
 70
0
  0
SEQEND
  0
POLYLINE
  8
1
  6
CONTINUOUS
 62
3
 66
1
 40
5.0E-001
 41
5.0E-001
 70
0
  0
VERTEX
  8
1
 42
0.0
 10
8.3183947E+001
 20
2.2294609E+002
 70
0
  0
VERTEX
  8
1
 42
0.0
 10
8.3183947E+001
 20
2.2734609E+002
 70
0
  0
SEQEND
  0
POLYLINE
  8
1
  6
CONTINUOUS
 62
3
 66
1
 40
5.0E-001
 41
5.0E-001
 70
0
  0
VERTEX
  8
1
 42
0.0
 10
8.6583947E+001
 20
2.2294609E+002
 70
0
  0
VERTEX
  8
1
 42
0.0
 10
8.6583947E+001
 20
2.2734609E+002
 70
0
  0
SEQEND
  0
POLYLINE
  8
1
  6
CONTINUOUS
 62
3
 66
1
 40
5.0E-001
 41
5.0E-001
 70
0
  0
VERTEX
  8
1
 42
0.0
 10
8.4133957E+001
 20
2.2784609E+002
 70
0
  0
VERTEX
  8
1
 42
0.0
 10
8.4133957E+001
 20
2.3074609E+002
 70
0
  0
SEQEND
  0
POLYLINE
  8
1
  6
CONTINUOUS
 62
3
 66
1
 40
5.0E-001
 41
5.0E-001
 70
0
  0
VERTEX
  8
1
 42
0.0
 10
8.5633957E+001
 20
2.2784609E+002
 70
0
  0
VERTEX
  8
1
 42
0.0
 10
8.5633957E+001
 20
2.3074609E+002
 70
0
  0
SEQEND
  0
POLYLINE
  8
1
  6
CONTINUOUS
 62
3
 66
1
 40
5.0E-001
 41
5.0E-001
 70
0
  0
VERTEX
  8
1
 42
0.0
 10
8.3633957E+001
 20
2.2734609E+002
 70
0
  0
VERTEX
  8
1
 42
0.0
 10
8.3183947E+001
 20
2.2734609E+002
 70
0
  0
SEQEND
  0
POLYLINE
  8
1
  6
CONTINUOUS
 62
3
 66
1
 40
5.0E-001
 41
5.0E-001
 70
0
  0
VERTEX
  8
1
 42
0.0
 10
8.3633957E+001
 20
2.0974609E+002
 70
0
  0
VERTEX
  8
1
 42
0.0
 10
8.3183947E+001
 20
2.0974609E+002
 70
0
  0
SEQEND
  0
POLYLINE
  8
1
  6
CONTINUOUS
 62
3
 66
1
 40
5.0E-001
 41
5.0E-001
 70
0
  0
VERTEX
  8
1
 42
0.0
 10
8.3633957E+001
 20
2.0014609E+002
 70
0
  0
VERTEX
  8
1
 42
0.0
 10
8.3183947E+001
 20
2.0014609E+002
 70
0
  0
SEQEND
  0
POLYLINE
  8
1
  6
CONTINUOUS
 62
3
 66
1
 40
5.0E-001
 41
5.0E-001
 70
0
  0
VERTEX
  8
1
 42
0.0
 10
8.3633957E+001
 20
1.8624609E+002
 70
0
  0
VERTEX
  8
1
 42
0.0
 10
8.3183947E+001
 20
1.8624609E+002
 70
0
  0
SEQEND
  0
POLYLINE
  8
1
  6
CONTINUOUS
 62
3
 66
1
 40
5.0E-001
 41
5.0E-001
 70
0
  0
VERTEX
  8
1
 42
0.0
 10
8.3633957E+001
 20
1.9104609E+002
 70
0
  0
VERTEX
  8
1
 42
0.0
 10
8.3183947E+001
 20
1.9104609E+002
 70
0
  0
SEQEND
  0
POLYLINE
  8
1
  6
CONTINUOUS
 62
3
 66
1
 40
5.0E-001
 41
5.0E-001
 70
0
  0
VERTEX
  8
1
 42
0.0
 10
8.6583947E+001
 20
1.9664609E+002
 70
0
  0
VERTEX
  8
1
 42
0.0
 10
8.3183947E+001
 20
1.9664609E+002
 70
0
  0
SEQEND
  0
POLYLINE
  8
1
  6
CONTINUOUS
 62
3
 66
1
 40
5.0E-001
 41
5.0E-001
 70
0
  0
VERTEX
  8
1
 42
0.0
 10
8.3183947E+001
 20
2.0574609E+002
 70
0
  0
VERTEX
  8
1
 42
0.0
 10
8.6583947E+001
 20
2.0574609E+002
 70
0
  0
SEQEND
  0
POLYLINE
  8
1
  6
CONTINUOUS
 62
3
 66
1
 40
5.0E-001
 41
5.0E-001
 70
0
  0
VERTEX
  8
1
 42
0.0
 10
8.3183947E+001
 20
2.1484609E+002
 70
0
  0
VERTEX
  8
1
 42
0.0
 10
8.6583947E+001
 20
2.1484609E+002
 70
0
  0
SEQEND
  0
POLYLINE
  8
1
  6
CONTINUOUS
 62
3
 66
1
 40
5.0E-001
 41
5.0E-001
 70
0
  0
VERTEX
  8
1
 42
0.0
 10
8.6583947E+001
 20
2.2394609E+002
 70
0
  0
VERTEX
  8
1
 42
0.0
 10
8.3183947E+001
 20
2.2394609E+002
 70
0
  0
SEQEND
  0
POLYLINE
  8
1
  6
CONTINUOUS
 62
3
 66
1
 40
5.0E-001
 41
5.0E-001
 70
0
  0
VERTEX
  8
1
 42
0.0
 10
8.3183947E+001
 20
2.1974609E+002
 70
0
  0
VERTEX
  8
1
 42
0.0
 10
8.6583947E+001
 20
2.1974609E+002
 70
0
  0
SEQEND
  0
POLYLINE
  8
1
  6
CONTINUOUS
 62
3
 66
1
 40
5.0E-001
 41
5.0E-001
 70
0
  0
VERTEX
  8
1
 42
0.0
 10
7.8583947E+001
 20
2.0574609E+002
 70
0
  0
VERTEX
  8
1
 42
0.0
 10
7.6583947E+001
 20
2.0574609E+002
 70
0
  0
SEQEND
  0
POLYLINE
  8
1
  6
CONTINUOUS
 62
3
 66
1
 40
5.0E-001
 41
5.0E-001
 70
0
  0
VERTEX
  8
1
 42
0.0
 10
7.8583947E+001
 20
2.0824609E+002
 70
0
  0
VERTEX
  8
1
 42
0.0
 10
7.6583947E+001
 20
2.0824609E+002
 70
0
  0
SEQEND
  0
POLYLINE
  8
1
  6
CONTINUOUS
 62
3
 66
1
 40
5.0E-001
 41
5.0E-001
 70
0
  0
VERTEX
  8
1
 42
0.0
 10
7.6583947E+001
 20
2.0449609E+002
 70
0
  0
VERTEX
  8
1
 42
0.0
 10
7.6583947E+001
 20
2.0574609E+002
 70
0
  0
SEQEND
  0
POLYLINE
  8
1
  6
CONTINUOUS
 62
3
 66
1
 40
5.0E-001
 41
5.0E-001
 70
0
  0
VERTEX
  8
1
 42
0.0
 10
7.6583947E+001
 20
2.0449609E+002
 70
0
  0
VERTEX
  8
1
 42
0.0
 10
7.4983947E+001
 20
2.0449609E+002
 70
0
  0
SEQEND
  0
POLYLINE
  8
1
  6
CONTINUOUS
 62
3
 66
1
 40
5.0E-001
 41
5.0E-001
 70
0
  0
VERTEX
  8
1
 42
0.0
 10
7.4983947E+001
 20
2.0949609E+002
 70
0
  0
VERTEX
  8
1
 42
0.0
 10
7.6583947E+001
 20
2.0949609E+002
 70
0
  0
SEQEND
  0
POLYLINE
  8
1
  6
CONTINUOUS
 62
3
 66
1
 40
5.0E-001
 41
5.0E-001
 70
0
  0
VERTEX
  8
1
 42
0.0
 10
7.4983947E+001
 20
2.0599609E+002
 70
0
  0
VERTEX
  8
1
 42
0.0
 10
7.6583947E+001
 20
2.0599609E+002
 70
0
  0
SEQEND
  0
POLYLINE
  8
1
  6
CONTINUOUS
 62
3
 66
1
 40
5.0E-001
 41
5.0E-001
 70
0
  0
VERTEX
  8
1
 42
0.0
 10
7.4983947E+001
 20
2.0599609E+002
 70
0
  0
VERTEX
  8
1
 42
0.0
 10
7.4983947E+001
 20
2.1599609E+002
 70
0
  0
SEQEND
  0
POLYLINE
  8
1
  6
CONTINUOUS
 62
3
 66
1
 40
5.0E-001
 41
5.0E-001
 70
0
  0
VERTEX
  8
1
 42
0.0
 10
7.9583947E+001
 20
2.0624609E+002
 70
0
  0
VERTEX
  8
1
 42
0.0
 10
7.9583947E+001
 20
2.0774609E+002
 70
0
  0
SEQEND
  0
POLYLINE
  8
1
  6
CONTINUOUS
 62
3
 66
1
 40
5.0E-001
 41
5.0E-001
 70
0
  0
VERTEX
  8
1
 42
0.0
 10
7.8583947E+001
 20
2.0574609E+002
 70
0
  0
VERTEX
  8
1
 42
0.0
 10
7.8583947E+001
 20
2.0824609E+002
 70
0
  0
SEQEND
  0
POLYLINE
  8
1
  6
CONTINUOUS
 62
3
 66
1
 40
5.0E-001
 41
5.0E-001
 70
0
  0
VERTEX
  8
1
 42
0.0
 10
7.8583947E+001
 20
2.0624609E+002
 70
0
  0
VERTEX
  8
1
 42
0.0
 10
7.9583947E+001
 20
2.0624609E+002
 70
0
  0
SEQEND
  0
POLYLINE
  8
1
  6
CONTINUOUS
 62
3
 66
1
 40
5.0E-001
 41
5.0E-001
 70
0
  0
VERTEX
  8
1
 42
0.0
 10
7.9583947E+001
 20
2.0774609E+002
 70
0
  0
VERTEX
  8
1
 42
0.0
 10
7.8583947E+001
 20
2.0774609E+002
 70
0
  0
SEQEND
  0
POLYLINE
  8
1
  6
CONTINUOUS
 62
3
 66
1
 40
5.0E-001
 41
5.0E-001
 70
0
  0
VERTEX
  8
1
 42
0.0
 10
7.9133957E+001
 20
2.0624609E+002
 70
0
  0
VERTEX
  8
1
 42
0.0
 10
7.9133957E+001
 20
2.0774609E+002
 70
0
  0
SEQEND
  0
POLYLINE
  8
1
  6
CONTINUOUS
 62
3
 66
1
 40
5.0E-001
 41
5.0E-001
 70
0
  0
VERTEX
  8
1
 42
0.0
 10
7.6583947E+001
 20
2.0824609E+002
 70
0
  0
VERTEX
  8
1
 42
0.0
 10
7.6583947E+001
 20
2.0949609E+002
 70
0
  0
SEQEND
  0
POLYLINE
  8
1
  6
CONTINUOUS
 62
3
 66
1
 40
5.0E-001
 41
5.0E-001
 70
0
  0
VERTEX
  8
1
 42
0.0
 10
7.6583947E+001
 20
2.0574609E+002
 70
0
  0
VERTEX
  8
1
 42
0.0
 10
7.6583947E+001
 20
2.0824609E+002
 70
0
  0
SEQEND
  0
LINE
  8
1
  6
CENTERLINE
 62
1
 10
8.6896427E+001
 20
1.9789609E+002
 11
8.2862687E+001
 21
1.9789609E+002
  0
LINE
  8
1
  6
CENTERLINE
 62
1
 10
8.6896427E+001
 20
1.8773609E+002
 11
8.2862687E+001
 21
1.8773609E+002
  0
LINE
  8
1
  6
CENTERLINE
 62
1
 10
8.6896427E+001
 20
2.0805609E+002
 11
8.2862687E+001
 21
2.0805609E+002
  0
LINE
  8
1
  6
CENTERLINE
 62
1
 10
8.6896427E+001
 20
2.1821609E+002
 11
8.2862687E+001
 21
2.1821609E+002
  0
LINE
  8
1
  6
CENTERLINE
 62
1
 10
8.6896427E+001
 20
2.2583609E+002
 11
8.2862687E+001
 21
2.2583609E+002
  0
POLYLINE
  8
1
  6
CONTINUOUS
 62
3
 66
1
 40
5.0E-001
 41
5.0E-001
 70
0
  0
VERTEX
  8
1
 42
0.0
 10
8.5483947E+001
 20
1.9764609E+002
 70
0
  0
VERTEX
  8
1
 42
0.0
 10
8.4283957E+001
 20
1.9764609E+002
 70
0
  0
SEQEND
  0
POLYLINE
  8
1
  6
CONTINUOUS
 62
3
 66
1
 40
5.0E-001
 41
5.0E-001
 70
0
  0
VERTEX
  8
1
 42
0.0
 10
8.5483947E+001
 20
1.9814609E+002
 70
0
  0
VERTEX
  8
1
 42
0.0
 10
8.4283957E+001
 20
1.9814609E+002
 70
0
  0
SEQEND
  0
POLYLINE
  8
1
  6
CONTINUOUS
 62
3
 66
1
 40
5.0E-001
 41
5.0E-001
 70
0
  0
VERTEX
  8
1
 42
0.0
 10
8.4283957E+001
 20
1.9764609E+002
 70
0
  0
VERTEX
  8
1
 42
0.0
 10
8.4283957E+001
 20
1.9814609E+002
 70
0
  0
SEQEND
  0
POLYLINE
  8
1
  6
CONTINUOUS
 62
3
 66
1
 40
5.0E-001
 41
5.0E-001
 70
0
  0
VERTEX
  8
1
 42
0.0
 10
8.5483947E+001
 20
1.9764609E+002
 70
0
  0
VERTEX
  8
1
 42
0.0
 10
8.5483947E+001
 20
1.9814609E+002
 70
0
  0
SEQEND
  0
POLYLINE
  8
1
  6
CONTINUOUS
 62
3
 66
1
 40
5.0E-001
 41
5.0E-001
 70
0
  0
VERTEX
  8
1
 42
0.0
 10
8.5483947E+001
 20
1.8698609E+002
 70
0
  0
VERTEX
  8
1
 42
0.0
 10
8.4283957E+001
 20
1.8698609E+002
 70
0
  0
SEQEND
  0
POLYLINE
  8
1
  6
CONTINUOUS
 62
3
 66
1
 40
5.0E-001
 41
5.0E-001
 70
0
  0
VERTEX
  8
1
 42
0.0
 10
8.5483947E+001
 20
2.0880609E+002
 70
0
  0
VERTEX
  8
1
 42
0.0
 10
8.4283957E+001
 20
2.0880609E+002
 70
0
  0
SEQEND
  0
POLYLINE
  8
1
  6
CONTINUOUS
 62
3
 66
1
 40
5.0E-001
 41
5.0E-001
 70
0
  0
VERTEX
  8
1
 42
4.1421356E-001
 10
8.3633957E+001
 20
2.2734609E+002
 70
0
  0
VERTEX
  8
1
 42
0.0
 10
8.4133957E+001
 20
2.2784609E+002
 70
0
  0
SEQEND
  0
POLYLINE
  8
1
  6
CONTINUOUS
 62
3
 66
1
 40
5.0E-001
 41
5.0E-001
 70
0
  0
VERTEX
  8
1
 42
4.1421356E-001
 10
8.5633957E+001
 20
2.2784609E+002
 70
0
  0
VERTEX
  8
1
 42
0.0
 10
8.6133957E+001
 20
2.2734609E+002
 70
0
  0
SEQEND
  0
POLYLINE
  8
1
  6
CONTINUOUS
 62
3
 66
1
 40
5.0E-001
 41
5.0E-001
 70
0
  0
VERTEX
  8
1
 42
4.1421356E-001
 10
8.5633957E+001
 20
2.1024609E+002
 70
0
  0
VERTEX
  8
1
 42
0.0
 10
8.6133957E+001
 20
2.0974609E+002
 70
0
  0
SEQEND
  0
POLYLINE
  8
1
  6
CONTINUOUS
 62
3
 66
1
 40
5.0E-001
 41
5.0E-001
 70
0
  0
VERTEX
  8
1
 42
4.1421356E-001
 10
8.3633957E+001
 20
2.0974609E+002
 70
0
  0
VERTEX
  8
1
 42
0.0
 10
8.4133957E+001
 20
2.1024609E+002
 70
0
  0
SEQEND
  0
POLYLINE
  8
1
  6
CONTINUOUS
 62
3
 66
1
 40
5.0E-001
 41
5.0E-001
 70
0
  0
VERTEX
  8
1
 42
4.1421356E-001
 10
8.3633957E+001
 20
2.0014609E+002
 70
0
  0
VERTEX
  8
1
 42
0.0
 10
8.4133957E+001
 20
2.0064609E+002
 70
0
  0
SEQEND
  0
POLYLINE
  8
1
  6
CONTINUOUS
 62
3
 66
1
 40
5.0E-001
 41
5.0E-001
 70
0
  0
VERTEX
  8
1
 42
4.1421356E-001
 10
8.5633957E+001
 20
2.0064609E+002
 70
0
  0
VERTEX
  8
1
 42
0.0
 10
8.6133957E+001
 20
2.0014609E+002
 70
0
  0
SEQEND
  0
POLYLINE
  8
1
  6
CONTINUOUS
 62
3
 66
1
 40
5.0E-001
 41
5.0E-001
 70
0
  0
VERTEX
  8
1
 42
4.1421356E-001
 10
8.3633957E+001
 20
1.9104609E+002
 70
0
  0
VERTEX
  8
1
 42
0.0
 10
8.4133957E+001
 20
1.9154609E+002
 70
0
  0
SEQEND
  0
POLYLINE
  8
1
  6
CONTINUOUS
 62
3
 66
1
 40
5.0E-001
 41
5.0E-001
 70
0
  0
VERTEX
  8
1
 42
4.1421356E-001
 10
8.5633957E+001
 20
1.9154609E+002
 70
0
  0
VERTEX
  8
1
 42
0.0
 10
8.6133957E+001
 20
1.9104609E+002
 70
0
  0
SEQEND
  0
POLYLINE
  8
1
  6
CONTINUOUS
 62
3
 66
1
 40
5.0E-001
 41
5.0E-001
 70
0
  0
VERTEX
  8
1
 42
4.1421356E-001
 10
8.6133957E+001
 20
1.8624609E+002
 70
0
  0
VERTEX
  8
1
 42
0.0
 10
8.5633957E+001
 20
1.8574609E+002
 70
0
  0
SEQEND
  0
POLYLINE
  8
1
  6
CONTINUOUS
 62
3
 66
1
 40
5.0E-001
 41
5.0E-001
 70
0
  0
VERTEX
  8
1
 42
4.1421356E-001
 10
8.4133957E+001
 20
1.8574609E+002
 70
0
  0
VERTEX
  8
1
 42
0.0
 10
8.3633957E+001
 20
1.8624609E+002
 70
0
  0
SEQEND
  0
POLYLINE
  8
1
  6
CONTINUOUS
 62
3
 66
1
 40
5.0E-001
 41
5.0E-001
 70
0
  0
VERTEX
  8
1
 42
4.1421356E-001
 10
8.4133957E+001
 20
1.9514609E+002
 70
0
  0
VERTEX
  8
1
 42
0.0
 10
8.3633957E+001
 20
1.9564609E+002
 70
0
  0
SEQEND
  0
POLYLINE
  8
1
  6
CONTINUOUS
 62
3
 66
1
 40
5.0E-001
 41
5.0E-001
 70
0
  0
VERTEX
  8
1
 42
4.1421356E-001
 10
8.6133957E+001
 20
1.9564609E+002
 70
0
  0
VERTEX
  8
1
 42
0.0
 10
8.5633957E+001
 20
1.9514609E+002
 70
0
  0
SEQEND
  0
POLYLINE
  8
1
  6
CONTINUOUS
 62
3
 66
1
 40
5.0E-001
 41
5.0E-001
 70
0
  0
VERTEX
  8
1
 42
4.1421356E-001
 10
8.4133957E+001
 20
2.0424609E+002
 70
0
  0
VERTEX
  8
1
 42
0.0
 10
8.3633957E+001
 20
2.0474609E+002
 70
0
  0
SEQEND
  0
POLYLINE
  8
1
  6
CONTINUOUS
 62
3
 66
1
 40
5.0E-001
 41
5.0E-001
 70
0
  0
VERTEX
  8
1
 42
4.1421356E-001
 10
8.6133957E+001
 20
2.0474609E+002
 70
0
  0
VERTEX
  8
1
 42
0.0
 10
8.5633957E+001
 20
2.0424609E+002
 70
0
  0
SEQEND
  0
POLYLINE
  8
1
  6
CONTINUOUS
 62
3
 66
1
 40
5.0E-001
 41
5.0E-001
 70
0
  0
VERTEX
  8
1
 42
4.1421356E-001
 10
8.4133957E+001
 20
2.1334609E+002
 70
0
  0
VERTEX
  8
1
 42
0.0
 10
8.3633957E+001
 20
2.1384609E+002
 70
0
  0
SEQEND
  0
POLYLINE
  8
1
  6
CONTINUOUS
 62
3
 66
1
 40
5.0E-001
 41
5.0E-001
 70
0
  0
VERTEX
  8
1
 42
4.1421356E-001
 10
8.6133957E+001
 20
2.1384609E+002
 70
0
  0
VERTEX
  8
1
 42
0.0
 10
8.5633957E+001
 20
2.1334609E+002
 70
0
  0
SEQEND
  0
POLYLINE
  8
1
  6
CONTINUOUS
 62
3
 66
1
 40
5.0E-001
 41
5.0E-001
 70
0
  0
VERTEX
  8
1
 42
4.1421356E-001
 10
8.4133957E+001
 20
2.2244609E+002
 70
0
  0
VERTEX
  8
1
 42
0.0
 10
8.3633957E+001
 20
2.2294609E+002
 70
0
  0
SEQEND
  0
POLYLINE
  8
1
  6
CONTINUOUS
 62
3
 66
1
 40
5.0E-001
 41
5.0E-001
 70
0
  0
VERTEX
  8
1
 42
4.1421356E-001
 10
8.6133957E+001
 20
2.2294609E+002
 70
0
  0
VERTEX
  8
1
 42
0.0
 10
8.5633957E+001
 20
2.2244609E+002
 70
0
  0
SEQEND
  0
POLYLINE
  8
1
  6
CONTINUOUS
 62
3
 66
1
 40
5.0E-001
 41
5.0E-001
 70
0
  0
VERTEX
  8
1
 42
4.1421356E-001
 10
8.3633957E+001
 20
2.2074609E+002
 70
0
  0
VERTEX
  8
1
 42
0.0
 10
8.4133957E+001
 20
2.2124609E+002
 70
0
  0
SEQEND
  0
POLYLINE
  8
1
  6
CONTINUOUS
 62
3
 66
1
 40
5.0E-001
 41
5.0E-001
 70
0
  0
VERTEX
  8
1
 42
4.1421356E-001
 10
8.5633957E+001
 20
2.2124609E+002
 70
0
  0
VERTEX
  8
1
 42
0.0
 10
8.6133957E+001
 20
2.2074609E+002
 70
0
  0
SEQEND
  0
POLYLINE
  8
1
  6
CONTINUOUS
 62
3
 66
1
 40
5.0E-001
 41
5.0E-001
 70
0
  0
VERTEX
  8
1
 42
4.1421356E-001
 10
7.7483947E+001
 20
1.4956079E+002
 70
0
  0
VERTEX
  8
1
 42
0.0
 10
7.6683947E+001
 20
1.5036079E+002
 70
0
  0
SEQEND
  0
POLYLINE
  8
1
  6
CONTINUOUS
 62
3
 66
1
 40
5.0E-001
 41
5.0E-001
 70
0
  0
VERTEX
  8
1
 42
0.0
 10
8.4133957E+001
 20
1.1996796E+002
 70
0
  0
VERTEX
  8
1
 42
0.0
 10
8.4133957E+001
 20
1.2396799E+002
 70
0
  0
SEQEND
  0
POLYLINE
  8
1
  6
CONTINUOUS
 62
3
 66
1
 40
5.0E-001
 41
5.0E-001
 70
0
  0
VERTEX
  8
1
 42
0.0
 10
8.5633957E+001
 20
1.2396799E+002
 70
0
  0
VERTEX
  8
1
 42
0.0
 10
8.5633957E+001
 20
1.1996796E+002
 70
0
  0
SEQEND
  0
POLYLINE
  8
1
  6
CONTINUOUS
 62
3
 66
1
 40
5.0E-001
 41
5.0E-001
 70
0
  0
VERTEX
  8
1
 42
0.0
 10
8.5116007E+001
 20
1.1496796E+002
 70
0
  0
VERTEX
  8
1
 42
0.0
 10
8.4651897E+001
 20
1.1496796E+002
 70
0
  0
SEQEND
  0
LINE
  8
1
  6
CENTERLINE
 62
1
 10
8.4883957E+001
 20
1.2778969E+002
 11
8.4883957E+001
 21
1.1587455E+002
  0
POLYLINE
  8
1
  6
CONTINUOUS
 62
3
 66
1
 40
5.0E-001
 41
5.0E-001
 70
0
  0
VERTEX
  8
1
 42
0.0
 10
8.4383957E+001
 20
1.1596796E+002
 70
0
  0
VERTEX
  8
1
 42
0.0
 10
8.4383957E+001
 20
1.1746796E+002
 70
0
  0
SEQEND
  0
POLYLINE
  8
1
  6
CONTINUOUS
 62
3
 66
1
 40
5.0E-001
 41
5.0E-001
 70
0
  0
VERTEX
  8
1
 42
0.0
 10
8.5383957E+001
 20
1.1596796E+002
 70
0
  0
VERTEX
  8
1
 42
0.0
 10
8.5383957E+001
 20
1.1746796E+002
 70
0
  0
SEQEND
  0
POLYLINE
  8
1
  6
CONTINUOUS
 62
3
 66
1
 40
5.0E-001
 41
5.0E-001
 70
0
  0
VERTEX
  8
1
 42
0.0
 10
8.4383957E+001
 20
1.1896796E+002
 70
0
  0
VERTEX
  8
1
 42
0.0
 10
8.3183947E+001
 20
1.1896796E+002
 70
0
  0
SEQEND
  0
POLYLINE
  8
1
  6
CONTINUOUS
 62
3
 66
1
 40
5.0E-001
 41
5.0E-001
 70
0
  0
VERTEX
  8
1
 42
0.0
 10
8.4383957E+001
 20
1.1596796E+002
 70
0
  0
VERTEX
  8
1
 42
0.0
 10
8.4651897E+001
 20
1.1496796E+002
 70
0
  0
SEQEND
  0
POLYLINE
  8
1
  6
CONTINUOUS
 62
3
 66
1
 40
5.0E-001
 41
5.0E-001
 70
0
  0
VERTEX
  8
1
 42
0.0
 10
9.7583947E+001
 20
1.3046799E+002
 70
0
  0
VERTEX
  8
1
 42
0.0
 10
8.8583947E+001
 20
1.3046799E+002
 70
0
  0
SEQEND
  0
POLYLINE
  8
1
  6
CONTINUOUS
 62
3
 66
1
 40
5.0E-001
 41
5.0E-001
 70
0
  0
VERTEX
  8
1
 42
0.0
 10
9.3083947E+001
 20
1.3046799E+002
 70
0
  0
VERTEX
  8
1
 42
0.0
 10
9.3083947E+001
 20
1.2546799E+002
 70
0
  0
SEQEND
  0
POLYLINE
  8
1
  6
CONTINUOUS
 62
3
 66
1
 40
5.0E-001
 41
5.0E-001
 70
0
  0
VERTEX
  8
1
 42
0.0
 10
8.8583947E+001
 20
1.3706799E+002
 70
0
  0
VERTEX
  8
1
 42
0.0
 10
7.9733947E+001
 20
1.3706799E+002
 70
0
  0
SEQEND
  0
POLYLINE
  8
1
  6
CONTINUOUS
 62
3
 66
1
 40
5.0E-001
 41
5.0E-001
 70
0
  0
VERTEX
  8
1
 42
0.0
 10
8.8583947E+001
 20
1.2646799E+002
 70
0
  0
VERTEX
  8
1
 42
0.0
 10
8.8583947E+001
 20
1.3706799E+002
 70
0
  0
SEQEND
  0
POLYLINE
  8
1
  6
CONTINUOUS
 62
3
 66
1
 40
5.0E-001
 41
5.0E-001
 70
0
  0
VERTEX
  8
1
 42
0.0
 10
7.9733947E+001
 20
1.3046799E+002
 70
0
  0
VERTEX
  8
1
 42
0.0
 10
7.9733947E+001
 20
1.3706799E+002
 70
0
  0
SEQEND
  0
TEXT
  8
1
  6
CONTINUOUS
 62
4
 10
6.142337E+001
 20
1.8635217E+002
 40
2.7
  1
14,65
 41
7.0E-001
 50
9.0E+001
  0
DIMENSION
  8
1
  6
CONTINUOUS
 62
4
  1
        
  2
*D1192
  3
DSTYLE1
 10
6.3080072E+001
 20
1.9789609E+002
 11
6.0179072E+001
 21
1.9070721E+002
 70
128
 13
7.6083847E+001
 23
1.8324609E+002
 14
8.2862587E+001
 24
1.9789609E+002
 40
1.25E-001
 50
9.0E+001
  0
POLYLINE
  8
1
  6
CONTINUOUS
 62
3
 66
1
 40
5.0E-001
 41
5.0E-001
 70
0
  0
VERTEX
  8
1
 42
0.0
 10
8.6083947E+001
 20
1.2547289E+002
 70
0
  0
VERTEX
  8
1
 42
0.0
 10
8.6083947E+001
 20
1.3046799E+002
 70
0
  0
SEQEND
  0
POLYLINE
  8
1
  6
CONTINUOUS
 62
3
 66
1
 40
5.0E-001
 41
5.0E-001
 70
0
  0
VERTEX
  8
1
 42
0.0
 10
9.3083947E+001
 20
1.2546799E+002
 70
0
  0
VERTEX
  8
1
 42
0.0
 10
8.6083947E+001
 20
1.2546799E+002
 70
0
  0
SEQEND
  0
POLYLINE
  8
1
  6
CONTINUOUS
 62
3
 66
1
 40
5.0E-001
 41
5.0E-001
 70
0
  0
VERTEX
  8
1
 42
0.0
 10
8.6083947E+001
 20
1.3046799E+002
 70
0
  0
VERTEX
  8
1
 42
0.0
 10
7.5583947E+001
 20
1.3046799E+002
 70
0
  0
SEQEND
  0
POLYLINE
  8
1
  6
CONTINUOUS
 62
3
 66
1
 40
5.0E-001
 41
5.0E-001
 70
0
  0
VERTEX
  8
1
 42
0.0
 10
7.9733947E+001
 20
1.3246799E+002
 70
0
  0
VERTEX
  8
1
 42
0.0
 10
7.6183947E+001
 20
1.3246799E+002
 70
0
  0
SEQEND
  0
POLYLINE
  8
1
  6
CONTINUOUS
 62
3
 66
1
 40
5.0E-001
 41
5.0E-001
 70
0
  0
VERTEX
  8
1
 42
0.0
 10
7.5583947E+001
 20
1.4196799E+002
 70
0
  0
VERTEX
  8
1
 42
0.0
 10
7.6283947E+001
 20
1.4196799E+002
 70
0
  0
SEQEND
  0
POLYLINE
  8
1
  6
CONTINUOUS
 62
3
 66
1
 40
5.0E-001
 41
5.0E-001
 70
0
  0
VERTEX
  8
1
 42
0.0
 10
7.6583947E+001
 20
1.5036079E+002
 70
0
  0
VERTEX
  8
1
 42
0.0
 10
7.6683947E+001
 20
1.5036079E+002
 70
0
  0
SEQEND
  0
TEXT
  8
1
  6
CONTINUOUS
 62
4
 10
6.7022711E+001
 20
1.9829743E+002
 40
2.7
  1
10,16
 41
7.0E-001
 50
9.0E+001
  0
DIMENSION
  8
1
  6
CONTINUOUS
 62
4
  1
       
  2
*D1200
  3
DSTYLE2
 10
6.8430554E+001
 20
2.0805609E+002
 11
6.5529554E+001
 21
2.0280699E+002
 70
128
 13
8.2862587E+001
 23
1.9789609E+002
 14
8.2862587E+001
 24
2.0805609E+002
 40
1.25E-001
 50
9.0E+001
  0
POLYLINE
  8
1
  6
CONTINUOUS
 62
3
 66
1
 40
5.0E-001
 41
5.0E-001
 70
0
  0
VERTEX
  8
1
 42
0.0
 10
9.3083947E+001
 20
1.2646799E+002
 70
0
  0
VERTEX
  8
1
 42
0.0
 10
8.6083947E+001
 20
1.2646799E+002
 70
0
  0
SEQEND
  0
POLYLINE
  8
1
  6
CONTINUOUS
 62
3
 66
1
 40
5.0E-001
 41
5.0E-001
 70
0
  0
VERTEX
  8
1
 42
0.0
 10
7.5483947E+001
 20
1.5996799E+002
 70
0
  0
VERTEX
  8
1
 42
0.0
 10
7.6583947E+001
 20
1.5696799E+002
 70
0
  0
SEQEND
  0
POLYLINE
  8
1
  6
CONTINUOUS
 62
3
 66
1
 40
5.0E-001
 41
5.0E-001
 70
0
  0
VERTEX
  8
1
 42
0.0
 10
7.6183947E+001
 20
1.3246799E+002
 70
0
  0
VERTEX
  8
1
 42
0.0
 10
7.6183947E+001
 20
1.4196169E+002
 70
0
  0
SEQEND
  0
POLYLINE
  8
1
  6
CONTINUOUS
 62
3
 66
1
 40
5.0E-001
 41
5.0E-001
 70
0
  0
VERTEX
  8
1
 42
0.0
 10
7.6583947E+001
 20
1.5696799E+002
 70
0
  0
VERTEX
  8
1
 42
0.0
 10
7.4983947E+001
 20
1.5696799E+002
 70
0
  0
SEQEND
  0
POLYLINE
  8
1
  6
CONTINUOUS
 62
3
 66
1
 40
5.0E-001
 41
5.0E-001
 70
0
  0
VERTEX
  8
1
 42
9.6568904E-001
 10
9.2853243E+001
 20
1.3636992E+002
 70
0
  0
VERTEX
  8
1
 42
0.0
 10
9.1614651E+001
 20
1.3636992E+002
 70
0
  0
SEQEND
  0
POLYLINE
  8
1
  6
CONTINUOUS
 62
3
 66
1
 40
5.0E-001
 41
5.0E-001
 70
0
  0
VERTEX
  8
1
 42
0.0
 10
9.3059347E+001
 20
1.3046799E+002
 70
0
  0
VERTEX
  8
1
 42
0.0
 10
9.2762897E+001
 20
1.3895719E+002
 70
0
  0
SEQEND
  0
POLYLINE
  8
1
  6
CONTINUOUS
 62
3
 66
1
 40
5.0E-001
 41
5.0E-001
 70
0
  0
VERTEX
  8
1
 42
9.656891E-001
 10
9.2762895E+001
 20
1.3895716E+002
 70
0
  0
VERTEX
  8
1
 42
0.0
 10
9.1704999E+001
 20
1.3895716E+002
 70
0
  0
SEQEND
  0
TEXT
  8
1
  6
CONTINUOUS
 62
4
 10
2.607222E+001
 20
2.3322541E+001
 40
2.5
  1
a
 41
6.9333336E-001
  0
POLYLINE
  8
1
  6
CONTINUOUS
 62
3
 66
1
 40
5.0E-001
 41
5.0E-001
 70
0
  0
VERTEX
  8
1
 42
0.0
 10
8.5483947E+001
 20
1.8748609E+002
 70
0
  0
VERTEX
  8
1
 42
0.0
 10
8.4283957E+001
 20
1.8748609E+002
 70
0
  0
SEQEND
  0
POLYLINE
  8
1
  6
CONTINUOUS
 62
3
 66
1
 40
5.0E-001
 41
5.0E-001
 70
0
  0
VERTEX
  8
1
 42
0.0
 10
8.4283957E+001
 20
1.8698609E+002
 70
0
  0
VERTEX
  8
1
 42
0.0
 10
8.4283957E+001
 20
1.8798609E+002
 70
0
  0
SEQEND
  0
POLYLINE
  8
1
  6
CONTINUOUS
 62
3
 66
1
 40
5.0E-001
 41
5.0E-001
 70
0
  0
VERTEX
  8
1
 42
0.0
 10
8.5483947E+001
 20
1.8798609E+002
 70
0
  0
VERTEX
  8
1
 42
0.0
 10
8.4283957E+001
 20
1.8798609E+002
 70
0
  0
SEQEND
  0
POLYLINE
  8
1
  6
CONTINUOUS
 62
3
 66
1
 40
5.0E-001
 41
5.0E-001
 70
0
  0
VERTEX
  8
1
 42
0.0
 10
8.5483947E+001
 20
1.8698609E+002
 70
0
  0
VERTEX
  8
1
 42
0.0
 10
8.5483947E+001
 20
1.8798609E+002
 70
0
  0
SEQEND
  0
POLYLINE
  8
1
  6
CONTINUOUS
 62
3
 66
1
 40
5.0E-001
 41
5.0E-001
 70
0
  0
VERTEX
  8
1
 42
0.0
 10
8.4283957E+001
 20
2.0780609E+002
 70
0
  0
VERTEX
  8
1
 42
0.0
 10
8.4283957E+001
 20
2.0880609E+002
 70
0
  0
SEQEND
  0
POLYLINE
  8
1
  6
CONTINUOUS
 62
3
 66
1
 40
5.0E-001
 41
5.0E-001
 70
0
  0
VERTEX
  8
1
 42
0.0
 10
8.5483947E+001
 20
2.0780609E+002
 70
0
  0
VERTEX
  8
1
 42
0.0
 10
8.4283957E+001
 20
2.0780609E+002
 70
0
  0
SEQEND
  0
POLYLINE
  8
1
  6
CONTINUOUS
 62
3
 66
1
 40
5.0E-001
 41
5.0E-001
 70
0
  0
VERTEX
  8
1
 42
0.0
 10
8.5483947E+001
 20
2.0780609E+002
 70
0
  0
VERTEX
  8
1
 42
0.0
 10
8.5483947E+001
 20
2.0880609E+002
 70
0
  0
SEQEND
  0
POLYLINE
  8
1
  6
CONTINUOUS
 62
3
 66
1
 40
5.0E-001
 41
5.0E-001
 70
0
  0
VERTEX
  8
1
 42
0.0
 10
8.5483947E+001
 20
2.0830609E+002
 70
0
  0
VERTEX
  8
1
 42
0.0
 10
8.4283957E+001
 20
2.0830609E+002
 70
0
  0
SEQEND
  0
POLYLINE
  8
1
  6
CONTINUOUS
 62
3
 66
1
 40
5.0E-001
 41
5.0E-001
 70
0
  0
VERTEX
  8
1
 42
0.0
 10
8.5483947E+001
 20
2.1846609E+002
 70
0
  0
VERTEX
  8
1
 42
0.0
 10
8.4283957E+001
 20
2.1846609E+002
 70
0
  0
SEQEND
  0
POLYLINE
  8
1
  6
CONTINUOUS
 62
3
 66
1
 40
5.0E-001
 41
5.0E-001
 70
0
  0
VERTEX
  8
1
 42
0.0
 10
8.5483947E+001
 20
2.1796609E+002
 70
0
  0
VERTEX
  8
1
 42
0.0
 10
8.4283957E+001
 20
2.1796609E+002
 70
0
  0
SEQEND
  0
POLYLINE
  8
1
  6
CONTINUOUS
 62
3
 66
1
 40
5.0E-001
 41
5.0E-001
 70
0
  0
VERTEX
  8
1
 42
0.0
 10
8.4283957E+001
 20
2.1796609E+002
 70
0
  0
VERTEX
  8
1
 42
0.0
 10
8.4283957E+001
 20
2.1896609E+002
 70
0
  0
SEQEND
  0
POLYLINE
  8
1
  6
CONTINUOUS
 62
3
 66
1
 40
5.0E-001
 41
5.0E-001
 70
0
  0
VERTEX
  8
1
 42
0.0
 10
8.5483947E+001
 20
2.1796609E+002
 70
0
  0
VERTEX
  8
1
 42
0.0
 10
8.5483947E+001
 20
2.1896609E+002
 70
0
  0
SEQEND
  0
POLYLINE
  8
1
  6
CONTINUOUS
 62
3
 66
1
 40
5.0E-001
 41
5.0E-001
 70
0
  0
VERTEX
  8
1
 42
0.0
 10
8.5483947E+001
 20
2.1896609E+002
 70
0
  0
VERTEX
  8
1
 42
0.0
 10
8.4283957E+001
 20
2.1896609E+002
 70
0
  0
SEQEND
  0
POLYLINE
  8
1
  6
CONTINUOUS
 62
3
 66
1
 40
5.0E-001
 41
5.0E-001
 70
0
  0
VERTEX
  8
1
 42
0.0
 10
8.5483947E+001
 20
2.2608609E+002
 70
0
  0
VERTEX
  8
1
 42
0.0
 10
8.4283957E+001
 20
2.2608609E+002
 70
0
  0
SEQEND
  0
POLYLINE
  8
1
  6
CONTINUOUS
 62
3
 66
1
 40
5.0E-001
 41
5.0E-001
 70
0
  0
VERTEX
  8
1
 42
0.0
 10
8.5483947E+001
 20
2.2558609E+002
 70
0
  0
VERTEX
  8
1
 42
0.0
 10
8.4283957E+001
 20
2.2558609E+002
 70
0
  0
SEQEND
  0
POLYLINE
  8
1
  6
CONTINUOUS
 62
3
 66
1
 40
5.0E-001
 41
5.0E-001
 70
0
  0
VERTEX
  8
1
 42
0.0
 10
8.4283957E+001
 20
2.2558609E+002
 70
0
  0
VERTEX
  8
1
 42
0.0
 10
8.4283957E+001
 20
2.2658609E+002
 70
0
  0
SEQEND
  0
POLYLINE
  8
1
  6
CONTINUOUS
 62
3
 66
1
 40
5.0E-001
 41
5.0E-001
 70
0
  0
VERTEX
  8
1
 42
0.0
 10
8.5483947E+001
 20
2.2558609E+002
 70
0
  0
VERTEX
  8
1
 42
0.0
 10
8.5483947E+001
 20
2.2658609E+002
 70
0
  0
SEQEND
  0
POLYLINE
  8
1
  6
CONTINUOUS
 62
3
 66
1
 40
5.0E-001
 41
5.0E-001
 70
0
  0
VERTEX
  8
1
 42
0.0
 10
8.5483947E+001
 20
2.2658609E+002
 70
0
  0
VERTEX
  8
1
 42
0.0
 10
8.4283957E+001
 20
2.2658609E+002
 70
0
  0
SEQEND
  0
POLYLINE
  8
1
  6
CONTINUOUS
 62
3
 66
1
 40
5.0E-001
 41
5.0E-001
 70
0
  0
VERTEX
  8
1
 42
0.0
 10
8.8533947E+001
 20
2.0574609E+002
 70
0
  0
VERTEX
  8
1
 42
0.0
 10
9.0533947E+001
 20
2.0574609E+002
 70
0
  0
SEQEND
  0
POLYLINE
  8
1
  6
CONTINUOUS
 62
3
 66
1
 40
5.0E-001
 41
5.0E-001
 70
0
  0
VERTEX
  8
1
 42
0.0
 10
9.0533947E+001
 20
2.0574609E+002
 70
0
  0
VERTEX
  8
1
 42
0.0
 10
9.0533947E+001
 20
2.0824609E+002
 70
0
  0
SEQEND
  0
POLYLINE
  8
1
  6
CONTINUOUS
 62
3
 66
1
 40
5.0E-001
 41
5.0E-001
 70
0
  0
VERTEX
  8
1
 42
0.0
 10
8.8533947E+001
 20
2.0824609E+002
 70
0
  0
VERTEX
  8
1
 42
0.0
 10
9.0533947E+001
 20
2.0824609E+002
 70
0
  0
SEQEND
  0
POLYLINE
  8
1
  6
CONTINUOUS
 62
3
 66
1
 40
5.0E-001
 41
5.0E-001
 70
0
  0
VERTEX
  8
1
 42
0.0
 10
8.8533947E+001
 20
2.0574609E+002
 70
0
  0
VERTEX
  8
1
 42
0.0
 10
8.8533947E+001
 20
2.0824609E+002
 70
0
  0
SEQEND
  0
POLYLINE
  8
1
  6
CONTINUOUS
 62
3
 66
1
 40
5.0E-001
 41
5.0E-001
 70
0
  0
VERTEX
  8
1
 42
0.0
 10
8.7533947E+001
 20
2.0774609E+002
 70
0
  0
VERTEX
  8
1
 42
0.0
 10
8.8533947E+001
 20
2.0774609E+002
 70
0
  0
SEQEND
  0
POLYLINE
  8
1
  6
CONTINUOUS
 62
3
 66
1
 40
5.0E-001
 41
5.0E-001
 70
0
  0
VERTEX
  8
1
 42
0.0
 10
8.8533947E+001
 20
2.0624609E+002
 70
0
  0
VERTEX
  8
1
 42
0.0
 10
8.7533947E+001
 20
2.0624609E+002
 70
0
  0
SEQEND
  0
POLYLINE
  8
1
  6
CONTINUOUS
 62
3
 66
1
 40
5.0E-001
 41
5.0E-001
 70
0
  0
VERTEX
  8
1
 42
0.0
 10
8.7983947E+001
 20
2.0624609E+002
 70
0
  0
VERTEX
  8
1
 42
0.0
 10
8.7983947E+001
 20
2.0774609E+002
 70
0
  0
SEQEND
  0
POLYLINE
  8
1
  6
CONTINUOUS
 62
3
 66
1
 40
5.0E-001
 41
5.0E-001
 70
0
  0
VERTEX
  8
1
 42
0.0
 10
8.7533947E+001
 20
2.0624609E+002
 70
0
  0
VERTEX
  8
1
 42
0.0
 10
8.7533947E+001
 20
2.0774609E+002
 70
0
  0
SEQEND
  0
POLYLINE
  8
1
  6
CONTINUOUS
 62
3
 66
1
 40
5.0E-001
 41
5.0E-001
 70
0
  0
VERTEX
  8
1
 42
0.0
 10
7.6583947E+001
 20
2.1484609E+002
 70
0
  0
VERTEX
  8
1
 42
0.0
 10
7.6583947E+001
 20
2.1734609E+002
 70
0
  0
SEQEND
  0
POLYLINE
  8
1
  6
CONTINUOUS
 62
3
 66
1
 40
5.0E-001
 41
5.0E-001
 70
0
  0
VERTEX
  8
1
 42
0.0
 10
7.8583947E+001
 20
2.1484609E+002
 70
0
  0
VERTEX
  8
1
 42
0.0
 10
7.6583947E+001
 20
2.1484609E+002
 70
0
  0
SEQEND
  0
POLYLINE
  8
1
  6
CONTINUOUS
 62
3
 66
1
 40
5.0E-001
 41
5.0E-001
 70
0
  0
VERTEX
  8
1
 42
0.0
 10
7.8583947E+001
 20
2.1734609E+002
 70
0
  0
VERTEX
  8
1
 42
0.0
 10
7.6583947E+001
 20
2.1734609E+002
 70
0
  0
SEQEND
  0
POLYLINE
  8
1
  6
CONTINUOUS
 62
3
 66
1
 40
5.0E-001
 41
5.0E-001
 70
0
  0
VERTEX
  8
1
 42
0.0
 10
7.8583947E+001
 20
2.1484609E+002
 70
0
  0
VERTEX
  8
1
 42
0.0
 10
7.8583947E+001
 20
2.1734609E+002
 70
0
  0
SEQEND
  0
POLYLINE
  8
1
  6
CONTINUOUS
 62
3
 66
1
 40
5.0E-001
 41
5.0E-001
 70
0
  0
VERTEX
  8
1
 42
0.0
 10
7.9583947E+001
 20
2.1684609E+002
 70
0
  0
VERTEX
  8
1
 42
0.0
 10
7.8583947E+001
 20
2.1684609E+002
 70
0
  0
SEQEND
  0
POLYLINE
  8
1
  6
CONTINUOUS
 62
3
 66
1
 40
5.0E-001
 41
5.0E-001
 70
0
  0
VERTEX
  8
1
 42
0.0
 10
7.9133957E+001
 20
2.1534609E+002
 70
0
  0
VERTEX
  8
1
 42
0.0
 10
7.9133957E+001
 20
2.1684609E+002
 70
0
  0
SEQEND
  0
POLYLINE
  8
1
  6
CONTINUOUS
 62
3
 66
1
 40
5.0E-001
 41
5.0E-001
 70
0
  0
VERTEX
  8
1
 42
0.0
 10
7.9583947E+001
 20
2.1534609E+002
 70
0
  0
VERTEX
  8
1
 42
0.0
 10
7.9583947E+001
 20
2.1684609E+002
 70
0
  0
SEQEND
  0
POLYLINE
  8
1
  6
CONTINUOUS
 62
3
 66
1
 40
5.0E-001
 41
5.0E-001
 70
0
  0
VERTEX
  8
1
 42
0.0
 10
7.8583947E+001
 20
2.1534609E+002
 70
0
  0
VERTEX
  8
1
 42
0.0
 10
7.9583947E+001
 20
2.1534609E+002
 70
0
  0
SEQEND
  0
POLYLINE
  8
1
  6
CONTINUOUS
 62
3
 66
1
 40
5.0E-001
 41
5.0E-001
 70
0
  0
VERTEX
  8
1
 42
0.0
 10
8.7533947E+001
 20
2.1534609E+002
 70
0
  0
VERTEX
  8
1
 42
0.0
 10
8.7533947E+001
 20
2.1684609E+002
 70
0
  0
SEQEND
  0
POLYLINE
  8
1
  6
CONTINUOUS
 62
3
 66
1
 40
5.0E-001
 41
5.0E-001
 70
0
  0
VERTEX
  8
1
 42
0.0
 10
8.7983947E+001
 20
2.1534609E+002
 70
0
  0
VERTEX
  8
1
 42
0.0
 10
8.7983947E+001
 20
2.1684609E+002
 70
0
  0
SEQEND
  0
POLYLINE
  8
1
  6
CONTINUOUS
 62
3
 66
1
 40
5.0E-001
 41
5.0E-001
 70
0
  0
VERTEX
  8
1
 42
0.0
 10
8.8533947E+001
 20
2.1534609E+002
 70
0
  0
VERTEX
  8
1
 42
0.0
 10
8.7533947E+001
 20
2.1534609E+002
 70
0
  0
SEQEND
  0
POLYLINE
  8
1
  6
CONTINUOUS
 62
3
 66
1
 40
5.0E-001
 41
5.0E-001
 70
0
  0
VERTEX
  8
1
 42
0.0
 10
8.7533947E+001
 20
2.1684609E+002
 70
0
  0
VERTEX
  8
1
 42
0.0
 10
8.8533947E+001
 20
2.1684609E+002
 70
0
  0
SEQEND
  0
POLYLINE
  8
1
  6
CONTINUOUS
 62
3
 66
1
 40
5.0E-001
 41
5.0E-001
 70
0
  0
VERTEX
  8
1
 42
0.0
 10
8.8533947E+001
 20
2.1484609E+002
 70
0
  0
VERTEX
  8
1
 42
0.0
 10
8.8533947E+001
 20
2.1734609E+002
 70
0
  0
SEQEND
  0
POLYLINE
  8
1
  6
CONTINUOUS
 62
3
 66
1
 40
5.0E-001
 41
5.0E-001
 70
0
  0
VERTEX
  8
1
 42
0.0
 10
8.8533947E+001
 20
2.1734609E+002
 70
0
  0
VERTEX
  8
1
 42
0.0
 10
9.0533947E+001
 20
2.1734609E+002
 70
0
  0
SEQEND
  0
POLYLINE
  8
1
  6
CONTINUOUS
 62
3
 66
1
 40
5.0E-001
 41
5.0E-001
 70
0
  0
VERTEX
  8
1
 42
0.0
 10
9.0533947E+001
 20
2.1484609E+002
 70
0
  0
VERTEX
  8
1
 42
0.0
 10
9.0533947E+001
 20
2.1734609E+002
 70
0
  0
SEQEND
  0
POLYLINE
  8
1
  6
CONTINUOUS
 62
3
 66
1
 40
5.0E-001
 41
5.0E-001
 70
0
  0
VERTEX
  8
1
 42
0.0
 10
8.8533947E+001
 20
2.1484609E+002
 70
0
  0
VERTEX
  8
1
 42
0.0
 10
9.0533947E+001
 20
2.1484609E+002
 70
0
  0
SEQEND
  0
POLYLINE
  8
1
  6
CONTINUOUS
 62
3
 66
1
 40
5.0E-001
 41
5.0E-001
 70
0
  0
VERTEX
  8
1
 42
0.0
 10
7.8583947E+001
 20
2.2444609E+002
 70
0
  0
VERTEX
  8
1
 42
0.0
 10
7.9583947E+001
 20
2.2444609E+002
 70
0
  0
SEQEND
  0
POLYLINE
  8
1
  6
CONTINUOUS
 62
3
 66
1
 40
5.0E-001
 41
5.0E-001
 70
0
  0
VERTEX
  8
1
 42
0.0
 10
7.9583947E+001
 20
2.2444609E+002
 70
0
  0
VERTEX
  8
1
 42
0.0
 10
7.9583947E+001
 20
2.2594609E+002
 70
0
  0
SEQEND
  0
POLYLINE
  8
1
  6
CONTINUOUS
 62
3
 66
1
 40
5.0E-001
 41
5.0E-001
 70
0
  0
VERTEX
  8
1
 42
0.0
 10
7.9133957E+001
 20
2.2444609E+002
 70
0
  0
VERTEX
  8
1
 42
0.0
 10
7.9133957E+001
 20
2.2594609E+002
 70
0
  0
SEQEND
  0
POLYLINE
  8
1
  6
CONTINUOUS
 62
3
 66
1
 40
5.0E-001
 41
5.0E-001
 70
0
  0
VERTEX
  8
1
 42
0.0
 10
7.9583947E+001
 20
2.2594609E+002
 70
0
  0
VERTEX
  8
1
 42
0.0
 10
7.8583947E+001
 20
2.2594609E+002
 70
0
  0
SEQEND
  0
POLYLINE
  8
1
  6
CONTINUOUS
 62
3
 66
1
 40
5.0E-001
 41
5.0E-001
 70
0
  0
VERTEX
  8
1
 42
0.0
 10
7.8583947E+001
 20
2.2394609E+002
 70
0
  0
VERTEX
  8
1
 42
0.0
 10
7.8583947E+001
 20
2.2644609E+002
 70
0
  0
SEQEND
  0
POLYLINE
  8
1
  6
CONTINUOUS
 62
3
 66
1
 40
5.0E-001
 41
5.0E-001
 70
0
  0
VERTEX
  8
1
 42
0.0
 10
7.8583947E+001
 20
2.2644609E+002
 70
0
  0
VERTEX
  8
1
 42
0.0
 10
7.6583947E+001
 20
2.2644609E+002
 70
0
  0
SEQEND
  0
POLYLINE
  8
1
  6
CONTINUOUS
 62
3
 66
1
 40
5.0E-001
 41
5.0E-001
 70
0
  0
VERTEX
  8
1
 42
0.0
 10
7.8583947E+001
 20
2.2394609E+002
 70
0
  0
VERTEX
  8
1
 42
0.0
 10
7.6583947E+001
 20
2.2394609E+002
 70
0
  0
SEQEND
  0
POLYLINE
  8
1
  6
CONTINUOUS
 62
3
 66
1
 40
5.0E-001
 41
5.0E-001
 70
0
  0
VERTEX
  8
1
 42
0.0
 10
7.6583947E+001
 20
2.2394609E+002
 70
0
  0
VERTEX
  8
1
 42
0.0
 10
7.6583947E+001
 20
2.2644609E+002
 70
0
  0
SEQEND
  0
POLYLINE
  8
1
  6
CONTINUOUS
 62
3
 66
1
 40
5.0E-001
 41
5.0E-001
 70
0
  0
VERTEX
  8
1
 42
0.0
 10
8.8533947E+001
 20
2.2394609E+002
 70
0
  0
VERTEX
  8
1
 42
0.0
 10
9.0533947E+001
 20
2.2394609E+002
 70
0
  0
SEQEND
  0
POLYLINE
  8
1
  6
CONTINUOUS
 62
3
 66
1
 40
5.0E-001
 41
5.0E-001
 70
0
  0
VERTEX
  8
1
 42
0.0
 10
9.0533947E+001
 20
2.2394609E+002
 70
0
  0
VERTEX
  8
1
 42
0.0
 10
9.0533947E+001
 20
2.2644609E+002
 70
0
  0
SEQEND
  0
POLYLINE
  8
1
  6
CONTINUOUS
 62
3
 66
1
 40
5.0E-001
 41
5.0E-001
 70
0
  0
VERTEX
  8
1
 42
0.0
 10
8.8533947E+001
 20
2.2644609E+002
 70
0
  0
VERTEX
  8
1
 42
0.0
 10
9.0533947E+001
 20
2.2644609E+002
 70
0
  0
SEQEND
  0
POLYLINE
  8
1
  6
CONTINUOUS
 62
3
 66
1
 40
5.0E-001
 41
5.0E-001
 70
0
  0
VERTEX
  8
1
 42
0.0
 10
8.8533947E+001
 20
2.2394609E+002
 70
0
  0
VERTEX
  8
1
 42
0.0
 10
8.8533947E+001
 20
2.2644609E+002
 70
0
  0
SEQEND
  0
POLYLINE
  8
1
  6
CONTINUOUS
 62
3
 66
1
 40
5.0E-001
 41
5.0E-001
 70
0
  0
VERTEX
  8
1
 42
0.0
 10
8.7533947E+001
 20
2.2594609E+002
 70
0
  0
VERTEX
  8
1
 42
0.0
 10
8.8533947E+001
 20
2.2594609E+002
 70
0
  0
SEQEND
  0
POLYLINE
  8
1
  6
CONTINUOUS
 62
3
 66
1
 40
5.0E-001
 41
5.0E-001
 70
0
  0
VERTEX
  8
1
 42
0.0
 10
8.8533947E+001
 20
2.2444609E+002
 70
0
  0
VERTEX
  8
1
 42
0.0
 10
8.7533947E+001
 20
2.2444609E+002
 70
0
  0
SEQEND
  0
POLYLINE
  8
1
  6
CONTINUOUS
 62
3
 66
1
 40
5.0E-001
 41
5.0E-001
 70
0
  0
VERTEX
  8
1
 42
0.0
 10
8.7983947E+001
 20
2.2444609E+002
 70
0
  0
VERTEX
  8
1
 42
0.0
 10
8.7983947E+001
 20
2.2594609E+002
 70
0
  0
SEQEND
  0
POLYLINE
  8
1
  6
CONTINUOUS
 62
3
 66
1
 40
5.0E-001
 41
5.0E-001
 70
0
  0
VERTEX
  8
1
 42
0.0
 10
8.7533947E+001
 20
2.2444609E+002
 70
0
  0
VERTEX
  8
1
 42
0.0
 10
8.7533947E+001
 20
2.2594609E+002
 70
0
  0
SEQEND
  0
POLYLINE
  8
1
  6
CONTINUOUS
 62
3
 66
1
 40
5.0E-001
 41
5.0E-001
 70
0
  0
VERTEX
  8
1
 42
0.0
 10
1.2018395E+002
 20
2.0599609E+002
 70
0
  0
VERTEX
  8
1
 42
0.0
 10
1.2018395E+002
 20
2.1599609E+002
 70
0
  0
SEQEND
  0
TEXT
  8
1
  6
CONTINUOUS
 62
4
 10
6.7147141E+001
 20
1.8796975E+002
 40
2.7
  1
10,16
 41
7.0E-001
 50
9.0E+001
  0
DIMENSION
  8
1
  6
CONTINUOUS
 62
4
  1
       
  2
*D1269
  3
DSTYLE1
 10
6.8430554E+001
 20
1.8773609E+002
 11
6.5529554E+001
 21
1.9238829E+002
 70
128
 13
8.2862587E+001
 23
1.9789609E+002
 14
8.2862587E+001
 24
1.8773609E+002
 40
1.25E-001
 50
9.0E+001
  0
POLYLINE
  8
1
  6
CONTINUOUS
 62
3
 66
1
 40
5.0E-001
 41
5.0E-001
 70
0
  0
VERTEX
  8
1
 42
0.0
 10
7.5583947E+001
 20
1.4196799E+002
 70
0
  0
VERTEX
  8
1
 42
0.0
 10
7.5583947E+001
 20
1.2396799E+002
 70
0
  0
SEQEND
  0
TEXT
  8
1
  6
CONTINUOUS
 62
4
 10
1.2904187E+002
 20
2.0134234E+002
 40
3.0
  1
47,5
 41
8.0E-001
 50
9.0E+001
  0
DIMENSION
  8
1
  6
CONTINUOUS
 62
4
  1
       
  2
*D1272
  3
DSTYLE1
 10
1.3035423E+002
 20
1.8324609E+002
 11
1.2745323E+002
 21
2.0171614E+002
 70
128
 13
1.1908405E+002
 23
2.3074609E+002
 14
1.1908405E+002
 24
1.8324609E+002
 40
1.25E-001
 50
9.0E+001
  0
POLYLINE
  8
1
  6
CONTINUOUS
 62
3
 66
1
 40
5.0E-001
 41
5.0E-001
 70
0
  0
VERTEX
  8
1
 42
0.0
 10
7.4983947E+001
 20
1.5996799E+002
 70
0
  0
VERTEX
  8
1
 42
0.0
 10
7.4983947E+001
 20
1.2396799E+002
 70
0
  0
SEQEND
  0
POLYLINE
  8
1
  6
CONTINUOUS
 62
3
 66
1
 40
5.0E-001
 41
5.0E-001
 70
0
  0
VERTEX
  8
1
 42
0.0
 10
7.7483947E+001
 20
1.3246799E+002
 70
0
  0
VERTEX
  8
1
 42
0.0
 10
7.7483947E+001
 20
1.4956079E+002
 70
0
  0
SEQEND
  0
POLYLINE
  8
1
  6
CONTINUOUS
 62
3
 66
1
 40
5.0E-001
 41
5.0E-001
 70
0
  0
VERTEX
  8
1
 42
0.0
 10
7.4983947E+001
 20
1.5996799E+002
 70
0
  0
VERTEX
  8
1
 42
0.0
 10
7.5483947E+001
 20
1.5996799E+002
 70
0
  0
SEQEND
  0
POLYLINE
  8
1
  6
CONTINUOUS
 62
3
 66
1
 40
5.0E-001
 41
5.0E-001
 70
0
  0
VERTEX
  8
1
 42
0.0
 10
8.3183947E+001
 20
1.1996796E+002
 70
0
  0
VERTEX
  8
1
 42
0.0
 10
8.6583947E+001
 20
1.1996796E+002
 70
0
  0
SEQEND
  0
POLYLINE
  8
1
  6
CONTINUOUS
 62
3
 66
1
 40
5.0E-001
 41
5.0E-001
 70
0
  0
VERTEX
  8
1
 42
0.0
 10
9.7583947E+001
 20
1.2396799E+002
 70
0
  0
VERTEX
  8
1
 42
0.0
 10
7.4983947E+001
 20
1.2396799E+002
 70
0
  0
SEQEND
  0
POLYLINE
  8
1
  6
CONTINUOUS
 62
3
 66
1
 40
5.0E-001
 41
5.0E-001
 70
0
  0
VERTEX
  8
1
 42
0.0
 10
8.3183947E+001
 20
1.2396799E+002
 70
0
  0
VERTEX
  8
1
 42
0.0
 10
8.3183947E+001
 20
1.1896796E+002
 70
0
  0
SEQEND
  0
POLYLINE
  8
1
  6
CONTINUOUS
 62
3
 66
1
 40
5.0E-001
 41
5.0E-001
 70
0
  0
VERTEX
  8
1
 42
0.0
 10
8.6583947E+001
 20
1.1896796E+002
 70
0
  0
VERTEX
  8
1
 42
0.0
 10
8.6583947E+001
 20
1.2396799E+002
 70
0
  0
SEQEND
  0
POLYLINE
  8
1
  6
CONTINUOUS
 62
3
 66
1
 40
5.0E-001
 41
5.0E-001
 70
0
  0
VERTEX
  8
1
 42
0.0
 10
8.6583947E+001
 20
1.1896796E+002
 70
0
  0
VERTEX
  8
1
 42
0.0
 10
8.5383957E+001
 20
1.1896796E+002
 70
0
  0
SEQEND
  0
POLYLINE
  8
1
  6
CONTINUOUS
 62
3
 66
1
 40
5.0E-001
 41
5.0E-001
 70
0
  0
VERTEX
  8
1
 42
0.0
 10
9.4333947E+001
 20
1.2296799E+002
 70
0
  0
VERTEX
  8
1
 42
0.0
 10
9.4333947E+001
 20
1.1896796E+002
 70
0
  0
SEQEND
  0
POLYLINE
  8
1
  6
CONTINUOUS
 62
3
 66
1
 40
5.0E-001
 41
5.0E-001
 70
0
  0
VERTEX
  8
1
 42
0.0
 10
7.7083947E+001
 20
1.3246799E+002
 70
0
  0
VERTEX
  8
1
 42
0.0
 10
7.7083947E+001
 20
1.4116799E+002
 70
0
  0
SEQEND
  0
POLYLINE
  8
1
  6
CONTINUOUS
 62
3
 66
1
 40
5.0E-001
 41
5.0E-001
 70
0
  0
VERTEX
  8
1
 42
4.1421356E-001
 10
9.4333947E+001
 20
1.2296799E+002
 70
0
  0
VERTEX
  8
1
 42
0.0
 10
9.3333947E+001
 20
1.2396799E+002
 70
0
  0
SEQEND
  0
POLYLINE
  8
1
  6
CONTINUOUS
 62
3
 66
1
 40
5.0E-001
 41
5.0E-001
 70
0
  0
VERTEX
  8
1
 42
0.0
 10
7.8583947E+001
 20
2.1534609E+002
 70
0
  0
VERTEX
  8
1
 42
0.0
 10
7.9583947E+001
 20
2.1534609E+002
 70
0
  0
SEQEND
  0
POLYLINE
  8
1
  6
CONTINUOUS
 62
3
 66
1
 40
5.0E-001
 41
5.0E-001
 70
0
  0
VERTEX
  8
1
 42
0.0
 10
7.9583947E+001
 20
2.1534609E+002
 70
0
  0
VERTEX
  8
1
 42
0.0
 10
7.9583947E+001
 20
2.1684609E+002
 70
0
  0
SEQEND
  0
POLYLINE
  8
1
  6
CONTINUOUS
 62
3
 66
1
 40
5.0E-001
 41
5.0E-001
 70
0
  0
VERTEX
  8
1
 42
0.0
 10
7.9133957E+001
 20
2.1534609E+002
 70
0
  0
VERTEX
  8
1
 42
0.0
 10
7.9133957E+001
 20
2.1684609E+002
 70
0
  0
SEQEND
  0
POLYLINE
  8
1
  6
CONTINUOUS
 62
3
 66
1
 40
5.0E-001
 41
5.0E-001
 70
0
  0
VERTEX
  8
1
 42
0.0
 10
7.9583947E+001
 20
2.1684609E+002
 70
0
  0
VERTEX
  8
1
 42
0.0
 10
7.8583947E+001
 20
2.1684609E+002
 70
0
  0
SEQEND
  0
POLYLINE
  8
1
  6
CONTINUOUS
 62
3
 66
1
 40
5.0E-001
 41
5.0E-001
 70
0
  0
VERTEX
  8
1
 42
0.0
 10
7.8583947E+001
 20
2.1484609E+002
 70
0
  0
VERTEX
  8
1
 42
0.0
 10
7.8583947E+001
 20
2.1734609E+002
 70
0
  0
SEQEND
  0
POLYLINE
  8
1
  6
CONTINUOUS
 62
3
 66
1
 40
5.0E-001
 41
5.0E-001
 70
0
  0
VERTEX
  8
1
 42
0.0
 10
7.8583947E+001
 20
2.1734609E+002
 70
0
  0
VERTEX
  8
1
 42
0.0
 10
7.6583947E+001
 20
2.1734609E+002
 70
0
  0
SEQEND
  0
POLYLINE
  8
1
  6
CONTINUOUS
 62
3
 66
1
 40
5.0E-001
 41
5.0E-001
 70
0
  0
VERTEX
  8
1
 42
0.0
 10
7.8583947E+001
 20
2.1484609E+002
 70
0
  0
VERTEX
  8
1
 42
0.0
 10
7.6583947E+001
 20
2.1484609E+002
 70
0
  0
SEQEND
  0
POLYLINE
  8
1
  6
CONTINUOUS
 62
3
 66
1
 40
5.0E-001
 41
5.0E-001
 70
0
  0
VERTEX
  8
1
 42
0.0
 10
7.6583947E+001
 20
2.1484609E+002
 70
0
  0
VERTEX
  8
1
 42
0.0
 10
7.6583947E+001
 20
2.1734609E+002
 70
0
  0
SEQEND
  0
POLYLINE
  8
1
  6
CONTINUOUS
 62
3
 66
1
 40
5.0E-001
 41
5.0E-001
 70
0
  0
VERTEX
  8
1
 42
0.0
 10
8.8533947E+001
 20
2.1484609E+002
 70
0
  0
VERTEX
  8
1
 42
0.0
 10
9.0533947E+001
 20
2.1484609E+002
 70
0
  0
SEQEND
  0
POLYLINE
  8
1
  6
CONTINUOUS
 62
3
 66
1
 40
5.0E-001
 41
5.0E-001
 70
0
  0
VERTEX
  8
1
 42
0.0
 10
9.0533947E+001
 20
2.1484609E+002
 70
0
  0
VERTEX
  8
1
 42
0.0
 10
9.0533947E+001
 20
2.1734609E+002
 70
0
  0
SEQEND
  0
POLYLINE
  8
1
  6
CONTINUOUS
 62
3
 66
1
 40
5.0E-001
 41
5.0E-001
 70
0
  0
VERTEX
  8
1
 42
0.0
 10
8.8533947E+001
 20
2.1734609E+002
 70
0
  0
VERTEX
  8
1
 42
0.0
 10
9.0533947E+001
 20
2.1734609E+002
 70
0
  0
SEQEND
  0
POLYLINE
  8
1
  6
CONTINUOUS
 62
3
 66
1
 40
5.0E-001
 41
5.0E-001
 70
0
  0
VERTEX
  8
1
 42
0.0
 10
8.8533947E+001
 20
2.1484609E+002
 70
0
  0
VERTEX
  8
1
 42
0.0
 10
8.8533947E+001
 20
2.1734609E+002
 70
0
  0
SEQEND
  0
POLYLINE
  8
1
  6
CONTINUOUS
 62
3
 66
1
 40
5.0E-001
 41
5.0E-001
 70
0
  0
VERTEX
  8
1
 42
0.0
 10
8.7533947E+001
 20
2.1684609E+002
 70
0
  0
VERTEX
  8
1
 42
0.0
 10
8.8533947E+001
 20
2.1684609E+002
 70
0
  0
SEQEND
  0
POLYLINE
  8
1
  6
CONTINUOUS
 62
3
 66
1
 40
5.0E-001
 41
5.0E-001
 70
0
  0
VERTEX
  8
1
 42
0.0
 10
8.8533947E+001
 20
2.1534609E+002
 70
0
  0
VERTEX
  8
1
 42
0.0
 10
8.7533947E+001
 20
2.1534609E+002
 70
0
  0
SEQEND
  0
POLYLINE
  8
1
  6
CONTINUOUS
 62
3
 66
1
 40
5.0E-001
 41
5.0E-001
 70
0
  0
VERTEX
  8
1
 42
0.0
 10
8.7983947E+001
 20
2.1534609E+002
 70
0
  0
VERTEX
  8
1
 42
0.0
 10
8.7983947E+001
 20
2.1684609E+002
 70
0
  0
SEQEND
  0
POLYLINE
  8
1
  6
CONTINUOUS
 62
3
 66
1
 40
5.0E-001
 41
5.0E-001
 70
0
  0
VERTEX
  8
1
 42
0.0
 10
8.7533947E+001
 20
2.1534609E+002
 70
0
  0
VERTEX
  8
1
 42
0.0
 10
8.7533947E+001
 20
2.1684609E+002
 70
0
  0
SEQEND
  0
POLYLINE
  8
1
  6
CONTINUOUS
 62
3
 66
1
 40
5.0E-001
 41
5.0E-001
 70
0
  0
VERTEX
  8
1
 42
0.0
 10
7.8583947E+001
 20
1.9714609E+002
 70
0
  0
VERTEX
  8
1
 42
0.0
 10
7.9583947E+001
 20
1.9714609E+002
 70
0
  0
SEQEND
  0
POLYLINE
  8
1
  6
CONTINUOUS
 62
3
 66
1
 40
5.0E-001
 41
5.0E-001
 70
0
  0
VERTEX
  8
1
 42
0.0
 10
7.9583947E+001
 20
1.9714609E+002
 70
0
  0
VERTEX
  8
1
 42
0.0
 10
7.9583947E+001
 20
1.9864609E+002
 70
0
  0
SEQEND
  0
POLYLINE
  8
1
  6
CONTINUOUS
 62
3
 66
1
 40
5.0E-001
 41
5.0E-001
 70
0
  0
VERTEX
  8
1
 42
0.0
 10
7.9133957E+001
 20
1.9714609E+002
 70
0
  0
VERTEX
  8
1
 42
0.0
 10
7.9133957E+001
 20
1.9864609E+002
 70
0
  0
SEQEND
  0
POLYLINE
  8
1
  6
CONTINUOUS
 62
3
 66
1
 40
5.0E-001
 41
5.0E-001
 70
0
  0
VERTEX
  8
1
 42
0.0
 10
7.9583947E+001
 20
1.9864609E+002
 70
0
  0
VERTEX
  8
1
 42
0.0
 10
7.8583947E+001
 20
1.9864609E+002
 70
0
  0
SEQEND
  0
POLYLINE
  8
1
  6
CONTINUOUS
 62
3
 66
1
 40
5.0E-001
 41
5.0E-001
 70
0
  0
VERTEX
  8
1
 42
0.0
 10
7.8583947E+001
 20
1.9664609E+002
 70
0
  0
VERTEX
  8
1
 42
0.0
 10
7.8583947E+001
 20
1.9914609E+002
 70
0
  0
SEQEND
  0
POLYLINE
  8
1
  6
CONTINUOUS
 62
3
 66
1
 40
5.0E-001
 41
5.0E-001
 70
0
  0
VERTEX
  8
1
 42
0.0
 10
7.8583947E+001
 20
1.9914609E+002
 70
0
  0
VERTEX
  8
1
 42
0.0
 10
7.6583947E+001
 20
1.9914609E+002
 70
0
  0
SEQEND
  0
POLYLINE
  8
1
  6
CONTINUOUS
 62
3
 66
1
 40
5.0E-001
 41
5.0E-001
 70
0
  0
VERTEX
  8
1
 42
0.0
 10
7.8583947E+001
 20
1.9664609E+002
 70
0
  0
VERTEX
  8
1
 42
0.0
 10
7.6583947E+001
 20
1.9664609E+002
 70
0
  0
SEQEND
  0
POLYLINE
  8
1
  6
CONTINUOUS
 62
3
 66
1
 40
5.0E-001
 41
5.0E-001
 70
0
  0
VERTEX
  8
1
 42
0.0
 10
7.6583947E+001
 20
1.9664609E+002
 70
0
  0
VERTEX
  8
1
 42
0.0
 10
7.6583947E+001
 20
1.9914609E+002
 70
0
  0
SEQEND
  0
POLYLINE
  8
1
  6
CONTINUOUS
 62
3
 66
1
 40
5.0E-001
 41
5.0E-001
 70
0
  0
VERTEX
  8
1
 42
0.0
 10
7.6583947E+001
 20
1.9664609E+002
 70
0
  0
VERTEX
  8
1
 42
0.0
 10
7.6583947E+001
 20
1.9914609E+002
 70
0
  0
SEQEND
  0
POLYLINE
  8
1
  6
CONTINUOUS
 62
3
 66
1
 40
5.0E-001
 41
5.0E-001
 70
0
  0
VERTEX
  8
1
 42
0.0
 10
7.8583947E+001
 20
1.9664609E+002
 70
0
  0
VERTEX
  8
1
 42
0.0
 10
7.6583947E+001
 20
1.9664609E+002
 70
0
  0
SEQEND
  0
POLYLINE
  8
1
  6
CONTINUOUS
 62
3
 66
1
 40
5.0E-001
 41
5.0E-001
 70
0
  0
VERTEX
  8
1
 42
0.0
 10
7.8583947E+001
 20
1.9914609E+002
 70
0
  0
VERTEX
  8
1
 42
0.0
 10
7.6583947E+001
 20
1.9914609E+002
 70
0
  0
SEQEND
  0
POLYLINE
  8
1
  6
CONTINUOUS
 62
3
 66
1
 40
5.0E-001
 41
5.0E-001
 70
0
  0
VERTEX
  8
1
 42
0.0
 10
7.8583947E+001
 20
1.9664609E+002
 70
0
  0
VERTEX
  8
1
 42
0.0
 10
7.8583947E+001
 20
1.9914609E+002
 70
0
  0
SEQEND
  0
POLYLINE
  8
1
  6
CONTINUOUS
 62
3
 66
1
 40
5.0E-001
 41
5.0E-001
 70
0
  0
VERTEX
  8
1
 42
0.0
 10
7.9583947E+001
 20
1.9864609E+002
 70
0
  0
VERTEX
  8
1
 42
0.0
 10
7.8583947E+001
 20
1.9864609E+002
 70
0
  0
SEQEND
  0
POLYLINE
  8
1
  6
CONTINUOUS
 62
3
 66
1
 40
5.0E-001
 41
5.0E-001
 70
0
  0
VERTEX
  8
1
 42
0.0
 10
7.9133957E+001
 20
1.9714609E+002
 70
0
  0
VERTEX
  8
1
 42
0.0
 10
7.9133957E+001
 20
1.9864609E+002
 70
0
  0
SEQEND
  0
POLYLINE
  8
1
  6
CONTINUOUS
 62
3
 66
1
 40
5.0E-001
 41
5.0E-001
 70
0
  0
VERTEX
  8
1
 42
0.0
 10
7.9583947E+001
 20
1.9714609E+002
 70
0
  0
VERTEX
  8
1
 42
0.0
 10
7.9583947E+001
 20
1.9864609E+002
 70
0
  0
SEQEND
  0
POLYLINE
  8
1
  6
CONTINUOUS
 62
3
 66
1
 40
5.0E-001
 41
5.0E-001
 70
0
  0
VERTEX
  8
1
 42
0.0
 10
7.8583947E+001
 20
1.9714609E+002
 70
0
  0
VERTEX
  8
1
 42
0.0
 10
7.9583947E+001
 20
1.9714609E+002
 70
0
  0
SEQEND
  0
POLYLINE
  8
1
  6
CONTINUOUS
 62
3
 66
1
 40
5.0E-001
 41
5.0E-001
 70
0
  0
VERTEX
  8
1
 42
0.0
 10
8.8533947E+001
 20
1.9664609E+002
 70
0
  0
VERTEX
  8
1
 42
0.0
 10
9.0533947E+001
 20
1.9664609E+002
 70
0
  0
SEQEND
  0
POLYLINE
  8
1
  6
CONTINUOUS
 62
3
 66
1
 40
5.0E-001
 41
5.0E-001
 70
0
  0
VERTEX
  8
1
 42
0.0
 10
9.0533947E+001
 20
1.9664609E+002
 70
0
  0
VERTEX
  8
1
 42
0.0
 10
9.0533947E+001
 20
1.9914609E+002
 70
0
  0
SEQEND
  0
POLYLINE
  8
1
  6
CONTINUOUS
 62
3
 66
1
 40
5.0E-001
 41
5.0E-001
 70
0
  0
VERTEX
  8
1
 42
0.0
 10
8.8533947E+001
 20
1.9914609E+002
 70
0
  0
VERTEX
  8
1
 42
0.0
 10
9.0533947E+001
 20
1.9914609E+002
 70
0
  0
SEQEND
  0
POLYLINE
  8
1
  6
CONTINUOUS
 62
3
 66
1
 40
5.0E-001
 41
5.0E-001
 70
0
  0
VERTEX
  8
1
 42
0.0
 10
8.8533947E+001
 20
1.9664609E+002
 70
0
  0
VERTEX
  8
1
 42
0.0
 10
8.8533947E+001
 20
1.9914609E+002
 70
0
  0
SEQEND
  0
POLYLINE
  8
1
  6
CONTINUOUS
 62
3
 66
1
 40
5.0E-001
 41
5.0E-001
 70
0
  0
VERTEX
  8
1
 42
0.0
 10
8.7533947E+001
 20
1.9864609E+002
 70
0
  0
VERTEX
  8
1
 42
0.0
 10
8.8533947E+001
 20
1.9864609E+002
 70
0
  0
SEQEND
  0
POLYLINE
  8
1
  6
CONTINUOUS
 62
3
 66
1
 40
5.0E-001
 41
5.0E-001
 70
0
  0
VERTEX
  8
1
 42
0.0
 10
8.8533947E+001
 20
1.9714609E+002
 70
0
  0
VERTEX
  8
1
 42
0.0
 10
8.7533947E+001
 20
1.9714609E+002
 70
0
  0
SEQEND
  0
POLYLINE
  8
1
  6
CONTINUOUS
 62
3
 66
1
 40
5.0E-001
 41
5.0E-001
 70
0
  0
VERTEX
  8
1
 42
0.0
 10
8.7983947E+001
 20
1.9714609E+002
 70
0
  0
VERTEX
  8
1
 42
0.0
 10
8.7983947E+001
 20
1.9864609E+002
 70
0
  0
SEQEND
  0
POLYLINE
  8
1
  6
CONTINUOUS
 62
3
 66
1
 40
5.0E-001
 41
5.0E-001
 70
0
  0
VERTEX
  8
1
 42
0.0
 10
8.7533947E+001
 20
1.9714609E+002
 70
0
  0
VERTEX
  8
1
 42
0.0
 10
8.7533947E+001
 20
1.9864609E+002
 70
0
  0
SEQEND
  0
POLYLINE
  8
1
  6
CONTINUOUS
 62
3
 66
1
 40
5.0E-001
 41
5.0E-001
 70
0
  0
VERTEX
  8
1
 42
0.0
 10
8.7533947E+001
 20
1.9714609E+002
 70
0
  0
VERTEX
  8
1
 42
0.0
 10
8.7533947E+001
 20
1.9864609E+002
 70
0
  0
SEQEND
  0
POLYLINE
  8
1
  6
CONTINUOUS
 62
3
 66
1
 40
5.0E-001
 41
5.0E-001
 70
0
  0
VERTEX
  8
1
 42
0.0
 10
8.7983947E+001
 20
1.9714609E+002
 70
0
  0
VERTEX
  8
1
 42
0.0
 10
8.7983947E+001
 20
1.9864609E+002
 70
0
  0
SEQEND
  0
POLYLINE
  8
1
  6
CONTINUOUS
 62
3
 66
1
 40
5.0E-001
 41
5.0E-001
 70
0
  0
VERTEX
  8
1
 42
0.0
 10
8.8533947E+001
 20
1.9714609E+002
 70
0
  0
VERTEX
  8
1
 42
0.0
 10
8.7533947E+001
 20
1.9714609E+002
 70
0
  0
SEQEND
  0
POLYLINE
  8
1
  6
CONTINUOUS
 62
3
 66
1
 40
5.0E-001
 41
5.0E-001
 70
0
  0
VERTEX
  8
1
 42
0.0
 10
8.7533947E+001
 20
1.9864609E+002
 70
0
  0
VERTEX
  8
1
 42
0.0
 10
8.8533947E+001
 20
1.9864609E+002
 70
0
  0
SEQEND
  0
POLYLINE
  8
1
  6
CONTINUOUS
 62
3
 66
1
 40
5.0E-001
 41
5.0E-001
 70
0
  0
VERTEX
  8
1
 42
0.0
 10
8.8533947E+001
 20
1.9664609E+002
 70
0
  0
VERTEX
  8
1
 42
0.0
 10
8.8533947E+001
 20
1.9914609E+002
 70
0
  0
SEQEND
  0
POLYLINE
  8
1
  6
CONTINUOUS
 62
3
 66
1
 40
5.0E-001
 41
5.0E-001
 70
0
  0
VERTEX
  8
1
 42
0.0
 10
8.8533947E+001
 20
1.9914609E+002
 70
0
  0
VERTEX
  8
1
 42
0.0
 10
9.0533947E+001
 20
1.9914609E+002
 70
0
  0
SEQEND
  0
POLYLINE
  8
1
  6
CONTINUOUS
 62
3
 66
1
 40
5.0E-001
 41
5.0E-001
 70
0
  0
VERTEX
  8
1
 42
0.0
 10
9.0533947E+001
 20
1.9664609E+002
 70
0
  0
VERTEX
  8
1
 42
0.0
 10
9.0533947E+001
 20
1.9914609E+002
 70
0
  0
SEQEND
  0
POLYLINE
  8
1
  6
CONTINUOUS
 62
3
 66
1
 40
5.0E-001
 41
5.0E-001
 70
0
  0
VERTEX
  8
1
 42
0.0
 10
8.8533947E+001
 20
1.9664609E+002
 70
0
  0
VERTEX
  8
1
 42
0.0
 10
9.0533947E+001
 20
1.9664609E+002
 70
0
  0
SEQEND
  0
POLYLINE
  8
1
  6
CONTINUOUS
 62
3
 66
1
 40
5.0E-001
 41
5.0E-001
 70
0
  0
VERTEX
  8
1
 42
0.0
 10
7.8583947E+001
 20
1.8804609E+002
 70
0
  0
VERTEX
  8
1
 42
0.0
 10
7.9583947E+001
 20
1.8804609E+002
 70
0
  0
SEQEND
  0
POLYLINE
  8
1
  6
CONTINUOUS
 62
3
 66
1
 40
5.0E-001
 41
5.0E-001
 70
0
  0
VERTEX
  8
1
 42
0.0
 10
7.9583947E+001
 20
1.8804609E+002
 70
0
  0
VERTEX
  8
1
 42
0.0
 10
7.9583947E+001
 20
1.8954609E+002
 70
0
  0
SEQEND
  0
POLYLINE
  8
1
  6
CONTINUOUS
 62
3
 66
1
 40
5.0E-001
 41
5.0E-001
 70
0
  0
VERTEX
  8
1
 42
0.0
 10
7.9133957E+001
 20
1.8804609E+002
 70
0
  0
VERTEX
  8
1
 42
0.0
 10
7.9133957E+001
 20
1.8954609E+002
 70
0
  0
SEQEND
  0
POLYLINE
  8
1
  6
CONTINUOUS
 62
3
 66
1
 40
5.0E-001
 41
5.0E-001
 70
0
  0
VERTEX
  8
1
 42
0.0
 10
7.9583947E+001
 20
1.8954609E+002
 70
0
  0
VERTEX
  8
1
 42
0.0
 10
7.8583947E+001
 20
1.8954609E+002
 70
0
  0
SEQEND
  0
POLYLINE
  8
1
  6
CONTINUOUS
 62
3
 66
1
 40
5.0E-001
 41
5.0E-001
 70
0
  0
VERTEX
  8
1
 42
0.0
 10
7.8583947E+001
 20
1.8754609E+002
 70
0
  0
VERTEX
  8
1
 42
0.0
 10
7.8583947E+001
 20
1.9004609E+002
 70
0
  0
SEQEND
  0
POLYLINE
  8
1
  6
CONTINUOUS
 62
3
 66
1
 40
5.0E-001
 41
5.0E-001
 70
0
  0
VERTEX
  8
1
 42
0.0
 10
7.8583947E+001
 20
1.9004609E+002
 70
0
  0
VERTEX
  8
1
 42
0.0
 10
7.6583947E+001
 20
1.9004609E+002
 70
0
  0
SEQEND
  0
POLYLINE
  8
1
  6
CONTINUOUS
 62
3
 66
1
 40
5.0E-001
 41
5.0E-001
 70
0
  0
VERTEX
  8
1
 42
0.0
 10
7.8583947E+001
 20
1.8754609E+002
 70
0
  0
VERTEX
  8
1
 42
0.0
 10
7.6583947E+001
 20
1.8754609E+002
 70
0
  0
SEQEND
  0
POLYLINE
  8
1
  6
CONTINUOUS
 62
3
 66
1
 40
5.0E-001
 41
5.0E-001
 70
0
  0
VERTEX
  8
1
 42
0.0
 10
7.6583947E+001
 20
1.8754609E+002
 70
0
  0
VERTEX
  8
1
 42
0.0
 10
7.6583947E+001
 20
1.9004609E+002
 70
0
  0
SEQEND
  0
POLYLINE
  8
1
  6
CONTINUOUS
 62
3
 66
1
 40
5.0E-001
 41
5.0E-001
 70
0
  0
VERTEX
  8
1
 42
0.0
 10
7.6583947E+001
 20
1.8754609E+002
 70
0
  0
VERTEX
  8
1
 42
0.0
 10
7.6583947E+001
 20
1.9004609E+002
 70
0
  0
SEQEND
  0
POLYLINE
  8
1
  6
CONTINUOUS
 62
3
 66
1
 40
5.0E-001
 41
5.0E-001
 70
0
  0
VERTEX
  8
1
 42
0.0
 10
7.8583947E+001
 20
1.8754609E+002
 70
0
  0
VERTEX
  8
1
 42
0.0
 10
7.6583947E+001
 20
1.8754609E+002
 70
0
  0
SEQEND
  0
POLYLINE
  8
1
  6
CONTINUOUS
 62
3
 66
1
 40
5.0E-001
 41
5.0E-001
 70
0
  0
VERTEX
  8
1
 42
0.0
 10
7.8583947E+001
 20
1.9004609E+002
 70
0
  0
VERTEX
  8
1
 42
0.0
 10
7.6583947E+001
 20
1.9004609E+002
 70
0
  0
SEQEND
  0
POLYLINE
  8
1
  6
CONTINUOUS
 62
3
 66
1
 40
5.0E-001
 41
5.0E-001
 70
0
  0
VERTEX
  8
1
 42
0.0
 10
7.8583947E+001
 20
1.8754609E+002
 70
0
  0
VERTEX
  8
1
 42
0.0
 10
7.8583947E+001
 20
1.9004609E+002
 70
0
  0
SEQEND
  0
POLYLINE
  8
1
  6
CONTINUOUS
 62
3
 66
1
 40
5.0E-001
 41
5.0E-001
 70
0
  0
VERTEX
  8
1
 42
0.0
 10
7.9583947E+001
 20
1.8954609E+002
 70
0
  0
VERTEX
  8
1
 42
0.0
 10
7.8583947E+001
 20
1.8954609E+002
 70
0
  0
SEQEND
  0
POLYLINE
  8
1
  6
CONTINUOUS
 62
3
 66
1
 40
5.0E-001
 41
5.0E-001
 70
0
  0
VERTEX
  8
1
 42
0.0
 10
7.9133957E+001
 20
1.8804609E+002
 70
0
  0
VERTEX
  8
1
 42
0.0
 10
7.9133957E+001
 20
1.8954609E+002
 70
0
  0
SEQEND
  0
POLYLINE
  8
1
  6
CONTINUOUS
 62
3
 66
1
 40
5.0E-001
 41
5.0E-001
 70
0
  0
VERTEX
  8
1
 42
0.0
 10
7.9583947E+001
 20
1.8804609E+002
 70
0
  0
VERTEX
  8
1
 42
0.0
 10
7.9583947E+001
 20
1.8954609E+002
 70
0
  0
SEQEND
  0
POLYLINE
  8
1
  6
CONTINUOUS
 62
3
 66
1
 40
5.0E-001
 41
5.0E-001
 70
0
  0
VERTEX
  8
1
 42
0.0
 10
7.8583947E+001
 20
1.8804609E+002
 70
0
  0
VERTEX
  8
1
 42
0.0
 10
7.9583947E+001
 20
1.8804609E+002
 70
0
  0
SEQEND
  0
POLYLINE
  8
1
  6
CONTINUOUS
 62
3
 66
1
 40
5.0E-001
 41
5.0E-001
 70
0
  0
VERTEX
  8
1
 42
0.0
 10
8.8533947E+001
 20
1.8754609E+002
 70
0
  0
VERTEX
  8
1
 42
0.0
 10
9.0533947E+001
 20
1.8754609E+002
 70
0
  0
SEQEND
  0
POLYLINE
  8
1
  6
CONTINUOUS
 62
3
 66
1
 40
5.0E-001
 41
5.0E-001
 70
0
  0
VERTEX
  8
1
 42
0.0
 10
9.0533947E+001
 20
1.8754609E+002
 70
0
  0
VERTEX
  8
1
 42
0.0
 10
9.0533947E+001
 20
1.9004609E+002
 70
0
  0
SEQEND
  0
POLYLINE
  8
1
  6
CONTINUOUS
 62
3
 66
1
 40
5.0E-001
 41
5.0E-001
 70
0
  0
VERTEX
  8
1
 42
0.0
 10
8.8533947E+001
 20
1.9004609E+002
 70
0
  0
VERTEX
  8
1
 42
0.0
 10
9.0533947E+001
 20
1.9004609E+002
 70
0
  0
SEQEND
  0
POLYLINE
  8
1
  6
CONTINUOUS
 62
3
 66
1
 40
5.0E-001
 41
5.0E-001
 70
0
  0
VERTEX
  8
1
 42
0.0
 10
8.8533947E+001
 20
1.8754609E+002
 70
0
  0
VERTEX
  8
1
 42
0.0
 10
8.8533947E+001
 20
1.9004609E+002
 70
0
  0
SEQEND
  0
POLYLINE
  8
1
  6
CONTINUOUS
 62
3
 66
1
 40
5.0E-001
 41
5.0E-001
 70
0
  0
VERTEX
  8
1
 42
0.0
 10
8.7533947E+001
 20
1.8954609E+002
 70
0
  0
VERTEX
  8
1
 42
0.0
 10
8.8533947E+001
 20
1.8954609E+002
 70
0
  0
SEQEND
  0
POLYLINE
  8
1
  6
CONTINUOUS
 62
3
 66
1
 40
5.0E-001
 41
5.0E-001
 70
0
  0
VERTEX
  8
1
 42
0.0
 10
8.8533947E+001
 20
1.8804609E+002
 70
0
  0
VERTEX
  8
1
 42
0.0
 10
8.7533947E+001
 20
1.8804609E+002
 70
0
  0
SEQEND
  0
POLYLINE
  8
1
  6
CONTINUOUS
 62
3
 66
1
 40
5.0E-001
 41
5.0E-001
 70
0
  0
VERTEX
  8
1
 42
0.0
 10
8.7983947E+001
 20
1.8804609E+002
 70
0
  0
VERTEX
  8
1
 42
0.0
 10
8.7983947E+001
 20
1.8954609E+002
 70
0
  0
SEQEND
  0
POLYLINE
  8
1
  6
CONTINUOUS
 62
3
 66
1
 40
5.0E-001
 41
5.0E-001
 70
0
  0
VERTEX
  8
1
 42
0.0
 10
8.7533947E+001
 20
1.8804609E+002
 70
0
  0
VERTEX
  8
1
 42
0.0
 10
8.7533947E+001
 20
1.8954609E+002
 70
0
  0
SEQEND
  0
POLYLINE
  8
1
  6
CONTINUOUS
 62
3
 66
1
 40
5.0E-001
 41
5.0E-001
 70
0
  0
VERTEX
  8
1
 42
0.0
 10
8.7533947E+001
 20
1.8804609E+002
 70
0
  0
VERTEX
  8
1
 42
0.0
 10
8.7533947E+001
 20
1.8954609E+002
 70
0
  0
SEQEND
  0
POLYLINE
  8
1
  6
CONTINUOUS
 62
3
 66
1
 40
5.0E-001
 41
5.0E-001
 70
0
  0
VERTEX
  8
1
 42
0.0
 10
8.7983947E+001
 20
1.8804609E+002
 70
0
  0
VERTEX
  8
1
 42
0.0
 10
8.7983947E+001
 20
1.8954609E+002
 70
0
  0
SEQEND
  0
POLYLINE
  8
1
  6
CONTINUOUS
 62
3
 66
1
 40
5.0E-001
 41
5.0E-001
 70
0
  0
VERTEX
  8
1
 42
0.0
 10
8.8533947E+001
 20
1.8804609E+002
 70
0
  0
VERTEX
  8
1
 42
0.0
 10
8.7533947E+001
 20
1.8804609E+002
 70
0
  0
SEQEND
  0
POLYLINE
  8
1
  6
CONTINUOUS
 62
3
 66
1
 40
5.0E-001
 41
5.0E-001
 70
0
  0
VERTEX
  8
1
 42
0.0
 10
8.7533947E+001
 20
1.8954609E+002
 70
0
  0
VERTEX
  8
1
 42
0.0
 10
8.8533947E+001
 20
1.8954609E+002
 70
0
  0
SEQEND
  0
POLYLINE
  8
1
  6
CONTINUOUS
 62
3
 66
1
 40
5.0E-001
 41
5.0E-001
 70
0
  0
VERTEX
  8
1
 42
0.0
 10
8.8533947E+001
 20
1.8754609E+002
 70
0
  0
VERTEX
  8
1
 42
0.0
 10
8.8533947E+001
 20
1.9004609E+002
 70
0
  0
SEQEND
  0
POLYLINE
  8
1
  6
CONTINUOUS
 62
3
 66
1
 40
5.0E-001
 41
5.0E-001
 70
0
  0
VERTEX
  8
1
 42
0.0
 10
8.8533947E+001
 20
1.9004609E+002
 70
0
  0
VERTEX
  8
1
 42
0.0
 10
9.0533947E+001
 20
1.9004609E+002
 70
0
  0
SEQEND
  0
POLYLINE
  8
1
  6
CONTINUOUS
 62
3
 66
1
 40
5.0E-001
 41
5.0E-001
 70
0
  0
VERTEX
  8
1
 42
0.0
 10
9.0533947E+001
 20
1.8754609E+002
 70
0
  0
VERTEX
  8
1
 42
0.0
 10
9.0533947E+001
 20
1.9004609E+002
 70
0
  0
SEQEND
  0
POLYLINE
  8
1
  6
CONTINUOUS
 62
3
 66
1
 40
5.0E-001
 41
5.0E-001
 70
0
  0
VERTEX
  8
1
 42
0.0
 10
8.8533947E+001
 20
1.8754609E+002
 70
0
  0
VERTEX
  8
1
 42
0.0
 10
9.0533947E+001
 20
1.8754609E+002
 70
0
  0
SEQEND
  0
POLYLINE
  8
1
  6
CONTINUOUS
 62
3
 66
1
 40
5.0E-001
 41
5.0E-001
 70
0
  0
VERTEX
  8
1
 42
0.0
 10
1.0858395E+002
 20
1.8424609E+002
 70
0
  0
VERTEX
  8
1
 42
0.0
 10
1.1198395E+002
 20
1.8424609E+002
 70
0
  0
SEQEND
  0
POLYLINE
  8
1
  6
CONTINUOUS
 62
3
 66
1
 40
5.0E-001
 41
5.0E-001
 70
0
  0
VERTEX
  8
1
 42
0.0
 10
1.1198395E+002
 20
1.8324609E+002
 70
0
  0
VERTEX
  8
1
 42
0.0
 10
1.1198395E+002
 20
1.8424609E+002
 70
0
  0
SEQEND
  0
POLYLINE
  8
1
  6
CONTINUOUS
 62
3
 66
1
 40
5.0E-001
 41
5.0E-001
 70
0
  0
VERTEX
  8
1
 42
0.0
 10
1.0858395E+002
 20
1.8324609E+002
 70
0
  0
VERTEX
  8
1
 42
0.0
 10
1.0858395E+002
 20
1.8424609E+002
 70
0
  0
SEQEND
  0
POLYLINE
  8
1
  6
CONTINUOUS
 62
3
 66
1
 40
5.0E-001
 41
5.0E-001
 70
0
  0
VERTEX
  8
1
 42
0.0
 10
1.1198395E+002
 20
1.8624609E+002
 70
0
  0
VERTEX
  8
1
 42
0.0
 10
1.1198395E+002
 20
1.9104609E+002
 70
0
  0
SEQEND
  0
POLYLINE
  8
1
  6
CONTINUOUS
 62
3
 66
1
 40
5.0E-001
 41
5.0E-001
 70
0
  0
VERTEX
  8
1
 42
0.0
 10
1.0858395E+002
 20
1.8624609E+002
 70
0
  0
VERTEX
  8
1
 42
0.0
 10
1.0858395E+002
 20
1.9104609E+002
 70
0
  0
SEQEND
  0
POLYLINE
  8
1
  6
CONTINUOUS
 62
3
 66
1
 40
5.0E-001
 41
5.0E-001
 70
0
  0
VERTEX
  8
1
 42
0.0
 10
1.1198395E+002
 20
1.9564609E+002
 70
0
  0
VERTEX
  8
1
 42
0.0
 10
1.0858395E+002
 20
1.9564609E+002
 70
0
  0
SEQEND
  0
POLYLINE
  8
1
  6
CONTINUOUS
 62
3
 66
1
 40
5.0E-001
 41
5.0E-001
 70
0
  0
VERTEX
  8
1
 42
0.0
 10
1.1198395E+002
 20
1.9564609E+002
 70
0
  0
VERTEX
  8
1
 42
0.0
 10
1.1198395E+002
 20
2.0014609E+002
 70
0
  0
SEQEND
  0
POLYLINE
  8
1
  6
CONTINUOUS
 62
3
 66
1
 40
5.0E-001
 41
5.0E-001
 70
0
  0
VERTEX
  8
1
 42
0.0
 10
1.0858395E+002
 20
1.9564609E+002
 70
0
  0
VERTEX
  8
1
 42
0.0
 10
1.0858395E+002
 20
2.0014609E+002
 70
0
  0
SEQEND
  0
POLYLINE
  8
1
  6
CONTINUOUS
 62
3
 66
1
 40
5.0E-001
 41
5.0E-001
 70
0
  0
VERTEX
  8
1
 42
0.0
 10
1.0858395E+002
 20
2.0474609E+002
 70
0
  0
VERTEX
  8
1
 42
0.0
 10
1.1198395E+002
 20
2.0474609E+002
 70
0
  0
SEQEND
  0
POLYLINE
  8
1
  6
CONTINUOUS
 62
3
 66
1
 40
5.0E-001
 41
5.0E-001
 70
0
  0
VERTEX
  8
1
 42
0.0
 10
1.1198395E+002
 20
2.0474609E+002
 70
0
  0
VERTEX
  8
1
 42
0.0
 10
1.1198395E+002
 20
2.0974609E+002
 70
0
  0
SEQEND
  0
POLYLINE
  8
1
  6
CONTINUOUS
 62
3
 66
1
 40
5.0E-001
 41
5.0E-001
 70
0
  0
VERTEX
  8
1
 42
0.0
 10
1.0858395E+002
 20
2.0474609E+002
 70
0
  0
VERTEX
  8
1
 42
0.0
 10
1.0858395E+002
 20
2.0974609E+002
 70
0
  0
SEQEND
  0
POLYLINE
  8
1
  6
CONTINUOUS
 62
3
 66
1
 40
5.0E-001
 41
5.0E-001
 70
0
  0
VERTEX
  8
1
 42
0.0
 10
1.0858395E+002
 20
2.1384609E+002
 70
0
  0
VERTEX
  8
1
 42
0.0
 10
1.1198395E+002
 20
2.1384609E+002
 70
0
  0
SEQEND
  0
POLYLINE
  8
1
  6
CONTINUOUS
 62
3
 66
1
 40
5.0E-001
 41
5.0E-001
 70
0
  0
VERTEX
  8
1
 42
0.0
 10
1.0858395E+002
 20
2.2074609E+002
 70
0
  0
VERTEX
  8
1
 42
0.0
 10
1.1198395E+002
 20
2.2074609E+002
 70
0
  0
SEQEND
  0
POLYLINE
  8
1
  6
CONTINUOUS
 62
3
 66
1
 40
5.0E-001
 41
5.0E-001
 70
0
  0
VERTEX
  8
1
 42
0.0
 10
1.1198395E+002
 20
2.1384609E+002
 70
0
  0
VERTEX
  8
1
 42
0.0
 10
1.1198395E+002
 20
2.2074609E+002
 70
0
  0
SEQEND
  0
POLYLINE
  8
1
  6
CONTINUOUS
 62
3
 66
1
 40
5.0E-001
 41
5.0E-001
 70
0
  0
VERTEX
  8
1
 42
0.0
 10
1.0858395E+002
 20
2.1384609E+002
 70
0
  0
VERTEX
  8
1
 42
0.0
 10
1.0858395E+002
 20
2.2074609E+002
 70
0
  0
SEQEND
  0
POLYLINE
  8
1
  6
CONTINUOUS
 62
3
 66
1
 40
5.0E-001
 41
5.0E-001
 70
0
  0
VERTEX
  8
1
 42
0.0
 10
1.0858395E+002
 20
2.2294609E+002
 70
0
  0
VERTEX
  8
1
 42
0.0
 10
1.1198395E+002
 20
2.2294609E+002
 70
0
  0
SEQEND
  0
POLYLINE
  8
1
  6
CONTINUOUS
 62
3
 66
1
 40
5.0E-001
 41
5.0E-001
 70
0
  0
VERTEX
  8
1
 42
0.0
 10
1.0858395E+002
 20
2.2294609E+002
 70
0
  0
VERTEX
  8
1
 42
0.0
 10
1.0858395E+002
 20
2.2734609E+002
 70
0
  0
SEQEND
  0
POLYLINE
  8
1
  6
CONTINUOUS
 62
3
 66
1
 40
5.0E-001
 41
5.0E-001
 70
0
  0
VERTEX
  8
1
 42
0.0
 10
1.1198395E+002
 20
2.2294609E+002
 70
0
  0
VERTEX
  8
1
 42
0.0
 10
1.1198395E+002
 20
2.2734609E+002
 70
0
  0
SEQEND
  0
POLYLINE
  8
1
  6
CONTINUOUS
 62
3
 66
1
 40
5.0E-001
 41
5.0E-001
 70
0
  0
VERTEX
  8
1
 42
0.0
 10
1.0858395E+002
 20
2.2394609E+002
 70
0
  0
VERTEX
  8
1
 42
0.0
 10
1.1198395E+002
 20
2.2394609E+002
 70
0
  0
SEQEND
  0
POLYLINE
  8
1
  6
CONTINUOUS
 62
3
 66
1
 40
5.0E-001
 41
5.0E-001
 70
0
  0
VERTEX
  8
1
 42
0.0
 10
1.1198395E+002
 20
2.1974609E+002
 70
0
  0
VERTEX
  8
1
 42
0.0
 10
1.0858395E+002
 20
2.1974609E+002
 70
0
  0
SEQEND
  0
POLYLINE
  8
1
  6
CONTINUOUS
 62
3
 66
1
 40
5.0E-001
 41
5.0E-001
 70
0
  0
VERTEX
  8
1
 42
0.0
 10
1.1198395E+002
 20
2.1484609E+002
 70
0
  0
VERTEX
  8
1
 42
0.0
 10
1.0858395E+002
 20
2.1484609E+002
 70
0
  0
SEQEND
  0
POLYLINE
  8
1
  6
CONTINUOUS
 62
3
 66
1
 40
5.0E-001
 41
5.0E-001
 70
0
  0
VERTEX
  8
1
 42
0.0
 10
1.1198395E+002
 20
2.0574609E+002
 70
0
  0
VERTEX
  8
1
 42
0.0
 10
1.0858395E+002
 20
2.0574609E+002
 70
0
  0
SEQEND
  0
POLYLINE
  8
1
  6
CONTINUOUS
 62
3
 66
1
 40
5.0E-001
 41
5.0E-001
 70
0
  0
VERTEX
  8
1
 42
0.0
 10
1.0858395E+002
 20
1.9664609E+002
 70
0
  0
VERTEX
  8
1
 42
0.0
 10
1.1198395E+002
 20
1.9664609E+002
 70
0
  0
SEQEND
  0
POLYLINE
  8
1
  6
CONTINUOUS
 62
3
 66
1
 40
5.0E-001
 41
5.0E-001
 70
0
  0
VERTEX
  8
1
 42
0.0
 10
1.1658395E+002
 20
2.0824609E+002
 70
0
  0
VERTEX
  8
1
 42
0.0
 10
1.1858395E+002
 20
2.0824609E+002
 70
0
  0
SEQEND
  0
POLYLINE
  8
1
  6
CONTINUOUS
 62
3
 66
1
 40
5.0E-001
 41
5.0E-001
 70
0
  0
VERTEX
  8
1
 42
0.0
 10
1.1658395E+002
 20
2.0574609E+002
 70
0
  0
VERTEX
  8
1
 42
0.0
 10
1.1658395E+002
 20
2.0824609E+002
 70
0
  0
SEQEND
  0
POLYLINE
  8
1
  6
CONTINUOUS
 62
3
 66
1
 40
5.0E-001
 41
5.0E-001
 70
0
  0
VERTEX
  8
1
 42
0.0
 10
1.1658395E+002
 20
2.0574609E+002
 70
0
  0
VERTEX
  8
1
 42
0.0
 10
1.1858395E+002
 20
2.0574609E+002
 70
0
  0
SEQEND
  0
POLYLINE
  8
1
  6
CONTINUOUS
 62
3
 66
1
 40
5.0E-001
 41
5.0E-001
 70
0
  0
VERTEX
  8
1
 42
0.0
 10
1.1558395E+002
 20
2.0774609E+002
 70
0
  0
VERTEX
  8
1
 42
0.0
 10
1.1658395E+002
 20
2.0774609E+002
 70
0
  0
SEQEND
  0
POLYLINE
  8
1
  6
CONTINUOUS
 62
3
 66
1
 40
5.0E-001
 41
5.0E-001
 70
0
  0
VERTEX
  8
1
 42
0.0
 10
1.1658395E+002
 20
2.0624609E+002
 70
0
  0
VERTEX
  8
1
 42
0.0
 10
1.1558395E+002
 20
2.0624609E+002
 70
0
  0
SEQEND
  0
POLYLINE
  8
1
  6
CONTINUOUS
 62
3
 66
1
 40
5.0E-001
 41
5.0E-001
 70
0
  0
VERTEX
  8
1
 42
0.0
 10
1.1558395E+002
 20
2.0624609E+002
 70
0
  0
VERTEX
  8
1
 42
0.0
 10
1.1558395E+002
 20
2.0774609E+002
 70
0
  0
SEQEND
  0
POLYLINE
  8
1
  6
CONTINUOUS
 62
3
 66
1
 40
5.0E-001
 41
5.0E-001
 70
0
  0
VERTEX
  8
1
 42
0.0
 10
1.1603395E+002
 20
2.0624609E+002
 70
0
  0
VERTEX
  8
1
 42
0.0
 10
1.1603395E+002
 20
2.0774609E+002
 70
0
  0
SEQEND
  0
POLYLINE
  8
1
  6
CONTINUOUS
 62
3
 66
1
 40
5.0E-001
 41
5.0E-001
 70
0
  0
VERTEX
  8
1
 42
0.0
 10
1.1858395E+002
 20
2.0824609E+002
 70
0
  0
VERTEX
  8
1
 42
0.0
 10
1.1858395E+002
 20
2.0949609E+002
 70
0
  0
SEQEND
  0
POLYLINE
  8
1
  6
CONTINUOUS
 62
3
 66
1
 40
5.0E-001
 41
5.0E-001
 70
0
  0
VERTEX
  8
1
 42
0.0
 10
1.1858395E+002
 20
2.0574609E+002
 70
0
  0
VERTEX
  8
1
 42
0.0
 10
1.1858395E+002
 20
2.0824609E+002
 70
0
  0
SEQEND
  0
POLYLINE
  8
1
  6
CONTINUOUS
 62
3
 66
1
 40
5.0E-001
 41
5.0E-001
 70
0
  0
VERTEX
  8
1
 42
0.0
 10
1.1858395E+002
 20
2.0449609E+002
 70
0
  0
VERTEX
  8
1
 42
0.0
 10
1.1858395E+002
 20
2.0574609E+002
 70
0
  0
SEQEND
  0
POLYLINE
  8
1
  6
CONTINUOUS
 62
3
 66
1
 40
5.0E-001
 41
5.0E-001
 70
0
  0
VERTEX
  8
1
 42
0.0
 10
1.1088395E+002
 20
1.9764609E+002
 70
0
  0
VERTEX
  8
1
 42
0.0
 10
1.1088395E+002
 20
1.9814609E+002
 70
0
  0
SEQEND
  0
POLYLINE
  8
1
  6
CONTINUOUS
 62
3
 66
1
 40
5.0E-001
 41
5.0E-001
 70
0
  0
VERTEX
  8
1
 42
0.0
 10
1.0968395E+002
 20
1.9764609E+002
 70
0
  0
VERTEX
  8
1
 42
0.0
 10
1.1088395E+002
 20
1.9764609E+002
 70
0
  0
SEQEND
  0
POLYLINE
  8
1
  6
CONTINUOUS
 62
3
 66
1
 40
5.0E-001
 41
5.0E-001
 70
0
  0
VERTEX
  8
1
 42
0.0
 10
1.0968395E+002
 20
1.9764609E+002
 70
0
  0
VERTEX
  8
1
 42
0.0
 10
1.0968395E+002
 20
1.9814609E+002
 70
0
  0
SEQEND
  0
POLYLINE
  8
1
  6
CONTINUOUS
 62
3
 66
1
 40
5.0E-001
 41
5.0E-001
 70
0
  0
VERTEX
  8
1
 42
0.0
 10
1.0968395E+002
 20
1.9814609E+002
 70
0
  0
VERTEX
  8
1
 42
0.0
 10
1.1088395E+002
 20
1.9814609E+002
 70
0
  0
SEQEND
  0
POLYLINE
  8
1
  6
CONTINUOUS
 62
3
 66
1
 40
5.0E-001
 41
5.0E-001
 70
0
  0
VERTEX
  8
1
 42
0.0
 10
1.0968395E+002
 20
1.8798609E+002
 70
0
  0
VERTEX
  8
1
 42
0.0
 10
1.1088395E+002
 20
1.8798609E+002
 70
0
  0
SEQEND
  0
POLYLINE
  8
1
  6
CONTINUOUS
 62
3
 66
1
 40
5.0E-001
 41
5.0E-001
 70
0
  0
VERTEX
  8
1
 42
0.0
 10
1.0968395E+002
 20
1.8748609E+002
 70
0
  0
VERTEX
  8
1
 42
0.0
 10
1.1088395E+002
 20
1.8748609E+002
 70
0
  0
SEQEND
  0
POLYLINE
  8
1
  6
CONTINUOUS
 62
3
 66
1
 40
5.0E-001
 41
5.0E-001
 70
0
  0
VERTEX
  8
1
 42
0.0
 10
1.1088395E+002
 20
1.8698609E+002
 70
0
  0
VERTEX
  8
1
 42
0.0
 10
1.1088395E+002
 20
1.8798609E+002
 70
0
  0
SEQEND
  0
POLYLINE
  8
1
  6
CONTINUOUS
 62
3
 66
1
 40
5.0E-001
 41
5.0E-001
 70
0
  0
VERTEX
  8
1
 42
0.0
 10
1.0968395E+002
 20
1.8698609E+002
 70
0
  0
VERTEX
  8
1
 42
0.0
 10
1.0968395E+002
 20
1.8798609E+002
 70
0
  0
SEQEND
  0
POLYLINE
  8
1
  6
CONTINUOUS
 62
3
 66
1
 40
5.0E-001
 41
5.0E-001
 70
0
  0
VERTEX
  8
1
 42
0.0
 10
1.0968395E+002
 20
1.8698609E+002
 70
0
  0
VERTEX
  8
1
 42
0.0
 10
1.1088395E+002
 20
1.8698609E+002
 70
0
  0
SEQEND
  0
POLYLINE
  8
1
  6
CONTINUOUS
 62
3
 66
1
 40
5.0E-001
 41
5.0E-001
 70
0
  0
VERTEX
  8
1
 42
0.0
 10
1.0968395E+002
 20
2.0830609E+002
 70
0
  0
VERTEX
  8
1
 42
0.0
 10
1.1088395E+002
 20
2.0830609E+002
 70
0
  0
SEQEND
  0
POLYLINE
  8
1
  6
CONTINUOUS
 62
3
 66
1
 40
5.0E-001
 41
5.0E-001
 70
0
  0
VERTEX
  8
1
 42
0.0
 10
1.0968395E+002
 20
2.0780609E+002
 70
0
  0
VERTEX
  8
1
 42
0.0
 10
1.1088395E+002
 20
2.0780609E+002
 70
0
  0
SEQEND
  0
POLYLINE
  8
1
  6
CONTINUOUS
 62
3
 66
1
 40
5.0E-001
 41
5.0E-001
 70
0
  0
VERTEX
  8
1
 42
0.0
 10
1.1088395E+002
 20
2.0780609E+002
 70
0
  0
VERTEX
  8
1
 42
0.0
 10
1.1088395E+002
 20
2.0880609E+002
 70
0
  0
SEQEND
  0
POLYLINE
  8
1
  6
CONTINUOUS
 62
3
 66
1
 40
5.0E-001
 41
5.0E-001
 70
0
  0
VERTEX
  8
1
 42
0.0
 10
1.0968395E+002
 20
2.0780609E+002
 70
0
  0
VERTEX
  8
1
 42
0.0
 10
1.0968395E+002
 20
2.0880609E+002
 70
0
  0
SEQEND
  0
POLYLINE
  8
1
  6
CONTINUOUS
 62
3
 66
1
 40
5.0E-001
 41
5.0E-001
 70
0
  0
VERTEX
  8
1
 42
0.0
 10
1.0968395E+002
 20
2.0880609E+002
 70
0
  0
VERTEX
  8
1
 42
0.0
 10
1.1088395E+002
 20
2.0880609E+002
 70
0
  0
SEQEND
  0
POLYLINE
  8
1
  6
CONTINUOUS
 62
3
 66
1
 40
5.0E-001
 41
5.0E-001
 70
0
  0
VERTEX
  8
1
 42
0.0
 10
1.0968395E+002
 20
2.2658609E+002
 70
0
  0
VERTEX
  8
1
 42
0.0
 10
1.1088395E+002
 20
2.2658609E+002
 70
0
  0
SEQEND
  0
POLYLINE
  8
1
  6
CONTINUOUS
 62
3
 66
1
 40
5.0E-001
 41
5.0E-001
 70
0
  0
VERTEX
  8
1
 42
0.0
 10
1.0968395E+002
 20
2.2558609E+002
 70
0
  0
VERTEX
  8
1
 42
0.0
 10
1.0968395E+002
 20
2.2658609E+002
 70
0
  0
SEQEND
  0
POLYLINE
  8
1
  6
CONTINUOUS
 62
3
 66
1
 40
5.0E-001
 41
5.0E-001
 70
0
  0
VERTEX
  8
1
 42
0.0
 10
1.1088395E+002
 20
2.2558609E+002
 70
0
  0
VERTEX
  8
1
 42
0.0
 10
1.1088395E+002
 20
2.2658609E+002
 70
0
  0
SEQEND
  0
POLYLINE
  8
1
  6
CONTINUOUS
 62
3
 66
1
 40
5.0E-001
 41
5.0E-001
 70
0
  0
VERTEX
  8
1
 42
0.0
 10
1.0968395E+002
 20
2.2558609E+002
 70
0
  0
VERTEX
  8
1
 42
0.0
 10
1.1088395E+002
 20
2.2558609E+002
 70
0
  0
SEQEND
  0
POLYLINE
  8
1
  6
CONTINUOUS
 62
3
 66
1
 40
5.0E-001
 41
5.0E-001
 70
0
  0
VERTEX
  8
1
 42
0.0
 10
1.0968395E+002
 20
2.2608609E+002
 70
0
  0
VERTEX
  8
1
 42
0.0
 10
1.1088395E+002
 20
2.2608609E+002
 70
0
  0
SEQEND
  0
POLYLINE
  8
1
  6
CONTINUOUS
 62
3
 66
1
 40
5.0E-001
 41
5.0E-001
 70
0
  0
VERTEX
  8
1
 42
0.0
 10
1.0968395E+002
 20
2.1896609E+002
 70
0
  0
VERTEX
  8
1
 42
0.0
 10
1.1088395E+002
 20
2.1896609E+002
 70
0
  0
SEQEND
  0
POLYLINE
  8
1
  6
CONTINUOUS
 62
3
 66
1
 40
5.0E-001
 41
5.0E-001
 70
0
  0
VERTEX
  8
1
 42
0.0
 10
1.0968395E+002
 20
2.1796609E+002
 70
0
  0
VERTEX
  8
1
 42
0.0
 10
1.0968395E+002
 20
2.1896609E+002
 70
0
  0
SEQEND
  0
POLYLINE
  8
1
  6
CONTINUOUS
 62
3
 66
1
 40
5.0E-001
 41
5.0E-001
 70
0
  0
VERTEX
  8
1
 42
0.0
 10
1.1088395E+002
 20
2.1796609E+002
 70
0
  0
VERTEX
  8
1
 42
0.0
 10
1.1088395E+002
 20
2.1896609E+002
 70
0
  0
SEQEND
  0
POLYLINE
  8
1
  6
CONTINUOUS
 62
3
 66
1
 40
5.0E-001
 41
5.0E-001
 70
0
  0
VERTEX
  8
1
 42
0.0
 10
1.0968395E+002
 20
2.1796609E+002
 70
0
  0
VERTEX
  8
1
 42
0.0
 10
1.1088395E+002
 20
2.1796609E+002
 70
0
  0
SEQEND
  0
POLYLINE
  8
1
  6
CONTINUOUS
 62
3
 66
1
 40
5.0E-001
 41
5.0E-001
 70
0
  0
VERTEX
  8
1
 42
0.0
 10
1.0968395E+002
 20
2.1846609E+002
 70
0
  0
VERTEX
  8
1
 42
0.0
 10
1.1088395E+002
 20
2.1846609E+002
 70
0
  0
SEQEND
  0
INSERT
  2
*E1421
  8
1
 10
1.1153395E+002
 20
2.2784609E+002
 41
1.0
 42
1.0
 43
1.0
 50
2.7E+002
 62
3
  0
POLYLINE
  8
1
  6
CONTINUOUS
 62
3
 66
1
 40
5.0E-001
 41
5.0E-001
 70
0
  0
VERTEX
  8
1
 42
0.0
 10
1.1153395E+002
 20
2.2734609E+002
 70
0
  0
VERTEX
  8
1
 42
0.0
 10
1.1198395E+002
 20
2.2734609E+002
 70
0
  0
SEQEND
  0
POLYLINE
  8
1
  6
CONTINUOUS
 62
3
 66
1
 40
5.0E-001
 41
5.0E-001
 70
0
  0
VERTEX
  8
1
 42
0.0
 10
1.1103395E+002
 20
2.2784609E+002
 70
0
  0
VERTEX
  8
1
 42
0.0
 10
1.1103395E+002
 20
2.3074609E+002
 70
0
  0
SEQEND
  0
INSERT
  2
*E1424
  8
1
 10
1.0903395E+002
 20
2.2784609E+002
 41
1.0
 42
1.0
 43
1.0
 50
2.7E+002
 62
3
  0
POLYLINE
  8
1
  6
CONTINUOUS
 62
3
 66
1
 40
5.0E-001
 41
5.0E-001
 70
0
  0
VERTEX
  8
1
 42
0.0
 10
1.0953395E+002
 20
2.2784609E+002
 70
0
  0
VERTEX
  8
1
 42
0.0
 10
1.0953395E+002
 20
2.3074609E+002
 70
0
  0
SEQEND
  0
POLYLINE
  8
1
  6
CONTINUOUS
 62
3
 66
1
 40
5.0E-001
 41
5.0E-001
 70
0
  0
VERTEX
  8
1
 42
0.0
 10
1.0858395E+002
 20
2.2734609E+002
 70
0
  0
VERTEX
  8
1
 42
0.0
 10
1.0903395E+002
 20
2.2734609E+002
 70
0
  0
SEQEND
  0
INSERT
  2
*E1427
  8
1
 10
1.0903395E+002
 20
2.1024609E+002
 41
1.0
 42
1.0
 43
1.0
 50
2.7E+002
 62
3
  0
POLYLINE
  8
1
  6
CONTINUOUS
 62
3
 66
1
 40
5.0E-001
 41
5.0E-001
 70
0
  0
VERTEX
  8
1
 42
0.0
 10
1.0858395E+002
 20
2.0974609E+002
 70
0
  0
VERTEX
  8
1
 42
0.0
 10
1.0903395E+002
 20
2.0974609E+002
 70
0
  0
SEQEND
  0
INSERT
  2
*E1429
  8
1
 10
1.1153395E+002
 20
2.1024609E+002
 41
1.0
 42
1.0
 43
1.0
 50
2.7E+002
 62
3
  0
POLYLINE
  8
1
  6
CONTINUOUS
 62
3
 66
1
 40
5.0E-001
 41
5.0E-001
 70
0
  0
VERTEX
  8
1
 42
0.0
 10
1.1153395E+002
 20
2.0974609E+002
 70
0
  0
VERTEX
  8
1
 42
0.0
 10
1.1198395E+002
 20
2.0974609E+002
 70
0
  0
SEQEND
  0
INSERT
  2
*E1431
  8
1
 10
1.1153395E+002
 20
2.0064609E+002
 41
1.0
 42
1.0
 43
1.0
 50
2.7E+002
 62
3
  0
POLYLINE
  8
1
  6
CONTINUOUS
 62
3
 66
1
 40
5.0E-001
 41
5.0E-001
 70
0
  0
VERTEX
  8
1
 42
0.0
 10
1.1153395E+002
 20
2.0014609E+002
 70
0
  0
VERTEX
  8
1
 42
0.0
 10
1.1198395E+002
 20
2.0014609E+002
 70
0
  0
SEQEND
  0
INSERT
  2
*E1433
  8
1
 10
1.0903395E+002
 20
2.0064609E+002
 41
1.0
 42
1.0
 43
1.0
 50
2.7E+002
 62
3
  0
POLYLINE
  8
1
  6
CONTINUOUS
 62
3
 66
1
 40
5.0E-001
 41
5.0E-001
 70
0
  0
VERTEX
  8
1
 42
0.0
 10
1.0858395E+002
 20
2.0014609E+002
 70
0
  0
VERTEX
  8
1
 42
0.0
 10
1.0903395E+002
 20
2.0014609E+002
 70
0
  0
SEQEND
  0
INSERT
  2
*E1435
  8
1
 10
1.1153395E+002
 20
1.9154609E+002
 41
1.0
 42
1.0
 43
1.0
 50
2.7E+002
 62
3
  0
POLYLINE
  8
1
  6
CONTINUOUS
 62
3
 66
1
 40
5.0E-001
 41
5.0E-001
 70
0
  0
VERTEX
  8
1
 42
0.0
 10
1.1153395E+002
 20
1.9104609E+002
 70
0
  0
VERTEX
  8
1
 42
0.0
 10
1.1198395E+002
 20
1.9104609E+002
 70
0
  0
SEQEND
  0
INSERT
  2
*E1437
  8
1
 10
1.0903395E+002
 20
1.9154609E+002
 41
1.0
 42
1.0
 43
1.0
 50
2.7E+002
 62
3
  0
POLYLINE
  8
1
  6
CONTINUOUS
 62
3
 66
1
 40
5.0E-001
 41
5.0E-001
 70
0
  0
VERTEX
  8
1
 42
0.0
 10
1.0858395E+002
 20
1.9104609E+002
 70
0
  0
VERTEX
  8
1
 42
0.0
 10
1.0903395E+002
 20
1.9104609E+002
 70
0
  0
SEQEND
  0
INSERT
  2
*E1439
  8
1
 10
1.0903395E+002
 20
1.8574609E+002
 41
1.0
 42
1.0
 43
1.0
 50
2.7E+002
 62
3
  0
POLYLINE
  8
1
  6
CONTINUOUS
 62
3
 66
1
 40
5.0E-001
 41
5.0E-001
 70
0
  0
VERTEX
  8
1
 42
0.0
 10
1.0858395E+002
 20
1.8624609E+002
 70
0
  0
VERTEX
  8
1
 42
0.0
 10
1.0903395E+002
 20
1.8624609E+002
 70
0
  0
SEQEND
  0
POLYLINE
  8
1
  6
CONTINUOUS
 62
3
 66
1
 40
5.0E-001
 41
5.0E-001
 70
0
  0
VERTEX
  8
1
 42
0.0
 10
1.0953395E+002
 20
1.8424609E+002
 70
0
  0
VERTEX
  8
1
 42
0.0
 10
1.0953395E+002
 20
1.8574609E+002
 70
0
  0
SEQEND
  0
INSERT
  2
*E1442
  8
1
 10
1.1153395E+002
 20
1.8574609E+002
 41
1.0
 42
1.0
 43
1.0
 50
2.7E+002
 62
3
  0
POLYLINE
  8
1
  6
CONTINUOUS
 62
3
 66
1
 40
5.0E-001
 41
5.0E-001
 70
0
  0
VERTEX
  8
1
 42
0.0
 10
1.1153395E+002
 20
1.8624609E+002
 70
0
  0
VERTEX
  8
1
 42
0.0
 10
1.1198395E+002
 20
1.8624609E+002
 70
0
  0
SEQEND
  0
POLYLINE
  8
1
  6
CONTINUOUS
 62
3
 66
1
 40
5.0E-001
 41
5.0E-001
 70
0
  0
VERTEX
  8
1
 42
0.0
 10
1.1103395E+002
 20
1.8424609E+002
 70
0
  0
VERTEX
  8
1
 42
0.0
 10
1.1103395E+002
 20
1.8574609E+002
 70
0
  0
SEQEND
  0
INSERT
  2
*E1445
  8
1
 10
1.1153395E+002
 20
1.9514609E+002
 41
1.0
 42
1.0
 43
1.0
 50
2.7E+002
 62
3
  0
INSERT
  2
*E1446
  8
1
 10
1.0903395E+002
 20
1.9514609E+002
 41
1.0
 42
1.0
 43
1.0
 50
2.7E+002
 62
3
  0
POLYLINE
  8
1
  6
CONTINUOUS
 62
3
 66
1
 40
5.0E-001
 41
5.0E-001
 70
0
  0
VERTEX
  8
1
 42
0.0
 10
1.0953395E+002
 20
1.9154609E+002
 70
0
  0
VERTEX
  8
1
 42
0.0
 10
1.0953395E+002
 20
1.9514609E+002
 70
0
  0
SEQEND
  0
POLYLINE
  8
1
  6
CONTINUOUS
 62
3
 66
1
 40
5.0E-001
 41
5.0E-001
 70
0
  0
VERTEX
  8
1
 42
0.0
 10
1.1103395E+002
 20
1.9154609E+002
 70
0
  0
VERTEX
  8
1
 42
0.0
 10
1.1103395E+002
 20
1.9514609E+002
 70
0
  0
SEQEND
  0
INSERT
  2
*E1449
  8
1
 10
1.1153395E+002
 20
2.0424609E+002
 41
1.0
 42
1.0
 43
1.0
 50
2.7E+002
 62
3
  0
POLYLINE
  8
1
  6
CONTINUOUS
 62
3
 66
1
 40
5.0E-001
 41
5.0E-001
 70
0
  0
VERTEX
  8
1
 42
0.0
 10
1.1103395E+002
 20
2.0064609E+002
 70
0
  0
VERTEX
  8
1
 42
0.0
 10
1.1103395E+002
 20
2.0424609E+002
 70
0
  0
SEQEND
  0
INSERT
  2
*E1451
  8
1
 10
1.0903395E+002
 20
2.0424609E+002
 41
1.0
 42
1.0
 43
1.0
 50
2.7E+002
 62
3
  0
POLYLINE
  8
1
  6
CONTINUOUS
 62
3
 66
1
 40
5.0E-001
 41
5.0E-001
 70
0
  0
VERTEX
  8
1
 42
0.0
 10
1.0953395E+002
 20
2.0064609E+002
 70
0
  0
VERTEX
  8
1
 42
0.0
 10
1.0953395E+002
 20
2.0424609E+002
 70
0
  0
SEQEND
  0
INSERT
  2
*E1453
  8
1
 10
1.1153395E+002
 20
2.1334609E+002
 41
1.0
 42
1.0
 43
1.0
 50
2.7E+002
 62
3
  0
POLYLINE
  8
1
  6
CONTINUOUS
 62
3
 66
1
 40
5.0E-001
 41
5.0E-001
 70
0
  0
VERTEX
  8
1
 42
0.0
 10
1.1103395E+002
 20
2.1024609E+002
 70
0
  0
VERTEX
  8
1
 42
0.0
 10
1.1103395E+002
 20
2.1334609E+002
 70
0
  0
SEQEND
  0
INSERT
  2
*E1455
  8
1
 10
1.0903395E+002
 20
2.1334609E+002
 41
1.0
 42
1.0
 43
1.0
 50
2.7E+002
 62
3
  0
POLYLINE
  8
1
  6
CONTINUOUS
 62
3
 66
1
 40
5.0E-001
 41
5.0E-001
 70
0
  0
VERTEX
  8
1
 42
0.0
 10
1.0953395E+002
 20
2.1024609E+002
 70
0
  0
VERTEX
  8
1
 42
0.0
 10
1.0953395E+002
 20
2.1334609E+002
 70
0
  0
SEQEND
  0
INSERT
  2
*E1457
  8
1
 10
1.1153395E+002
 20
2.2244609E+002
 41
1.0
 42
1.0
 43
1.0
 50
2.7E+002
 62
3
  0
INSERT
  2
*E1458
  8
1
 10
1.0903395E+002
 20
2.2244609E+002
 41
1.0
 42
1.0
 43
1.0
 50
2.7E+002
 62
3
  0
INSERT
  2
*E1459
  8
1
 10
1.1153395E+002
 20
2.2124609E+002
 41
1.0
 42
1.0
 43
1.0
 50
2.7E+002
 62
3
  0
POLYLINE
  8
1
  6
CONTINUOUS
 62
3
 66
1
 40
5.0E-001
 41
5.0E-001
 70
0
  0
VERTEX
  8
1
 42
0.0
 10
1.1103395E+002
 20
2.2124609E+002
 70
0
  0
VERTEX
  8
1
 42
0.0
 10
1.1103395E+002
 20
2.2244609E+002
 70
0
  0
SEQEND
  0
INSERT
  2
*E1461
  8
1
 10
1.0903395E+002
 20
2.2124609E+002
 41
1.0
 42
1.0
 43
1.0
 50
2.7E+002
 62
3
  0
POLYLINE
  8
1
  6
CONTINUOUS
 62
3
 66
1
 40
5.0E-001
 41
5.0E-001
 70
0
  0
VERTEX
  8
1
 42
0.0
 10
1.0953395E+002
 20
2.2124609E+002
 70
0
  0
VERTEX
  8
1
 42
0.0
 10
1.0953395E+002
 20
2.2244609E+002
 70
0
  0
SEQEND
  0
POLYLINE
  8
1
  6
CONTINUOUS
 62
3
 66
1
 40
5.0E-001
 41
5.0E-001
 70
0
  0
VERTEX
  8
1
 42
0.0
 10
1.0763395E+002
 20
2.0624609E+002
 70
0
  0
VERTEX
  8
1
 42
0.0
 10
1.0763395E+002
 20
2.0774609E+002
 70
0
  0
SEQEND
  0
POLYLINE
  8
1
  6
CONTINUOUS
 62
3
 66
1
 40
5.0E-001
 41
5.0E-001
 70
0
  0
VERTEX
  8
1
 42
0.0
 10
1.0718395E+002
 20
2.0624609E+002
 70
0
  0
VERTEX
  8
1
 42
0.0
 10
1.0718395E+002
 20
2.0774609E+002
 70
0
  0
SEQEND
  0
POLYLINE
  8
1
  6
CONTINUOUS
 62
3
 66
1
 40
5.0E-001
 41
5.0E-001
 70
0
  0
VERTEX
  8
1
 42
0.0
 10
1.0663395E+002
 20
2.0624609E+002
 70
0
  0
VERTEX
  8
1
 42
0.0
 10
1.0763395E+002
 20
2.0624609E+002
 70
0
  0
SEQEND
  0
POLYLINE
  8
1
  6
CONTINUOUS
 62
3
 66
1
 40
5.0E-001
 41
5.0E-001
 70
0
  0
VERTEX
  8
1
 42
0.0
 10
1.0763395E+002
 20
2.0774609E+002
 70
0
  0
VERTEX
  8
1
 42
0.0
 10
1.0663395E+002
 20
2.0774609E+002
 70
0
  0
SEQEND
  0
POLYLINE
  8
1
  6
CONTINUOUS
 62
3
 66
1
 40
5.0E-001
 41
5.0E-001
 70
0
  0
VERTEX
  8
1
 42
0.0
 10
1.0663395E+002
 20
2.0574609E+002
 70
0
  0
VERTEX
  8
1
 42
0.0
 10
1.0663395E+002
 20
2.0824609E+002
 70
0
  0
SEQEND
  0
POLYLINE
  8
1
  6
CONTINUOUS
 62
3
 66
1
 40
5.0E-001
 41
5.0E-001
 70
0
  0
VERTEX
  8
1
 42
0.0
 10
1.0663395E+002
 20
2.0824609E+002
 70
0
  0
VERTEX
  8
1
 42
0.0
 10
1.0463395E+002
 20
2.0824609E+002
 70
0
  0
SEQEND
  0
POLYLINE
  8
1
  6
CONTINUOUS
 62
3
 66
1
 40
5.0E-001
 41
5.0E-001
 70
0
  0
VERTEX
  8
1
 42
0.0
 10
1.0463395E+002
 20
2.0574609E+002
 70
0
  0
VERTEX
  8
1
 42
0.0
 10
1.0463395E+002
 20
2.0824609E+002
 70
0
  0
SEQEND
  0
POLYLINE
  8
1
  6
CONTINUOUS
 62
3
 66
1
 40
5.0E-001
 41
5.0E-001
 70
0
  0
VERTEX
  8
1
 42
0.0
 10
1.0663395E+002
 20
2.0574609E+002
 70
0
  0
VERTEX
  8
1
 42
0.0
 10
1.0463395E+002
 20
2.0574609E+002
 70
0
  0
SEQEND
  0
POLYLINE
  8
1
  6
CONTINUOUS
 62
3
 66
1
 40
5.0E-001
 41
5.0E-001
 70
0
  0
VERTEX
  8
1
 42
0.0
 10
1.0663395E+002
 20
2.1484609E+002
 70
0
  0
VERTEX
  8
1
 42
0.0
 10
1.0463395E+002
 20
2.1484609E+002
 70
0
  0
SEQEND
  0
POLYLINE
  8
1
  6
CONTINUOUS
 62
3
 66
1
 40
5.0E-001
 41
5.0E-001
 70
0
  0
VERTEX
  8
1
 42
0.0
 10
1.0463395E+002
 20
2.1484609E+002
 70
0
  0
VERTEX
  8
1
 42
0.0
 10
1.0463395E+002
 20
2.1734609E+002
 70
0
  0
SEQEND
  0
POLYLINE
  8
1
  6
CONTINUOUS
 62
3
 66
1
 40
5.0E-001
 41
5.0E-001
 70
0
  0
VERTEX
  8
1
 42
0.0
 10
1.0663395E+002
 20
2.1734609E+002
 70
0
  0
VERTEX
  8
1
 42
0.0
 10
1.0463395E+002
 20
2.1734609E+002
 70
0
  0
SEQEND
  0
POLYLINE
  8
1
  6
CONTINUOUS
 62
3
 66
1
 40
5.0E-001
 41
5.0E-001
 70
0
  0
VERTEX
  8
1
 42
0.0
 10
1.0663395E+002
 20
2.1484609E+002
 70
0
  0
VERTEX
  8
1
 42
0.0
 10
1.0663395E+002
 20
2.1734609E+002
 70
0
  0
SEQEND
  0
POLYLINE
  8
1
  6
CONTINUOUS
 62
3
 66
1
 40
5.0E-001
 41
5.0E-001
 70
0
  0
VERTEX
  8
1
 42
0.0
 10
1.0763395E+002
 20
2.1684609E+002
 70
0
  0
VERTEX
  8
1
 42
0.0
 10
1.0663395E+002
 20
2.1684609E+002
 70
0
  0
SEQEND
  0
POLYLINE
  8
1
  6
CONTINUOUS
 62
3
 66
1
 40
5.0E-001
 41
5.0E-001
 70
0
  0
VERTEX
  8
1
 42
0.0
 10
1.0663395E+002
 20
2.1534609E+002
 70
0
  0
VERTEX
  8
1
 42
0.0
 10
1.0763395E+002
 20
2.1534609E+002
 70
0
  0
SEQEND
  0
POLYLINE
  8
1
  6
CONTINUOUS
 62
3
 66
1
 40
5.0E-001
 41
5.0E-001
 70
0
  0
VERTEX
  8
1
 42
0.0
 10
1.0718395E+002
 20
2.1534609E+002
 70
0
  0
VERTEX
  8
1
 42
0.0
 10
1.0718395E+002
 20
2.1684609E+002
 70
0
  0
SEQEND
  0
POLYLINE
  8
1
  6
CONTINUOUS
 62
3
 66
1
 40
5.0E-001
 41
5.0E-001
 70
0
  0
VERTEX
  8
1
 42
0.0
 10
1.0763395E+002
 20
2.1534609E+002
 70
0
  0
VERTEX
  8
1
 42
0.0
 10
1.0763395E+002
 20
2.1684609E+002
 70
0
  0
SEQEND
  0
POLYLINE
  8
1
  6
CONTINUOUS
 62
3
 66
1
 40
5.0E-001
 41
5.0E-001
 70
0
  0
VERTEX
  8
1
 42
0.0
 10
1.1658395E+002
 20
2.1534609E+002
 70
0
  0
VERTEX
  8
1
 42
0.0
 10
1.1558395E+002
 20
2.1534609E+002
 70
0
  0
SEQEND
  0
POLYLINE
  8
1
  6
CONTINUOUS
 62
3
 66
1
 40
5.0E-001
 41
5.0E-001
 70
0
  0
VERTEX
  8
1
 42
0.0
 10
1.1558395E+002
 20
2.1534609E+002
 70
0
  0
VERTEX
  8
1
 42
0.0
 10
1.1558395E+002
 20
2.1684609E+002
 70
0
  0
SEQEND
  0
POLYLINE
  8
1
  6
CONTINUOUS
 62
3
 66
1
 40
5.0E-001
 41
5.0E-001
 70
0
  0
VERTEX
  8
1
 42
0.0
 10
1.1603395E+002
 20
2.1534609E+002
 70
0
  0
VERTEX
  8
1
 42
0.0
 10
1.1603395E+002
 20
2.1684609E+002
 70
0
  0
SEQEND
  0
POLYLINE
  8
1
  6
CONTINUOUS
 62
3
 66
1
 40
5.0E-001
 41
5.0E-001
 70
0
  0
VERTEX
  8
1
 42
0.0
 10
1.1558395E+002
 20
2.1684609E+002
 70
0
  0
VERTEX
  8
1
 42
0.0
 10
1.1658395E+002
 20
2.1684609E+002
 70
0
  0
SEQEND
  0
POLYLINE
  8
1
  6
CONTINUOUS
 62
3
 66
1
 40
5.0E-001
 41
5.0E-001
 70
0
  0
VERTEX
  8
1
 42
0.0
 10
1.1658395E+002
 20
2.1484609E+002
 70
0
  0
VERTEX
  8
1
 42
0.0
 10
1.1658395E+002
 20
2.1734609E+002
 70
0
  0
SEQEND
  0
POLYLINE
  8
1
  6
CONTINUOUS
 62
3
 66
1
 40
5.0E-001
 41
5.0E-001
 70
0
  0
VERTEX
  8
1
 42
0.0
 10
1.1658395E+002
 20
2.1734609E+002
 70
0
  0
VERTEX
  8
1
 42
0.0
 10
1.1858395E+002
 20
2.1734609E+002
 70
0
  0
SEQEND
  0
POLYLINE
  8
1
  6
CONTINUOUS
 62
3
 66
1
 40
5.0E-001
 41
5.0E-001
 70
0
  0
VERTEX
  8
1
 42
0.0
 10
1.1658395E+002
 20
2.1484609E+002
 70
0
  0
VERTEX
  8
1
 42
0.0
 10
1.1858395E+002
 20
2.1484609E+002
 70
0
  0
SEQEND
  0
POLYLINE
  8
1
  6
CONTINUOUS
 62
3
 66
1
 40
5.0E-001
 41
5.0E-001
 70
0
  0
VERTEX
  8
1
 42
0.0
 10
1.1858395E+002
 20
2.1484609E+002
 70
0
  0
VERTEX
  8
1
 42
0.0
 10
1.1858395E+002
 20
2.1734609E+002
 70
0
  0
SEQEND
  0
POLYLINE
  8
1
  6
CONTINUOUS
 62
3
 66
1
 40
5.0E-001
 41
5.0E-001
 70
0
  0
VERTEX
  8
1
 42
0.0
 10
1.0763395E+002
 20
2.2444609E+002
 70
0
  0
VERTEX
  8
1
 42
0.0
 10
1.0763395E+002
 20
2.2594609E+002
 70
0
  0
SEQEND
  0
POLYLINE
  8
1
  6
CONTINUOUS
 62
3
 66
1
 40
5.0E-001
 41
5.0E-001
 70
0
  0
VERTEX
  8
1
 42
0.0
 10
1.0718395E+002
 20
2.2444609E+002
 70
0
  0
VERTEX
  8
1
 42
0.0
 10
1.0718395E+002
 20
2.2594609E+002
 70
0
  0
SEQEND
  0
POLYLINE
  8
1
  6
CONTINUOUS
 62
3
 66
1
 40
5.0E-001
 41
5.0E-001
 70
0
  0
VERTEX
  8
1
 42
0.0
 10
1.0663395E+002
 20
2.2444609E+002
 70
0
  0
VERTEX
  8
1
 42
0.0
 10
1.0763395E+002
 20
2.2444609E+002
 70
0
  0
SEQEND
  0
POLYLINE
  8
1
  6
CONTINUOUS
 62
3
 66
1
 40
5.0E-001
 41
5.0E-001
 70
0
  0
VERTEX
  8
1
 42
0.0
 10
1.0763395E+002
 20
2.2594609E+002
 70
0
  0
VERTEX
  8
1
 42
0.0
 10
1.0663395E+002
 20
2.2594609E+002
 70
0
  0
SEQEND
  0
POLYLINE
  8
1
  6
CONTINUOUS
 62
3
 66
1
 40
5.0E-001
 41
5.0E-001
 70
0
  0
VERTEX
  8
1
 42
0.0
 10
1.0663395E+002
 20
2.2394609E+002
 70
0
  0
VERTEX
  8
1
 42
0.0
 10
1.0663395E+002
 20
2.2644609E+002
 70
0
  0
SEQEND
  0
POLYLINE
  8
1
  6
CONTINUOUS
 62
3
 66
1
 40
5.0E-001
 41
5.0E-001
 70
0
  0
VERTEX
  8
1
 42
0.0
 10
1.0663395E+002
 20
2.2644609E+002
 70
0
  0
VERTEX
  8
1
 42
0.0
 10
1.0463395E+002
 20
2.2644609E+002
 70
0
  0
SEQEND
  0
POLYLINE
  8
1
  6
CONTINUOUS
 62
3
 66
1
 40
5.0E-001
 41
5.0E-001
 70
0
  0
VERTEX
  8
1
 42
0.0
 10
1.0463395E+002
 20
2.2394609E+002
 70
0
  0
VERTEX
  8
1
 42
0.0
 10
1.0463395E+002
 20
2.2644609E+002
 70
0
  0
SEQEND
  0
POLYLINE
  8
1
  6
CONTINUOUS
 62
3
 66
1
 40
5.0E-001
 41
5.0E-001
 70
0
  0
VERTEX
  8
1
 42
0.0
 10
1.0663395E+002
 20
2.2394609E+002
 70
0
  0
VERTEX
  8
1
 42
0.0
 10
1.0463395E+002
 20
2.2394609E+002
 70
0
  0
SEQEND
  0
POLYLINE
  8
1
  6
CONTINUOUS
 62
3
 66
1
 40
5.0E-001
 41
5.0E-001
 70
0
  0
VERTEX
  8
1
 42
0.0
 10
1.1858395E+002
 20
2.2394609E+002
 70
0
  0
VERTEX
  8
1
 42
0.0
 10
1.1858395E+002
 20
2.2644609E+002
 70
0
  0
SEQEND
  0
POLYLINE
  8
1
  6
CONTINUOUS
 62
3
 66
1
 40
5.0E-001
 41
5.0E-001
 70
0
  0
VERTEX
  8
1
 42
0.0
 10
1.1658395E+002
 20
2.2394609E+002
 70
0
  0
VERTEX
  8
1
 42
0.0
 10
1.1858395E+002
 20
2.2394609E+002
 70
0
  0
SEQEND
  0
POLYLINE
  8
1
  6
CONTINUOUS
 62
3
 66
1
 40
5.0E-001
 41
5.0E-001
 70
0
  0
VERTEX
  8
1
 42
0.0
 10
1.1658395E+002
 20
2.2644609E+002
 70
0
  0
VERTEX
  8
1
 42
0.0
 10
1.1858395E+002
 20
2.2644609E+002
 70
0
  0
SEQEND
  0
POLYLINE
  8
1
  6
CONTINUOUS
 62
3
 66
1
 40
5.0E-001
 41
5.0E-001
 70
0
  0
VERTEX
  8
1
 42
0.0
 10
1.1658395E+002
 20
2.2394609E+002
 70
0
  0
VERTEX
  8
1
 42
0.0
 10
1.1658395E+002
 20
2.2644609E+002
 70
0
  0
SEQEND
  0
POLYLINE
  8
1
  6
CONTINUOUS
 62
3
 66
1
 40
5.0E-001
 41
5.0E-001
 70
0
  0
VERTEX
  8
1
 42
0.0
 10
1.1558395E+002
 20
2.2594609E+002
 70
0
  0
VERTEX
  8
1
 42
0.0
 10
1.1658395E+002
 20
2.2594609E+002
 70
0
  0
SEQEND
  0
POLYLINE
  8
1
  6
CONTINUOUS
 62
3
 66
1
 40
5.0E-001
 41
5.0E-001
 70
0
  0
VERTEX
  8
1
 42
0.0
 10
1.1603395E+002
 20
2.2444609E+002
 70
0
  0
VERTEX
  8
1
 42
0.0
 10
1.1603395E+002
 20
2.2594609E+002
 70
0
  0
SEQEND
  0
POLYLINE
  8
1
  6
CONTINUOUS
 62
3
 66
1
 40
5.0E-001
 41
5.0E-001
 70
0
  0
VERTEX
  8
1
 42
0.0
 10
1.1558395E+002
 20
2.2444609E+002
 70
0
  0
VERTEX
  8
1
 42
0.0
 10
1.1558395E+002
 20
2.2594609E+002
 70
0
  0
SEQEND
  0
POLYLINE
  8
1
  6
CONTINUOUS
 62
3
 66
1
 40
5.0E-001
 41
5.0E-001
 70
0
  0
VERTEX
  8
1
 42
0.0
 10
1.1658395E+002
 20
2.2444609E+002
 70
0
  0
VERTEX
  8
1
 42
0.0
 10
1.1558395E+002
 20
2.2444609E+002
 70
0
  0
SEQEND
  0
POLYLINE
  8
1
  6
CONTINUOUS
 62
3
 66
1
 40
5.0E-001
 41
5.0E-001
 70
0
  0
VERTEX
  8
1
 42
0.0
 10
1.0763395E+002
 20
2.1534609E+002
 70
0
  0
VERTEX
  8
1
 42
0.0
 10
1.0763395E+002
 20
2.1684609E+002
 70
0
  0
SEQEND
  0
POLYLINE
  8
1
  6
CONTINUOUS
 62
3
 66
1
 40
5.0E-001
 41
5.0E-001
 70
0
  0
VERTEX
  8
1
 42
0.0
 10
1.0718395E+002
 20
2.1534609E+002
 70
0
  0
VERTEX
  8
1
 42
0.0
 10
1.0718395E+002
 20
2.1684609E+002
 70
0
  0
SEQEND
  0
POLYLINE
  8
1
  6
CONTINUOUS
 62
3
 66
1
 40
5.0E-001
 41
5.0E-001
 70
0
  0
VERTEX
  8
1
 42
0.0
 10
1.0663395E+002
 20
2.1534609E+002
 70
0
  0
VERTEX
  8
1
 42
0.0
 10
1.0763395E+002
 20
2.1534609E+002
 70
0
  0
SEQEND
  0
POLYLINE
  8
1
  6
CONTINUOUS
 62
3
 66
1
 40
5.0E-001
 41
5.0E-001
 70
0
  0
VERTEX
  8
1
 42
0.0
 10
1.0763395E+002
 20
2.1684609E+002
 70
0
  0
VERTEX
  8
1
 42
0.0
 10
1.0663395E+002
 20
2.1684609E+002
 70
0
  0
SEQEND
  0
POLYLINE
  8
1
  6
CONTINUOUS
 62
3
 66
1
 40
5.0E-001
 41
5.0E-001
 70
0
  0
VERTEX
  8
1
 42
0.0
 10
1.0663395E+002
 20
2.1484609E+002
 70
0
  0
VERTEX
  8
1
 42
0.0
 10
1.0663395E+002
 20
2.1734609E+002
 70
0
  0
SEQEND
  0
POLYLINE
  8
1
  6
CONTINUOUS
 62
3
 66
1
 40
5.0E-001
 41
5.0E-001
 70
0
  0
VERTEX
  8
1
 42
0.0
 10
1.0663395E+002
 20
2.1734609E+002
 70
0
  0
VERTEX
  8
1
 42
0.0
 10
1.0463395E+002
 20
2.1734609E+002
 70
0
  0
SEQEND
  0
POLYLINE
  8
1
  6
CONTINUOUS
 62
3
 66
1
 40
5.0E-001
 41
5.0E-001
 70
0
  0
VERTEX
  8
1
 42
0.0
 10
1.0463395E+002
 20
2.1484609E+002
 70
0
  0
VERTEX
  8
1
 42
0.0
 10
1.0463395E+002
 20
2.1734609E+002
 70
0
  0
SEQEND
  0
POLYLINE
  8
1
  6
CONTINUOUS
 62
3
 66
1
 40
5.0E-001
 41
5.0E-001
 70
0
  0
VERTEX
  8
1
 42
0.0
 10
1.0663395E+002
 20
2.1484609E+002
 70
0
  0
VERTEX
  8
1
 42
0.0
 10
1.0463395E+002
 20
2.1484609E+002
 70
0
  0
SEQEND
  0
POLYLINE
  8
1
  6
CONTINUOUS
 62
3
 66
1
 40
5.0E-001
 41
5.0E-001
 70
0
  0
VERTEX
  8
1
 42
0.0
 10
1.1858395E+002
 20
2.1484609E+002
 70
0
  0
VERTEX
  8
1
 42
0.0
 10
1.1858395E+002
 20
2.1734609E+002
 70
0
  0
SEQEND
  0
POLYLINE
  8
1
  6
CONTINUOUS
 62
3
 66
1
 40
5.0E-001
 41
5.0E-001
 70
0
  0
VERTEX
  8
1
 42
0.0
 10
1.1658395E+002
 20
2.1484609E+002
 70
0
  0
VERTEX
  8
1
 42
0.0
 10
1.1858395E+002
 20
2.1484609E+002
 70
0
  0
SEQEND
  0
POLYLINE
  8
1
  6
CONTINUOUS
 62
3
 66
1
 40
5.0E-001
 41
5.0E-001
 70
0
  0
VERTEX
  8
1
 42
0.0
 10
1.1658395E+002
 20
2.1734609E+002
 70
0
  0
VERTEX
  8
1
 42
0.0
 10
1.1858395E+002
 20
2.1734609E+002
 70
0
  0
SEQEND
  0
POLYLINE
  8
1
  6
CONTINUOUS
 62
3
 66
1
 40
5.0E-001
 41
5.0E-001
 70
0
  0
VERTEX
  8
1
 42
0.0
 10
1.1658395E+002
 20
2.1484609E+002
 70
0
  0
VERTEX
  8
1
 42
0.0
 10
1.1658395E+002
 20
2.1734609E+002
 70
0
  0
SEQEND
  0
POLYLINE
  8
1
  6
CONTINUOUS
 62
3
 66
1
 40
5.0E-001
 41
5.0E-001
 70
0
  0
VERTEX
  8
1
 42
0.0
 10
1.1558395E+002
 20
2.1684609E+002
 70
0
  0
VERTEX
  8
1
 42
0.0
 10
1.1658395E+002
 20
2.1684609E+002
 70
0
  0
SEQEND
  0
POLYLINE
  8
1
  6
CONTINUOUS
 62
3
 66
1
 40
5.0E-001
 41
5.0E-001
 70
0
  0
VERTEX
  8
1
 42
0.0
 10
1.1603395E+002
 20
2.1534609E+002
 70
0
  0
VERTEX
  8
1
 42
0.0
 10
1.1603395E+002
 20
2.1684609E+002
 70
0
  0
SEQEND
  0
POLYLINE
  8
1
  6
CONTINUOUS
 62
3
 66
1
 40
5.0E-001
 41
5.0E-001
 70
0
  0
VERTEX
  8
1
 42
0.0
 10
1.1558395E+002
 20
2.1534609E+002
 70
0
  0
VERTEX
  8
1
 42
0.0
 10
1.1558395E+002
 20
2.1684609E+002
 70
0
  0
SEQEND
  0
POLYLINE
  8
1
  6
CONTINUOUS
 62
3
 66
1
 40
5.0E-001
 41
5.0E-001
 70
0
  0
VERTEX
  8
1
 42
0.0
 10
1.1658395E+002
 20
2.1534609E+002
 70
0
  0
VERTEX
  8
1
 42
0.0
 10
1.1558395E+002
 20
2.1534609E+002
 70
0
  0
SEQEND
  0
POLYLINE
  8
1
  6
CONTINUOUS
 62
3
 66
1
 40
5.0E-001
 41
5.0E-001
 70
0
  0
VERTEX
  8
1
 42
0.0
 10
1.0663395E+002
 20
1.9664609E+002
 70
0
  0
VERTEX
  8
1
 42
0.0
 10
1.0463395E+002
 20
1.9664609E+002
 70
0
  0
SEQEND
  0
POLYLINE
  8
1
  6
CONTINUOUS
 62
3
 66
1
 40
5.0E-001
 41
5.0E-001
 70
0
  0
VERTEX
  8
1
 42
0.0
 10
1.0463395E+002
 20
1.9664609E+002
 70
0
  0
VERTEX
  8
1
 42
0.0
 10
1.0463395E+002
 20
1.9914609E+002
 70
0
  0
SEQEND
  0
POLYLINE
  8
1
  6
CONTINUOUS
 62
3
 66
1
 40
5.0E-001
 41
5.0E-001
 70
0
  0
VERTEX
  8
1
 42
0.0
 10
1.0663395E+002
 20
1.9914609E+002
 70
0
  0
VERTEX
  8
1
 42
0.0
 10
1.0463395E+002
 20
1.9914609E+002
 70
0
  0
SEQEND
  0
POLYLINE
  8
1
  6
CONTINUOUS
 62
3
 66
1
 40
5.0E-001
 41
5.0E-001
 70
0
  0
VERTEX
  8
1
 42
0.0
 10
1.0663395E+002
 20
1.9664609E+002
 70
0
  0
VERTEX
  8
1
 42
0.0
 10
1.0663395E+002
 20
1.9914609E+002
 70
0
  0
SEQEND
  0
POLYLINE
  8
1
  6
CONTINUOUS
 62
3
 66
1
 40
5.0E-001
 41
5.0E-001
 70
0
  0
VERTEX
  8
1
 42
0.0
 10
1.0763395E+002
 20
1.9864609E+002
 70
0
  0
VERTEX
  8
1
 42
0.0
 10
1.0663395E+002
 20
1.9864609E+002
 70
0
  0
SEQEND
  0
POLYLINE
  8
1
  6
CONTINUOUS
 62
3
 66
1
 40
5.0E-001
 41
5.0E-001
 70
0
  0
VERTEX
  8
1
 42
0.0
 10
1.0663395E+002
 20
1.9714609E+002
 70
0
  0
VERTEX
  8
1
 42
0.0
 10
1.0763395E+002
 20
1.9714609E+002
 70
0
  0
SEQEND
  0
POLYLINE
  8
1
  6
CONTINUOUS
 62
3
 66
1
 40
5.0E-001
 41
5.0E-001
 70
0
  0
VERTEX
  8
1
 42
0.0
 10
1.0718395E+002
 20
1.9714609E+002
 70
0
  0
VERTEX
  8
1
 42
0.0
 10
1.0718395E+002
 20
1.9864609E+002
 70
0
  0
SEQEND
  0
POLYLINE
  8
1
  6
CONTINUOUS
 62
3
 66
1
 40
5.0E-001
 41
5.0E-001
 70
0
  0
VERTEX
  8
1
 42
0.0
 10
1.0763395E+002
 20
1.9714609E+002
 70
0
  0
VERTEX
  8
1
 42
0.0
 10
1.0763395E+002
 20
1.9864609E+002
 70
0
  0
SEQEND
  0
POLYLINE
  8
1
  6
CONTINUOUS
 62
3
 66
1
 40
5.0E-001
 41
5.0E-001
 70
0
  0
VERTEX
  8
1
 42
0.0
 10
1.0763395E+002
 20
1.9714609E+002
 70
0
  0
VERTEX
  8
1
 42
0.0
 10
1.0763395E+002
 20
1.9864609E+002
 70
0
  0
SEQEND
  0
POLYLINE
  8
1
  6
CONTINUOUS
 62
3
 66
1
 40
5.0E-001
 41
5.0E-001
 70
0
  0
VERTEX
  8
1
 42
0.0
 10
1.0718395E+002
 20
1.9714609E+002
 70
0
  0
VERTEX
  8
1
 42
0.0
 10
1.0718395E+002
 20
1.9864609E+002
 70
0
  0
SEQEND
  0
POLYLINE
  8
1
  6
CONTINUOUS
 62
3
 66
1
 40
5.0E-001
 41
5.0E-001
 70
0
  0
VERTEX
  8
1
 42
0.0
 10
1.0663395E+002
 20
1.9714609E+002
 70
0
  0
VERTEX
  8
1
 42
0.0
 10
1.0763395E+002
 20
1.9714609E+002
 70
0
  0
SEQEND
  0
POLYLINE
  8
1
  6
CONTINUOUS
 62
3
 66
1
 40
5.0E-001
 41
5.0E-001
 70
0
  0
VERTEX
  8
1
 42
0.0
 10
1.0763395E+002
 20
1.9864609E+002
 70
0
  0
VERTEX
  8
1
 42
0.0
 10
1.0663395E+002
 20
1.9864609E+002
 70
0
  0
SEQEND
  0
POLYLINE
  8
1
  6
CONTINUOUS
 62
3
 66
1
 40
5.0E-001
 41
5.0E-001
 70
0
  0
VERTEX
  8
1
 42
0.0
 10
1.0663395E+002
 20
1.9664609E+002
 70
0
  0
VERTEX
  8
1
 42
0.0
 10
1.0663395E+002
 20
1.9914609E+002
 70
0
  0
SEQEND
  0
POLYLINE
  8
1
  6
CONTINUOUS
 62
3
 66
1
 40
5.0E-001
 41
5.0E-001
 70
0
  0
VERTEX
  8
1
 42
0.0
 10
1.0663395E+002
 20
1.9914609E+002
 70
0
  0
VERTEX
  8
1
 42
0.0
 10
1.0463395E+002
 20
1.9914609E+002
 70
0
  0
SEQEND
  0
POLYLINE
  8
1
  6
CONTINUOUS
 62
3
 66
1
 40
5.0E-001
 41
5.0E-001
 70
0
  0
VERTEX
  8
1
 42
0.0
 10
1.0463395E+002
 20
1.9664609E+002
 70
0
  0
VERTEX
  8
1
 42
0.0
 10
1.0463395E+002
 20
1.9914609E+002
 70
0
  0
SEQEND
  0
POLYLINE
  8
1
  6
CONTINUOUS
 62
3
 66
1
 40
5.0E-001
 41
5.0E-001
 70
0
  0
VERTEX
  8
1
 42
0.0
 10
1.0663395E+002
 20
1.9664609E+002
 70
0
  0
VERTEX
  8
1
 42
0.0
 10
1.0463395E+002
 20
1.9664609E+002
 70
0
  0
SEQEND
  0
POLYLINE
  8
1
  6
CONTINUOUS
 62
3
 66
1
 40
5.0E-001
 41
5.0E-001
 70
0
  0
VERTEX
  8
1
 42
0.0
 10
1.1658395E+002
 20
1.9714609E+002
 70
0
  0
VERTEX
  8
1
 42
0.0
 10
1.1558395E+002
 20
1.9714609E+002
 70
0
  0
SEQEND
  0
POLYLINE
  8
1
  6
CONTINUOUS
 62
3
 66
1
 40
5.0E-001
 41
5.0E-001
 70
0
  0
VERTEX
  8
1
 42
0.0
 10
1.1558395E+002
 20
1.9714609E+002
 70
0
  0
VERTEX
  8
1
 42
0.0
 10
1.1558395E+002
 20
1.9864609E+002
 70
0
  0
SEQEND
  0
POLYLINE
  8
1
  6
CONTINUOUS
 62
3
 66
1
 40
5.0E-001
 41
5.0E-001
 70
0
  0
VERTEX
  8
1
 42
0.0
 10
1.1603395E+002
 20
1.9714609E+002
 70
0
  0
VERTEX
  8
1
 42
0.0
 10
1.1603395E+002
 20
1.9864609E+002
 70
0
  0
SEQEND
  0
POLYLINE
  8
1
  6
CONTINUOUS
 62
3
 66
1
 40
5.0E-001
 41
5.0E-001
 70
0
  0
VERTEX
  8
1
 42
0.0
 10
1.1558395E+002
 20
1.9864609E+002
 70
0
  0
VERTEX
  8
1
 42
0.0
 10
1.1658395E+002
 20
1.9864609E+002
 70
0
  0
SEQEND
  0
POLYLINE
  8
1
  6
CONTINUOUS
 62
3
 66
1
 40
5.0E-001
 41
5.0E-001
 70
0
  0
VERTEX
  8
1
 42
0.0
 10
1.1658395E+002
 20
1.9664609E+002
 70
0
  0
VERTEX
  8
1
 42
0.0
 10
1.1658395E+002
 20
1.9914609E+002
 70
0
  0
SEQEND
  0
POLYLINE
  8
1
  6
CONTINUOUS
 62
3
 66
1
 40
5.0E-001
 41
5.0E-001
 70
0
  0
VERTEX
  8
1
 42
0.0
 10
1.1658395E+002
 20
1.9914609E+002
 70
0
  0
VERTEX
  8
1
 42
0.0
 10
1.1858395E+002
 20
1.9914609E+002
 70
0
  0
SEQEND
  0
POLYLINE
  8
1
  6
CONTINUOUS
 62
3
 66
1
 40
5.0E-001
 41
5.0E-001
 70
0
  0
VERTEX
  8
1
 42
0.0
 10
1.1658395E+002
 20
1.9664609E+002
 70
0
  0
VERTEX
  8
1
 42
0.0
 10
1.1858395E+002
 20
1.9664609E+002
 70
0
  0
SEQEND
  0
POLYLINE
  8
1
  6
CONTINUOUS
 62
3
 66
1
 40
5.0E-001
 41
5.0E-001
 70
0
  0
VERTEX
  8
1
 42
0.0
 10
1.1858395E+002
 20
1.9664609E+002
 70
0
  0
VERTEX
  8
1
 42
0.0
 10
1.1858395E+002
 20
1.9914609E+002
 70
0
  0
SEQEND
  0
POLYLINE
  8
1
  6
CONTINUOUS
 62
3
 66
1
 40
5.0E-001
 41
5.0E-001
 70
0
  0
VERTEX
  8
1
 42
0.0
 10
1.1858395E+002
 20
1.9664609E+002
 70
0
  0
VERTEX
  8
1
 42
0.0
 10
1.1858395E+002
 20
1.9914609E+002
 70
0
  0
SEQEND
  0
POLYLINE
  8
1
  6
CONTINUOUS
 62
3
 66
1
 40
5.0E-001
 41
5.0E-001
 70
0
  0
VERTEX
  8
1
 42
0.0
 10
1.1658395E+002
 20
1.9664609E+002
 70
0
  0
VERTEX
  8
1
 42
0.0
 10
1.1858395E+002
 20
1.9664609E+002
 70
0
  0
SEQEND
  0
POLYLINE
  8
1
  6
CONTINUOUS
 62
3
 66
1
 40
5.0E-001
 41
5.0E-001
 70
0
  0
VERTEX
  8
1
 42
0.0
 10
1.1658395E+002
 20
1.9914609E+002
 70
0
  0
VERTEX
  8
1
 42
0.0
 10
1.1858395E+002
 20
1.9914609E+002
 70
0
  0
SEQEND
  0
POLYLINE
  8
1
  6
CONTINUOUS
 62
3
 66
1
 40
5.0E-001
 41
5.0E-001
 70
0
  0
VERTEX
  8
1
 42
0.0
 10
1.1658395E+002
 20
1.9664609E+002
 70
0
  0
VERTEX
  8
1
 42
0.0
 10
1.1658395E+002
 20
1.9914609E+002
 70
0
  0
SEQEND
  0
POLYLINE
  8
1
  6
CONTINUOUS
 62
3
 66
1
 40
5.0E-001
 41
5.0E-001
 70
0
  0
VERTEX
  8
1
 42
0.0
 10
1.1558395E+002
 20
1.9864609E+002
 70
0
  0
VERTEX
  8
1
 42
0.0
 10
1.1658395E+002
 20
1.9864609E+002
 70
0
  0
SEQEND
  0
POLYLINE
  8
1
  6
CONTINUOUS
 62
3
 66
1
 40
5.0E-001
 41
5.0E-001
 70
0
  0
VERTEX
  8
1
 42
0.0
 10
1.1603395E+002
 20
1.9714609E+002
 70
0
  0
VERTEX
  8
1
 42
0.0
 10
1.1603395E+002
 20
1.9864609E+002
 70
0
  0
SEQEND
  0
POLYLINE
  8
1
  6
CONTINUOUS
 62
3
 66
1
 40
5.0E-001
 41
5.0E-001
 70
0
  0
VERTEX
  8
1
 42
0.0
 10
1.1558395E+002
 20
1.9714609E+002
 70
0
  0
VERTEX
  8
1
 42
0.0
 10
1.1558395E+002
 20
1.9864609E+002
 70
0
  0
SEQEND
  0
POLYLINE
  8
1
  6
CONTINUOUS
 62
3
 66
1
 40
5.0E-001
 41
5.0E-001
 70
0
  0
VERTEX
  8
1
 42
0.0
 10
1.1658395E+002
 20
1.9714609E+002
 70
0
  0
VERTEX
  8
1
 42
0.0
 10
1.1558395E+002
 20
1.9714609E+002
 70
0
  0
SEQEND
  0
POLYLINE
  8
1
  6
CONTINUOUS
 62
3
 66
1
 40
5.0E-001
 41
5.0E-001
 70
0
  0
VERTEX
  8
1
 42
0.0
 10
1.0663395E+002
 20
1.8754609E+002
 70
0
  0
VERTEX
  8
1
 42
0.0
 10
1.0463395E+002
 20
1.8754609E+002
 70
0
  0
SEQEND
  0
POLYLINE
  8
1
  6
CONTINUOUS
 62
3
 66
1
 40
5.0E-001
 41
5.0E-001
 70
0
  0
VERTEX
  8
1
 42
0.0
 10
1.0463395E+002
 20
1.8754609E+002
 70
0
  0
VERTEX
  8
1
 42
0.0
 10
1.0463395E+002
 20
1.9004609E+002
 70
0
  0
SEQEND
  0
POLYLINE
  8
1
  6
CONTINUOUS
 62
3
 66
1
 40
5.0E-001
 41
5.0E-001
 70
0
  0
VERTEX
  8
1
 42
0.0
 10
1.0663395E+002
 20
1.9004609E+002
 70
0
  0
VERTEX
  8
1
 42
0.0
 10
1.0463395E+002
 20
1.9004609E+002
 70
0
  0
SEQEND
  0
POLYLINE
  8
1
  6
CONTINUOUS
 62
3
 66
1
 40
5.0E-001
 41
5.0E-001
 70
0
  0
VERTEX
  8
1
 42
0.0
 10
1.0663395E+002
 20
1.8754609E+002
 70
0
  0
VERTEX
  8
1
 42
0.0
 10
1.0663395E+002
 20
1.9004609E+002
 70
0
  0
SEQEND
  0
POLYLINE
  8
1
  6
CONTINUOUS
 62
3
 66
1
 40
5.0E-001
 41
5.0E-001
 70
0
  0
VERTEX
  8
1
 42
0.0
 10
1.0763395E+002
 20
1.8954609E+002
 70
0
  0
VERTEX
  8
1
 42
0.0
 10
1.0663395E+002
 20
1.8954609E+002
 70
0
  0
SEQEND
  0
POLYLINE
  8
1
  6
CONTINUOUS
 62
3
 66
1
 40
5.0E-001
 41
5.0E-001
 70
0
  0
VERTEX
  8
1
 42
0.0
 10
1.0663395E+002
 20
1.8804609E+002
 70
0
  0
VERTEX
  8
1
 42
0.0
 10
1.0763395E+002
 20
1.8804609E+002
 70
0
  0
SEQEND
  0
POLYLINE
  8
1
  6
CONTINUOUS
 62
3
 66
1
 40
5.0E-001
 41
5.0E-001
 70
0
  0
VERTEX
  8
1
 42
0.0
 10
1.0718395E+002
 20
1.8804609E+002
 70
0
  0
VERTEX
  8
1
 42
0.0
 10
1.0718395E+002
 20
1.8954609E+002
 70
0
  0
SEQEND
  0
POLYLINE
  8
1
  6
CONTINUOUS
 62
3
 66
1
 40
5.0E-001
 41
5.0E-001
 70
0
  0
VERTEX
  8
1
 42
0.0
 10
1.0763395E+002
 20
1.8804609E+002
 70
0
  0
VERTEX
  8
1
 42
0.0
 10
1.0763395E+002
 20
1.8954609E+002
 70
0
  0
SEQEND
  0
POLYLINE
  8
1
  6
CONTINUOUS
 62
3
 66
1
 40
5.0E-001
 41
5.0E-001
 70
0
  0
VERTEX
  8
1
 42
0.0
 10
1.0763395E+002
 20
1.8804609E+002
 70
0
  0
VERTEX
  8
1
 42
0.0
 10
1.0763395E+002
 20
1.8954609E+002
 70
0
  0
SEQEND
  0
POLYLINE
  8
1
  6
CONTINUOUS
 62
3
 66
1
 40
5.0E-001
 41
5.0E-001
 70
0
  0
VERTEX
  8
1
 42
0.0
 10
1.0718395E+002
 20
1.8804609E+002
 70
0
  0
VERTEX
  8
1
 42
0.0
 10
1.0718395E+002
 20
1.8954609E+002
 70
0
  0
SEQEND
  0
POLYLINE
  8
1
  6
CONTINUOUS
 62
3
 66
1
 40
5.0E-001
 41
5.0E-001
 70
0
  0
VERTEX
  8
1
 42
0.0
 10
1.0663395E+002
 20
1.8804609E+002
 70
0
  0
VERTEX
  8
1
 42
0.0
 10
1.0763395E+002
 20
1.8804609E+002
 70
0
  0
SEQEND
  0
POLYLINE
  8
1
  6
CONTINUOUS
 62
3
 66
1
 40
5.0E-001
 41
5.0E-001
 70
0
  0
VERTEX
  8
1
 42
0.0
 10
1.0763395E+002
 20
1.8954609E+002
 70
0
  0
VERTEX
  8
1
 42
0.0
 10
1.0663395E+002
 20
1.8954609E+002
 70
0
  0
SEQEND
  0
POLYLINE
  8
1
  6
CONTINUOUS
 62
3
 66
1
 40
5.0E-001
 41
5.0E-001
 70
0
  0
VERTEX
  8
1
 42
0.0
 10
1.0663395E+002
 20
1.8754609E+002
 70
0
  0
VERTEX
  8
1
 42
0.0
 10
1.0663395E+002
 20
1.9004609E+002
 70
0
  0
SEQEND
  0
POLYLINE
  8
1
  6
CONTINUOUS
 62
3
 66
1
 40
5.0E-001
 41
5.0E-001
 70
0
  0
VERTEX
  8
1
 42
0.0
 10
1.0663395E+002
 20
1.9004609E+002
 70
0
  0
VERTEX
  8
1
 42
0.0
 10
1.0463395E+002
 20
1.9004609E+002
 70
0
  0
SEQEND
  0
POLYLINE
  8
1
  6
CONTINUOUS
 62
3
 66
1
 40
5.0E-001
 41
5.0E-001
 70
0
  0
VERTEX
  8
1
 42
0.0
 10
1.0463395E+002
 20
1.8754609E+002
 70
0
  0
VERTEX
  8
1
 42
0.0
 10
1.0463395E+002
 20
1.9004609E+002
 70
0
  0
SEQEND
  0
POLYLINE
  8
1
  6
CONTINUOUS
 62
3
 66
1
 40
5.0E-001
 41
5.0E-001
 70
0
  0
VERTEX
  8
1
 42
0.0
 10
1.0663395E+002
 20
1.8754609E+002
 70
0
  0
VERTEX
  8
1
 42
0.0
 10
1.0463395E+002
 20
1.8754609E+002
 70
0
  0
SEQEND
  0
POLYLINE
  8
1
  6
CONTINUOUS
 62
3
 66
1
 40
5.0E-001
 41
5.0E-001
 70
0
  0
VERTEX
  8
1
 42
0.0
 10
1.1658395E+002
 20
1.8804609E+002
 70
0
  0
VERTEX
  8
1
 42
0.0
 10
1.1558395E+002
 20
1.8804609E+002
 70
0
  0
SEQEND
  0
POLYLINE
  8
1
  6
CONTINUOUS
 62
3
 66
1
 40
5.0E-001
 41
5.0E-001
 70
0
  0
VERTEX
  8
1
 42
0.0
 10
1.1558395E+002
 20
1.8804609E+002
 70
0
  0
VERTEX
  8
1
 42
0.0
 10
1.1558395E+002
 20
1.8954609E+002
 70
0
  0
SEQEND
  0
POLYLINE
  8
1
  6
CONTINUOUS
 62
3
 66
1
 40
5.0E-001
 41
5.0E-001
 70
0
  0
VERTEX
  8
1
 42
0.0
 10
1.1603395E+002
 20
1.8804609E+002
 70
0
  0
VERTEX
  8
1
 42
0.0
 10
1.1603395E+002
 20
1.8954609E+002
 70
0
  0
SEQEND
  0
POLYLINE
  8
1
  6
CONTINUOUS
 62
3
 66
1
 40
5.0E-001
 41
5.0E-001
 70
0
  0
VERTEX
  8
1
 42
0.0
 10
1.1558395E+002
 20
1.8954609E+002
 70
0
  0
VERTEX
  8
1
 42
0.0
 10
1.1658395E+002
 20
1.8954609E+002
 70
0
  0
SEQEND
  0
POLYLINE
  8
1
  6
CONTINUOUS
 62
3
 66
1
 40
5.0E-001
 41
5.0E-001
 70
0
  0
VERTEX
  8
1
 42
0.0
 10
1.1658395E+002
 20
1.8754609E+002
 70
0
  0
VERTEX
  8
1
 42
0.0
 10
1.1658395E+002
 20
1.9004609E+002
 70
0
  0
SEQEND
  0
POLYLINE
  8
1
  6
CONTINUOUS
 62
3
 66
1
 40
5.0E-001
 41
5.0E-001
 70
0
  0
VERTEX
  8
1
 42
0.0
 10
1.1658395E+002
 20
1.9004609E+002
 70
0
  0
VERTEX
  8
1
 42
0.0
 10
1.1858395E+002
 20
1.9004609E+002
 70
0
  0
SEQEND
  0
POLYLINE
  8
1
  6
CONTINUOUS
 62
3
 66
1
 40
5.0E-001
 41
5.0E-001
 70
0
  0
VERTEX
  8
1
 42
0.0
 10
1.1658395E+002
 20
1.8754609E+002
 70
0
  0
VERTEX
  8
1
 42
0.0
 10
1.1858395E+002
 20
1.8754609E+002
 70
0
  0
SEQEND
  0
POLYLINE
  8
1
  6
CONTINUOUS
 62
3
 66
1
 40
5.0E-001
 41
5.0E-001
 70
0
  0
VERTEX
  8
1
 42
0.0
 10
1.1858395E+002
 20
1.8754609E+002
 70
0
  0
VERTEX
  8
1
 42
0.0
 10
1.1858395E+002
 20
1.9004609E+002
 70
0
  0
SEQEND
  0
POLYLINE
  8
1
  6
CONTINUOUS
 62
3
 66
1
 40
5.0E-001
 41
5.0E-001
 70
0
  0
VERTEX
  8
1
 42
0.0
 10
1.1858395E+002
 20
1.8754609E+002
 70
0
  0
VERTEX
  8
1
 42
0.0
 10
1.1858395E+002
 20
1.9004609E+002
 70
0
  0
SEQEND
  0
POLYLINE
  8
1
  6
CONTINUOUS
 62
3
 66
1
 40
5.0E-001
 41
5.0E-001
 70
0
  0
VERTEX
  8
1
 42
0.0
 10
1.1658395E+002
 20
1.8754609E+002
 70
0
  0
VERTEX
  8
1
 42
0.0
 10
1.1858395E+002
 20
1.8754609E+002
 70
0
  0
SEQEND
  0
POLYLINE
  8
1
  6
CONTINUOUS
 62
3
 66
1
 40
5.0E-001
 41
5.0E-001
 70
0
  0
VERTEX
  8
1
 42
0.0
 10
1.1658395E+002
 20
1.9004609E+002
 70
0
  0
VERTEX
  8
1
 42
0.0
 10
1.1858395E+002
 20
1.9004609E+002
 70
0
  0
SEQEND
  0
POLYLINE
  8
1
  6
CONTINUOUS
 62
3
 66
1
 40
5.0E-001
 41
5.0E-001
 70
0
  0
VERTEX
  8
1
 42
0.0
 10
1.1658395E+002
 20
1.8754609E+002
 70
0
  0
VERTEX
  8
1
 42
0.0
 10
1.1658395E+002
 20
1.9004609E+002
 70
0
  0
SEQEND
  0
POLYLINE
  8
1
  6
CONTINUOUS
 62
3
 66
1
 40
5.0E-001
 41
5.0E-001
 70
0
  0
VERTEX
  8
1
 42
0.0
 10
1.1558395E+002
 20
1.8954609E+002
 70
0
  0
VERTEX
  8
1
 42
0.0
 10
1.1658395E+002
 20
1.8954609E+002
 70
0
  0
SEQEND
  0
POLYLINE
  8
1
  6
CONTINUOUS
 62
3
 66
1
 40
5.0E-001
 41
5.0E-001
 70
0
  0
VERTEX
  8
1
 42
0.0
 10
1.1603395E+002
 20
1.8804609E+002
 70
0
  0
VERTEX
  8
1
 42
0.0
 10
1.1603395E+002
 20
1.8954609E+002
 70
0
  0
SEQEND
  0
POLYLINE
  8
1
  6
CONTINUOUS
 62
3
 66
1
 40
5.0E-001
 41
5.0E-001
 70
0
  0
VERTEX
  8
1
 42
0.0
 10
1.1558395E+002
 20
1.8804609E+002
 70
0
  0
VERTEX
  8
1
 42
0.0
 10
1.1558395E+002
 20
1.8954609E+002
 70
0
  0
SEQEND
  0
POLYLINE
  8
1
  6
CONTINUOUS
 62
3
 66
1
 40
5.0E-001
 41
5.0E-001
 70
0
  0
VERTEX
  8
1
 42
0.0
 10
1.1658395E+002
 20
1.8804609E+002
 70
0
  0
VERTEX
  8
1
 42
0.0
 10
1.1558395E+002
 20
1.8804609E+002
 70
0
  0
SEQEND
  0
POLYLINE
  8
1
  6
CONTINUOUS
 62
3
 66
1
 40
5.0E-001
 41
5.0E-001
 70
0
  0
VERTEX
  8
1
 42
0.0
 10
1.2018395E+002
 20
2.0949609E+002
 70
0
  0
VERTEX
  8
1
 42
0.0
 10
1.1858395E+002
 20
2.0949609E+002
 70
0
  0
SEQEND
  0
POLYLINE
  8
1
  6
CONTINUOUS
 62
3
 66
1
 40
5.0E-001
 41
5.0E-001
 70
0
  0
VERTEX
  8
1
 42
0.0
 10
1.2018395E+002
 20
2.0599609E+002
 70
0
  0
VERTEX
  8
1
 42
0.0
 10
1.1858395E+002
 20
2.0599609E+002
 70
0
  0
SEQEND
  0
POLYLINE
  8
1
  6
CONTINUOUS
 62
3
 66
1
 40
5.0E-001
 41
5.0E-001
 70
0
  0
VERTEX
  8
1
 42
0.0
 10
1.1858395E+002
 20
2.0449609E+002
 70
0
  0
VERTEX
  8
1
 42
0.0
 10
1.2018395E+002
 20
2.0449609E+002
 70
0
  0
SEQEND
  0
POLYLINE
  8
1
  6
CONTINUOUS
 62
3
 66
1
 40
5.0E-001
 41
5.0E-001
 70
0
  0
VERTEX
  8
1
 42
0.0
 10
8.5383957E+001
 20
1.1596796E+002
 70
0
  0
VERTEX
  8
1
 42
0.0
 10
8.5116007E+001
 20
1.1496796E+002
 70
0
  0
SEQEND
  0
POLYLINE
  8
1
  6
CONTINUOUS
 62
3
 66
1
 40
5.0E-001
 41
5.0E-001
 70
0
  0
VERTEX
  8
1
 42
0.0
 10
9.1408557E+001
 20
1.3046799E+002
 70
0
  0
VERTEX
  8
1
 42
0.0
 10
9.1705007E+001
 20
1.3895719E+002
 70
0
  0
SEQEND
  0
POLYLINE
  8
1
  6
CONTINUOUS
 62
3
 66
1
 40
5.0E-001
 41
5.0E-001
 70
0
  0
VERTEX
  8
1
 42
4.1421356E-001
 10
7.7083947E+001
 20
1.4116799E+002
 70
0
  0
VERTEX
  8
1
 42
0.0
 10
7.6283947E+001
 20
1.4196799E+002
 70
0
  0
SEQEND
  0
POLYLINE
  8
1
  6
CONTINUOUS
 62
3
 66
1
 40
5.0E-001
 41
5.0E-001
 70
0
  0
VERTEX
  8
1
 42
0.0
 10
7.6583947E+001
 20
1.4196799E+002
 70
0
  0
VERTEX
  8
1
 42
0.0
 10
7.6583947E+001
 20
1.5696799E+002
 70
0
  0
SEQEND
  0
POLYLINE
  8
1
  6
CONTINUOUS
 62
3
 66
1
 40
5.0E-001
 41
5.0E-001
 70
0
  0
VERTEX
  8
1
 42
2.6794858E-001
 10
7.7483947E+001
 20
1.3816799E+002
 70
0
  0
VERTEX
  8
1
 42
0.0
 10
7.7083949E+001
 20
1.3886081E+002
 70
0
  0
SEQEND
  0
TEXT
  8
1
  6
CONTINUOUS
 62
4
 10
6.7022711E+001
 20
2.086251E+002
 40
2.7
  1
10,16
 41
7.0E-001
 50
9.0E+001
  0
DIMENSION
  8
1
  6
CONTINUOUS
 62
4
  1
       
  2
*D1592
  3
DSTYLE1
 10
6.8430554E+001
 20
2.1821609E+002
 11
6.5529554E+001
 21
2.1270749E+002
 70
128
 13
8.2862587E+001
 23
2.0805609E+002
 14
8.2862587E+001
 24
2.1821609E+002
 40
1.25E-001
 50
9.0E+001
  0
TEXT
  8
1
  6
CONTINUOUS
 62
4
 10
6.7022711E+001
 20
2.2816058E+002
 40
2.7
  1
7,62
 41
7.0E-001
 50
9.0E+001
  0
DIMENSION
  8
1
  6
CONTINUOUS
 62
4
  1
       
  2
*D1594
  3
DSTYLE1
 10
6.8430554E+001
 20
2.2583609E+002
 11
6.5529554E+001
 21
2.2604527E+002
 70
128
 13
8.2862587E+001
 23
2.1821609E+002
 14
8.2862587E+001
 24
2.2583609E+002
 40
1.25E-001
 50
9.0E+001
  0
TEXT
  8
1
  6
CONTINUOUS
 62
4
 10
6.7039342E+001
 20
1.2188779E+002
 40
2.8
  1
11,5
 41
7.075E-001
 50
9.0E+001
  0
DIMENSION
  8
1
  6
CONTINUOUS
 62
4
  1
      
  2
*D1596
  3
DSTYLE1
 10
6.8276148E+001
 20
1.1896796E+002
 11
6.5375148E+001
 21
1.2516159E+002
 70
128
 13
7.5583847E+001
 23
1.3046799E+002
 14
8.3183847E+001
 24
1.1896796E+002
 40
1.25E-001
 50
9.0E+001
  0
DIMENSION
  8
1
  6
CONTINUOUS
 62
4
  2
*D1597
  3
DSTYLE3
 10
6.8276148E+001
 20
1.1496796E+002
 11
6.5275148E+001
 21
1.1659521E+002
 70
128
 13
8.3183847E+001
 23
1.1896796E+002
 14
8.4651797E+001
 24
1.1496796E+002
 40
1.25E-001
 50
9.0E+001
  0
DIMENSION
  8
1
  6
CONTINUOUS
 62
4
  2
*D1598
  3
DSTYLE3
 10
6.1660424E+001
 20
1.5996799E+002
 11
5.8659424E+001
 21
1.4239654E+002
 70
128
 13
8.4383857E+001
 23
1.1896796E+002
 14
7.4983857E+001
 24
1.5996799E+002
 40
1.25E-001
 50
9.0E+001
  0
TEXT
  8
1
  6
CONTINUOUS
 62
4
 10
1.1443854E+002
 20
1.0598193E+002
 40
3.0
  1
1x0,3
 41
8.0E-001
  0
DIMENSION
  8
1
  6
CONTINUOUS
 62
4
  1
       
  2
*D1600
  3
DSTYLE1
 10
1.1078395E+002
 20
1.0499708E+002
 11
1.1635468E+002
 21
1.0789808E+002
 70
128
 13
1.0978395E+002
 23
1.1596786E+002
 14
1.1078395E+002
 24
1.1596786E+002
 40
1.25E-001
 50
0.0
  0
POLYLINE
  8
1
  6
CONTINUOUS
 62
3
 66
1
 40
5.0E-001
 41
5.0E-001
 70
0
  0
VERTEX
  8
1
 42
0.0
 10
8.4383957E+001
 20
1.1596796E+002
 70
0
  0
VERTEX
  8
1
 42
0.0
 10
8.5383957E+001
 20
1.1596796E+002
 70
0
  0
SEQEND
  0
LINE
  8
1
  6
CONTINUOUS
 62
4
 10
1.0658395E+002
 20
1.3046799E+002
 11
1.9322843E+002
 21
1.3046799E+002
  0
POLYLINE
  8
1
  6
CONTINUOUS
 62
3
 66
1
 40
5.0E-001
 41
5.0E-001
 70
0
  0
VERTEX
  8
1
 42
0.0
 10
1.0978395E+002
 20
1.1596796E+002
 70
0
  0
VERTEX
  8
1
 42
0.0
 10
1.1078395E+002
 20
1.1596796E+002
 70
0
  0
SEQEND
  0
TEXT
  8
1
  6
CONTINUOUS
 62
4
 10
1.3219855E+002
 20
1.3180419E+002
 40
3.0
  1
Auflage Schuetz
 41
8.3195396E-001
  0
LINE
  8
1
  6
CONTINUOUS
 62
4
 10
7.3641467E+001
 20
1.1896796E+002
 11
9.7583947E+001
 21
1.1896796E+002
  0
LINE
  8
1
  6
CONTINUOUS
 62
4
 10
9.7583947E+001
 20
1.1746796E+002
 11
7.3478267E+001
 21
1.1746796E+002
  0
POLYLINE
  8
1
  6
CONTINUOUS
 62
4
 66
1
 40
0.0
 41
0.0
 70
2
  0
VERTEX
  8
1
 42
0.0
 10
7.3641467E+001
 20
1.1896796E+002
 70
0
  0
VERTEX
  8
1
 42
-1.505624E-004
 10
7.364309E+001
 20
1.1895999E+002
 70
1
  0
VERTEX
  8
1
 42
-1.529431E-004
 10
7.3644707E+001
 20
1.1895202E+002
 70
0
  0
VERTEX
  8
1
 42
-1.506239E-004
 10
7.364632E+001
 20
1.1894404E+002
 70
1
  0
VERTEX
  8
1
 42
-1.430117E-004
 10
7.3647928E+001
 20
1.1893607E+002
 70
0
  0
VERTEX
  8
1
 42
-1.374009E-004
 10
7.3649532E+001
 20
1.1892809E+002
 70
1
  0
VERTEX
  8
1
 42
-1.323592E-004
 10
7.3651131E+001
 20
1.1892012E+002
 70
0
  0
VERTEX
  8
1
 42
-1.275311E-004
 10
7.3652726E+001
 20
1.1891214E+002
 70
1
  0
VERTEX
  8
1
 42
-1.21684E-004
 10
7.3654317E+001
 20
1.1890416E+002
 70
0
  0
VERTEX
  8
1
 42
-1.168574E-004
 10
7.3655904E+001
 20
1.1889618E+002
 70
1
  0
VERTEX
  8
1
 42
-1.118196E-004
 10
7.3657488E+001
 20
1.188882E+002
 70
0
  0
VERTEX
  8
1
 42
-1.06201E-004
 10
7.3659068E+001
 20
1.1888022E+002
 70
1
  0
VERTEX
  8
1
 42
-9.85679E-005
 10
7.3660645E+001
 20
1.1887224E+002
 70
0
  0
VERTEX
  8
1
 42
-1.00153E-004
 10
7.3662219E+001
 20
1.1886426E+002
 70
1
  0
VERTEX
  8
1
 42
-1.113612E-004
 10
7.3663789E+001
 20
1.1885628E+002
 70
0
  0
VERTEX
  8
1
 42
-1.243687E-004
 10
7.3665355E+001
 20
1.1884829E+002
 70
1
  0
VERTEX
  8
1
 42
-1.424957E-004
 10
7.3666918E+001
 20
1.1884031E+002
 70
0
  0
VERTEX
  8
1
 42
-1.578437E-004
 10
7.3668475E+001
 20
1.1883233E+002
 70
1
  0
VERTEX
  8
1
 42
-1.743304E-004
 10
7.3670027E+001
 20
1.1882434E+002
 70
0
  0
VERTEX
  8
1
 42
-1.89157E-004
 10
7.3671573E+001
 20
1.1881635E+002
 70
1
  0
VERTEX
  8
1
 42
-2.06108E-004
 10
7.3673113E+001
 20
1.1880837E+002
 70
0
  0
VERTEX
  8
1
 42
-2.210046E-004
 10
7.3674646E+001
 20
1.1880038E+002
 70
1
  0
VERTEX
  8
1
 42
-2.37649E-004
 10
7.3676172E+001
 20
1.1879239E+002
 70
0
  0
VERTEX
  8
1
 42
-2.527749E-004
 10
7.367769E+001
 20
1.1878439E+002
 70
1
  0
VERTEX
  8
1
 42
-2.702428E-004
 10
7.3679199E+001
 20
1.187764E+002
 70
0
  0
VERTEX
  8
1
 42
-2.84012E-004
 10
7.36807E+001
 20
1.187684E+002
 70
1
  0
VERTEX
  8
1
 42
-2.97598E-004
 10
7.3682191E+001
 20
1.1876041E+002
 70
0
  0
VERTEX
  8
1
 42
-3.076482E-004
 10
7.3683672E+001
 20
1.1875241E+002
 70
1
  0
VERTEX
  8
1
 42
-3.167293E-004
 10
7.3685143E+001
 20
1.1874441E+002
 70
0
  0
VERTEX
  8
1
 42
-3.251659E-004
 10
7.3686604E+001
 20
1.187364E+002
 70
1
  0
VERTEX
  8
1
 42
-3.35111E-004
 10
7.3688055E+001
 20
1.187284E+002
 70
0
  0
VERTEX
  8
1
 42
-3.43826E-004
 10
7.3689494E+001
 20
1.1872039E+002
 70
1
  0
VERTEX
  8
1
 42
-3.535349E-004
 10
7.3690923E+001
 20
1.1871238E+002
 70
0
  0
VERTEX
  8
1
 42
-3.622061E-004
 10
7.3692339E+001
 20
1.1870437E+002
 70
1
  0
VERTEX
  8
1
 42
-3.72053E-004
 10
7.3693744E+001
 20
1.1869636E+002
 70
0
  0
VERTEX
  8
1
 42
-3.806363E-004
 10
7.3695137E+001
 20
1.1868834E+002
 70
1
  0
VERTEX
  8
1
 42
-3.901467E-004
 10
7.3696517E+001
 20
1.1868033E+002
 70
0
  0
VERTEX
  8
1
 42
-3.991804E-004
 10
7.3697885E+001
 20
1.1867231E+002
 70
1
  0
VERTEX
  8
1
 42
-4.100448E-004
 10
7.369924E+001
 20
1.1866429E+002
 70
0
  0
VERTEX
  8
1
 42
-4.216498E-004
 10
7.3700581E+001
 20
1.1865626E+002
 70
1
  0
VERTEX
  8
1
 42
-4.369607E-004
 10
7.3701908E+001
 20
1.1864824E+002
 70
0
  0
VERTEX
  8
1
 42
-4.503008E-004
 10
7.3703221E+001
 20
1.1864021E+002
 70
1
  0
VERTEX
  8
1
 42
-4.650747E-004
 10
7.3704519E+001
 20
1.1863218E+002
 70
0
  0
VERTEX
  8
1
 42
-4.782397E-004
 10
7.3705802E+001
 20
1.1862414E+002
 70
1
  0
VERTEX
  8
1
 42
-4.931556E-004
 10
7.370707E+001
 20
1.1861611E+002
 70
0
  0
VERTEX
  8
1
 42
-5.063704E-004
 10
7.3708321E+001
 20
1.1860807E+002
 70
1
  0
VERTEX
  8
1
 42
-5.212567E-004
 10
7.3709555E+001
 20
1.1860003E+002
 70
0
  0
VERTEX
  8
1
 42
-5.3446E-004
 10
7.3710773E+001
 20
1.1859198E+002
 70
1
  0
VERTEX
  8
1
 42
-5.493501E-004
 10
7.3711973E+001
 20
1.1858394E+002
 70
0
  0
VERTEX
  8
1
 42
-5.625659E-004
 10
7.3713155E+001
 20
1.1857589E+002
 70
1
  0
VERTEX
  8
1
 42
-5.774812E-004
 10
7.3714318E+001
 20
1.1856784E+002
 70
0
  0
VERTEX
  8
1
 42
-5.908671E-004
 10
7.3715463E+001
 20
1.1855978E+002
 70
1
  0
VERTEX
  8
1
 42
-6.061482E-004
 10
7.3716588E+001
 20
1.1855172E+002
 70
0
  0
VERTEX
  8
1
 42
-6.197E-004
 10
7.3717693E+001
 20
1.1854366E+002
 70
1
  0
VERTEX
  8
1
 42
-6.349817E-004
 10
7.3718778E+001
 20
1.185356E+002
 70
0
  0
VERTEX
  8
1
 42
-6.48541E-004
 10
7.3719843E+001
 20
1.1852754E+002
 70
1
  0
VERTEX
  8
1
 42
-6.638386E-004
 10
7.3720886E+001
 20
1.1851947E+002
 70
0
  0
VERTEX
  8
1
 42
-6.774079E-004
 10
7.3721907E+001
 20
1.185114E+002
 70
1
  0
VERTEX
  8
1
 42
-6.927114E-004
 10
7.3722906E+001
 20
1.1850332E+002
 70
0
  0
VERTEX
  8
1
 42
-7.06291E-004
 10
7.3723882E+001
 20
1.1849525E+002
 70
1
  0
VERTEX
  8
1
 42
-7.216123E-004
 10
7.3724835E+001
 20
1.1848717E+002
 70
0
  0
VERTEX
  8
1
 42
-7.35182E-004
 10
7.3725764E+001
 20
1.1847908E+002
 70
1
  0
VERTEX
  8
1
 42
-7.504647E-004
 10
7.372667E+001
 20
1.18471E+002
 70
0
  0
VERTEX
  8
1
 42
-7.653514E-004
 10
7.372755E+001
 20
1.1846291E+002
 70
1
  0
VERTEX
  8
1
 42
-7.836577E-004
 10
7.3728406E+001
 20
1.1845482E+002
 70
0
  0
VERTEX
  8
1
 42
-7.999667E-004
 10
7.3729235E+001
 20
1.1844673E+002
 70
1
  0
VERTEX
  8
1
 42
-8.184429E-004
 10
7.3730039E+001
 20
1.1843863E+002
 70
0
  0
VERTEX
  8
1
 42
-8.348244E-004
 10
7.3730815E+001
 20
1.1843053E+002
 70
1
  0
VERTEX
  8
1
 42
-8.532911E-004
 10
7.3731564E+001
 20
1.1842243E+002
 70
0
  0
VERTEX
  8
1
 42
-8.696819E-004
 10
7.3732285E+001
 20
1.1841433E+002
 70
1
  0
VERTEX
  8
1
 42
-8.881779E-004
 10
7.3732977E+001
 20
1.1840622E+002
 70
0
  0
VERTEX
  8
1
 42
-9.045893E-004
 10
7.373364E+001
 20
1.1839811E+002
 70
1
  0
VERTEX
  8
1
 42
-9.23104E-004
 10
7.3734274E+001
 20
1.1839E+002
 70
0
  0
VERTEX
  8
1
 42
-9.395183E-004
 10
7.3734876E+001
 20
1.1838189E+002
 70
1
  0
VERTEX
  8
1
 42
-9.580224E-004
 10
7.3735448E+001
 20
1.1837377E+002
 70
0
  0
VERTEX
  8
1
 42
-9.746847E-004
 10
7.3735988E+001
 20
1.1836566E+002
 70
1
  0
VERTEX
  8
1
 42
-9.93785E-004
 10
7.3736497E+001
 20
1.1835754E+002
 70
0
  0
VERTEX
  8
1
 42
-1.010766E-003
 10
7.3736972E+001
 20
1.1834941E+002
 70
1
  0
VERTEX
  8
1
 42
-1.0299661E-003
 10
7.3737415E+001
 20
1.1834129E+002
 70
0
  0
VERTEX
  8
1
 42
-1.0470109E-003
 10
7.3737822E+001
 20
1.1833316E+002
 70
1
  0
VERTEX
  8
1
 42
-1.0662483E-003
 10
7.3738196E+001
 20
1.1832504E+002
 70
0
  0
VERTEX
  8
1
 42
-1.0833297E-003
 10
7.3738535E+001
 20
1.1831691E+002
 70
1
  0
VERTEX
  8
1
 42
-1.1026117E-003
 10
7.3738838E+001
 20
1.1830878E+002
 70
0
  0
VERTEX
  8
1
 42
-1.1197269E-003
 10
7.3739104E+001
 20
1.1830065E+002
 70
1
  0
VERTEX
  8
1
 42
-1.139042E-003
 10
7.3739334E+001
 20
1.1829251E+002
 70
0
  0
VERTEX
  8
1
 42
-1.156178E-003
 10
7.3739526E+001
 20
1.1828438E+002
 70
1
  0
VERTEX
  8
1
 42
-1.175511E-003
 10
7.373968E+001
 20
1.1827624E+002
 70
0
  0
VERTEX
  8
1
 42
-1.1930923E-003
 10
7.3739795E+001
 20
1.1826811E+002
 70
1
  0
VERTEX
  8
1
 42
-1.2134531E-003
 10
7.3739871E+001
 20
1.1825997E+002
 70
0
  0
VERTEX
  8
1
 42
-1.231565E-003
 10
7.3739907E+001
 20
1.1825184E+002
 70
1
  0
VERTEX
  8
1
 42
-1.2520551E-003
 10
7.3739902E+001
 20
1.182437E+002
 70
0
  0
VERTEX
  8
1
 42
-1.2702676E-003
 10
7.3739856E+001
 20
1.1823556E+002
 70
1
  0
VERTEX
  8
1
 42
-1.2908468E-003
 10
7.3739768E+001
 20
1.1822743E+002
 70
0
  0
VERTEX
  8
1
 42
-1.3091151E-003
 10
7.3739638E+001
 20
1.1821929E+002
 70
1
  0
VERTEX
  8
1
 42
-1.3297297E-003
 10
7.3739464E+001
 20
1.1821116E+002
 70
0
  0
VERTEX
  8
1
 42
-1.3481159E-003
 10
7.3739247E+001
 20
1.1820303E+002
 70
1
  0
VERTEX
  8
1
 42
-1.368961E-003
 10
7.3738985E+001
 20
1.1819489E+002
 70
0
  0
VERTEX
  8
1
 42
-1.3871686E-003
 10
7.3738678E+001
 20
1.1818676E+002
 70
1
  0
VERTEX
  8
1
 42
-1.407392E-003
 10
7.3738326E+001
 20
1.1817863E+002
 70
0
  0
VERTEX
  8
1
 42
-1.4225182E-003
 10
7.3737927E+001
 20
1.1817051E+002
 70
1
  0
VERTEX
  8
1
 42
-1.4364606E-003
 10
7.3737482E+001
 20
1.1816238E+002
 70
0
  0
VERTEX
  8
1
 42
-1.4490281E-003
 10
7.3736989E+001
 20
1.1815426E+002
 70
1
  0
VERTEX
  8
1
 42
-1.4634307E-003
 10
7.3736449E+001
 20
1.1814614E+002
 70
0
  0
VERTEX
  8
1
 42
-1.4762323E-003
 10
7.373586E+001
 20
1.1813803E+002
 70
1
  0
VERTEX
  8
1
 42
-1.490699E-003
 10
7.3735224E+001
 20
1.1812991E+002
 70
0
  0
VERTEX
  8
1
 42
-1.5035561E-003
 10
7.3734538E+001
 20
1.1812181E+002
 70
1
  0
VERTEX
  8
1
 42
-1.5180813E-003
 10
7.3733804E+001
 20
1.181137E+002
 70
0
  0
VERTEX
  8
1
 42
-1.5311443E-003
 10
7.3733019E+001
 20
1.181056E+002
 70
1
  0
VERTEX
  8
1
 42
-1.5460739E-003
 10
7.3732186E+001
 20
1.1809751E+002
 70
0
  0
VERTEX
  8
1
 42
-1.558775E-003
 10
7.37313E+001
 20
1.1808942E+002
 70
1
  0
VERTEX
  8
1
 42
-1.5725044E-003
 10
7.3730365E+001
 20
1.1808134E+002
 70
0
  0
VERTEX
  8
1
 42
-1.5832004E-003
 10
7.3729377E+001
 20
1.1807326E+002
 70
1
  0
VERTEX
  8
1
 42
-1.5936327E-003
 10
7.3728339E+001
 20
1.1806519E+002
 70
0
  0
VERTEX
  8
1
 42
-1.6031668E-003
 10
7.3727248E+001
 20
1.1805713E+002
 70
1
  0
VERTEX
  8
1
 42
-1.6142331E-003
 10
7.3726106E+001
 20
1.1804907E+002
 70
0
  0
VERTEX
  8
1
 42
-1.6240717E-003
 10
7.3724911E+001
 20
1.1804102E+002
 70
1
  0
VERTEX
  8
1
 42
-1.6351911E-003
 10
7.3723663E+001
 20
1.1803298E+002
 70
0
  0
VERTEX
  8
1
 42
-1.6451071E-003
 10
7.3722362E+001
 20
1.1802495E+002
 70
1
  0
VERTEX
  8
1
 42
-1.656347E-003
 10
7.3721009E+001
 20
1.1801693E+002
 70
0
  0
VERTEX
  8
1
 42
-1.6664702E-003
 10
7.37196E+001
 20
1.1800891E+002
 70
1
  0
VERTEX
  8
1
 42
-1.6780548E-003
 10
7.371814E+001
 20
1.1800091E+002
 70
0
  0
VERTEX
  8
1
 42
-1.6878944E-003
 10
7.3716623E+001
 20
1.1799291E+002
 70
1
  0
VERTEX
  8
1
 42
-1.6985274E-003
 10
7.3715054E+001
 20
1.1798493E+002
 70
0
  0
VERTEX
  8
1
 42
-1.7075609E-003
 10
7.3713429E+001
 20
1.1797696E+002
 70
1
  0
VERTEX
  8
1
 42
-1.7173279E-003
 10
7.371175E+001
 20
1.1796899E+002
 70
0
  0
VERTEX
  8
1
 42
-1.726165E-003
 10
7.3710015E+001
 20
1.1796104E+002
 70
1
  0
VERTEX
  8
1
 42
-1.7363233E-003
 10
7.3708225E+001
 20
1.179531E+002
 70
0
  0
VERTEX
  8
1
 42
-1.7454177E-003
 10
7.3706379E+001
 20
1.1794518E+002
 70
1
  0
VERTEX
  8
1
 42
-1.7557667E-003
 10
7.3704479E+001
 20
1.1793727E+002
 70
0
  0
VERTEX
  8
1
 42
-1.764928E-003
 10
7.3702521E+001
 20
1.1792937E+002
 70
1
  0
VERTEX
  8
1
 42
-1.7752377E-003
 10
7.3700508E+001
 20
1.1792148E+002
 70
0
  0
VERTEX
  8
1
 42
-1.7848458E-003
 10
7.3698438E+001
 20
1.1791361E+002
 70
1
  0
VERTEX
  8
1
 42
-1.7962026E-003
 10
7.3696312E+001
 20
1.1790576E+002
 70
0
  0
VERTEX
  8
1
 42
-1.8033272E-003
 10
7.3694129E+001
 20
1.1789792E+002
 70
1
  0
VERTEX
  8
1
 42
-1.808083E-003
 10
7.3691889E+001
 20
1.178901E+002
 70
0
  0
VERTEX
  8
1
 42
-1.8113698E-003
 10
7.3689592E+001
 20
1.1788229E+002
 70
1
  0
VERTEX
  8
1
 42
-1.8140478E-003
 10
7.3687239E+001
 20
1.178745E+002
 70
0
  0
VERTEX
  8
1
 42
-1.816769E-003
 10
7.3684827E+001
 20
1.1786673E+002
 70
1
  0
VERTEX
  8
1
 42
-1.8202252E-003
 10
7.3682361E+001
 20
1.1785897E+002
 70
0
  0
VERTEX
  8
1
 42
-1.8233627E-003
 10
7.3679836E+001
 20
1.1785124E+002
 70
1
  0
VERTEX
  8
1
 42
-1.8269749E-003
 10
7.3677256E+001
 20
1.1784352E+002
 70
0
  0
VERTEX
  8
1
 42
-1.8302084E-003
 10
7.3674618E+001
 20
1.1783582E+002
 70
1
  0
VERTEX
  8
1
 42
-1.8338732E-003
 10
7.3671925E+001
 20
1.1782814E+002
 70
0
  0
VERTEX
  8
1
 42
-1.8376114E-003
 10
7.3669174E+001
 20
1.1782049E+002
 70
1
  0
VERTEX
  8
1
 42
-1.8423593E-003
 10
7.3666367E+001
 20
1.1781285E+002
 70
0
  0
VERTEX
  8
1
 42
-1.8345443E-003
 10
7.3663503E+001
 20
1.1780523E+002
 70
1
  0
VERTEX
  8
1
 42
-1.8121028E-003
 10
7.3660585E+001
 20
1.1779764E+002
 70
0
  0
VERTEX
  8
1
 42
-1.7913847E-003
 10
7.365761E+001
 20
1.1779006E+002
 70
1
  0
VERTEX
  8
1
 42
-1.7671066E-003
 10
7.3654582E+001
 20
1.1778251E+002
 70
0
  0
VERTEX
  8
1
 42
-1.7458539E-003
 10
7.36515E+001
 20
1.1777498E+002
 70
1
  0
VERTEX
  8
1
 42
-1.7222244E-003
 10
7.3648367E+001
 20
1.1776747E+002
 70
0
  0
VERTEX
  8
1
 42
-1.7012596E-003
 10
7.364518E+001
 20
1.1775998E+002
 70
1
  0
VERTEX
  8
1
 42
-1.6776326E-003
 10
7.3641944E+001
 20
1.1775251E+002
 70
0
  0
VERTEX
  8
1
 42
-1.6568483E-003
 10
7.3638657E+001
 20
1.1774507E+002
 70
1
  0
VERTEX
  8
1
 42
-1.6336238E-003
 10
7.3635322E+001
 20
1.1773765E+002
 70
0
  0
VERTEX
  8
1
 42
-1.6128073E-003
 10
7.3631937E+001
 20
1.1773025E+002
 70
1
  0
VERTEX
  8
1
 42
-1.5890872E-003
 10
7.3628506E+001
 20
1.1772287E+002
 70
0
  0
VERTEX
  8
1
 42
-1.5636349E-003
 10
7.3625027E+001
 20
1.1771551E+002
 70
1
  0
VERTEX
  8
1
 42
-1.5299043E-003
 10
7.3621504E+001
 20
1.1770818E+002
 70
0
  0
VERTEX
  8
1
 42
-1.5003144E-003
 10
7.3617935E+001
 20
1.1770086E+002
 70
1
  0
VERTEX
  8
1
 42
-1.4672806E-003
 10
7.3614323E+001
 20
1.1769357E+002
 70
0
  0
VERTEX
  8
1
 42
-1.4375601E-003
 10
7.3610668E+001
 20
1.176863E+002
 70
1
  0
VERTEX
  8
1
 42
-1.4036796E-003
 10
7.3606972E+001
 20
1.1767905E+002
 70
0
  0
VERTEX
  8
1
 42
-1.375332E-003
 10
7.3603235E+001
 20
1.1767183E+002
 70
1
  0
VERTEX
  8
1
 42
-1.344807E-003
 10
7.359946E+001
 20
1.1766462E+002
 70
0
  0
VERTEX
  8
1
 42
-1.3122061E-003
 10
7.3595645E+001
 20
1.1765743E+002
 70
1
  0
VERTEX
  8
1
 42
-1.2708744E-003
 10
7.3591795E+001
 20
1.1765026E+002
 70
0
  0
VERTEX
  8
1
 42
-1.2538299E-003
 10
7.358791E+001
 20
1.1764312E+002
 70
1
  0
VERTEX
  8
1
 42
-1.2501713E-003
 10
7.3583985E+001
 20
1.1763599E+002
 70
0
  0
VERTEX
  8
1
 42
-1.2060622E-003
 10
7.358002E+001
 20
1.1762887E+002
 70
1
  0
VERTEX
  8
1
 42
-1.1342883E-003
 10
7.3576038E+001
 20
1.176218E+002
 70
0
  0
VERTEX
  8
1
 42
-1.266816E-003
 10
7.3572046E+001
 20
1.1761479E+002
 70
1
  0
VERTEX
  8
1
 42
-1.5303381E-003
 10
7.356795E+001
 20
1.1760769E+002
 70
0
  0
VERTEX
  8
1
 42
-1.1619746E-003
 10
7.3563716E+001
 20
1.1760044E+002
 70
1
  0
VERTEX
  8
1
 42
-3.822972E-004
 10
7.355972E+001
 20
1.1759366E+002
 70
0
  0
VERTEX
  8
1
 42
-1.6708783E-003
 10
7.355609E+001
 20
1.1758753E+002
 70
1
  0
VERTEX
  8
1
 42
-2.91619E-003
 10
7.3551344E+001
 20
1.1757971E+002
 70
0
  0
VERTEX
  8
1
 42
-1.427351E-003
 10
7.3543927E+001
 20
1.1756772E+002
 70
1
  0
VERTEX
  8
1
 42
-7.537971E-004
 10
7.3534147E+001
 20
1.1755205E+002
 70
0
  0
SEQEND
  0
POLYLINE
  8
1
  6
CONTINUOUS
 62
3
 66
1
 40
5.0E-001
 41
5.0E-001
 70
0
  0
VERTEX
  8
1
 42
0.0
 10
8.5383957E+001
 20
1.1896796E+002
 70
0
  0
VERTEX
  8
1
 42
0.0
 10
8.5383957E+001
 20
1.1996796E+002
 70
0
  0
SEQEND
  0
POLYLINE
  8
1
  6
CONTINUOUS
 62
3
 66
1
 40
5.0E-001
 41
5.0E-001
 70
0
  0
VERTEX
  8
1
 42
0.0
 10
8.4383957E+001
 20
1.1896796E+002
 70
0
  0
VERTEX
  8
1
 42
0.0
 10
8.4383957E+001
 20
1.1996796E+002
 70
0
  0
SEQEND
  0
POLYLINE
  8
1
  6
CONTINUOUS
 62
3
 66
1
 40
5.0E-001
 41
5.0E-001
 70
0
  0
VERTEX
  8
1
 42
0.0
 10
1.0978395E+002
 20
1.1896796E+002
 70
0
  0
VERTEX
  8
1
 42
0.0
 10
1.0978395E+002
 20
1.1996796E+002
 70
0
  0
SEQEND
  0
POLYLINE
  8
1
  6
CONTINUOUS
 62
3
 66
1
 40
5.0E-001
 41
5.0E-001
 70
0
  0
VERTEX
  8
1
 42
0.0
 10
1.1078395E+002
 20
1.1896796E+002
 70
0
  0
VERTEX
  8
1
 42
0.0
 10
1.1078395E+002
 20
1.1996796E+002
 70
0
  0
SEQEND
  0
LINE
  8
1
  6
CONTINUOUS
 62
4
 10
1.2012505E+002
 20
1.1784986E+002
 11
1.4430835E+002
 21
1.0916526E+002
  0
TEXT
  8
1
  6
CONTINUOUS
 62
4
 10
1.1065778E+002
 20
2.3580018E+001
 40
2.4
  1
2.8.04 SteFei
 41
6.0E-001
  0
TEXT
  8
1
  6
CONTINUOUS
 62
4
 10
1.1050948E+002
 20
1.48302E+001
 40
2.4
  1
2.8.04 GuNi
 41
6.0E-001
  0
POLYLINE
  8
1
  6
CONTINUOUS
 62
3
 66
1
 40
5.0E-001
 41
5.0E-001
 70
0
  0
VERTEX
  8
1
 42
0.0
 10
1.1198395E+002
 20
1.2396799E+002
 70
0
  0
VERTEX
  8
1
 42
0.0
 10
1.1198395E+002
 20
1.1896796E+002
 70
0
  0
SEQEND
  0
POLYLINE
  8
1
  6
CONTINUOUS
 62
3
 66
1
 40
5.0E-001
 41
5.0E-001
 70
0
  0
VERTEX
  8
1
 42
0.0
 10
1.0858395E+002
 20
1.1896796E+002
 70
0
  0
VERTEX
  8
1
 42
0.0
 10
1.0858395E+002
 20
1.2396799E+002
 70
0
  0
SEQEND
  0
POLYLINE
  8
1
  6
CONTINUOUS
 62
3
 66
1
 40
5.0E-001
 41
5.0E-001
 70
0
  0
VERTEX
  8
1
 42
0.0
 10
1.1198395E+002
 20
1.1996796E+002
 70
0
  0
VERTEX
  8
1
 42
0.0
 10
1.0858395E+002
 20
1.1996796E+002
 70
0
  0
SEQEND
  0
POLYLINE
  8
1
  6
CONTINUOUS
 62
3
 66
1
 40
5.0E-001
 41
5.0E-001
 70
0
  0
VERTEX
  8
1
 42
0.0
 10
1.1103395E+002
 20
1.1996796E+002
 70
0
  0
VERTEX
  8
1
 42
0.0
 10
1.1103395E+002
 20
1.2396799E+002
 70
0
  0
SEQEND
  0
POLYLINE
  8
1
  6
CONTINUOUS
 62
3
 66
1
 40
5.0E-001
 41
5.0E-001
 70
0
  0
VERTEX
  8
1
 42
0.0
 10
1.0953395E+002
 20
1.2396799E+002
 70
0
  0
VERTEX
  8
1
 42
0.0
 10
1.0953395E+002
 20
1.1996796E+002
 70
0
  0
SEQEND
  0
LINE
  8
1
  6
CENTERLINE
 62
1
 10
9.7583947E+001
 20
1.3319889E+002
 11
9.7583947E+001
 21
1.1547818E+002
  0
POLYLINE
  8
1
  6
CONTINUOUS
 62
3
 66
1
 40
5.0E-001
 41
5.0E-001
 70
0
  0
VERTEX
  8
1
 42
0.0
 10
1.1078395E+002
 20
1.1596796E+002
 70
0
  0
VERTEX
  8
1
 42
0.0
 10
1.1051605E+002
 20
1.1496796E+002
 70
0
  0
SEQEND
  0
POLYLINE
  8
1
  6
CONTINUOUS
 62
3
 66
1
 40
5.0E-001
 41
5.0E-001
 70
0
  0
VERTEX
  8
1
 42
0.0
 10
1.0978395E+002
 20
1.1596796E+002
 70
0
  0
VERTEX
  8
1
 42
0.0
 10
1.1005195E+002
 20
1.1496796E+002
 70
0
  0
SEQEND
  0
POLYLINE
  8
1
  6
CONTINUOUS
 62
3
 66
1
 40
5.0E-001
 41
5.0E-001
 70
0
  0
VERTEX
  8
1
 42
0.0
 10
1.1005195E+002
 20
1.1496796E+002
 70
0
  0
VERTEX
  8
1
 42
0.0
 10
1.1051605E+002
 20
1.1496796E+002
 70
0
  0
SEQEND
  0
POLYLINE
  8
1
  6
CONTINUOUS
 62
3
 66
1
 40
5.0E-001
 41
5.0E-001
 70
0
  0
VERTEX
  8
1
 42
0.0
 10
1.1078395E+002
 20
1.1596796E+002
 70
0
  0
VERTEX
  8
1
 42
0.0
 10
1.1078395E+002
 20
1.1746796E+002
 70
0
  0
SEQEND
  0
POLYLINE
  8
1
  6
CONTINUOUS
 62
3
 66
1
 40
5.0E-001
 41
5.0E-001
 70
0
  0
VERTEX
  8
1
 42
0.0
 10
1.0978395E+002
 20
1.1596796E+002
 70
0
  0
VERTEX
  8
1
 42
0.0
 10
1.0978395E+002
 20
1.1746796E+002
 70
0
  0
SEQEND
  0
POLYLINE
  8
1
  6
CONTINUOUS
 62
3
 66
1
 40
5.0E-001
 41
5.0E-001
 70
0
  0
VERTEX
  8
1
 42
0.0
 10
1.1078395E+002
 20
1.1896796E+002
 70
0
  0
VERTEX
  8
1
 42
0.0
 10
1.1198395E+002
 20
1.1896796E+002
 70
0
  0
SEQEND
  0
POLYLINE
  8
1
  6
CONTINUOUS
 62
3
 66
1
 40
5.0E-001
 41
5.0E-001
 70
0
  0
VERTEX
  8
1
 42
0.0
 10
1.0858395E+002
 20
1.1896796E+002
 70
0
  0
VERTEX
  8
1
 42
0.0
 10
1.0978395E+002
 20
1.1896796E+002
 70
0
  0
SEQEND
  0
TEXT
  8
1
  6
CONTINUOUS
 62
4
 10
9.3063846E+001
 20
2.3713346E+002
 40
3.0
  1
25,4
 41
8.0E-001
  0
DIMENSION
  8
1
  6
CONTINUOUS
 62
4
  1
       
  2
*D1629
  3
DSTYLE1
 10
1.1028395E+002
 20
2.3610145E+002
 11
9.6521474E+001
 21
2.3900245E+002
 70
128
 13
8.4883957E+001
 23
2.2971099E+002
 14
1.1028395E+002
 24
2.2971099E+002
 40
1.25E-001
 50
0.0
  0
POLYLINE
  8
1
  6
CONTINUOUS
 62
3
 66
1
 40
5.0E-001
 41
5.0E-001
 70
0
  0
VERTEX
  8
1
 42
0.0
 10
1.0208395E+002
 20
1.2546799E+002
 70
0
  0
VERTEX
  8
1
 42
0.0
 10
1.0908395E+002
 20
1.2546799E+002
 70
0
  0
SEQEND
  0
POLYLINE
  8
1
  6
CONTINUOUS
 62
3
 66
1
 40
5.0E-001
 41
5.0E-001
 70
0
  0
VERTEX
  8
1
 42
0.0
 10
1.0908395E+002
 20
1.2547289E+002
 70
0
  0
VERTEX
  8
1
 42
0.0
 10
1.0908395E+002
 20
1.3046799E+002
 70
0
  0
SEQEND
  0
POLYLINE
  8
1
  6
CONTINUOUS
 62
3
 66
1
 40
5.0E-001
 41
5.0E-001
 70
0
  0
VERTEX
  8
1
 42
0.0
 10
1.0208395E+002
 20
1.3046799E+002
 70
0
  0
VERTEX
  8
1
 42
0.0
 10
1.0208395E+002
 20
1.2546799E+002
 70
0
  0
SEQEND
  0
POLYLINE
  8
1
  6
CONTINUOUS
 62
3
 66
1
 40
5.0E-001
 41
5.0E-001
 70
0
  0
VERTEX
  8
1
 42
0.0
 10
9.7583947E+001
 20
1.3046799E+002
 70
0
  0
VERTEX
  8
1
 42
0.0
 10
1.0658395E+002
 20
1.3046799E+002
 70
0
  0
SEQEND
  0
POLYLINE
  8
1
  6
CONTINUOUS
 62
3
 66
1
 40
5.0E-001
 41
5.0E-001
 70
0
  0
VERTEX
  8
1
 42
0.0
 10
1.0658395E+002
 20
1.3706799E+002
 70
0
  0
VERTEX
  8
1
 42
0.0
 10
1.1543395E+002
 20
1.3706799E+002
 70
0
  0
SEQEND
  0
POLYLINE
  8
1
  6
CONTINUOUS
 62
3
 66
1
 40
5.0E-001
 41
5.0E-001
 70
0
  0
VERTEX
  8
1
 42
0.0
 10
1.1543395E+002
 20
1.3046799E+002
 70
0
  0
VERTEX
  8
1
 42
0.0
 10
1.1543395E+002
 20
1.3706799E+002
 70
0
  0
SEQEND
  0
INSERT
  2
*E1637
  8
1
 10
1.0183395E+002
 20
1.2296799E+002
 41
1.0
 42
1.0
 43
1.0
 50
2.7E+002
 62
3
  0
POLYLINE
  8
1
  6
CONTINUOUS
 62
3
 66
1
 40
5.0E-001
 41
5.0E-001
 70
0
  0
VERTEX
  8
1
 42
0.0
 10
1.0083395E+002
 20
1.2296799E+002
 70
0
  0
VERTEX
  8
1
 42
0.0
 10
1.0083395E+002
 20
1.1896796E+002
 70
0
  0
SEQEND
  0
POLYLINE
  8
1
  6
CONTINUOUS
 62
3
 66
1
 40
5.0E-001
 41
5.0E-001
 70
0
  0
VERTEX
  8
1
 42
0.0
 10
1.2018395E+002
 20
1.5996799E+002
 70
0
  0
VERTEX
  8
1
 42
0.0
 10
1.2018395E+002
 20
1.2396799E+002
 70
0
  0
SEQEND
  0
POLYLINE
  8
1
  6
CONTINUOUS
 62
3
 66
1
 40
5.0E-001
 41
5.0E-001
 70
0
  0
VERTEX
  8
1
 42
0.0
 10
1.1958395E+002
 20
1.4196799E+002
 70
0
  0
VERTEX
  8
1
 42
0.0
 10
1.1958395E+002
 20
1.2396799E+002
 70
0
  0
SEQEND
  0
POLYLINE
  8
1
  6
CONTINUOUS
 62
3
 66
1
 40
5.0E-001
 41
5.0E-001
 70
0
  0
VERTEX
  8
1
 42
0.0
 10
1.2018395E+002
 20
1.5996799E+002
 70
0
  0
VERTEX
  8
1
 42
0.0
 10
1.1968395E+002
 20
1.5996799E+002
 70
0
  0
SEQEND
  0
POLYLINE
  8
1
  6
CONTINUOUS
 62
3
 66
1
 40
5.0E-001
 41
5.0E-001
 70
0
  0
VERTEX
  8
1
 42
0.0
 10
1.0208395E+002
 20
1.2646799E+002
 70
0
  0
VERTEX
  8
1
 42
0.0
 10
1.0908395E+002
 20
1.2646799E+002
 70
0
  0
SEQEND
  0
POLYLINE
  8
1
  6
CONTINUOUS
 62
3
 66
1
 40
5.0E-001
 41
5.0E-001
 70
0
  0
VERTEX
  8
1
 42
0.0
 10
1.0658395E+002
 20
1.2646799E+002
 70
0
  0
VERTEX
  8
1
 42
0.0
 10
1.0658395E+002
 20
1.3706799E+002
 70
0
  0
SEQEND
  0
TEXT
  8
1
  6
CONTINUOUS
 62
4
 10
9.3531093E+001
 20
2.4311422E+002
 40
3.0
  1
45,5
 41
8.0E-001
  0
DIMENSION
  8
1
  6
CONTINUOUS
 62
4
  1
       
  2
*D1645
  3
DSTYLE1
 10
1.2018395E+002
 20
2.4198876E+002
 11
9.8297013E+001
 21
2.4488976E+002
 70
128
 13
7.4983947E+001
 23
2.1599619E+002
 14
1.2018395E+002
 24
2.1599619E+002
 40
1.25E-001
 50
0.0
  0
INSERT
  2
*E1646
  8
1
 10
1.0293395E+002
 20
1.3893869E+002
 41
1.0
 42
1.0
 43
1.0
 50
2.7E+002
 62
3
  0
INSERT
  2
*E1647
  8
1
 10
1.0293395E+002
 20
1.3634829E+002
 41
1.0
 42
1.0
 43
1.0
 50
2.7E+002
 62
3
  0
POLYLINE
  8
1
  6
CONTINUOUS
 62
3
 66
1
 40
5.0E-001
 41
5.0E-001
 70
0
  0
VERTEX
  8
1
 42
0.0
 10
1.0375935E+002
 20
1.3046799E+002
 70
0
  0
VERTEX
  8
1
 42
0.0
 10
1.0346295E+002
 20
1.3895719E+002
 70
0
  0
SEQEND
  0
POLYLINE
  8
1
  6
CONTINUOUS
 62
3
 66
1
 40
5.0E-001
 41
5.0E-001
 70
0
  0
VERTEX
  8
1
 42
0.0
 10
1.0210855E+002
 20
1.3046799E+002
 70
0
  0
VERTEX
  8
1
 42
0.0
 10
1.0240505E+002
 20
1.3895719E+002
 70
0
  0
SEQEND
  0
POLYLINE
  8
1
  6
CONTINUOUS
 62
3
 66
1
 40
5.0E-001
 41
5.0E-001
 70
0
  0
VERTEX
  8
1
 42
0.0
 10
9.7583947E+001
 20
1.2396799E+002
 70
0
  0
VERTEX
  8
1
 42
0.0
 10
1.2018395E+002
 20
1.2396799E+002
 70
0
  0
SEQEND
  0
POLYLINE
  8
1
  6
CONTINUOUS
 62
3
 66
1
 40
5.0E-001
 41
5.0E-001
 70
0
  0
VERTEX
  8
1
 42
0.0
 10
1.0908395E+002
 20
1.3046799E+002
 70
0
  0
VERTEX
  8
1
 42
0.0
 10
1.1958395E+002
 20
1.3046799E+002
 70
0
  0
SEQEND
  0
POLYLINE
  8
1
  6
CONTINUOUS
 62
3
 66
1
 40
5.0E-001
 41
5.0E-001
 70
0
  0
VERTEX
  8
1
 42
0.0
 10
1.1898395E+002
 20
1.3246799E+002
 70
0
  0
VERTEX
  8
1
 42
0.0
 10
1.1898395E+002
 20
1.4196169E+002
 70
0
  0
SEQEND
  0
POLYLINE
  8
1
  6
CONTINUOUS
 62
3
 66
1
 40
5.0E-001
 41
5.0E-001
 70
0
  0
VERTEX
  8
1
 42
0.0
 10
1.1543395E+002
 20
1.3246799E+002
 70
0
  0
VERTEX
  8
1
 42
0.0
 10
1.1898395E+002
 20
1.3246799E+002
 70
0
  0
SEQEND
  0
INSERT
  2
*E1654
  8
1
 10
1.1888395E+002
 20
1.4116799E+002
 41
1.0
 42
1.0
 43
1.0
 50
2.7E+002
 62
3
  0
POLYLINE
  8
1
  6
CONTINUOUS
 62
3
 66
1
 40
5.0E-001
 41
5.0E-001
 70
0
  0
VERTEX
  8
1
 42
0.0
 10
1.1958395E+002
 20
1.4196799E+002
 70
0
  0
VERTEX
  8
1
 42
0.0
 10
1.1888395E+002
 20
1.4196799E+002
 70
0
  0
SEQEND
  0
POLYLINE
  8
1
  6
CONTINUOUS
 62
3
 66
1
 40
5.0E-001
 41
5.0E-001
 70
0
  0
VERTEX
  8
1
 42
0.0
 10
1.1808395E+002
 20
1.3246799E+002
 70
0
  0
VERTEX
  8
1
 42
0.0
 10
1.1808395E+002
 20
1.4116799E+002
 70
0
  0
SEQEND
  0
INSERT
  2
*E1657
  8
1
 10
1.1848395E+002
 20
1.3816799E+002
 41
1.0
 42
1.0
 43
1.0
 50
2.7E+002
 62
3
  0
POLYLINE
  8
1
  6
CONTINUOUS
 62
3
 66
1
 40
5.0E-001
 41
5.0E-001
 70
0
  0
VERTEX
  8
1
 42
0.0
 10
1.1858395E+002
 20
1.5696799E+002
 70
0
  0
VERTEX
  8
1
 42
0.0
 10
1.2018395E+002
 20
1.5696799E+002
 70
0
  0
SEQEND
  0
POLYLINE
  8
1
  6
CONTINUOUS
 62
3
 66
1
 40
5.0E-001
 41
5.0E-001
 70
0
  0
VERTEX
  8
1
 42
0.0
 10
1.1968395E+002
 20
1.5996799E+002
 70
0
  0
VERTEX
  8
1
 42
0.0
 10
1.1858395E+002
 20
1.5696799E+002
 70
0
  0
SEQEND
  0
POLYLINE
  8
1
  6
CONTINUOUS
 62
3
 66
1
 40
5.0E-001
 41
5.0E-001
 70
0
  0
VERTEX
  8
1
 42
0.0
 10
1.1858395E+002
 20
1.4196799E+002
 70
0
  0
VERTEX
  8
1
 42
0.0
 10
1.1858395E+002
 20
1.5696799E+002
 70
0
  0
SEQEND
  0
INSERT
  2
*E1661
  8
1
 10
1.1848395E+002
 20
1.4956079E+002
 41
1.0
 42
1.0
 43
1.0
 50
2.7E+002
 62
3
  0
POLYLINE
  8
1
  6
CONTINUOUS
 62
3
 66
1
 40
5.0E-001
 41
5.0E-001
 70
0
  0
VERTEX
  8
1
 42
0.0
 10
1.1768395E+002
 20
1.3246799E+002
 70
0
  0
VERTEX
  8
1
 42
0.0
 10
1.1768395E+002
 20
1.4956079E+002
 70
0
  0
SEQEND
  0
POLYLINE
  8
1
  6
CONTINUOUS
 62
3
 66
1
 40
5.0E-001
 41
5.0E-001
 70
0
  0
VERTEX
  8
1
 42
0.0
 10
1.1858395E+002
 20
1.5036079E+002
 70
0
  0
VERTEX
  8
1
 42
0.0
 10
1.1848395E+002
 20
1.5036079E+002
 70
0
  0
SEQEND
  0
LINE
  8
1
  6
CENTERLINE
 62
1
 10
1.1028395E+002
 20
1.8356349E+002
 11
1.1028395E+002
 21
2.2971089E+002
  0
LINE
  8
1
  6
CENTERLINE
 62
1
 10
1.0827145E+002
 20
2.2583609E+002
 11
1.1230525E+002
 21
2.2583609E+002
  0
LINE
  8
1
  6
CENTERLINE
 62
1
 10
1.0827145E+002
 20
2.1821609E+002
 11
1.1230525E+002
 21
2.1821609E+002
  0
LINE
  8
1
  6
CENTERLINE
 62
1
 10
1.0827145E+002
 20
2.0805609E+002
 11
1.1230525E+002
 21
2.0805609E+002
  0
LINE
  8
1
  6
CENTERLINE
 62
1
 10
1.0827145E+002
 20
1.9789609E+002
 11
1.1230525E+002
 21
1.9789609E+002
  0
LINE
  8
1
  6
CENTERLINE
 62
1
 10
1.0827145E+002
 20
1.8773609E+002
 11
1.1230525E+002
 21
1.8773609E+002
  0
LINE
  8
1
  6
CONTINUOUS
 62
4
 10
1.2152645E+002
 20
1.1896796E+002
 11
9.7583947E+001
 21
1.1896796E+002
  0
LINE
  8
1
  6
CONTINUOUS
 62
4
 10
9.7583947E+001
 20
1.1746796E+002
 11
1.2168965E+002
 21
1.1746796E+002
  0
POLYLINE
  8
1
  6
CONTINUOUS
 62
4
 66
1
 40
0.0
 41
0.0
 70
2
  0
VERTEX
  8
1
 42
0.0
 10
1.2152645E+002
 20
1.1896796E+002
 70
0
  0
VERTEX
  8
1
 42
1.72103E-004
 10
1.2152482E+002
 20
1.1895999E+002
 70
1
  0
VERTEX
  8
1
 42
1.73371E-004
 10
1.2152319E+002
 20
1.1895202E+002
 70
0
  0
VERTEX
  8
1
 42
1.721382E-004
 10
1.2152157E+002
 20
1.1894405E+002
 70
1
  0
VERTEX
  8
1
 42
1.680894E-004
 10
1.2151995E+002
 20
1.1893607E+002
 70
0
  0
VERTEX
  8
1
 42
1.651053E-004
 10
1.2151834E+002
 20
1.189281E+002
 70
1
  0
VERTEX
  8
1
 42
1.624239E-004
 10
1.2151674E+002
 20
1.1892012E+002
 70
0
  0
VERTEX
  8
1
 42
1.598557E-004
 10
1.2151514E+002
 20
1.1891215E+002
 70
1
  0
VERTEX
  8
1
 42
1.567451E-004
 10
1.2151355E+002
 20
1.1890417E+002
 70
0
  0
VERTEX
  8
1
 42
1.541777E-004
 10
1.2151196E+002
 20
1.1889619E+002
 70
1
  0
VERTEX
  8
1
 42
1.514979E-004
 10
1.2151037E+002
 20
1.1888821E+002
 70
0
  0
VERTEX
  8
1
 42
1.48508E-004
 10
1.2150879E+002
 20
1.1888023E+002
 70
1
  0
VERTEX
  8
1
 42
1.44445E-004
 10
1.2150722E+002
 20
1.1887225E+002
 70
0
  0
VERTEX
  8
1
 42
1.452852E-004
 10
1.2150565E+002
 20
1.1886427E+002
 70
1
  0
VERTEX
  8
1
 42
1.512439E-004
 10
1.2150408E+002
 20
1.1885629E+002
 70
0
  0
VERTEX
  8
1
 42
1.58163E-004
 10
1.2150252E+002
 20
1.188483E+002
 70
1
  0
VERTEX
  8
1
 42
1.67809E-004
 10
1.2150097E+002
 20
1.1884032E+002
 70
0
  0
VERTEX
  8
1
 42
1.759827E-004
 10
1.2149942E+002
 20
1.1883233E+002
 70
1
  0
VERTEX
  8
1
 42
1.847708E-004
 10
1.2149787E+002
 20
1.1882434E+002
 70
0
  0
VERTEX
  8
1
 42
1.926446E-004
 10
1.2149634E+002
 20
1.1881636E+002
 70
1
  0
VERTEX
  8
1
 42
2.01614E-004
 10
1.2149481E+002
 20
1.1880837E+002
 70
0
  0
VERTEX
  8
1
 42
2.096116E-004
 10
1.2149328E+002
 20
1.1880038E+002
 70
1
  0
VERTEX
  8
1
 42
2.186788E-004
 10
1.2149176E+002
 20
1.1879238E+002
 70
0
  0
VERTEX
  8
1
 42
2.264578E-004
 10
1.2149025E+002
 20
1.1878439E+002
 70
1
  0
VERTEX
  8
1
 42
2.34934E-004
 10
1.2148875E+002
 20
1.1877639E+002
 70
0
  0
VERTEX
  8
1
 42
2.437539E-004
 10
1.2148725E+002
 20
1.187684E+002
 70
1
  0
VERTEX
  8
1
 42
2.551693E-004
 10
1.2148577E+002
 20
1.187604E+002
 70
0
  0
VERTEX
  8
1
 42
2.668089E-004
 10
1.2148429E+002
 20
1.187524E+002
 70
1
  0
VERTEX
  8
1
 42
2.816442E-004
 10
1.2148282E+002
 20
1.187444E+002
 70
0
  0
VERTEX
  8
1
 42
2.945128E-004
 10
1.2148135E+002
 20
1.187364E+002
 70
1
  0
VERTEX
  8
1
 42
3.08699E-004
 10
1.214799E+002
 20
1.1872839E+002
 70
0
  0
VERTEX
  8
1
 42
3.213532E-004
 10
1.2147846E+002
 20
1.1872039E+002
 70
1
  0
VERTEX
  8
1
 42
3.357054E-004
 10
1.2147703E+002
 20
1.1871238E+002
 70
0
  0
VERTEX
  8
1
 42
3.484156E-004
 10
1.2147561E+002
 20
1.1870437E+002
 70
1
  0
VERTEX
  8
1
 42
3.627276E-004
 10
1.214742E+002
 20
1.1869635E+002
 70
0
  0
VERTEX
  8
1
 42
3.754228E-004
 10
1.2147281E+002
 20
1.1868834E+002
 70
1
  0
VERTEX
  8
1
 42
3.897413E-004
 10
1.2147142E+002
 20
1.1868032E+002
 70
0
  0
VERTEX
  8
1
 42
4.024446E-004
 10
1.2147005E+002
 20
1.186723E+002
 70
1
  0
VERTEX
  8
1
 42
4.167764E-004
 10
1.2146869E+002
 20
1.1866428E+002
 70
0
  0
VERTEX
  8
1
 42
4.295116E-004
 10
1.2146735E+002
 20
1.1865626E+002
 70
1
  0
VERTEX
  8
1
 42
4.439047E-004
 10
1.2146602E+002
 20
1.1864823E+002
 70
0
  0
VERTEX
  8
1
 42
4.566683E-004
 10
1.214647E+002
 20
1.1864021E+002
 70
1
  0
VERTEX
  8
1
 42
4.710606E-004
 10
1.214634E+002
 20
1.1863218E+002
 70
0
  0
VERTEX
  8
1
 42
4.83827E-004
 10
1.2146212E+002
 20
1.1862414E+002
 70
1
  0
VERTEX
  8
1
 42
4.982262E-004
 10
1.2146085E+002
 20
1.1861611E+002
 70
0
  0
VERTEX
  8
1
 42
5.10998E-004
 10
1.2145959E+002
 20
1.1860807E+002
 70
1
  0
VERTEX
  8
1
 42
5.25402E-004
 10
1.2145836E+002
 20
1.1860003E+002
 70
0
  0
VERTEX
  8
1
 42
5.381753E-004
 10
1.2145714E+002
 20
1.1859198E+002
 70
1
  0
VERTEX
  8
1
 42
5.525779E-004
 10
1.2145593E+002
 20
1.1858394E+002
 70
0
  0
VERTEX
  8
1
 42
5.65358E-004
 10
1.2145475E+002
 20
1.1857589E+002
 70
1
  0
VERTEX
  8
1
 42
5.797784E-004
 10
1.2145359E+002
 20
1.1856784E+002
 70
0
  0
VERTEX
  8
1
 42
5.926659E-004
 10
1.2145244E+002
 20
1.1855978E+002
 70
1
  0
VERTEX
  8
1
 42
6.073168E-004
 10
1.2145131E+002
 20
1.1855173E+002
 70
0
  0
VERTEX
  8
1
 42
6.203111E-004
 10
1.2145021E+002
 20
1.1854367E+002
 70
1
  0
VERTEX
  8
1
 42
6.349661E-004
 10
1.2144912E+002
 20
1.1853561E+002
 70
0
  0
VERTEX
  8
1
 42
6.47969E-004
 10
1.2144805E+002
 20
1.1852754E+002
 70
1
  0
VERTEX
  8
1
 42
6.626381E-004
 10
1.2144701E+002
 20
1.1851947E+002
 70
0
  0
VERTEX
  8
1
 42
6.756481E-004
 10
1.2144599E+002
 20
1.185114E+002
 70
1
  0
VERTEX
  8
1
 42
6.903192E-004
 10
1.2144499E+002
 20
1.1850333E+002
 70
0
  0
VERTEX
  8
1
 42
7.03343E-004
 10
1.2144401E+002
 20
1.1849525E+002
 70
1
  0
VERTEX
  8
1
 42
7.180438E-004
 10
1.2144305E+002
 20
1.1848717E+002
 70
0
  0
VERTEX
  8
1
 42
7.31039E-004
 10
1.2144212E+002
 20
1.1847909E+002
 70
1
  0
VERTEX
  8
1
 42
7.456478E-004
 10
1.2144122E+002
 20
1.18471E+002
 70
0
  0
VERTEX
  8
1
 42
7.615513E-004
 10
1.2144033E+002
 20
1.1846292E+002
 70
1
  0
VERTEX
  8
1
 42
7.828273E-004
 10
1.2143947E+002
 20
1.1845483E+002
 70
0
  0
VERTEX
  8
1
 42
8.018487E-004
 10
1.2143864E+002
 20
1.1844673E+002
 70
1
  0
VERTEX
  8
1
 42
8.234722E-004
 10
1.2143784E+002
 20
1.1843864E+002
 70
0
  0
VERTEX
  8
1
 42
8.426256E-004
 10
1.2143706E+002
 20
1.1843054E+002
 70
1
  0
VERTEX
  8
1
 42
8.64195E-004
 10
1.2143631E+002
 20
1.1842244E+002
 70
0
  0
VERTEX
  8
1
 42
8.833524E-004
 10
1.2143559E+002
 20
1.1841434E+002
 70
1
  0
VERTEX
  8
1
 42
9.049841E-004
 10
1.2143489E+002
 20
1.1840623E+002
 70
0
  0
VERTEX
  8
1
 42
9.241442E-004
 10
1.2143423E+002
 20
1.1839812E+002
 70
1
  0
VERTEX
  8
1
 42
9.4572E-004
 10
1.214336E+002
 20
1.1839001E+002
 70
0
  0
VERTEX
  8
1
 42
9.649796E-004
 10
1.21433E+002
 20
1.183819E+002
 70
1
  0
VERTEX
  8
1
 42
9.868372E-004
 10
1.2143243E+002
 20
1.1837378E+002
 70
0
  0
VERTEX
  8
1
 42
1.0029514E-003
 10
1.2143189E+002
 20
1.1836566E+002
 70
1
  0
VERTEX
  8
1
 42
1.0174596E-003
 10
1.2143138E+002
 20
1.1835754E+002
 70
0
  0
VERTEX
  8
1
 42
1.030087E-003
 10
1.2143091E+002
 20
1.1834942E+002
 70
1
  0
VERTEX
  8
1
 42
1.0440613E-003
 10
1.2143048E+002
 20
1.183413E+002
 70
0
  0
VERTEX
  8
1
 42
1.0565399E-003
 10
1.2143007E+002
 20
1.1833317E+002
 70
1
  0
VERTEX
  8
1
 42
1.0707078E-003
 10
1.2142971E+002
 20
1.1832504E+002
 70
0
  0
VERTEX
  8
1
 42
1.083272E-003
 10
1.2142937E+002
 20
1.1831691E+002
 70
1
  0
VERTEX
  8
1
 42
1.0974398E-003
 10
1.2142908E+002
 20
1.1830878E+002
 70
0
  0
VERTEX
  8
1
 42
1.110028E-003
 10
1.2142882E+002
 20
1.1830065E+002
 70
1
  0
VERTEX
  8
1
 42
1.1242517E-003
 10
1.2142859E+002
 20
1.1829252E+002
 70
0
  0
VERTEX
  8
1
 42
1.1368514E-003
 10
1.214284E+002
 20
1.1828438E+002
 70
1
  0
VERTEX
  8
1
 42
1.1510484E-003
 10
1.2142825E+002
 20
1.1827625E+002
 70
0
  0
VERTEX
  8
1
 42
1.167817E-003
 10
1.2142814E+002
 20
1.1826811E+002
 70
1
  0
VERTEX
  8
1
 42
1.1914801E-003
 10
1.2142807E+002
 20
1.1825998E+002
 70
0
  0
VERTEX
  8
1
 42
1.2126567E-003
 10
1.2142803E+002
 20
1.1825184E+002
 70
1
  0
VERTEX
  8
1
 42
1.2367539E-003
 10
1.2142804E+002
 20
1.182437E+002
 70
0
  0
VERTEX
  8
1
 42
1.2581393E-003
 10
1.2142809E+002
 20
1.1823557E+002
 70
1
  0
VERTEX
  8
1
 42
1.2822641E-003
 10
1.2142817E+002
 20
1.1822743E+002
 70
0
  0
VERTEX
  8
1
 42
1.3036656E-003
 10
1.2142831E+002
 20
1.182193E+002
 70
1
  0
VERTEX
  8
1
 42
1.3277957E-003
 10
1.2142848E+002
 20
1.1821116E+002
 70
0
  0
VERTEX
  8
1
 42
1.3493876E-003
 10
1.214287E+002
 20
1.1820303E+002
 70
1
  0
VERTEX
  8
1
 42
1.3739421E-003
 10
1.2142896E+002
 20
1.181949E+002
 70
0
  0
VERTEX
  8
1
 42
1.3950873E-003
 10
1.2142927E+002
 20
1.1818677E+002
 70
1
  0
VERTEX
  8
1
 42
1.4182219E-003
 10
1.2142962E+002
 20
1.1817864E+002
 70
0
  0
VERTEX
  8
1
 42
1.4325314E-003
 10
1.2143002E+002
 20
1.1817051E+002
 70
1
  0
VERTEX
  8
1
 42
1.4417162E-003
 10
1.2143046E+002
 20
1.1816239E+002
 70
0
  0
VERTEX
  8
1
 42
1.450238E-003
 10
1.2143096E+002
 20
1.1815427E+002
 70
1
  0
VERTEX
  8
1
 42
1.4602764E-003
 10
1.214315E+002
 20
1.1814615E+002
 70
0
  0
VERTEX
  8
1
 42
1.46913E-003
 10
1.2143209E+002
 20
1.1813803E+002
 70
1
  0
VERTEX
  8
1
 42
1.4790626E-003
 10
1.2143273E+002
 20
1.1812992E+002
 70
0
  0
VERTEX
  8
1
 42
1.4880074E-003
 10
1.2143341E+002
 20
1.1812181E+002
 70
1
  0
VERTEX
  8
1
 42
1.4982517E-003
 10
1.2143415E+002
 20
1.1811371E+002
 70
0
  0
VERTEX
  8
1
 42
1.5070977E-003
 10
1.2143493E+002
 20
1.1810561E+002
 70
1
  0
VERTEX
  8
1
 42
1.516805E-003
 10
1.2143576E+002
 20
1.1809752E+002
 70
0
  0
VERTEX
  8
1
 42
1.5266301E-003
 10
1.2143664E+002
 20
1.1808943E+002
 70
1
  0
VERTEX
  8
1
 42
1.539106E-003
 10
1.2143758E+002
 20
1.1808134E+002
 70
0
  0
VERTEX
  8
1
 42
1.5533982E-003
 10
1.2143856E+002
 20
1.1807327E+002
 70
1
  0
VERTEX
  8
1
 42
1.573203E-003
 10
1.2143959E+002
 20
1.180652E+002
 70
0
  0
VERTEX
  8
1
 42
1.5904019E-003
 10
1.2144068E+002
 20
1.1805713E+002
 70
1
  0
VERTEX
  8
1
 42
1.6093747E-003
 10
1.2144181E+002
 20
1.1804907E+002
 70
0
  0
VERTEX
  8
1
 42
1.6264598E-003
 10
1.21443E+002
 20
1.1804102E+002
 70
1
  0
VERTEX
  8
1
 42
1.6460052E-003
 10
1.2144424E+002
 20
1.1803298E+002
 70
0
  0
VERTEX
  8
1
 42
1.6631209E-003
 10
1.2144554E+002
 20
1.1802495E+002
 70
1
  0
VERTEX
  8
1
 42
1.6821581E-003
 10
1.2144688E+002
 20
1.1801692E+002
 70
0
  0
VERTEX
  8
1
 42
1.7001596E-003
 10
1.2144829E+002
 20
1.1800891E+002
 70
1
  0
VERTEX
  8
1
 42
1.7217027E-003
 10
1.2144975E+002
 20
1.180009E+002
 70
0
  0
VERTEX
  8
1
 42
1.7355612E-003
 10
1.2145126E+002
 20
1.1799291E+002
 70
1
  0
VERTEX
  8
1
 42
1.7452876E-003
 10
1.2145283E+002
 20
1.1798493E+002
 70
0
  0
VERTEX
  8
1
 42
1.7487811E-003
 10
1.2145446E+002
 20
1.1797695E+002
 70
1
  0
VERTEX
  8
1
 42
1.746963E-003
 10
1.2145614E+002
 20
1.1796899E+002
 70
0
  0
VERTEX
  8
1
 42
1.7464698E-003
 10
1.2145788E+002
 20
1.1796104E+002
 70
1
  0
VERTEX
  8
1
 42
1.7471828E-003
 10
1.2145967E+002
 20
1.1795311E+002
 70
0
  0
VERTEX
  8
1
 42
1.747592E-003
 10
1.2146152E+002
 20
1.1794518E+002
 70
1
  0
VERTEX
  8
1
 42
1.747815E-003
 10
1.2146343E+002
 20
1.1793727E+002
 70
0
  0
VERTEX
  8
1
 42
1.748292E-003
 10
1.2146539E+002
 20
1.1792937E+002
 70
1
  0
VERTEX
  8
1
 42
1.7491586E-003
 10
1.214674E+002
 20
1.1792149E+002
 70
0
  0
VERTEX
  8
1
 42
1.7494314E-003
 10
1.2146947E+002
 20
1.1791362E+002
 70
1
  0
VERTEX
  8
1
 42
1.7491901E-003
 10
1.214716E+002
 20
1.1790576E+002
 70
0
  0
VERTEX
  8
1
 42
1.753284E-003
 10
1.2147378E+002
 20
1.1789792E+002
 70
1
  0
VERTEX
  8
1
 42
1.7628023E-003
 10
1.2147602E+002
 20
1.178901E+002
 70
0
  0
VERTEX
  8
1
 42
1.7728103E-003
 10
1.2147831E+002
 20
1.1788229E+002
 70
1
  0
VERTEX
  8
1
 42
1.785873E-003
 10
1.2148066E+002
 20
1.178745E+002
 70
0
  0
VERTEX
  8
1
 42
1.7972202E-003
 10
1.2148307E+002
 20
1.1786673E+002
 70
1
  0
VERTEX
  8
1
 42
1.8097318E-003
 10
1.2148553E+002
 20
1.1785897E+002
 70
0
  0
VERTEX
  8
1
 42
1.8210654E-003
 10
1.2148805E+002
 20
1.1785123E+002
 70
1
  0
VERTEX
  8
1
 42
1.8340913E-003
 10
1.2149062E+002
 20
1.1784351E+002
 70
0
  0
VERTEX
  8
1
 42
1.8455878E-003
 10
1.2149325E+002
 20
1.1783581E+002
 70
1
  0
VERTEX
  8
1
 42
1.8584603E-003
 10
1.2149594E+002
 20
1.1782813E+002
 70
0
  0
VERTEX
  8
1
 42
1.8705488E-003
 10
1.2149869E+002
 20
1.1782047E+002
 70
1
  0
VERTEX
  8
1
 42
1.8849128E-003
 10
1.2150149E+002
 20
1.1781283E+002
 70
0
  0
VERTEX
  8
1
 42
1.8794374E-003
 10
1.2150435E+002
 20
1.1780522E+002
 70
1
  0
VERTEX
  8
1
 42
1.852675E-003
 10
1.2150727E+002
 20
1.1779762E+002
 70
0
  0
VERTEX
  8
1
 42
1.8277001E-003
 10
1.2151025E+002
 20
1.1779005E+002
 70
1
  0
VERTEX
  8
1
 42
1.798156E-003
 10
1.2151328E+002
 20
1.177825E+002
 70
0
  0
VERTEX
  8
1
 42
1.7723389E-003
 10
1.2151636E+002
 20
1.1777497E+002
 70
1
  0
VERTEX
  8
1
 42
1.7436928E-003
 10
1.215195E+002
 20
1.1776746E+002
 70
0
  0
VERTEX
  8
1
 42
1.7182652E-003
 10
1.2152269E+002
 20
1.1775997E+002
 70
1
  0
VERTEX
  8
1
 42
1.6896E-003
 10
1.2152593E+002
 20
1.1775251E+002
 70
0
  0
VERTEX
  8
1
 42
1.6643294E-003
 10
1.2152922E+002
 20
1.1774507E+002
 70
1
  0
VERTEX
  8
1
 42
1.6360302E-003
 10
1.2153256E+002
 20
1.1773765E+002
 70
0
  0
VERTEX
  8
1
 42
1.610858E-003
 10
1.2153595E+002
 20
1.1773025E+002
 70
1
  0
VERTEX
  8
1
 42
1.5823867E-003
 10
1.2153939E+002
 20
1.1772287E+002
 70
0
  0
VERTEX
  8
1
 42
1.5545879E-003
 10
1.2154287E+002
 20
1.1771552E+002
 70
1
  0
VERTEX
  8
1
 42
1.5202948E-003
 10
1.215464E+002
 20
1.1770818E+002
 70
0
  0
VERTEX
  8
1
 42
1.4901417E-003
 10
1.2154997E+002
 20
1.1770087E+002
 70
1
  0
VERTEX
  8
1
 42
1.4563961E-003
 10
1.2155359E+002
 20
1.1769358E+002
 70
0
  0
VERTEX
  8
1
 42
1.42606E-003
 10
1.2155725E+002
 20
1.1768631E+002
 70
1
  0
VERTEX
  8
1
 42
1.3914987E-003
 10
1.2156094E+002
 20
1.1767907E+002
 70
0
  0
VERTEX
  8
1
 42
1.3625227E-003
 10
1.2156468E+002
 20
1.1767184E+002
 70
1
  0
VERTEX
  8
1
 42
1.3312642E-003
 10
1.2156846E+002
 20
1.1766463E+002
 70
0
  0
VERTEX
  8
1
 42
1.2980668E-003
 10
1.2157228E+002
 20
1.1765745E+002
 70
1
  0
VERTEX
  8
1
 42
1.256105E-003
 10
1.2157613E+002
 20
1.1765028E+002
 70
0
  0
VERTEX
  8
1
 42
1.238296E-003
 10
1.2158001E+002
 20
1.1764314E+002
 70
1
  0
VERTEX
  8
1
 42
1.2336288E-003
 10
1.2158394E+002
 20
1.1763601E+002
 70
0
  0
VERTEX
  8
1
 42
1.1897574E-003
 10
1.215879E+002
 20
1.1762889E+002
 70
1
  0
VERTEX
  8
1
 42
1.1192123E-003
 10
1.2159189E+002
 20
1.1762182E+002
 70
0
  0
VERTEX
  8
1
 42
1.2505004E-003
 10
1.2159588E+002
 20
1.176148E+002
 70
1
  0
VERTEX
  8
1
 42
1.5113641E-003
 10
1.2159997E+002
 20
1.176077E+002
 70
0
  0
VERTEX
  8
1
 42
1.1475881E-003
 10
1.216042E+002
 20
1.1760046E+002
 70
1
  0
VERTEX
  8
1
 42
3.769713E-004
 10
1.216082E+002
 20
1.1759367E+002
 70
0
  0
VERTEX
  8
1
 42
1.6513433E-003
 10
1.2161182E+002
 20
1.1758754E+002
 70
1
  0
VERTEX
  8
1
 42
2.8836568E-003
 10
1.2161657E+002
 20
1.1757972E+002
 70
0
  0
VERTEX
  8
1
 42
1.411548E-003
 10
1.2162398E+002
 20
1.1756772E+002
 70
1
  0
VERTEX
  8
1
 42
7.453796E-004
 10
1.2163375E+002
 20
1.1755205E+002
 70
0
  0
SEQEND
  0
LINE
  8
1
  6
CENTERLINE
 62
1
 10
1.1028395E+002
 20
1.2778969E+002
 11
1.1028395E+002
 21
1.1587455E+002
  0
TEXT
  8
1
  6
CONTINUOUS
 62
4
 10
1.4719304E+002
 20
1.0027687E+002
 40
3.0
  1
Leiterplatte
 41
7.7358733E-001
  0
CIRCLE
  8
1
  6
CONTINUOUS
 62
4
 10
6.5540097E+001
 20
1.1220716E+002
 40
1.25
  0
TEXT
  8
1
  6
CONTINUOUS
 62
4
 10
6.5083297E+001
 20
1.1153739E+002
 40
1.5
  1
a
 41
8.666667E-001
  0
TEXT
  8
1
  6
CONTINUOUS
 62
4
 10
1.7127273E+002
 20
2.3160446E+001
 40
2.5
  1
X
  0
TEXT
  8
1
  6
CONTINUOUS
 62
4
 10
8.9610655E+001
 20
6.906801
 40
2.8
  1
dimension drawing
 41
8.0E-001
  0
TEXT
  8
1
  6
CONTINUOUS
 62
4
 10
1.40221E+002
 20
1.0958089E+001
 40
2.2
  1
LB6
 41
8.0E-001
  0
TEXT
  8
1
  6
CONTINUOUS
 62
4
 10
1.2518931E+002
 20
7.6818783E+001
 40
3.0
  1
Changes of dimensions reserved !
 41
8.0E-001
  0
TEXT
  8
1
  6
CONTINUOUS
 62
4
 10
1.4719304E+002
 20
1.0543249E+002
 40
3.0
  1
printed circuit board
 41
8.0E-001
  0
TEXT
  8
1
  6
CONTINUOUS
 62
4
 10
1.3202634E+002
 20
1.3639655E+002
 40
3.0
  1
contact area of contactor
 41
8.0E-001
  0
TEXT
  8
1
  6
CONTINUOUS
 62
4
 10
3.6555171E+001
 20
7.668311E+001
 40
3.0
  1
weight : ca. 20g
 41
8.0E-001
  0
TEXT
  8
1
  6
CONTINUOUS
 62
4
 10
3.6555171E+001
 20
7.2051913E+001
 40
3.0
  1
Gewicht : ca. 20g
 41
8.0E-001
  0
INSERT
  2
*XH29
  8
1
 10
1.2062117E+002
 20
1.1821796E+002
  0
POLYLINE
  8
1
  6
CONTINUOUS
 62
3
 66
1
 40
5.0E-001
 41
5.0E-001
 70
0
  0
VERTEX
  8
1
 42
0.0
 10
9.4333947E+001
 20
1.1896796E+002
 70
0
  0
VERTEX
  8
1
 42
0.0
 10
1.0083395E+002
 20
1.1896796E+002
 70
0
  0
SEQEND
  0
TEXT
  8
1
  6
CONTINUOUS
 62
4
 10
2.612286E+001
 20
1.9263551E+001
 40
2.5
  1
b
 41
7.6E-001
  0
TEXT
  8
1
  6
CONTINUOUS
 62
4
 10
3.323499E+001
 20
1.9265431E+001
 40
2.2
  1
L12 185  2.8.04
 41
7.0E-001
  0
VIEWPORT
 67
1
  8
0
  6
CONTINUOUS
 62
3
100
AcDbViewport
 10
1.05E+002
 20
1.485E+002
 30
0.0
 40
2.97E+002
 41
2.97E+002
 68
1
 69
1
1001
ACAD
1000
MVIEW
1002
{
1070
16
1010
0.0
1020
0.0
1030
0.0
1010
0.0
1020
0.0
1030
1.0
1040
0.0
1040
2.97E+002
1040
4.2E+001
1040
1.485E+002
1040
5.0E+001
1040
0.0
1040
0.0
1070
0
1070
100
1070
1
1070
0
1070
0
1070
0
1070
0
1070
0
1040
0.0
1040
0.0
1040
0.0
1040
5.0E-001
1040
5.0E-001
1040
5.0E-001
1040
5.0E-001
1070
0
1002
{
1002
}
1002
}
  0
VIEWPORT
 67
1
  8
0
  6
CONTINUOUS
 62
3
100
AcDbViewport
 10
1.05E+002
 20
1.485E+002
 30
0.0
 40
2.1E+002
 41
2.97E+002
 68
2
 69
2
1001
ACAD
1000
MVIEW
1002
{
1070
16
1010
0.0
1020
0.0
1030
0.0
1010
0.0
1020
0.0
1030
1.0
1040
0.0
1040
2.97E+002
1040
1.05E+002
1040
1.485E+002
1040
5.0E+001
1040
0.0
1040
0.0
1070
0
1070
100
1070
1
1070
0
1070
0
1070
0
1070
0
1070
0
1040
0.0
1040
0.0
1040
0.0
1040
5.0E-001
1040
5.0E-001
1040
5.0E-001
1040
5.0E-001
1070
0
1002
{
1002
}
1002
}
  0
ENDSEC
  0
EOF
