  0
SECTION
  2
HEADER
  9
$ACADVER
  1
AC1009
999
I-DEAS 8 Not Encoded
  9
$EXTMIN
 10
0.0
 20
0.0
  9
$EXTMAX
 10
2.1E+002
 20
2.97E+002
  9
$TEXTSIZE
 40
1.25E-001
  9
$LTSCALE
 40
1.0
  9
$CLAYER
  8
1
  9
$CECOLOR
 62
1
  9
$DIMASZ
 40
1.25E-001
  9
$DIMEXO
 40
6.25E-002
  9
$DIMDLI
 40
2.5E-001
  9
$DIMEXE
 40
1.25E-001
  9
$DIMTP
 40
5.0E-003
  9
$DIMTM
 40
-5.0E-003
  9
$DIMTXT
 40
3.0
  9
$DIMLIM
 70
0
  9
$DIMTIH
 70
1
  9
$DIMTOH
 70
1
  9
$DIMSE1
 70
0
  9
$DIMSE2
 70
0
  9
$DIMTAD
 70
0
  9
$DIMASO
 70
1
  9
$DIMALT
 70
0
  9
$DIMALTD
 70
0
  9
$DIMTOFL
 70
1
  9
$DIMTIX
 70
0
  9
$DIMSAH
 70
0
  9
$DIMTFAC
 40
1.0
  9
$DIMGAP
 40
6.25E-002
  9
$LUNITS
 70
2
  9
$LUPREC
 70
3
  9
$FILLETRAD
 40
1.0E+001
  9
$AUNITS
 70
0
  9
$AUPREC
 70
1
  9
$CHAMFERA
 40
6.0
  9
$CHAMFERB
 40
6.0
  9
$ANGBASE
 50
0.0
  9
$ANGDIR
 70
0
  9
$PEXTMIN
 10
0.0
 20
0.0
 30
0.0
  9
$PEXTMAX
 10
2.1E+002
 20
2.97E+002
 30
0.0
  9
$PLIMMIN
 10
0.0
 20
0.0
  9
$PLIMMAX
 10
2.1E+002
 20
2.97E+002
  9
$PDMODE
 70
2
  9
$PDSIZE
 40
-1.0E-002
  9
$SPLINETYPE
 70
6
  9
$TILEMODE
 70
0
  0
ENDSEC
  0
SECTION
  2
TABLES
  0
TABLE
  2
VPORT
 70
2
  0
VPORT
  2
*Active
 70
0
 10
0.0
 20
0.0
 11
2.1E+002
 21
2.97E+002
 12
1.05E+002
 22
1.485E+002
 13
0.0
 23
0.0
 14
1.0
 24
1.0
 15
0.0
 25
0.0
 16
0.0
 26
0.0
 36
1.0
 17
0.0
 27
0.0
 37
0.0
 40
2.97E+002
 41
7.0707071E-001
 42
5.0E+001
 43
0.0
 44
0.0
 50
0.0
 51
0.0
 71
0
 72
100
 73
1
 74
3
 75
0
 76
0
 77
0
 78
0
  0
ENDTAB
  0
TABLE
  2
LTYPE
 70
7
  0
LTYPE
  2
HIDDENNEW00
  3
_ 
 70
64
 72
65
 73
3
 40
4.5
 49
1.5
 49
-1.5
 49
1.5
  0
LTYPE
  2
HIDDENNEW01
  3
_ 
 70
64
 72
65
 73
3
 40
4.5
 49
1.5
 49
-1.5
 49
1.5
  0
LTYPE
  2
HIDDEN
  3
_ 
 70
64
 72
65
 73
3
 40
4.5
 49
1.5
 49
-1.5
 49
1.5
  0
LTYPE
  2
CENTERLINE
  3
_ 
 70
64
 72
65
 73
5
 40
3.0E+001
 49
1.2E+001
 49
-1.5
 49
3.0
 49
-1.5
 49
1.2E+001
  0
LTYPE
  2
PHANTOM
  3
_ 
 70
64
 72
65
 73
7
 40
2.95E+001
 49
9.5
 49
-1.5
 49
3.0
 49
-1.5
 49
3.0
 49
-1.5
 49
9.5
  0
LTYPE
  2
SHORT_DASH
  3
_ 
 70
64
 72
65
 73
3
 40
3.0
 49
7.5E-001
 49
-1.5
 49
7.5E-001
  0
LTYPE
  2
LONG_DASH
  3
_ 
 70
64
 72
65
 73
3
 40
9.0
 49
2.25
 49
-4.5
 49
2.25
  0
ENDTAB
  0
TABLE
  2
LAYER
 70
258
  0
LAYER
  2
1
 70
0
 62
7
  6
CONTINUOUS
  0
LAYER
  2
Drafting_Hidden_Entities
 70
1
 62
7
  6
CONTINUOUS
  0
ENDTAB
  0
TABLE
  2
STYLE
 70
1
  0
STYLE
  2
STANDARD
 70
64
 40
0.0
 41
1.0
 50
0.0
 71
0
 42
1.0
  3
monotxt.shx
  4

  0
ENDTAB
  0
TABLE
  2
VIEW
 70
0
  0
ENDTAB
  0
TABLE
  2
DIMSTYLE
 70
2
  0
DIMSTYLE
  2
DSTYLE1
 70
0
  3

  4

  5

  6

  7

 40
1.0
 41
3.0
 42
0.0
 43
3.8E-001
 44
1.5
 45
1.0E-001
 46
0.0
 47
0.0
 48
0.0
 71
0
 72
0
 73
0
 74
0
 75
0
 76
0
 77
1
 78
11
140
3.0
141
9.0E-002
142
0.0
143
2.54E+001
144
1.0
145
0.0
146
1.0
147
1.5
170
0
171
2
172
0
173
0
174
0
175
0
176
0
177
0
178
0
  0
DIMSTYLE
  2
DSTYLE2
 70
0
  3

  4

  5

  6

  7

 40
1.0
 41
3.0
 42
0.0
 43
3.8E-001
 44
1.5
 45
0.0
 46
0.0
 47
0.0
 48
0.0
 71
0
 72
0
 73
0
 74
0
 75
0
 76
0
 77
1
 78
11
140
3.0
141
9.0E-002
142
0.0
143
2.54E+001
144
1.0
145
0.0
146
1.0
147
1.5
170
0
171
2
172
0
173
0
174
0
175
0
176
0
177
0
178
0
  0
ENDTAB
  0
ENDSEC
  0
SECTION
  2
BLOCKS
  0
BLOCK
  2
*AH13
  3
*AH
 10
0.0
 20
0.0
 70
65
  0
LINE
  8
1
  6
CONTINUOUS
 62
0
 10
0.0
 20
0.0
 11
1.0
 21
-1.666679E-001
  0
LINE
  8
1
  6
CONTINUOUS
 62
0
 10
1.0
 20
-1.666679E-001
 11
1.0
 21
1.66668E-001
  0
LINE
  8
1
  6
CONTINUOUS
 62
0
 10
1.0
 20
1.66668E-001
 11
0.0
 21
0.0
  0
ENDBLK
  0
BLOCK
  2
XHXH1NEW02NEW00NEW00
 10
0.0
 20
0.0
 70
0
  0
POLYLINE
  8
254
  6
CONTINUOUS
 62
6
 66
1
 40
1.0E-003
 41
1.0E-003
 70
0
  0
VERTEX
  8
254
 42
0.0
 10
-2.2647095E-001
 20
-2.2647285E-001
 70
0
  0
VERTEX
  8
254
 42
0.0
 10
2.2647095E-001
 20
2.2647285E-001
 70
0
  0
SEQEND
  0
POLYLINE
  8
254
  6
CONTINUOUS
 62
6
 66
1
 40
1.0E-003
 41
1.0E-003
 70
0
  0
VERTEX
  8
254
 42
0.0
 10
-3.9656067E-001
 20
-6.7941666E-001
 70
0
  0
VERTEX
  8
254
 42
0.0
 10
4.2364502E-001
 20
1.4080048E-001
 70
0
  0
SEQEND
  0
POLYLINE
  8
254
  6
CONTINUOUS
 62
6
 66
1
 40
1.0E-003
 41
1.0E-003
 70
0
  0
VERTEX
  8
254
 42
0.0
 10
-5.6666565E-001
 20
-1.1323624
 70
0
  0
VERTEX
  8
254
 42
0.0
 10
4.2364502E-001
 20
-1.4204407E-001
 70
0
  0
SEQEND
  0
POLYLINE
  8
254
  6
CONTINUOUS
 62
6
 66
1
 40
1.0E-003
 41
1.0E-003
 70
0
  0
VERTEX
  8
254
 42
0.0
 10
-7.3677063E-001
 20
-1.5853081
 70
0
  0
VERTEX
  8
254
 42
0.0
 10
4.2364502E-001
 20
-4.248867E-001
 70
0
  0
SEQEND
  0
POLYLINE
  8
254
  6
CONTINUOUS
 62
6
 66
1
 40
1.0E-003
 41
1.0E-003
 70
0
  0
VERTEX
  8
254
 42
0.0
 10
8.1364441E-001
 20
-3.4885406E-002
 70
0
  0
VERTEX
  8
254
 42
0.0
 10
1.0749969
 20
2.2647285E-001
 70
0
  0
SEQEND
  0
POLYLINE
  8
254
  6
CONTINUOUS
 62
6
 66
1
 40
1.0E-003
 41
1.0E-003
 70
0
  0
VERTEX
  8
254
 42
0.0
 10
-6.9714355E-001
 20
-1.8285255
 70
0
  0
VERTEX
  8
254
 42
0.0
 10
4.2364502E-001
 20
-7.0773125E-001
 70
0
  0
SEQEND
  0
POLYLINE
  8
254
  6
CONTINUOUS
 62
6
 66
1
 40
1.0E-003
 41
1.0E-003
 70
0
  0
VERTEX
  8
254
 42
0.0
 10
8.1364441E-001
 20
-3.1772995E-001
 70
0
  0
VERTEX
  8
254
 42
0.0
 10
1.3111725
 20
1.7979813E-001
 70
0
  0
SEQEND
  0
POLYLINE
  8
254
  6
CONTINUOUS
 62
6
 66
1
 40
1.0E-003
 41
1.0E-003
 70
0
  0
VERTEX
  8
254
 42
0.0
 10
-8.928833E-001
 20
-2.3071117
 70
0
  0
VERTEX
  8
254
 42
0.0
 10
-8.0430603E-001
 20
-2.2185249
 70
0
  0
SEQEND
  0
POLYLINE
  8
254
  6
CONTINUOUS
 62
6
 66
1
 40
1.0E-003
 41
1.0E-003
 70
0
  0
VERTEX
  8
254
 42
0.0
 10
-4.1430664E-001
 20
-1.8285255
 70
0
  0
VERTEX
  8
254
 42
0.0
 10
4.2364502E-001
 20
-9.9057388E-001
 70
0
  0
SEQEND
  0
POLYLINE
  8
254
  6
CONTINUOUS
 62
6
 66
1
 40
1.0E-003
 41
1.0E-003
 70
0
  0
VERTEX
  8
254
 42
0.0
 10
8.1364441E-001
 20
-6.0057259E-001
 70
0
  0
VERTEX
  8
254
 42
0.0
 10
1.3883972
 20
-2.58255E-002
 70
0
  0
SEQEND
  0
POLYLINE
  8
254
  6
CONTINUOUS
 62
6
 66
1
 40
1.0E-003
 41
1.0E-003
 70
0
  0
VERTEX
  8
254
 42
0.0
 10
-1.0629883
 20
-2.7600574
 70
0
  0
VERTEX
  8
254
 42
0.0
 10
-5.2145386E-001
 20
-2.2185249
 70
0
  0
SEQEND
  0
POLYLINE
  8
254
  6
CONTINUOUS
 62
6
 66
1
 40
1.0E-003
 41
1.0E-003
 70
0
  0
VERTEX
  8
254
 42
0.0
 10
-1.3145447E-001
 20
-1.8285255
 70
0
  0
VERTEX
  8
254
 42
0.0
 10
4.2364502E-001
 20
-1.2734165
 70
0
  0
SEQEND
  0
POLYLINE
  8
254
  6
CONTINUOUS
 62
6
 66
1
 40
1.0E-003
 41
1.0E-003
 70
0
  0
VERTEX
  8
254
 42
0.0
 10
8.1364441E-001
 20
-8.8341522E-001
 70
0
  0
VERTEX
  8
254
 42
0.0
 10
1.4656067
 20
-2.3144722E-001
 70
0
  0
SEQEND
  0
POLYLINE
  8
254
  6
CONTINUOUS
 62
6
 66
1
 40
1.0E-003
 41
1.0E-003
 70
0
  0
VERTEX
  8
254
 42
0.0
 10
-1.2330933
 20
-3.2130032
 70
0
  0
VERTEX
  8
254
 42
0.0
 10
-2.3861694E-001
 20
-2.2185249
 70
0
  0
SEQEND
  0
POLYLINE
  8
254
  6
CONTINUOUS
 62
6
 66
1
 40
1.0E-003
 41
1.0E-003
 70
0
  0
VERTEX
  8
254
 42
0.0
 10
1.5138245E-001
 20
-1.8285255
 70
0
  0
VERTEX
  8
254
 42
0.0
 10
4.2364502E-001
 20
-1.5562611
 70
0
  0
SEQEND
  0
POLYLINE
  8
254
  6
CONTINUOUS
 62
6
 66
1
 40
1.0E-003
 41
1.0E-003
 70
0
  0
VERTEX
  8
254
 42
0.0
 10
8.1364441E-001
 20
-1.1662598
 70
0
  0
VERTEX
  8
254
 42
0.0
 10
1.5428314
 20
-4.3707085E-001
 70
0
  0
SEQEND
  0
POLYLINE
  8
254
  6
CONTINUOUS
 62
6
 66
1
 40
1.0E-003
 41
1.0E-003
 70
0
  0
VERTEX
  8
254
 42
0.0
 10
-1.4031982
 20
-3.665947
 70
0
  0
VERTEX
  8
254
 42
0.0
 10
4.4219971E-002
 20
-2.2185249
 70
0
  0
SEQEND
  0
POLYLINE
  8
254
  6
CONTINUOUS
 62
6
 66
1
 40
1.0E-003
 41
1.0E-003
 70
0
  0
VERTEX
  8
254
 42
0.0
 10
8.1364441E-001
 20
-1.4491024
 70
0
  0
VERTEX
  8
254
 42
0.0
 10
1.6200562
 20
-6.4269257E-001
 70
0
  0
SEQEND
  0
POLYLINE
  8
254
  6
CONTINUOUS
 62
6
 66
1
 40
1.0E-003
 41
1.0E-003
 70
0
  0
VERTEX
  8
254
 42
0.0
 10
-1.573288
 20
-4.1188927
 70
0
  0
VERTEX
  8
254
 42
0.0
 10
3.2707214E-001
 20
-2.2185249
 70
0
  0
SEQEND
  0
POLYLINE
  8
254
  6
CONTINUOUS
 62
6
 66
1
 40
1.0E-003
 41
1.0E-003
 70
0
  0
VERTEX
  8
254
 42
0.0
 10
8.1364441E-001
 20
-1.731945
 70
0
  0
VERTEX
  8
254
 42
0.0
 10
1.6972656
 20
-8.4831619E-001
 70
0
  0
SEQEND
  0
POLYLINE
  8
254
  6
CONTINUOUS
 62
6
 66
1
 40
1.0E-003
 41
1.0E-003
 70
0
  0
VERTEX
  8
254
 42
0.0
 10
-1.4450836
 20
-4.2735233
 70
0
  0
VERTEX
  8
254
 42
0.0
 10
4.2364502E-001
 20
-2.4047909
 70
0
  0
SEQEND
  0
POLYLINE
  8
254
  6
CONTINUOUS
 62
6
 66
1
 40
1.0E-003
 41
1.0E-003
 70
0
  0
VERTEX
  8
254
 42
0.0
 10
9.9990845E-001
 20
-1.8285255
 70
0
  0
VERTEX
  8
254
 42
0.0
 10
1.7744904
 20
-1.0539379
 70
0
  0
SEQEND
  0
POLYLINE
  8
254
  6
CONTINUOUS
 62
6
 66
1
 40
1.0E-003
 41
1.0E-003
 70
0
  0
VERTEX
  8
254
 42
0.0
 10
-1.1622314
 20
-4.2735233
 70
0
  0
VERTEX
  8
254
 42
0.0
 10
4.2364502E-001
 20
-2.6876335
 70
0
  0
SEQEND
  0
POLYLINE
  8
254
  6
CONTINUOUS
 62
6
 66
1
 40
1.0E-003
 41
1.0E-003
 70
0
  0
VERTEX
  8
254
 42
0.0
 10
8.1364441E-001
 20
-2.2976322
 70
0
  0
VERTEX
  8
254
 42
0.0
 10
8.9274597E-001
 20
-2.2185249
 70
0
  0
SEQEND
  0
POLYLINE
  8
254
  6
CONTINUOUS
 62
6
 66
1
 40
1.0E-003
 41
1.0E-003
 70
0
  0
VERTEX
  8
254
 42
0.0
 10
1.2827454
 20
-1.8285255
 70
0
  0
VERTEX
  8
254
 42
0.0
 10
1.8517151
 20
-1.2595596
 70
0
  0
SEQEND
  0
POLYLINE
  8
254
  6
CONTINUOUS
 62
6
 66
1
 40
1.0E-003
 41
1.0E-003
 70
0
  0
VERTEX
  8
254
 42
0.0
 10
3.1836395
 20
7.2372437E-002
 70
0
  0
VERTEX
  8
254
 42
0.0
 10
3.337738
 20
2.2647285E-001
 70
0
  0
SEQEND
  0
POLYLINE
  8
254
  6
CONTINUOUS
 62
6
 66
1
 40
1.0E-003
 41
1.0E-003
 70
0
  0
VERTEX
  8
254
 42
0.0
 10
-8.7939453E-001
 20
-4.2735233
 70
0
  0
VERTEX
  8
254
 42
0.0
 10
-3.0549622E-001
 20
-3.6996193
 70
0
  0
SEQEND
  0
POLYLINE
  8
254
  6
CONTINUOUS
 62
6
 66
1
 40
1.0E-003
 41
1.0E-003
 70
0
  0
VERTEX
  8
254
 42
0.0
 10
2.0599365E-002
 20
-3.3735256
 70
0
  0
VERTEX
  8
254
 42
0.0
 10
4.2364502E-001
 20
-2.9704762
 70
0
  0
SEQEND
  0
POLYLINE
  8
254
  6
CONTINUOUS
 62
6
 66
1
 40
1.0E-003
 41
1.0E-003
 70
0
  0
VERTEX
  8
254
 42
0.0
 10
8.1364441E-001
 20
-2.5804749
 70
0
  0
VERTEX
  8
254
 42
0.0
 10
1.1755981
 20
-2.2185249
 70
0
  0
SEQEND
  0
POLYLINE
  8
254
  6
CONTINUOUS
 62
6
 66
1
 40
1.0E-003
 41
1.0E-003
 70
0
  0
VERTEX
  8
254
 42
0.0
 10
1.5655975
 20
-1.8285255
 70
0
  0
VERTEX
  8
254
 42
0.0
 10
1.9289398
 20
-1.4651833
 70
0
  0
SEQEND
  0
POLYLINE
  8
254
  6
CONTINUOUS
 62
6
 66
1
 40
1.0E-003
 41
1.0E-003
 70
0
  0
VERTEX
  8
254
 42
0.0
 10
3.1836395
 20
-2.104702E-001
 70
0
  0
VERTEX
  8
254
 42
0.0
 10
3.620575
 20
2.2647285E-001
 70
0
  0
SEQEND
  0
POLYLINE
  8
254
  6
CONTINUOUS
 62
6
 66
1
 40
1.0E-003
 41
1.0E-003
 70
0
  0
VERTEX
  8
254
 42
0.0
 10
-5.9655762E-001
 20
-4.2735233
 70
0
  0
VERTEX
  8
254
 42
0.0
 10
-4.5779419E-001
 20
-4.1347656
 70
0
  0
SEQEND
  0
POLYLINE
  8
254
  6
CONTINUOUS
 62
6
 66
1
 40
1.0E-003
 41
1.0E-003
 70
0
  0
VERTEX
  8
254
 42
0.0
 10
3.0343628E-001
 20
-3.3735256
 70
0
  0
VERTEX
  8
254
 42
0.0
 10
4.2364502E-001
 20
-3.2533207
 70
0
  0
SEQEND
  0
POLYLINE
  8
254
  6
CONTINUOUS
 62
6
 66
1
 40
1.0E-003
 41
1.0E-003
 70
0
  0
VERTEX
  8
254
 42
0.0
 10
8.1364441E-001
 20
-2.8633194
 70
0
  0
VERTEX
  8
254
 42
0.0
 10
1.4584351
 20
-2.2185249
 70
0
  0
SEQEND
  0
POLYLINE
  8
254
  6
CONTINUOUS
 62
6
 66
1
 40
1.0E-003
 41
1.0E-003
 70
0
  0
VERTEX
  8
254
 42
0.0
 10
1.8484344
 20
-1.8285255
 70
0
  0
VERTEX
  8
254
 42
0.0
 10
2.0061493
 20
-1.670805
 70
0
  0
SEQEND
  0
POLYLINE
  8
254
  6
CONTINUOUS
 62
6
 66
1
 40
1.0E-003
 41
1.0E-003
 70
0
  0
VERTEX
  8
254
 42
0.0
 10
3.1836395
 20
-4.9331474E-001
 70
0
  0
VERTEX
  8
254
 42
0.0
 10
3.9034271
 20
2.2647285E-001
 70
0
  0
SEQEND
  0
POLYLINE
  8
254
  6
CONTINUOUS
 62
6
 66
1
 40
1.0E-003
 41
1.0E-003
 70
0
  0
VERTEX
  8
254
 42
0.0
 10
8.1364441E-001
 20
-3.146162
 70
0
  0
VERTEX
  8
254
 42
0.0
 10
1.741272
 20
-2.2185249
 70
0
  0
SEQEND
  0
POLYLINE
  8
254
  6
CONTINUOUS
 62
6
 66
1
 40
1.0E-003
 41
1.0E-003
 70
0
  0
VERTEX
  8
254
 42
0.0
 10
3.1836395
 20
-7.7615738E-001
 70
0
  0
VERTEX
  8
254
 42
0.0
 10
4.186264
 20
2.2647285E-001
 70
0
  0
SEQEND
  0
POLYLINE
  8
254
  6
CONTINUOUS
 62
6
 66
1
 40
1.0E-003
 41
1.0E-003
 70
0
  0
VERTEX
  8
254
 42
0.0
 10
8.6912537E-001
 20
-3.3735256
 70
0
  0
VERTEX
  8
254
 42
0.0
 10
2.0241241
 20
-2.2185249
 70
0
  0
SEQEND
  0
POLYLINE
  8
254
  6
CONTINUOUS
 62
6
 66
1
 40
1.0E-003
 41
1.0E-003
 70
0
  0
VERTEX
  8
254
 42
0.0
 10
3.1836395
 20
-1.059
 70
0
  0
VERTEX
  8
254
 42
0.0
 10
4.3386536
 20
9.6017838E-002
 70
0
  0
SEQEND
  0
POLYLINE
  8
254
  6
CONTINUOUS
 62
6
 66
1
 40
1.0E-003
 41
1.0E-003
 70
0
  0
VERTEX
  8
254
 42
0.0
 10
1.1519623
 20
-3.3735256
 70
0
  0
VERTEX
  8
254
 42
0.0
 10
2.1542511
 20
-2.3712425
 70
0
  0
SEQEND
  0
POLYLINE
  8
254
  6
CONTINUOUS
 62
6
 66
1
 40
1.0E-003
 41
1.0E-003
 70
0
  0
VERTEX
  8
254
 42
0.0
 10
3.1836395
 20
-1.3418446
 70
0
  0
VERTEX
  8
254
 42
0.0
 10
4.3386536
 20
-1.868248E-001
 70
0
  0
SEQEND
  0
POLYLINE
  8
254
  6
CONTINUOUS
 62
6
 66
1
 40
1.0E-003
 41
1.0E-003
 70
0
  0
VERTEX
  8
254
 42
0.0
 10
4.7286377
 20
2.0316124E-001
 70
0
  0
VERTEX
  8
254
 42
0.0
 10
4.7519531
 20
2.2647285E-001
 70
0
  0
SEQEND
  0
POLYLINE
  8
254
  6
CONTINUOUS
 62
6
 66
1
 40
1.0E-003
 41
1.0E-003
 70
0
  0
VERTEX
  8
254
 42
0.0
 10
1.4302368
 20
-3.3780994
 70
0
  0
VERTEX
  8
254
 42
0.0
 10
2.2314606
 20
-2.5768642
 70
0
  0
SEQEND
  0
POLYLINE
  8
254
  6
CONTINUOUS
 62
6
 66
1
 40
1.0E-003
 41
1.0E-003
 70
0
  0
VERTEX
  8
254
 42
0.0
 10
3.1836395
 20
-1.6246872
 70
0
  0
VERTEX
  8
254
 42
0.0
 10
4.3386536
 20
-4.6966743E-001
 70
0
  0
SEQEND
  0
POLYLINE
  8
254
  6
CONTINUOUS
 62
6
 66
1
 40
1.0E-003
 41
1.0E-003
 70
0
  0
VERTEX
  8
254
 42
0.0
 10
4.7286377
 20
-7.9683304E-002
 70
0
  0
VERTEX
  8
254
 42
0.0
 10
5.0330811
 20
2.2476578E-001
 70
0
  0
SEQEND
  0
POLYLINE
  8
254
  6
CONTINUOUS
 62
6
 66
1
 40
1.0E-003
 41
1.0E-003
 70
0
  0
VERTEX
  8
254
 42
0.0
 10
1.5035706
 20
-3.5876122
 70
0
  0
VERTEX
  8
254
 42
0.0
 10
2.3086853
 20
-2.7824879
 70
0
  0
SEQEND
  0
POLYLINE
  8
254
  6
CONTINUOUS
 62
6
 66
1
 40
1.0E-003
 41
1.0E-003
 70
0
  0
VERTEX
  8
254
 42
0.0
 10
3.2626495
 20
-1.8285255
 70
0
  0
VERTEX
  8
254
 42
0.0
 10
4.3386536
 20
-7.5251198E-001
 70
0
  0
SEQEND
  0
POLYLINE
  8
254
  6
CONTINUOUS
 62
6
 66
1
 40
1.0E-003
 41
1.0E-003
 70
0
  0
VERTEX
  8
254
 42
0.0
 10
4.7286377
 20
-3.6252594E-001
 70
0
  0
VERTEX
  8
254
 42
0.0
 10
5.2719421
 20
1.8078232E-001
 70
0
  0
SEQEND
  0
POLYLINE
  8
254
  6
CONTINUOUS
 62
6
 66
1
 40
1.0E-003
 41
1.0E-003
 70
0
  0
VERTEX
  8
254
 42
0.0
 10
1.576889
 20
-3.7971249
 70
0
  0
VERTEX
  8
254
 42
0.0
 10
2.38591
 20
-2.9881096
 70
0
  0
SEQEND
  0
POLYLINE
  8
254
  6
CONTINUOUS
 62
6
 66
1
 40
1.0E-003
 41
1.0E-003
 70
0
  0
VERTEX
  8
254
 42
0.0
 10
3.5454865
 20
-1.8285255
 70
0
  0
VERTEX
  8
254
 42
0.0
 10
4.3386536
 20
-1.0353546
 70
0
  0
SEQEND
  0
POLYLINE
  8
254
  6
CONTINUOUS
 62
6
 66
1
 40
1.0E-003
 41
1.0E-003
 70
0
  0
VERTEX
  8
254
 42
0.0
 10
4.7286377
 20
-6.4536858E-001
 70
0
  0
VERTEX
  8
254
 42
0.0
 10
5.4707031
 20
9.6696854E-002
 70
0
  0
SEQEND
  0
POLYLINE
  8
254
  6
CONTINUOUS
 62
6
 66
1
 40
1.0E-003
 41
1.0E-003
 70
0
  0
VERTEX
  8
254
 42
0.0
 10
1.6502228
 20
-4.0066376
 70
0
  0
VERTEX
  8
254
 42
0.0
 10
2.4631348
 20
-3.1937332
 70
0
  0
SEQEND
  0
POLYLINE
  8
254
  6
CONTINUOUS
 62
6
 66
1
 40
1.0E-003
 41
1.0E-003
 70
0
  0
VERTEX
  8
254
 42
0.0
 10
3.1836395
 20
-2.473217
 70
0
  0
VERTEX
  8
254
 42
0.0
 10
3.438324
 20
-2.2185249
 70
0
  0
SEQEND
  0
POLYLINE
  8
254
  6
CONTINUOUS
 62
6
 66
1
 40
1.0E-003
 41
1.0E-003
 70
0
  0
VERTEX
  8
254
 42
0.0
 10
3.8283234
 20
-1.8285255
 70
0
  0
VERTEX
  8
254
 42
0.0
 10
4.3386536
 20
-1.3181992
 70
0
  0
SEQEND
  0
POLYLINE
  8
254
  6
CONTINUOUS
 62
6
 66
1
 40
1.0E-003
 41
1.0E-003
 70
0
  0
VERTEX
  8
254
 42
0.0
 10
4.7286377
 20
-9.2821312E-001
 70
0
  0
VERTEX
  8
254
 42
0.0
 10
5.6378021
 20
-1.9039154E-002
 70
0
  0
SEQEND
  0
POLYLINE
  8
254
  6
CONTINUOUS
 62
6
 66
1
 40
1.0E-003
 41
1.0E-003
 70
0
  0
VERTEX
  8
254
 42
0.0
 10
1.7235565
 20
-4.2161503
 70
0
  0
VERTEX
  8
254
 42
0.0
 10
2.5403442
 20
-3.3993549
 70
0
  0
SEQEND
  0
POLYLINE
  8
254
  6
CONTINUOUS
 62
6
 66
1
 40
1.0E-003
 41
1.0E-003
 70
0
  0
VERTEX
  8
254
 42
0.0
 10
3.1836395
 20
-2.7560596
 70
0
  0
VERTEX
  8
254
 42
0.0
 10
3.7211761
 20
-2.2185249
 70
0
  0
SEQEND
  0
POLYLINE
  8
254
  6
CONTINUOUS
 62
6
 66
1
 40
1.0E-003
 41
1.0E-003
 70
0
  0
VERTEX
  8
254
 42
0.0
 10
4.1111755
 20
-1.8285255
 70
0
  0
VERTEX
  8
254
 42
0.0
 10
4.3386536
 20
-1.6010418
 70
0
  0
SEQEND
  0
POLYLINE
  8
254
  6
CONTINUOUS
 62
6
 66
1
 40
1.0E-003
 41
1.0E-003
 70
0
  0
VERTEX
  8
254
 42
0.0
 10
4.7286377
 20
-1.2110558
 70
0
  0
VERTEX
  8
254
 42
0.0
 10
5.7763824
 20
-1.633091E-001
 70
0
  0
SEQEND
  0
POLYLINE
  8
254
  6
CONTINUOUS
 62
6
 66
1
 40
1.0E-003
 41
1.0E-003
 70
0
  0
VERTEX
  8
254
 42
0.0
 10
1.9490204
 20
-4.2735233
 70
0
  0
VERTEX
  8
254
 42
0.0
 10
2.617569
 20
-3.6049767
 70
0
  0
SEQEND
  0
POLYLINE
  8
254
  6
CONTINUOUS
 62
6
 66
1
 40
1.0E-003
 41
1.0E-003
 70
0
  0
VERTEX
  8
254
 42
0.0
 10
3.1836395
 20
-3.0389042
 70
0
  0
VERTEX
  8
254
 42
0.0
 10
4.0040131
 20
-2.2185249
 70
0
  0
SEQEND
  0
POLYLINE
  8
254
  6
CONTINUOUS
 62
6
 66
1
 40
1.0E-003
 41
1.0E-003
 70
0
  0
VERTEX
  8
254
 42
0.0
 10
4.7286377
 20
-1.4938984
 70
0
  0
VERTEX
  8
254
 42
0.0
 10
5.885849
 20
-3.3667946E-001
 70
0
  0
SEQEND
  0
POLYLINE
  8
254
  6
CONTINUOUS
 62
6
 66
1
 40
1.0E-003
 41
1.0E-003
 70
0
  0
VERTEX
  8
254
 42
0.0
 10
2.2318726
 20
-4.2735233
 70
0
  0
VERTEX
  8
254
 42
0.0
 10
2.6947937
 20
-3.8106003
 70
0
  0
SEQEND
  0
POLYLINE
  8
254
  6
CONTINUOUS
 62
6
 66
1
 40
1.0E-003
 41
1.0E-003
 70
0
  0
VERTEX
  8
254
 42
0.0
 10
3.1836395
 20
-3.3217468
 70
0
  0
VERTEX
  8
254
 42
0.0
 10
4.2868652
 20
-2.2185249
 70
0
  0
SEQEND
  0
POLYLINE
  8
254
  6
CONTINUOUS
 62
6
 66
1
 40
1.0E-003
 41
1.0E-003
 70
0
  0
VERTEX
  8
254
 42
0.0
 10
4.7286377
 20
-1.7767429
 70
0
  0
VERTEX
  8
254
 42
0.0
 10
5.9616241
 20
-5.4375839E-001
 70
0
  0
SEQEND
  0
POLYLINE
  8
254
  6
CONTINUOUS
 62
6
 66
1
 40
1.0E-003
 41
1.0E-003
 70
0
  0
VERTEX
  8
254
 42
0.0
 10
6.693634
 20
1.8826294E-001
 70
0
  0
VERTEX
  8
254
 42
0.0
 10
6.731842
 20
2.2647285E-001
 70
0
  0
SEQEND
  0
POLYLINE
  8
254
  6
CONTINUOUS
 62
6
 66
1
 40
1.0E-003
 41
1.0E-003
 70
0
  0
VERTEX
  8
254
 42
0.0
 10
2.5147095
 20
-4.2735233
 70
0
  0
VERTEX
  8
254
 42
0.0
 10
2.7720032
 20
-4.016222
 70
0
  0
SEQEND
  0
POLYLINE
  8
254
  6
CONTINUOUS
 62
6
 66
1
 40
1.0E-003
 41
1.0E-003
 70
0
  0
VERTEX
  8
254
 42
0.0
 10
3.1836395
 20
-3.6045914
 70
0
  0
VERTEX
  8
254
 42
0.0
 10
4.3386536
 20
-2.4495716
 70
0
  0
SEQEND
  0
POLYLINE
  8
254
  6
CONTINUOUS
 62
6
 66
1
 40
1.0E-003
 41
1.0E-003
 70
0
  0
VERTEX
  8
254
 42
0.0
 10
4.9597015
 20
-1.8285255
 70
0
  0
VERTEX
  8
254
 42
0.0
 10
5.9921417
 20
-7.9607391E-001
 70
0
  0
SEQEND
  0
POLYLINE
  8
254
  6
CONTINUOUS
 62
6
 66
1
 40
1.0E-003
 41
1.0E-003
 70
0
  0
VERTEX
  8
254
 42
0.0
 10
6.693634
 20
-9.4581604E-002
 70
0
  0
VERTEX
  8
254
 42
0.0
 10
7.0146942
 20
2.2647285E-001
 70
0
  0
SEQEND
  0
POLYLINE
  8
254
  6
CONTINUOUS
 62
6
 66
1
 40
1.0E-003
 41
1.0E-003
 70
0
  0
VERTEX
  8
254
 42
0.0
 10
2.7975464
 20
-4.2735233
 70
0
  0
VERTEX
  8
254
 42
0.0
 10
2.8492279
 20
-4.2218456
 70
0
  0
SEQEND
  0
POLYLINE
  8
254
  6
CONTINUOUS
 62
6
 66
1
 40
1.0E-003
 41
1.0E-003
 70
0
  0
VERTEX
  8
254
 42
0.0
 10
3.1836395
 20
-3.887434
 70
0
  0
VERTEX
  8
254
 42
0.0
 10
4.3386536
 20
-2.7324142
 70
0
  0
SEQEND
  0
POLYLINE
  8
254
  6
CONTINUOUS
 62
6
 66
1
 40
1.0E-003
 41
1.0E-003
 70
0
  0
VERTEX
  8
254
 42
0.0
 10
4.7286377
 20
-2.3424282
 70
0
  0
VERTEX
  8
254
 42
0.0
 10
4.8525391
 20
-2.2185249
 70
0
  0
SEQEND
  0
POLYLINE
  8
254
  6
CONTINUOUS
 62
6
 66
1
 40
1.0E-003
 41
1.0E-003
 70
0
  0
VERTEX
  8
254
 42
0.0
 10
5.2425385
 20
-1.8285255
 70
0
  0
VERTEX
  8
254
 42
0.0
 10
5.9243927
 20
-1.1466713
 70
0
  0
SEQEND
  0
POLYLINE
  8
254
  6
CONTINUOUS
 62
6
 66
1
 40
1.0E-003
 41
1.0E-003
 70
0
  0
VERTEX
  8
254
 42
0.0
 10
6.693634
 20
-3.7742424E-001
 70
0
  0
VERTEX
  8
254
 42
0.0
 10
7.2975311
 20
2.2647285E-001
 70
0
  0
SEQEND
  0
POLYLINE
  8
254
  6
CONTINUOUS
 62
6
 66
1
 40
1.0E-003
 41
1.0E-003
 70
0
  0
VERTEX
  8
254
 42
0.0
 10
3.1836395
 20
-4.1702766
 70
0
  0
VERTEX
  8
254
 42
0.0
 10
4.3386536
 20
-3.0152588
 70
0
  0
SEQEND
  0
POLYLINE
  8
254
  6
CONTINUOUS
 62
6
 66
1
 40
1.0E-003
 41
1.0E-003
 70
0
  0
VERTEX
  8
254
 42
0.0
 10
4.7286377
 20
-2.6252728
 70
0
  0
VERTEX
  8
254
 42
0.0
 10
5.1353912
 20
-2.2185249
 70
0
  0
SEQEND
  0
POLYLINE
  8
254
  6
CONTINUOUS
 62
6
 66
1
 40
1.0E-003
 41
1.0E-003
 70
0
  0
VERTEX
  8
254
 42
0.0
 10
5.5253754
 20
-1.8285255
 70
0
  0
VERTEX
  8
254
 42
0.0
 10
5.618103
 20
-1.7358074
 70
0
  0
SEQEND
  0
POLYLINE
  8
254
  6
CONTINUOUS
 62
6
 66
1
 40
1.0E-003
 41
1.0E-003
 70
0
  0
VERTEX
  8
254
 42
0.0
 10
6.693634
 20
-6.6026688E-001
 70
0
  0
VERTEX
  8
254
 42
0.0
 10
7.580368
 20
2.2647285E-001
 70
0
  0
SEQEND
  0
POLYLINE
  8
254
  6
CONTINUOUS
 62
6
 66
1
 40
1.0E-003
 41
1.0E-003
 70
0
  0
VERTEX
  8
254
 42
0.0
 10
3.3632355
 20
-4.2735233
 70
0
  0
VERTEX
  8
254
 42
0.0
 10
4.3386536
 20
-3.2981014
 70
0
  0
SEQEND
  0
POLYLINE
  8
254
  6
CONTINUOUS
 62
6
 66
1
 40
1.0E-003
 41
1.0E-003
 70
0
  0
VERTEX
  8
254
 42
0.0
 10
4.7286377
 20
-2.9081154
 70
0
  0
VERTEX
  8
254
 42
0.0
 10
5.4182281
 20
-2.2185249
 70
0
  0
SEQEND
  0
POLYLINE
  8
254
  6
CONTINUOUS
 62
6
 66
1
 40
1.0E-003
 41
1.0E-003
 70
0
  0
VERTEX
  8
254
 42
0.0
 10
6.693634
 20
-9.4311142E-001
 70
0
  0
VERTEX
  8
254
 42
0.0
 10
7.8486481
 20
2.1190834E-001
 70
0
  0
SEQEND
  0
POLYLINE
  8
254
  6
CONTINUOUS
 62
6
 66
1
 40
1.0E-003
 41
1.0E-003
 70
0
  0
VERTEX
  8
254
 42
0.0
 10
3.6460724
 20
-4.2735233
 70
0
  0
VERTEX
  8
254
 42
0.0
 10
4.3386536
 20
-3.5809441
 70
0
  0
SEQEND
  0
POLYLINE
  8
254
  6
CONTINUOUS
 62
6
 66
1
 40
1.0E-003
 41
1.0E-003
 70
0
  0
VERTEX
  8
254
 42
0.0
 10
4.7286377
 20
-3.1909599
 70
0
  0
VERTEX
  8
254
 42
0.0
 10
5.7010651
 20
-2.2185249
 70
0
  0
SEQEND
  0
POLYLINE
  8
254
  6
CONTINUOUS
 62
6
 66
1
 40
1.0E-003
 41
1.0E-003
 70
0
  0
VERTEX
  8
254
 42
0.0
 10
6.693634
 20
-1.2259541
 70
0
  0
VERTEX
  8
254
 42
0.0
 10
7.8486481
 20
-7.0936203E-002
 70
0
  0
SEQEND
  0
POLYLINE
  8
254
  6
CONTINUOUS
 62
6
 66
1
 40
1.0E-003
 41
1.0E-003
 70
0
  0
VERTEX
  8
254
 42
0.0
 10
3.9289246
 20
-4.2735233
 70
0
  0
VERTEX
  8
254
 42
0.0
 10
4.3386536
 20
-3.8637886
 70
0
  0
SEQEND
  0
POLYLINE
  8
254
  6
CONTINUOUS
 62
6
 66
1
 40
1.0E-003
 41
1.0E-003
 70
0
  0
VERTEX
  8
254
 42
0.0
 10
4.7286377
 20
-3.4738026
 70
0
  0
VERTEX
  8
254
 42
0.0
 10
5.9839172
 20
-2.2185249
 70
0
  0
SEQEND
  0
POLYLINE
  8
254
  6
CONTINUOUS
 62
6
 66
1
 40
1.0E-003
 41
1.0E-003
 70
0
  0
VERTEX
  8
254
 42
0.0
 10
6.693634
 20
-1.5087986
 70
0
  0
VERTEX
  8
254
 42
0.0
 10
7.8486481
 20
-3.5377884E-001
 70
0
  0
SEQEND
  0
POLYLINE
  8
254
  6
CONTINUOUS
 62
6
 66
1
 40
1.0E-003
 41
1.0E-003
 70
0
  0
VERTEX
  8
254
 42
0.0
 10
8.2386322
 20
3.6207199E-002
 70
0
  0
VERTEX
  8
254
 42
0.0
 10
8.428894
 20
2.2647285E-001
 70
0
  0
SEQEND
  0
POLYLINE
  8
254
  6
CONTINUOUS
 62
6
 66
1
 40
1.0E-003
 41
1.0E-003
 70
0
  0
VERTEX
  8
254
 42
0.0
 10
4.2117615
 20
-4.2735233
 70
0
  0
VERTEX
  8
254
 42
0.0
 10
4.3386536
 20
-4.1466312
 70
0
  0
SEQEND
  0
POLYLINE
  8
254
  6
CONTINUOUS
 62
6
 66
1
 40
1.0E-003
 41
1.0E-003
 70
0
  0
VERTEX
  8
254
 42
0.0
 10
4.7286377
 20
-3.7566452
 70
0
  0
VERTEX
  8
254
 42
0.0
 10
6.181076
 20
-2.3042011
 70
0
  0
SEQEND
  0
POLYLINE
  8
254
  6
CONTINUOUS
 62
6
 66
1
 40
1.0E-003
 41
1.0E-003
 70
0
  0
VERTEX
  8
254
 42
0.0
 10
6.693634
 20
-1.7916412
 70
0
  0
VERTEX
  8
254
 42
0.0
 10
7.8486481
 20
-6.3662148E-001
 70
0
  0
SEQEND
  0
POLYLINE
  8
254
  6
CONTINUOUS
 62
6
 66
1
 40
1.0E-003
 41
1.0E-003
 70
0
  0
VERTEX
  8
254
 42
0.0
 10
8.2386322
 20
-2.4663544E-001
 70
0
  0
VERTEX
  8
254
 42
0.0
 10
8.6889954
 20
2.0372772E-001
 70
0
  0
SEQEND
  0
POLYLINE
  8
254
  6
CONTINUOUS
 62
6
 66
1
 40
1.0E-003
 41
1.0E-003
 70
0
  0
VERTEX
  8
254
 42
0.0
 10
4.7286377
 20
-4.0394897
 70
0
  0
VERTEX
  8
254
 42
0.0
 10
6.2656097
 20
-2.5025082
 70
0
  0
SEQEND
  0
POLYLINE
  8
254
  6
CONTINUOUS
 62
6
 66
1
 40
1.0E-003
 41
1.0E-003
 70
0
  0
VERTEX
  8
254
 42
0.0
 10
6.9395905
 20
-1.8285255
 70
0
  0
VERTEX
  8
254
 42
0.0
 10
7.8486481
 20
-9.1946602E-001
 70
0
  0
SEQEND
  0
POLYLINE
  8
254
  6
CONTINUOUS
 62
6
 66
1
 40
1.0E-003
 41
1.0E-003
 70
0
  0
VERTEX
  8
254
 42
0.0
 10
8.2386322
 20
-5.2947998E-001
 70
0
  0
VERTEX
  8
254
 42
0.0
 10
8.9050598
 20
1.3694763E-001
 70
0
  0
SEQEND
  0
POLYLINE
  8
254
  6
CONTINUOUS
 62
6
 66
1
 40
1.0E-003
 41
1.0E-003
 70
0
  0
VERTEX
  8
254
 42
0.0
 10
4.7774506
 20
-4.2735233
 70
0
  0
VERTEX
  8
254
 42
0.0
 10
6.3190155
 20
-2.7319412
 70
0
  0
SEQEND
  0
POLYLINE
  8
254
  6
CONTINUOUS
 62
6
 66
1
 40
1.0E-003
 41
1.0E-003
 70
0
  0
VERTEX
  8
254
 42
0.0
 10
6.693634
 20
-2.3573284
 70
0
  0
VERTEX
  8
254
 42
0.0
 10
6.8324432
 20
-2.2185249
 70
0
  0
SEQEND
  0
POLYLINE
  8
254
  6
CONTINUOUS
 62
6
 66
1
 40
1.0E-003
 41
1.0E-003
 70
0
  0
VERTEX
  8
254
 42
0.0
 10
7.2224274
 20
-1.8285255
 70
0
  0
VERTEX
  8
254
 42
0.0
 10
7.8486481
 20
-1.2023087
 70
0
  0
SEQEND
  0
POLYLINE
  8
254
  6
CONTINUOUS
 62
6
 66
1
 40
1.0E-003
 41
1.0E-003
 70
0
  0
VERTEX
  8
254
 42
0.0
 10
8.2386322
 20
-8.1232262E-001
 70
0
  0
VERTEX
  8
254
 42
0.0
 10
9.0850067
 20
3.4049988E-002
 70
0
  0
SEQEND
  0
POLYLINE
  8
254
  6
CONTINUOUS
 62
6
 66
1
 40
1.0E-003
 41
1.0E-003
 70
0
  0
VERTEX
  8
254
 42
0.0
 10
5.0675201
 20
-4.2662849
 70
0
  0
VERTEX
  8
254
 42
0.0
 10
6.3274994
 20
-3.0063057
 70
0
  0
SEQEND
  0
POLYLINE
  8
254
  6
CONTINUOUS
 62
6
 66
1
 40
1.0E-003
 41
1.0E-003
 70
0
  0
VERTEX
  8
254
 42
0.0
 10
6.693634
 20
-2.6401711
 70
0
  0
VERTEX
  8
254
 42
0.0
 10
7.1152802
 20
-2.2185249
 70
0
  0
SEQEND
  0
POLYLINE
  8
254
  6
CONTINUOUS
 62
6
 66
1
 40
1.0E-003
 41
1.0E-003
 70
0
  0
VERTEX
  8
254
 42
0.0
 10
7.5052795
 20
-1.8285255
 70
0
  0
VERTEX
  8
254
 42
0.0
 10
7.8486481
 20
-1.4851513
 70
0
  0
SEQEND
  0
POLYLINE
  8
254
  6
CONTINUOUS
 62
6
 66
1
 40
1.0E-003
 41
1.0E-003
 70
0
  0
VERTEX
  8
254
 42
0.0
 10
8.2386322
 20
-1.0951672
 70
0
  0
VERTEX
  8
254
 42
0.0
 10
9.2350922
 20
-9.869957E-002
 70
0
  0
SEQEND
  0
POLYLINE
  8
254
  6
CONTINUOUS
 62
6
 66
1
 40
1.0E-003
 41
1.0E-003
 70
0
  0
VERTEX
  8
254
 42
0.0
 10
5.416275
 20
-4.2003727
 70
0
  0
VERTEX
  8
254
 42
0.0
 10
6.2580872
 20
-3.3585587
 70
0
  0
SEQEND
  0
POLYLINE
  8
254
  6
CONTINUOUS
 62
6
 66
1
 40
1.0E-003
 41
1.0E-003
 70
0
  0
VERTEX
  8
254
 42
0.0
 10
6.693634
 20
-2.9230137
 70
0
  0
VERTEX
  8
254
 42
0.0
 10
7.3981171
 20
-2.2185249
 70
0
  0
SEQEND
  0
POLYLINE
  8
254
  6
CONTINUOUS
 62
6
 66
1
 40
1.0E-003
 41
1.0E-003
 70
0
  0
VERTEX
  8
254
 42
0.0
 10
7.7881165
 20
-1.8285255
 70
0
  0
VERTEX
  8
254
 42
0.0
 10
7.8486481
 20
-1.7679958
 70
0
  0
SEQEND
  0
POLYLINE
  8
254
  6
CONTINUOUS
 62
6
 66
1
 40
1.0E-003
 41
1.0E-003
 70
0
  0
VERTEX
  8
254
 42
0.0
 10
8.2386322
 20
-1.3780098
 70
0
  0
VERTEX
  8
254
 42
0.0
 10
9.3569641
 20
-2.5967217E-001
 70
0
  0
SEQEND
  0
POLYLINE
  8
254
  6
CONTINUOUS
 62
6
 66
1
 40
1.0E-003
 41
1.0E-003
 70
0
  0
VERTEX
  8
254
 42
0.0
 10
6.693634
 20
-3.2058582
 70
0
  0
VERTEX
  8
254
 42
0.0
 10
7.6809692
 20
-2.2185249
 70
0
  0
SEQEND
  0
POLYLINE
  8
254
  6
CONTINUOUS
 62
6
 66
1
 40
1.0E-003
 41
1.0E-003
 70
0
  0
VERTEX
  8
254
 42
0.0
 10
8.2386322
 20
-1.6608524
 70
0
  0
VERTEX
  8
254
 42
0.0
 10
9.4486694
 20
-4.5081711E-001
 70
0
  0
SEQEND
  0
POLYLINE
  8
254
  6
CONTINUOUS
 62
6
 66
1
 40
1.0E-003
 41
1.0E-003
 70
0
  0
VERTEX
  8
254
 42
0.0
 10
6.693634
 20
-3.4887009
 70
0
  0
VERTEX
  8
254
 42
0.0
 10
7.8486481
 20
-2.3336811
 70
0
  0
SEQEND
  0
POLYLINE
  8
254
  6
CONTINUOUS
 62
6
 66
1
 40
1.0E-003
 41
1.0E-003
 70
0
  0
VERTEX
  8
254
 42
0.0
 10
8.3538055
 20
-1.8285255
 70
0
  0
VERTEX
  8
254
 42
0.0
 10
9.4981384
 20
-6.8418121E-001
 70
0
  0
SEQEND
  0
POLYLINE
  8
254
  6
CONTINUOUS
 62
6
 66
1
 40
1.0E-003
 41
1.0E-003
 70
0
  0
VERTEX
  8
254
 42
0.0
 10
6.693634
 20
-3.7715435
 70
0
  0
VERTEX
  8
254
 42
0.0
 10
7.8486481
 20
-2.6165256
 70
0
  0
SEQEND
  0
POLYLINE
  8
254
  6
CONTINUOUS
 62
6
 66
1
 40
1.0E-003
 41
1.0E-003
 70
0
  0
VERTEX
  8
254
 42
0.0
 10
8.2386322
 20
-2.2265396
 70
0
  0
VERTEX
  8
254
 42
0.0
 10
8.2466431
 20
-2.2185249
 70
0
  0
SEQEND
  0
POLYLINE
  8
254
  6
CONTINUOUS
 62
6
 66
1
 40
1.0E-003
 41
1.0E-003
 70
0
  0
VERTEX
  8
254
 42
0.0
 10
8.6366425
 20
-1.8285255
 70
0
  0
VERTEX
  8
254
 42
0.0
 10
9.4822998
 20
-9.8287392E-001
 70
0
  0
SEQEND
  0
POLYLINE
  8
254
  6
CONTINUOUS
 62
6
 66
1
 40
1.0E-003
 41
1.0E-003
 70
0
  0
VERTEX
  8
254
 42
0.0
 10
6.693634
 20
-4.054388
 70
0
  0
VERTEX
  8
254
 42
0.0
 10
7.8486481
 20
-2.8993683
 70
0
  0
SEQEND
  0
POLYLINE
  8
254
  6
CONTINUOUS
 62
6
 66
1
 40
1.0E-003
 41
1.0E-003
 70
0
  0
VERTEX
  8
254
 42
0.0
 10
8.2386322
 20
-2.5093822
 70
0
  0
VERTEX
  8
254
 42
0.0
 10
8.5294952
 20
-2.2185249
 70
0
  0
SEQEND
  0
POLYLINE
  8
254
  6
CONTINUOUS
 62
6
 66
1
 40
1.0E-003
 41
1.0E-003
 70
0
  0
VERTEX
  8
254
 42
0.0
 10
8.9194946
 20
-1.8285255
 70
0
  0
VERTEX
  8
254
 42
0.0
 10
9.0524445
 20
-1.6955605
 70
0
  0
SEQEND
  0
POLYLINE
  8
254
  6
CONTINUOUS
 62
6
 66
1
 40
1.0E-003
 41
1.0E-003
 70
0
  0
VERTEX
  8
254
 42
0.0
 10
6.7573395
 20
-4.2735233
 70
0
  0
VERTEX
  8
254
 42
0.0
 10
7.8486481
 20
-3.1822128
 70
0
  0
SEQEND
  0
POLYLINE
  8
254
  6
CONTINUOUS
 62
6
 66
1
 40
1.0E-003
 41
1.0E-003
 70
0
  0
VERTEX
  8
254
 42
0.0
 10
8.2386322
 20
-2.7922268
 70
0
  0
VERTEX
  8
254
 42
0.0
 10
8.8123322
 20
-2.2185249
 70
0
  0
SEQEND
  0
POLYLINE
  8
254
  6
CONTINUOUS
 62
6
 66
1
 40
1.0E-003
 41
1.0E-003
 70
0
  0
VERTEX
  8
254
 42
0.0
 10
9.2023315
 20
-1.8285255
 70
0
  0
VERTEX
  8
254
 42
0.0
 10
9.2325897
 20
-1.7982578
 70
0
  0
SEQEND
  0
POLYLINE
  8
254
  6
CONTINUOUS
 62
6
 66
1
 40
1.0E-003
 41
1.0E-003
 70
0
  0
VERTEX
  8
254
 42
0.0
 10
7.0401917
 20
-4.2735233
 70
0
  0
VERTEX
  8
254
 42
0.0
 10
7.8486481
 20
-3.4650555
 70
0
  0
SEQEND
  0
POLYLINE
  8
254
  6
CONTINUOUS
 62
6
 66
1
 40
1.0E-003
 41
1.0E-003
 70
0
  0
VERTEX
  8
254
 42
0.0
 10
8.2386322
 20
-3.0750694
 70
0
  0
VERTEX
  8
254
 42
0.0
 10
9.0951691
 20
-2.2185249
 70
0
  0
SEQEND
  0
POLYLINE
  8
254
  6
CONTINUOUS
 62
6
 66
1
 40
1.0E-003
 41
1.0E-003
 70
0
  0
VERTEX
  8
254
 42
0.0
 10
7.3230286
 20
-4.2735233
 70
0
  0
VERTEX
  8
254
 42
0.0
 10
7.8486481
 20
-3.7478981
 70
0
  0
SEQEND
  0
POLYLINE
  8
254
  6
CONTINUOUS
 62
6
 66
1
 40
1.0E-003
 41
1.0E-003
 70
0
  0
VERTEX
  8
254
 42
0.0
 10
8.2386322
 20
-3.3579121
 70
0
  0
VERTEX
  8
254
 42
0.0
 10
9.3780212
 20
-2.2185249
 70
0
  0
SEQEND
  0
POLYLINE
  8
254
  6
CONTINUOUS
 62
6
 66
1
 40
1.0E-003
 41
1.0E-003
 70
0
  0
VERTEX
  8
254
 42
0.0
 10
7.6058655
 20
-4.2735233
 70
0
  0
VERTEX
  8
254
 42
0.0
 10
7.8486481
 20
-4.0307426
 70
0
  0
SEQEND
  0
POLYLINE
  8
254
  6
CONTINUOUS
 62
6
 66
1
 40
1.0E-003
 41
1.0E-003
 70
0
  0
VERTEX
  8
254
 42
0.0
 10
8.2386322
 20
-3.6407566
 70
0
  0
VERTEX
  8
254
 42
0.0
 10
9.6507568
 20
-2.228632
 70
0
  0
SEQEND
  0
POLYLINE
  8
254
  6
CONTINUOUS
 62
6
 66
1
 40
1.0E-003
 41
1.0E-003
 70
0
  0
VERTEX
  8
254
 42
0.0
 10
8.2386322
 20
-3.9235992
 70
0
  0
VERTEX
  8
254
 42
0.0
 10
9.7415924
 20
-2.4206371
 70
0
  0
SEQEND
  0
POLYLINE
  8
254
  6
CONTINUOUS
 62
6
 66
1
 40
1.0E-003
 41
1.0E-003
 70
0
  0
VERTEX
  8
254
 42
0.0
 10
8.2386322
 20
-4.2064419
 70
0
  0
VERTEX
  8
254
 42
0.0
 10
9.8081055
 20
-2.6369629
 70
0
  0
SEQEND
  0
POLYLINE
  8
254
  6
CONTINUOUS
 62
6
 66
1
 40
1.0E-003
 41
1.0E-003
 70
0
  0
VERTEX
  8
254
 42
0.0
 10
8.4543915
 20
-4.2735233
 70
0
  0
VERTEX
  8
254
 42
0.0
 10
9.8392181
 20
-2.8886967
 70
0
  0
SEQEND
  0
POLYLINE
  8
254
  6
CONTINUOUS
 62
6
 66
1
 40
1.0E-003
 41
1.0E-003
 70
0
  0
VERTEX
  8
254
 42
0.0
 10
8.7687836
 20
-4.2419796
 70
0
  0
VERTEX
  8
254
 42
0.0
 10
9.8147125
 20
-3.196043
 70
0
  0
SEQEND
  0
POLYLINE
  8
254
  6
CONTINUOUS
 62
6
 66
1
 40
1.0E-003
 41
1.0E-003
 70
0
  0
VERTEX
  8
254
 42
0.0
 10
9.275238
 20
-4.0183601
 70
0
  0
VERTEX
  8
254
 42
0.0
 10
9.5876312
 20
-3.7059689
 70
0
  0
SEQEND
  0
ENDBLK
  0
BLOCK
  2
RAHMENA4
 10
0.0
 20
0.0
 70
0
  0
POLYLINE
  8
1
  6
CONTINUOUS
 62
6
 66
1
 40
7.0E-001
 41
7.0E-001
 70
0
  0
VERTEX
  8
1
 42
0.0
 10
1.9000008E+001
 20
2.9150003E+002
 70
0
  0
VERTEX
  8
1
 42
0.0
 10
1.9000008E+001
 20
5.5
 70
0
  0
SEQEND
  0
POLYLINE
  8
1
  6
CONTINUOUS
 62
6
 66
1
 40
7.0E-001
 41
7.0E-001
 70
0
  0
VERTEX
  8
1
 42
0.0
 10
2.05E+002
 20
5.5
 70
0
  0
VERTEX
  8
1
 42
0.0
 10
1.9000008E+001
 20
5.5
 70
0
  0
SEQEND
  0
POLYLINE
  8
1
  6
CONTINUOUS
 62
6
 66
1
 40
7.0E-001
 41
7.0E-001
 70
0
  0
VERTEX
  8
1
 42
0.0
 10
5.0
 20
5.5
 70
0
  0
VERTEX
  8
1
 42
0.0
 10
5.0
 20
1.045E+002
 70
0
  0
SEQEND
  0
POLYLINE
  8
1
  6
CONTINUOUS
 62
6
 66
1
 40
7.0E-001
 41
7.0E-001
 70
0
  0
VERTEX
  8
1
 42
0.0
 10
5.0
 20
1.045E+002
 70
0
  0
VERTEX
  8
1
 42
0.0
 10
1.9000008E+001
 20
1.045E+002
 70
0
  0
SEQEND
  0
POLYLINE
  8
1
  6
CONTINUOUS
 62
6
 66
1
 40
1.0E-003
 41
1.0E-003
 70
0
  0
VERTEX
  8
1
 42
0.0
 10
1.9000008E+001
 20
1.335E+002
 70
0
  0
VERTEX
  8
1
 42
0.0
 10
1.4500008E+001
 20
1.335E+002
 70
0
  0
SEQEND
  0
POLYLINE
  8
1
  6
CONTINUOUS
 62
6
 66
1
 40
1.0E-003
 41
1.0E-003
 70
0
  0
VERTEX
  8
1
 42
0.0
 10
1.9000008E+001
 20
1.435E+002
 70
0
  0
VERTEX
  8
1
 42
0.0
 10
1.4500008E+001
 20
1.435E+002
 70
0
  0
SEQEND
  0
POLYLINE
  8
1
  6
CONTINUOUS
 62
6
 66
1
 40
1.0E-003
 41
1.0E-003
 70
0
  0
VERTEX
  8
1
 42
0.0
 10
1.9000008E+001
 20
1.5350002E+002
 70
0
  0
VERTEX
  8
1
 42
0.0
 10
1.4500008E+001
 20
1.5350002E+002
 70
0
  0
SEQEND
  0
POLYLINE
  8
1
  6
CONTINUOUS
 62
6
 66
1
 40
1.0E-003
 41
1.0E-003
 70
0
  0
VERTEX
  8
1
 42
0.0
 10
1.9000008E+001
 20
1.6350002E+002
 70
0
  0
VERTEX
  8
1
 42
0.0
 10
1.4500008E+001
 20
1.6350002E+002
 70
0
  0
SEQEND
  0
POLYLINE
  8
1
  6
CONTINUOUS
 62
6
 66
1
 40
1.0E-003
 41
1.0E-003
 70
0
  0
VERTEX
  8
1
 42
0.0
 10
1.9000008E+001
 20
1.7350002E+002
 70
0
  0
VERTEX
  8
1
 42
0.0
 10
1.4500008E+001
 20
1.7350002E+002
 70
0
  0
SEQEND
  0
POLYLINE
  8
1
  6
CONTINUOUS
 62
6
 66
1
 40
1.0E-003
 41
1.0E-003
 70
0
  0
VERTEX
  8
1
 42
0.0
 10
1.9000008E+001
 20
1.285E+002
 70
0
  0
VERTEX
  8
1
 42
0.0
 10
1.7000008E+001
 20
1.285E+002
 70
0
  0
SEQEND
  0
POLYLINE
  8
1
  6
CONTINUOUS
 62
6
 66
1
 40
1.0E-003
 41
1.0E-003
 70
0
  0
VERTEX
  8
1
 42
0.0
 10
1.9000008E+001
 20
1.385E+002
 70
0
  0
VERTEX
  8
1
 42
0.0
 10
1.7000008E+001
 20
1.385E+002
 70
0
  0
SEQEND
  0
POLYLINE
  8
1
  6
CONTINUOUS
 62
6
 66
1
 40
1.0E-003
 41
1.0E-003
 70
0
  0
VERTEX
  8
1
 42
0.0
 10
1.9000008E+001
 20
1.4850002E+002
 70
0
  0
VERTEX
  8
1
 42
0.0
 10
1.2345772E+001
 20
1.4850002E+002
 70
0
  0
SEQEND
  0
POLYLINE
  8
1
  6
CONTINUOUS
 62
6
 66
1
 40
1.0E-003
 41
1.0E-003
 70
0
  0
VERTEX
  8
1
 42
0.0
 10
1.9000008E+001
 20
1.5850002E+002
 70
0
  0
VERTEX
  8
1
 42
0.0
 10
1.7000008E+001
 20
1.5850002E+002
 70
0
  0
SEQEND
  0
POLYLINE
  8
1
  6
CONTINUOUS
 62
6
 66
1
 40
1.0E-003
 41
1.0E-003
 70
0
  0
VERTEX
  8
1
 42
0.0
 10
1.9000008E+001
 20
1.6850002E+002
 70
0
  0
VERTEX
  8
1
 42
0.0
 10
1.7000008E+001
 20
1.6850002E+002
 70
0
  0
SEQEND
  0
POLYLINE
  8
1
  6
CONTINUOUS
 62
6
 66
1
 40
1.0E-003
 41
1.0E-003
 70
0
  0
VERTEX
  8
1
 42
0.0
 10
1.7568611E+001
 20
1.235E+002
 70
0
  0
VERTEX
  8
1
 42
0.0
 10
1.9000008E+001
 20
1.235E+002
 70
0
  0
SEQEND
  0
POLYLINE
  8
1
  6
CONTINUOUS
 62
6
 66
1
 40
1.0E-003
 41
1.0E-003
 70
0
  0
VERTEX
  8
1
 42
0.0
 10
1.9000008E+001
 20
1.235E+002
 70
0
  0
VERTEX
  8
1
 42
0.0
 10
1.5000008E+001
 20
1.235E+002
 70
0
  0
SEQEND
  0
POLYLINE
  8
1
  6
CONTINUOUS
 62
6
 66
1
 40
1.0E-003
 41
1.0E-003
 70
0
  0
VERTEX
  8
1
 42
0.0
 10
1.9000008E+001
 20
1.235E+002
 70
0
  0
VERTEX
  8
1
 42
0.0
 10
1.4500008E+001
 20
1.235E+002
 70
0
  0
SEQEND
  0
POLYLINE
  8
1
  6
CONTINUOUS
 62
3
 66
1
 40
1.0E-003
 41
1.0E-003
 70
0
  0
VERTEX
  8
1
 42
0.0
 10
1.6487923E+001
 20
2.0867195E+002
 70
0
  0
VERTEX
  8
1
 42
0.0
 10
1.3487923E+001
 20
2.0867195E+002
 70
0
  0
SEQEND
  0
POLYLINE
  8
1
  6
CONTINUOUS
 62
3
 66
1
 40
1.0E-003
 41
1.0E-003
 70
0
  0
VERTEX
  8
1
 42
0.0
 10
1.3487923E+001
 20
2.2806367E+002
 70
0
  0
VERTEX
  8
1
 42
0.0
 10
1.6487923E+001
 20
2.2806367E+002
 70
0
  0
SEQEND
  0
POLYLINE
  8
1
  6
CONTINUOUS
 62
3
 66
1
 40
1.0E-003
 41
1.0E-003
 70
0
  0
VERTEX
  8
1
 42
0.0
 10
1.3487923E+001
 20
2.3106367E+002
 70
0
  0
VERTEX
  8
1
 42
0.0
 10
1.6487923E+001
 20
2.3106367E+002
 70
0
  0
SEQEND
  0
POLYLINE
  8
1
  6
CONTINUOUS
 62
3
 66
1
 40
1.0E-003
 41
1.0E-003
 70
0
  0
VERTEX
  8
1
 42
0.0
 10
1.6487923E+001
 20
2.1167192E+002
 70
0
  0
VERTEX
  8
1
 42
0.0
 10
1.3487923E+001
 20
2.1167192E+002
 70
0
  0
SEQEND
  0
POLYLINE
  8
1
  6
CONTINUOUS
 62
3
 66
1
 40
1.0E-003
 41
1.0E-003
 70
0
  0
VERTEX
  8
1
 42
0.0
 10
1.3487923E+001
 20
2.2806367E+002
 70
0
  0
VERTEX
  8
1
 42
0.0
 10
1.3487923E+001
 20
2.3106367E+002
 70
0
  0
SEQEND
  0
POLYLINE
  8
1
  6
CONTINUOUS
 62
3
 66
1
 40
1.0E-003
 41
1.0E-003
 70
0
  0
VERTEX
  8
1
 42
0.0
 10
1.3487923E+001
 20
2.0867195E+002
 70
0
  0
VERTEX
  8
1
 42
0.0
 10
1.3487923E+001
 20
2.1167192E+002
 70
0
  0
SEQEND
  0
POLYLINE
  8
1
  6
CONTINUOUS
 62
3
 66
1
 40
1.0E-003
 41
1.0E-003
 70
0
  0
VERTEX
  8
1
 42
0.0
 10
1.6487923E+001
 20
2.2806367E+002
 70
0
  0
VERTEX
  8
1
 42
0.0
 10
1.6487923E+001
 20
2.3106367E+002
 70
0
  0
SEQEND
  0
POLYLINE
  8
1
  6
CONTINUOUS
 62
4
 66
1
 40
1.0E-003
 41
1.0E-003
 70
0
  0
VERTEX
  8
1
 42
0.0
 10
2.1E+002
 20
0.0
 70
0
  0
VERTEX
  8
1
 42
0.0
 10
2.1E+002
 20
2.9700003E+002
 70
0
  0
SEQEND
  0
POLYLINE
  8
1
  6
CONTINUOUS
 62
6
 66
1
 40
7.0E-001
 41
7.0E-001
 70
0
  0
VERTEX
  8
1
 42
0.0
 10
2.05E+002
 20
2.9150003E+002
 70
0
  0
VERTEX
  8
1
 42
0.0
 10
2.05E+002
 20
5.5
 70
0
  0
SEQEND
  0
POLYLINE
  8
1
  6
CONTINUOUS
 62
6
 66
1
 40
7.0E-001
 41
7.0E-001
 70
0
  0
VERTEX
  8
1
 42
0.0
 10
1.9000008E+001
 20
2.9150003E+002
 70
0
  0
VERTEX
  8
1
 42
0.0
 10
2.05E+002
 20
2.9150003E+002
 70
0
  0
SEQEND
  0
LINE
  8
1
  6
CONTINUOUS
 62
6
 10
3.0000008E+001
 20
2.6550003E+002
 11
2.05E+002
 21
2.6550003E+002
  0
POLYLINE
  8
1
  6
CONTINUOUS
 62
6
 66
1
 40
7.0E-001
 41
7.0E-001
 70
0
  0
VERTEX
  8
1
 42
0.0
 10
2.05E+002
 20
2.7800003E+002
 70
0
  0
VERTEX
  8
1
 42
0.0
 10
3.0000008E+001
 20
2.7800003E+002
 70
0
  0
SEQEND
  0
POLYLINE
  8
1
  6
CONTINUOUS
 62
6
 66
1
 40
7.0E-001
 41
7.0E-001
 70
0
  0
VERTEX
  8
1
 42
0.0
 10
3.0000008E+001
 20
2.9150003E+002
 70
0
  0
VERTEX
  8
1
 42
0.0
 10
3.0000008E+001
 20
2.6550003E+002
 70
0
  0
SEQEND
  0
POLYLINE
  8
1
  6
CONTINUOUS
 62
6
 66
1
 40
5.0E-001
 41
5.0E-001
 70
0
  0
VERTEX
  8
1
 42
0.0
 10
3.7000008E+001
 20
2.9150003E+002
 70
0
  0
VERTEX
  8
1
 42
0.0
 10
3.7000008E+001
 20
2.6550003E+002
 70
0
  0
SEQEND
  0
LINE
  8
1
  6
CONTINUOUS
 62
6
 10
4.2000008E+001
 20
2.9150003E+002
 11
4.2000008E+001
 21
2.6550003E+002
  0
POLYLINE
  8
1
  6
CONTINUOUS
 62
6
 66
1
 40
7.0E-001
 41
7.0E-001
 70
0
  0
VERTEX
  8
1
 42
0.0
 10
5.4000008E+001
 20
2.9150003E+002
 70
0
  0
VERTEX
  8
1
 42
0.0
 10
5.4000008E+001
 20
2.6550003E+002
 70
0
  0
SEQEND
  0
POLYLINE
  8
1
  6
CONTINUOUS
 62
6
 66
1
 40
5.0E-001
 41
5.0E-001
 70
0
  0
VERTEX
  8
1
 42
0.0
 10
1.2000001E+002
 20
2.9150003E+002
 70
0
  0
VERTEX
  8
1
 42
0.0
 10
1.2000001E+002
 20
2.6550003E+002
 70
0
  0
SEQEND
  0
POLYLINE
  8
1
  6
CONTINUOUS
 62
6
 66
1
 40
5.0E-001
 41
5.0E-001
 70
0
  0
VERTEX
  8
1
 42
0.0
 10
1.61E+002
 20
2.9150003E+002
 70
0
  0
VERTEX
  8
1
 42
0.0
 10
1.61E+002
 20
2.6550003E+002
 70
0
  0
SEQEND
  0
POLYLINE
  8
1
  6
CONTINUOUS
 62
6
 66
1
 40
5.0E-001
 41
5.0E-001
 70
0
  0
VERTEX
  8
1
 42
0.0
 10
1.66E+002
 20
2.9150003E+002
 70
0
  0
VERTEX
  8
1
 42
0.0
 10
1.66E+002
 20
2.6550003E+002
 70
0
  0
SEQEND
  0
POLYLINE
  8
1
  6
CONTINUOUS
 62
6
 66
1
 40
5.0E-001
 41
5.0E-001
 70
0
  0
VERTEX
  8
1
 42
0.0
 10
1.76E+002
 20
2.9150003E+002
 70
0
  0
VERTEX
  8
1
 42
0.0
 10
1.76E+002
 20
2.6550003E+002
 70
0
  0
SEQEND
  0
POLYLINE
  8
1
  6
CONTINUOUS
 62
6
 66
1
 40
5.0E-001
 41
5.0E-001
 70
0
  0
VERTEX
  8
1
 42
0.0
 10
1.92E+002
 20
2.9150003E+002
 70
0
  0
VERTEX
  8
1
 42
0.0
 10
1.92E+002
 20
2.6550003E+002
 70
0
  0
SEQEND
  0
LINE
  8
1
  6
CONTINUOUS
 62
6
 10
3.0000008E+001
 20
2.7175003E+002
 11
2.05E+002
 21
2.7175003E+002
  0
POLYLINE
  8
1
  6
CONTINUOUS
 62
6
 66
1
 40
5.0E-001
 41
5.0E-001
 70
0
  0
VERTEX
  8
1
 42
0.0
 10
1.66E+002
 20
2.8475003E+002
 70
0
  0
VERTEX
  8
1
 42
0.0
 10
1.92E+002
 20
2.8475003E+002
 70
0
  0
SEQEND
  0
POLYLINE
  8
1
  6
CONTINUOUS
 62
4
 66
1
 40
1.0E-003
 41
1.0E-003
 70
0
  0
VERTEX
  8
1
 42
0.0
 10
0.0
 20
2.9700003E+002
 70
0
  0
VERTEX
  8
1
 42
0.0
 10
2.1E+002
 20
2.9700003E+002
 70
0
  0
SEQEND
  0
POLYLINE
  8
1
  6
CONTINUOUS
 62
6
 66
1
 40
1.0E-003
 41
1.0E-003
 70
0
  0
VERTEX
  8
1
 42
0.0
 10
2.05E+002
 20
2.5925003E+002
 70
0
  0
VERTEX
  8
1
 42
0.0
 10
2.0E+002
 20
2.5925003E+002
 70
0
  0
SEQEND
  0
POLYLINE
  8
1
  6
CONTINUOUS
 62
6
 66
1
 40
1.0E-003
 41
1.0E-003
 70
0
  0
VERTEX
  8
1
 42
0.0
 10
2.05E+002
 20
2.53E+002
 70
0
  0
VERTEX
  8
1
 42
0.0
 10
2.0E+002
 20
2.53E+002
 70
0
  0
SEQEND
  0
POLYLINE
  8
1
  6
CONTINUOUS
 62
6
 66
1
 40
1.0E-003
 41
1.0E-003
 70
0
  0
VERTEX
  8
1
 42
0.0
 10
2.05E+002
 20
2.4674998E+002
 70
0
  0
VERTEX
  8
1
 42
0.0
 10
2.0E+002
 20
2.4674998E+002
 70
0
  0
SEQEND
  0
POLYLINE
  8
1
  6
CONTINUOUS
 62
6
 66
1
 40
1.0E-003
 41
1.0E-003
 70
0
  0
VERTEX
  8
1
 42
0.0
 10
2.05E+002
 20
2.4049998E+002
 70
0
  0
VERTEX
  8
1
 42
0.0
 10
2.0E+002
 20
2.4049998E+002
 70
0
  0
SEQEND
  0
POLYLINE
  8
1
  6
CONTINUOUS
 62
6
 66
1
 40
1.0E-003
 41
1.0E-003
 70
0
  0
VERTEX
  8
1
 42
0.0
 10
2.05E+002
 20
2.3424998E+002
 70
0
  0
VERTEX
  8
1
 42
0.0
 10
2.0E+002
 20
2.3424998E+002
 70
0
  0
SEQEND
  0
POLYLINE
  8
1
  6
CONTINUOUS
 62
6
 66
1
 40
1.0E-003
 41
1.0E-003
 70
0
  0
VERTEX
  8
1
 42
0.0
 10
2.05E+002
 20
2.2800002E+002
 70
0
  0
VERTEX
  8
1
 42
0.0
 10
2.0E+002
 20
2.2800002E+002
 70
0
  0
SEQEND
  0
POLYLINE
  8
1
  6
CONTINUOUS
 62
6
 66
1
 40
1.0E-003
 41
1.0E-003
 70
0
  0
VERTEX
  8
1
 42
0.0
 10
2.05E+002
 20
2.2175002E+002
 70
0
  0
VERTEX
  8
1
 42
0.0
 10
2.0E+002
 20
2.2175002E+002
 70
0
  0
SEQEND
  0
POLYLINE
  8
1
  6
CONTINUOUS
 62
6
 66
1
 40
1.0E-003
 41
1.0E-003
 70
0
  0
VERTEX
  8
1
 42
0.0
 10
2.05E+002
 20
2.1550002E+002
 70
0
  0
VERTEX
  8
1
 42
0.0
 10
2.0E+002
 20
2.1550002E+002
 70
0
  0
SEQEND
  0
POLYLINE
  8
1
  6
CONTINUOUS
 62
6
 66
1
 40
1.0E-003
 41
1.0E-003
 70
0
  0
VERTEX
  8
1
 42
0.0
 10
2.05E+002
 20
2.9150003E+002
 70
0
  0
VERTEX
  8
1
 42
0.0
 10
2.075E+002
 20
2.9150003E+002
 70
0
  0
SEQEND
  0
POLYLINE
  8
1
  6
CONTINUOUS
 62
6
 66
1
 40
1.0E-003
 41
1.0E-003
 70
0
  0
VERTEX
  8
1
 42
0.0
 10
2.05E+002
 20
2.3175002E+002
 70
0
  0
VERTEX
  8
1
 42
0.0
 10
2.075E+002
 20
2.3175002E+002
 70
0
  0
SEQEND
  0
POLYLINE
  8
1
  6
CONTINUOUS
 62
6
 66
1
 40
1.0E-003
 41
1.0E-003
 70
0
  0
VERTEX
  8
1
 42
0.0
 10
2.05E+002
 20
1.7200002E+002
 70
0
  0
VERTEX
  8
1
 42
0.0
 10
2.075E+002
 20
1.7200002E+002
 70
0
  0
SEQEND
  0
POLYLINE
  8
1
  6
CONTINUOUS
 62
6
 66
1
 40
1.0E-003
 41
1.0E-003
 70
0
  0
VERTEX
  8
1
 42
0.0
 10
2.05E+002
 20
1.1225E+002
 70
0
  0
VERTEX
  8
1
 42
0.0
 10
2.075E+002
 20
1.1225E+002
 70
0
  0
SEQEND
  0
POLYLINE
  8
1
  6
CONTINUOUS
 62
6
 66
1
 40
1.0E-003
 41
1.0E-003
 70
0
  0
VERTEX
  8
1
 42
0.0
 10
2.05E+002
 20
2.9150003E+002
 70
0
  0
VERTEX
  8
1
 42
0.0
 10
2.05E+002
 20
2.9400003E+002
 70
0
  0
SEQEND
  0
POLYLINE
  8
1
  6
CONTINUOUS
 62
6
 66
1
 40
1.0E-003
 41
1.0E-003
 70
0
  0
VERTEX
  8
1
 42
0.0
 10
1.585E+002
 20
2.9150003E+002
 70
0
  0
VERTEX
  8
1
 42
0.0
 10
1.585E+002
 20
2.9400003E+002
 70
0
  0
SEQEND
  0
POLYLINE
  8
1
  6
CONTINUOUS
 62
6
 66
1
 40
1.0E-003
 41
1.0E-003
 70
0
  0
VERTEX
  8
1
 42
0.0
 10
1.1200001E+002
 20
2.9150003E+002
 70
0
  0
VERTEX
  8
1
 42
0.0
 10
1.1200001E+002
 20
2.9400003E+002
 70
0
  0
SEQEND
  0
POLYLINE
  8
1
  6
CONTINUOUS
 62
6
 66
1
 40
1.0E-003
 41
1.0E-003
 70
0
  0
VERTEX
  8
1
 42
0.0
 10
1.9000008E+001
 20
2.9150003E+002
 70
0
  0
VERTEX
  8
1
 42
0.0
 10
1.9000008E+001
 20
2.9400003E+002
 70
0
  0
SEQEND
  0
POLYLINE
  8
1
  6
CONTINUOUS
 62
6
 66
1
 40
1.0E-003
 41
1.0E-003
 70
0
  0
VERTEX
  8
1
 42
0.0
 10
6.5500008E+001
 20
2.9150003E+002
 70
0
  0
VERTEX
  8
1
 42
0.0
 10
6.5500008E+001
 20
2.9400003E+002
 70
0
  0
SEQEND
  0
POLYLINE
  8
1
  6
CONTINUOUS
 62
6
 66
1
 40
7.0E-001
 41
7.0E-001
 70
0
  0
VERTEX
  8
1
 42
0.0
 10
1.0650001E+002
 20
5.5
 70
0
  0
VERTEX
  8
1
 42
0.0
 10
1.0650001E+002
 20
1.5
 70
0
  0
SEQEND
  0
POLYLINE
  8
1
  6
CONTINUOUS
 62
6
 66
1
 40
7.0E-001
 41
7.0E-001
 70
0
  0
VERTEX
  8
1
 42
0.0
 10
1.0350001E+002
 20
5.5
 70
0
  0
VERTEX
  8
1
 42
0.0
 10
1.0350001E+002
 20
1.5
 70
0
  0
SEQEND
  0
POLYLINE
  8
1
  6
CONTINUOUS
 62
6
 66
1
 40
7.0E-001
 41
7.0E-001
 70
0
  0
VERTEX
  8
1
 42
0.0
 10
1.0650001E+002
 20
2.9150003E+002
 70
0
  0
VERTEX
  8
1
 42
0.0
 10
1.0650001E+002
 20
2.9550003E+002
 70
0
  0
SEQEND
  0
POLYLINE
  8
1
  6
CONTINUOUS
 62
6
 66
1
 40
7.0E-001
 41
7.0E-001
 70
0
  0
VERTEX
  8
1
 42
0.0
 10
1.0350001E+002
 20
2.9150003E+002
 70
0
  0
VERTEX
  8
1
 42
0.0
 10
1.0350001E+002
 20
2.9550003E+002
 70
0
  0
SEQEND
  0
POLYLINE
  8
1
  6
CONTINUOUS
 62
6
 66
1
 40
1.0E-003
 41
1.0E-003
 70
0
  0
VERTEX
  8
1
 42
0.0
 10
2.05E+002
 20
5.25E+001
 70
0
  0
VERTEX
  8
1
 42
0.0
 10
2.075E+002
 20
5.25E+001
 70
0
  0
SEQEND
  0
POLYLINE
  8
1
  6
CONTINUOUS
 62
6
 66
1
 40
7.0E-001
 41
7.0E-001
 70
0
  0
VERTEX
  8
1
 42
0.0
 10
1.9000008E+001
 20
5.5
 70
0
  0
VERTEX
  8
1
 42
0.0
 10
5.0
 20
5.5
 70
0
  0
SEQEND
  0
POLYLINE
  8
1
  6
CONTINUOUS
 62
4
 66
1
 40
1.0E-003
 41
1.0E-003
 70
0
  0
VERTEX
  8
1
 42
0.0
 10
0.0
 20
0.0
 70
0
  0
VERTEX
  8
1
 42
0.0
 10
2.1E+002
 20
0.0
 70
0
  0
SEQEND
  0
POLYLINE
  8
1
  6
CONTINUOUS
 62
3
 66
1
 40
1.0E-003
 41
1.0E-003
 70
0
  0
VERTEX
  8
1
 42
0.0
 10
1.6487923E+001
 20
2.1167192E+002
 70
0
  0
VERTEX
  8
1
 42
0.0
 10
1.6487923E+001
 20
2.0867195E+002
 70
0
  0
SEQEND
  0
POLYLINE
  8
1
  6
CONTINUOUS
 62
3
 66
1
 40
1.0E-003
 41
1.0E-003
 70
0
  0
VERTEX
  8
1
 42
0.0
 10
1.6487923E+001
 20
2.1167192E+002
 70
0
  0
VERTEX
  8
1
 42
0.0
 10
1.6487923E+001
 20
2.0867195E+002
 70
0
  0
SEQEND
  0
TEXT
  8
1
  6
CONTINUOUS
 62
3
 10
2.065E+002
 20
2.6162503E+002
 40
2.0
  1
A
  0
TEXT
  8
1
  6
CONTINUOUS
 62
3
 10
2.065E+002
 20
2.0187502E+002
 40
2.0
  1
B
  0
TEXT
  8
1
  6
CONTINUOUS
 62
3
 10
2.065E+002
 20
1.42125E+002
 40
2.0
  1
C
  0
TEXT
  8
1
  6
CONTINUOUS
 62
3
 10
2.065E+002
 20
8.2375E+001
 40
2.0
  1
D
  0
TEXT
  8
1
  6
CONTINUOUS
 62
3
 10
1.6509621E+001
 20
2.1872429E+002
 40
2.0
  1
"grob"
 41
6.5E-001
 50
9.0000003E+001
  0
TEXT
  8
1
  6
CONTINUOUS
 62
3
 10
1.6487923E+001
 20
1.9736339E+002
 40
2.0
  1
"mittel"
 41
6.5E-001
 50
9.0000003E+001
  0
TEXT
  8
1
  6
CONTINUOUS
 62
3
 10
5.8622437
 20
1.9528923E+002
 40
2.0
  1
Allgemeintoleranzen nach
 41
8.0E-001
 50
9.0000003E+001
  0
TEXT
  8
1
  6
CONTINUOUS
 62
3
 10
5.8622437
 20
1.2295421E+002
 40
2.0
  1
Rauheits-Symbole nach GZN 020007
 41
8.0E-001
 50
9.0000003E+001
  0
TEXT
  8
1
  6
CONTINUOUS
 62
3
 10
9.8622437
 20
1.2295421E+002
 40
2.0
  1
    entsprechend DIN ISO 1302
 41
8.0E-001
 50
9.0000003E+001
  0
TEXT
  8
1
  6
CONTINUOUS
 62
6
 10
1.306617E+001
 20
1.2349451E+002
 40
2.0
  1
0
 41
5.25E-001
 50
9.0000003E+001
  0
TEXT
  8
1
  6
CONTINUOUS
 62
6
 10
1.306617E+001
 20
1.7212105E+002
 40
2.0
  1
50
 41
6.75E-001
 50
9.0000003E+001
  0
POLYLINE
  8
1
  6
CONTINUOUS
 62
4
 66
1
 40
1.0E-003
 41
1.0E-003
 70
0
  0
VERTEX
  8
1
 42
0.0
 10
0.0
 20
2.9700003E+002
 70
0
  0
VERTEX
  8
1
 42
0.0
 10
0.0
 20
0.0
 70
0
  0
SEQEND
  0
POLYLINE
  8
1
  6
CONTINUOUS
 62
4
 66
1
 40
1.0E-003
 41
1.0E-003
 70
0
  0
VERTEX
  8
1
 42
0.0
 10
0.0
 20
0.0
 70
0
  0
VERTEX
  8
1
 42
0.0
 10
0.0
 20
2.9700003E+002
 70
0
  0
SEQEND
  0
TEXT
  8
1
  6
CONTINUOUS
 62
3
 10
1.7001917E+002
 20
2.8040002E+002
 40
2.0
  1
I
 41
3.17E-001
  0
TEXT
  8
1
  6
CONTINUOUS
 62
3
 10
4.2250008E+001
 20
2.9300003E+002
 40
2.0
  1
1
  0
TEXT
  8
1
  6
CONTINUOUS
 62
3
 10
8.8750008E+001
 20
2.9300003E+002
 40
2.0
  1
2
  0
TEXT
  8
1
  6
CONTINUOUS
 62
3
 10
1.3525E+002
 20
2.9300003E+002
 40
2.0
  1
3
  0
TEXT
  8
1
  6
CONTINUOUS
 62
3
 10
1.8175E+002
 20
2.9300003E+002
 40
2.0
  1
4
  0
TEXT
  8
1
  6
CONTINUOUS
 62
3
 10
3.0841621E+001
 20
2.8556284E+002
 40
2.0
  1
Ein-
 41
7.925E-001
  0
TEXT
  8
1
  6
CONTINUOUS
 62
3
 10
3.0841621E+001
 20
2.8256284E+002
 40
2.0
  1
heit
 41
7.925E-001
  0
TEXT
  8
1
  6
CONTINUOUS
 62
3
 10
3.8324684E+001
 20
2.8350003E+002
 40
2.0
  1
ZC
 41
7.925E-001
  0
TEXT
  8
1
  6
CONTINUOUS
 62
3
 10
1.6235593E+002
 20
2.8350003E+002
 40
2.0
  1
EC
 41
7.925E-001
  0
TEXT
  8
1
  6
CONTINUOUS
 62
3
 10
1.6759302E+002
 20
2.8716838E+002
 40
2.0
  1
Aend.
 41
8.0E-001
  0
TEXT
  8
1
  6
CONTINUOUS
 62
3
 10
1.7796625E+002
 20
2.8715002E+002
 40
2.0
  1
Masse/E
 41
7.925E-001
  0
TEXT
  8
1
  6
CONTINUOUS
 62
3
 10
1.2262052E+002
 20
2.8350003E+002
 40
2.0
  1
Ident-Nummer
 41
7.925E-001
  0
TEXT
  8
1
  6
CONTINUOUS
 62
3
 10
5.6489449E+001
 20
2.8350003E+002
 40
2.0
  1
Text
 41
7.925E-001
  0
TEXT
  8
1
  6
CONTINUOUS
 62
3
 10
4.343354E+001
 20
2.8350003E+002
 40
2.0
  1
Pos.-Nr.
 41
6.0E-001
  0
TEXT
  8
1
  6
CONTINUOUS
 62
3
 10
1.8364273E+002
 20
2.8040002E+002
 40
2.0
  1
II
 41
7.5E-001
  0
TEXT
  8
1
  6
CONTINUOUS
 62
3
 10
1.9726633E+002
 20
2.8350003E+002
 40
2.0
  1
III
 41
7.5E-001
  0
TEXT
  8
1
  6
CONTINUOUS
 62
3
 10
8.58746
 20
8.773347
 40
1.7
  1
Fuer diese Unterlage behalten wir uns alle Rechte, auch fuer den Fall der Patent-
 41
6.8E-001
 50
9.0000003E+001
  0
TEXT
  8
1
  6
CONTINUOUS
 62
3
 10
1.1408791E+001
 20
8.3925096
 40
1.7
  1
erteilung und der Eintragung eines anderen gewerblichen Schutzrechtes, vor.
 41
6.8E-001
 50
9.0000003E+001
  0
TEXT
  8
1
  6
CONTINUOUS
 62
3
 10
1.4298791E+001
 20
8.3925096
 40
1.7
  1
Missbraeuchliche Verwendung, wie insbesondere Vervielfaeltigung und Weitergabe an
 41
6.8E-001
 50
9.0000003E+001
  0
TEXT
  8
1
  6
CONTINUOUS
 62
3
 10
1.7188792E+001
 20
8.3925096
 40
1.7
  1
Dritte ist nicht gestattet: sie kann zivil- und strafrechtlich geahndet werden.
 41
6.8E-001
 50
9.0000003E+001
  0
TEXT
  8
1
  6
CONTINUOUS
 62
3
 10
1.0199852E+001
 20
2.0239064E+002
 40
2.0
  1
ISO 2768
 41
8.0E-001
 50
9.0000003E+001
  0
POLYLINE
  8
1
  6
CONTINUOUS
 62
6
 66
1
 40
7.0E-001
 41
7.0E-001
 70
0
  0
VERTEX
  8
1
 42
0.0
 10
1.8999985E+001
 20
3.1E+001
 70
0
  0
VERTEX
  8
1
 42
0.0
 10
2.05E+002
 20
3.1E+001
 70
0
  0
SEQEND
  0
POLYLINE
  8
1
  6
CONTINUOUS
 62
6
 66
1
 40
7.0E-001
 41
7.0E-001
 70
0
  0
VERTEX
  8
1
 42
0.0
 10
1.8999985E+001
 20
1.4E+001
 70
0
  0
VERTEX
  8
1
 42
0.0
 10
5.85E+001
 20
1.4E+001
 70
0
  0
SEQEND
  0
LINE
  8
1
  6
CONTINUOUS
 62
6
 10
2.4499985E+001
 20
3.1E+001
 11
2.4499985E+001
 21
1.4E+001
  0
TEXT
  8
1
  6
CONTINUOUS
 62
3
 10
2.2718704E+001
 20
1.9207314E+001
 40
2.0
  1
Aend.
 41
5.0E-001
 50
9.0000003E+001
  0
LINE
  8
1
  6
CONTINUOUS
 62
6
 10
2.4499985E+001
 20
2.675E+001
 11
5.85E+001
 21
2.675E+001
  0
POLYLINE
  8
1
  6
CONTINUOUS
 62
6
 66
1
 40
5.0E-001
 41
5.0E-001
 70
0
  0
VERTEX
  8
1
 42
0.0
 10
1.465E+002
 20
2.675E+001
 70
0
  0
VERTEX
  8
1
 42
0.0
 10
2.05E+002
 20
2.675E+001
 70
0
  0
SEQEND
  0
POLYLINE
  8
1
  6
CONTINUOUS
 62
1
 66
1
 40
1.0E-003
 41
1.0E-003
 70
0
  0
VERTEX
  8
1
 42
0.0
 10
1.75E+002
 20
3.1E+001
 70
0
  0
VERTEX
  8
1
 42
0.0
 10
1.75E+002
 20
2.25E+001
 70
0
  0
SEQEND
  0
POLYLINE
  8
1
  6
CONTINUOUS
 62
6
 66
1
 40
7.0E-001
 41
7.0E-001
 70
0
  0
VERTEX
  8
1
 42
0.0
 10
1.465E+002
 20
3.1E+001
 70
0
  0
VERTEX
  8
1
 42
0.0
 10
1.465E+002
 20
5.5
 70
0
  0
SEQEND
  0
POLYLINE
  8
1
  6
CONTINUOUS
 62
6
 66
1
 40
7.0E-001
 41
7.0E-001
 70
0
  0
VERTEX
  8
1
 42
0.0
 10
1.35E+002
 20
3.0795013E+001
 70
0
  0
VERTEX
  8
1
 42
0.0
 10
1.35E+002
 20
1.4E+001
 70
0
  0
SEQEND
  0
POLYLINE
  8
1
  6
CONTINUOUS
 62
6
 66
1
 40
7.0E-001
 41
7.0E-001
 70
0
  0
VERTEX
  8
1
 42
0.0
 10
9.75E+001
 20
3.1E+001
 70
0
  0
VERTEX
  8
1
 42
0.0
 10
9.75E+001
 20
1.4E+001
 70
0
  0
SEQEND
  0
POLYLINE
  8
1
  6
CONTINUOUS
 62
6
 66
1
 40
7.0E-001
 41
7.0E-001
 70
0
  0
VERTEX
  8
1
 42
0.0
 10
5.85E+001
 20
3.1E+001
 70
0
  0
VERTEX
  8
1
 42
0.0
 10
5.85E+001
 20
1.4E+001
 70
0
  0
SEQEND
  0
POLYLINE
  8
1
  6
CONTINUOUS
 62
6
 66
1
 40
5.0E-001
 41
5.0E-001
 70
0
  0
VERTEX
  8
1
 42
0.0
 10
5.85E+001
 20
2.25E+001
 70
0
  0
VERTEX
  8
1
 42
0.0
 10
1.35E+002
 20
2.25E+001
 70
0
  0
SEQEND
  0
POLYLINE
  8
1
  6
CONTINUOUS
 62
6
 66
1
 40
5.0E-001
 41
5.0E-001
 70
0
  0
VERTEX
  8
1
 42
0.0
 10
5.85E+001
 20
1.825E+001
 70
0
  0
VERTEX
  8
1
 42
0.0
 10
1.35E+002
 20
1.825E+001
 70
0
  0
SEQEND
  0
POLYLINE
  8
1
  6
CONTINUOUS
 62
6
 66
1
 40
7.0E-001
 41
7.0E-001
 70
0
  0
VERTEX
  8
1
 42
0.0
 10
5.85E+001
 20
1.4E+001
 70
0
  0
VERTEX
  8
1
 42
0.0
 10
2.05E+002
 20
1.4E+001
 70
0
  0
SEQEND
  0
POLYLINE
  8
1
  6
CONTINUOUS
 62
6
 66
1
 40
7.0E-001
 41
7.0E-001
 70
0
  0
VERTEX
  8
1
 42
0.0
 10
1.35E+002
 20
2.25E+001
 70
0
  0
VERTEX
  8
1
 42
0.0
 10
2.05E+002
 20
2.25E+001
 70
0
  0
SEQEND
  0
POLYLINE
  8
1
  6
CONTINUOUS
 62
6
 66
1
 40
7.0E-001
 41
7.0E-001
 70
0
  0
VERTEX
  8
1
 42
0.0
 10
1.58E+002
 20
2.25E+001
 70
0
  0
VERTEX
  8
1
 42
0.0
 10
1.58E+002
 20
1.4E+001
 70
0
  0
SEQEND
  0
POLYLINE
  8
1
  6
CONTINUOUS
 62
110
 66
1
 40
7.0E-001
 41
7.0E-001
 70
0
  0
VERTEX
  8
1
 42
0.0
 10
1.68E+002
 20
2.25E+001
 70
0
  0
VERTEX
  8
1
 42
0.0
 10
1.68E+002
 20
1.4E+001
 70
0
  0
SEQEND
  0
POLYLINE
  8
1
  6
CONTINUOUS
 62
110
 66
1
 40
7.0E-001
 41
7.0E-001
 70
0
  0
VERTEX
  8
1
 42
0.0
 10
1.795E+002
 20
2.25E+001
 70
0
  0
VERTEX
  8
1
 42
0.0
 10
1.795E+002
 20
1.4E+001
 70
0
  0
SEQEND
  0
POLYLINE
  8
1
  6
CONTINUOUS
 62
110
 66
1
 40
7.0E-001
 41
7.0E-001
 70
0
  0
VERTEX
  8
1
 42
0.0
 10
1.915E+002
 20
2.25E+001
 70
0
  0
VERTEX
  8
1
 42
0.0
 10
1.915E+002
 20
1.4E+001
 70
0
  0
SEQEND
  0
LINE
  8
1
  6
HIDDEN
 62
6
 10
1.465E+002
 20
7.0
 11
2.05E+002
 21
7.0
  0
LINE
  8
1
  6
CONTINUOUS
 62
6
 10
2.4499985E+001
 20
2.25E+001
 11
5.85E+001
 21
2.25E+001
  0
LINE
  8
1
  6
CONTINUOUS
 62
6
 10
2.4499985E+001
 20
1.825E+001
 11
5.85E+001
 21
1.825E+001
  0
POLYLINE
  8
1
  6
CONTINUOUS
 62
6
 66
1
 40
5.0E-001
 41
5.0E-001
 70
0
  0
VERTEX
  8
1
 42
0.0
 10
5.85E+001
 20
2.675E+001
 70
0
  0
VERTEX
  8
1
 42
0.0
 10
1.35E+002
 20
2.675E+001
 70
0
  0
SEQEND
  0
POLYLINE
  8
1
  6
CONTINUOUS
 62
6
 66
1
 40
7.0E-001
 41
7.0E-001
 70
0
  0
VERTEX
  8
1
 42
0.0
 10
3.3999985E+001
 20
1.4E+001
 70
0
  0
VERTEX
  8
1
 42
0.0
 10
3.3999985E+001
 20
5.5
 70
0
  0
SEQEND
  0
POLYLINE
  8
1
  6
HIDDEN
 62
3
 66
1
 40
1.0E-003
 41
1.0E-003
 70
0
  0
VERTEX
  8
1
 42
0.0
 10
1.5225E+002
 20
1.825E+001
 70
0
  0
VERTEX
  8
1
 42
0.0
 10
1.5225E+002
 20
1.4E+001
 70
0
  0
SEQEND
  0
POLYLINE
  8
1
  6
HIDDEN
 62
3
 66
1
 40
1.0E-003
 41
1.0E-003
 70
0
  0
VERTEX
  8
1
 42
0.0
 10
1.63E+002
 20
1.825E+001
 70
0
  0
VERTEX
  8
1
 42
0.0
 10
1.63E+002
 20
1.4E+001
 70
0
  0
SEQEND
  0
POLYLINE
  8
1
  6
CONTINUOUS
 62
3
 66
1
 40
1.0E-003
 41
1.0E-003
 70
0
  0
VERTEX
  8
1
 42
0.0
 10
1.7079001E+002
 20
2.7410446E+001
 70
0
  0
VERTEX
  8
1
 42
0.0
 10
1.7079001E+002
 20
3.0034676E+001
 70
0
  0
SEQEND
  0
POLYLINE
  8
1
  6
CONTINUOUS
 62
3
 66
1
 40
1.0E-003
 41
1.0E-003
 70
0
  0
VERTEX
  8
1
 42
0.0
 10
1.7079001E+002
 20
3.0034676E+001
 70
0
  0
VERTEX
  8
1
 42
0.0
 10
1.7397659E+002
 20
3.0034676E+001
 70
0
  0
SEQEND
  0
POLYLINE
  8
1
  6
CONTINUOUS
 62
3
 66
1
 40
1.0E-003
 41
1.0E-003
 70
0
  0
VERTEX
  8
1
 42
0.0
 10
1.7397659E+002
 20
3.0034676E+001
 70
0
  0
VERTEX
  8
1
 42
0.0
 10
1.7397659E+002
 20
2.7410446E+001
 70
0
  0
SEQEND
  0
POLYLINE
  8
1
  6
CONTINUOUS
 62
3
 66
1
 40
1.0E-003
 41
1.0E-003
 70
0
  0
VERTEX
  8
1
 42
0.0
 10
1.7397659E+002
 20
2.7410446E+001
 70
0
  0
VERTEX
  8
1
 42
0.0
 10
1.7079001E+002
 20
2.7410446E+001
 70
0
  0
SEQEND
  0
POLYLINE
  8
1
  6
CONTINUOUS
 62
3
 66
1
 40
1.0E-003
 41
1.0E-003
 70
0
  0
VERTEX
  8
1
 42
0.0
 10
2.0079001E+002
 20
2.7410446E+001
 70
0
  0
VERTEX
  8
1
 42
0.0
 10
2.0079001E+002
 20
3.0034676E+001
 70
0
  0
SEQEND
  0
POLYLINE
  8
1
  6
CONTINUOUS
 62
3
 66
1
 40
1.0E-003
 41
1.0E-003
 70
0
  0
VERTEX
  8
1
 42
0.0
 10
2.0079001E+002
 20
3.0034676E+001
 70
0
  0
VERTEX
  8
1
 42
0.0
 10
2.0397659E+002
 20
3.0034676E+001
 70
0
  0
SEQEND
  0
POLYLINE
  8
1
  6
CONTINUOUS
 62
3
 66
1
 40
1.0E-003
 41
1.0E-003
 70
0
  0
VERTEX
  8
1
 42
0.0
 10
2.0397659E+002
 20
3.0034676E+001
 70
0
  0
VERTEX
  8
1
 42
0.0
 10
2.0397659E+002
 20
2.7410446E+001
 70
0
  0
SEQEND
  0
POLYLINE
  8
1
  6
CONTINUOUS
 62
3
 66
1
 40
1.0E-003
 41
1.0E-003
 70
0
  0
VERTEX
  8
1
 42
0.0
 10
2.0397659E+002
 20
2.7410446E+001
 70
0
  0
VERTEX
  8
1
 42
0.0
 10
2.0079001E+002
 20
2.7410446E+001
 70
0
  0
SEQEND
  0
POLYLINE
  8
1
  6
CONTINUOUS
 62
3
 66
1
 40
1.0E-003
 41
1.0E-003
 70
0
  0
VERTEX
  8
1
 42
0.0
 10
1.7079001E+002
 20
2.3160446E+001
 70
0
  0
VERTEX
  8
1
 42
0.0
 10
1.7079001E+002
 20
2.5784676E+001
 70
0
  0
SEQEND
  0
POLYLINE
  8
1
  6
CONTINUOUS
 62
3
 66
1
 40
1.0E-003
 41
1.0E-003
 70
0
  0
VERTEX
  8
1
 42
0.0
 10
1.7079001E+002
 20
2.5784676E+001
 70
0
  0
VERTEX
  8
1
 42
0.0
 10
1.7397659E+002
 20
2.5784676E+001
 70
0
  0
SEQEND
  0
POLYLINE
  8
1
  6
CONTINUOUS
 62
3
 66
1
 40
1.0E-003
 41
1.0E-003
 70
0
  0
VERTEX
  8
1
 42
0.0
 10
1.7397659E+002
 20
2.5784676E+001
 70
0
  0
VERTEX
  8
1
 42
0.0
 10
1.7397659E+002
 20
2.3160446E+001
 70
0
  0
SEQEND
  0
POLYLINE
  8
1
  6
CONTINUOUS
 62
3
 66
1
 40
1.0E-003
 41
1.0E-003
 70
0
  0
VERTEX
  8
1
 42
0.0
 10
1.7397659E+002
 20
2.3160446E+001
 70
0
  0
VERTEX
  8
1
 42
0.0
 10
1.7079001E+002
 20
2.3160446E+001
 70
0
  0
SEQEND
  0
LINE
  8
1
  6
CONTINUOUS
 62
6
 10
3.1499985E+001
 20
3.1E+001
 11
3.1499985E+001
 21
1.4E+001
  0
POLYLINE
  8
1
  6
CONTINUOUS
 62
3
 66
1
 40
1.0E-003
 41
1.0E-003
 70
0
  0
VERTEX
  8
1
 42
0.0
 10
1.3877496E+002
 20
2.025E+001
 70
0
  0
VERTEX
  8
1
 42
0.0
 10
1.3877496E+002
 20
1.625E+001
 70
0
  0
SEQEND
  0
POLYLINE
  8
1
  6
CONTINUOUS
 62
3
 66
1
 40
1.0E-003
 41
1.0E-003
 70
0
  0
VERTEX
  8
1
 42
0.0
 10
1.3601489E+002
 20
1.925E+001
 70
0
  0
VERTEX
  8
1
 42
0.0
 10
1.3601489E+002
 20
1.725E+001
 70
0
  0
SEQEND
  0
POLYLINE
  8
1
  6
CONTINUOUS
 62
3
 66
1
 40
1.0E-003
 41
1.0E-003
 70
0
  0
VERTEX
  8
1
 42
0.0
 10
1.3601489E+002
 20
1.925E+001
 70
0
  0
VERTEX
  8
1
 42
0.0
 10
1.3877496E+002
 20
2.025E+001
 70
0
  0
SEQEND
  0
POLYLINE
  8
1
  6
CONTINUOUS
 62
3
 66
1
 40
1.0E-003
 41
1.0E-003
 70
0
  0
VERTEX
  8
1
 42
0.0
 10
1.3601489E+002
 20
1.725E+001
 70
0
  0
VERTEX
  8
1
 42
0.0
 10
1.3877496E+002
 20
1.625E+001
 70
0
  0
SEQEND
  0
POLYLINE
  8
1
  6
HIDDEN
 62
3
 66
1
 40
1.0E-003
 41
1.0E-003
 70
0
  0
VERTEX
  8
1
 42
0.0
 10
1.4252081E+002
 20
2.0649994E+001
 70
0
  0
VERTEX
  8
1
 42
0.0
 10
1.4252081E+002
 20
1.5849998E+001
 70
0
  0
SEQEND
  0
POLYLINE
  8
1
  6
HIDDEN
 62
3
 66
1
 40
1.0E-003
 41
1.0E-003
 70
0
  0
VERTEX
  8
1
 42
0.0
 10
1.4492081E+002
 20
1.825E+001
 70
0
  0
VERTEX
  8
1
 42
0.0
 10
1.3581775E+002
 20
1.825E+001
 70
0
  0
SEQEND
  0
TEXT
  8
1
  6
CONTINUOUS
 62
3
 10
5.9224213E+001
 20
2.3520981E+001
 40
2.0
  1
Ersatz fuer:
 41
6.0E-001
  0
TEXT
  8
1
  6
CONTINUOUS
 62
3
 10
5.9224213E+001
 20
1.9296745E+001
 40
2.0
  1
Ers. durch:
 41
6.5308091E-001
  0
TEXT
  8
1
  6
CONTINUOUS
 62
3
 10
5.9096191E+001
 20
1.4944511E+001
 40
2.0
  1
Zust. Stelle:
 41
6.3073385E-001
  0
TEXT
  8
1
  6
CONTINUOUS
 62
3
 10
9.8266327E+001
 20
2.7745209E+001
 40
2.0
  1
Ausgest.:
 41
6.0E-001
  0
TEXT
  8
1
  6
CONTINUOUS
 62
3
 10
9.8138336E+001
 20
2.3648987E+001
 40
2.0
  1
Geprueft:
 41
6.0E-001
  0
TEXT
  8
1
  6
CONTINUOUS
 62
3
 10
9.8138336E+001
 20
1.9424751E+001
 40
2.0
  1
Normgepr.:
 41
6.0E-001
  0
TEXT
  8
1
  6
CONTINUOUS
 62
3
 10
9.8138336E+001
 20
1.5072517E+001
 40
2.0
  1
Freigeg.:
 41
6.0E-001
  0
TEXT
  8
1
  6
CONTINUOUS
 62
3
 10
3.4718704E+001
 20
1.0957314E+001
 40
2.0
  1
Titel:
 41
5.9703E-001
  0
TEXT
  8
1
  6
CONTINUOUS
 62
3
 10
1.3619501E+002
 20
2.7965616E+001
 40
2.0
  1
Massstab
 41
6.0E-001
  0
TEXT
  8
1
  6
CONTINUOUS
 62
3
 10
1.7571872E+002
 20
2.7957314E+001
 40
2.0
  1
Sep.SL anderer Nr.
 41
6.0E-001
  0
TEXT
  8
1
  6
CONTINUOUS
 62
3
 10
1.4721872E+002
 20
1.9457314E+001
 40
2.0
  1
Dok.-Art
 41
6.0E-001
  0
TEXT
  8
1
  6
CONTINUOUS
 62
3
 10
1.5971872E+002
 20
1.9457314E+001
 40
2.0
  1
Format
 41
6.0E-001
  0
TEXT
  8
1
  6
CONTINUOUS
 62
3
 10
1.6971872E+002
 20
1.9457314E+001
 40
2.0
  1
Sprache
 41
6.0E-001
  0
TEXT
  8
1
  6
CONTINUOUS
 62
3
 10
1.8171872E+002
 20
1.9457314E+001
 40
2.0
  1
Bl. Nr.
 41
6.0E-001
  0
TEXT
  8
1
  6
CONTINUOUS
 62
3
 10
1.9221872E+002
 20
1.9457314E+001
 40
2.0
  1
Anz. Bl.
 41
6.0E-001
  0
TEXT
  8
1
  6
CONTINUOUS
 62
3
 10
1.4721872E+002
 20
2.7957314E+001
 40
2.0
  1
Sep.SL gleicher Nr.
 41
6.0E-001
  0
TEXT
  8
1
  6
CONTINUOUS
 62
3
 10
1.472323E+002
 20
2.3457428E+001
 40
2.0
  1
O
 41
6.3E-001
  0
TEXT
  8
1
  6
CONTINUOUS
 62
3
 10
1.486723E+002
 20
2.3457428E+001
 40
2.0
  1
hne sep. Stckl.:
 41
6.3727875E-001
  0
TEXT
  8
1
  6
CONTINUOUS
 62
6
 10
1.7570981E+002
 20
2.3817909E+001
 40
2.0
  1
 
 41
8.1E-001
  0
TEXT
  8
1
  6
CONTINUOUS
 62
3
 10
1.7603071E+002
 20
2.3683216E+001
 40
2.0
  1
Uebern. Stelle:
 41
6.0127615E-001
  0
TEXT
  8
1
  6
CONTINUOUS
 62
3
 10
1.595E+002
 20
1.5E+001
 40
2.5
  1
A
  0
TEXT
  8
1
  6
CONTINUOUS
 62
3
 10
1.645E+002
 20
1.5E+001
 40
2.5
  1
4
  0
TEXT
  8
1
  6
CONTINUOUS
 62
3
 10
1.7312595E+002
 20
1.5027565E+001
 40
2.5
  1
D
  0
TEXT
  8
1
  6
CONTINUOUS
 62
3
 10
1.8441553E+002
 20
1.5027565E+001
 40
2.5
  1
1
  0
TEXT
  8
1
  6
CONTINUOUS
 62
3
 10
1.9647238E+002
 20
1.5027565E+001
 40
2.5
  1
1
  0
TEXT
  8
1
  6
CONTINUOUS
 62
3
 10
5.9352203E+001
 20
2.7617203E+001
 40
2.0
  1
E
 41
6.3E-001
  0
TEXT
  8
1
  6
CONTINUOUS
 62
3
 10
6.0612213E+001
 20
2.7617203E+001
 40
2.0
  1
ntst. aus:
 41
6.09444E-001
  0
POLYLINE
  8
1
  6
CONTINUOUS
 62
3
 66
1
 40
1.0E-003
 41
1.0E-003
 70
0
  0
VERTEX
  8
1
 42
0.0
 10
2.0301865E+001
 20
7.3082472
 70
0
  0
VERTEX
  8
1
 42
0.0
 10
2.1426865E+001
 20
7.3082472
 70
0
  0
SEQEND
  0
POLYLINE
  8
1
  6
CONTINUOUS
 62
3
 66
1
 40
1.0E-003
 41
1.0E-003
 70
0
  0
VERTEX
  8
1
 42
0.0
 10
2.1426865E+001
 20
7.3082472
 70
0
  0
VERTEX
  8
1
 42
0.0
 10
2.1741867E+001
 20
8.2082449
 70
0
  0
SEQEND
  0
POLYLINE
  8
1
  6
CONTINUOUS
 62
3
 66
1
 40
1.0E-003
 41
1.0E-003
 70
0
  0
VERTEX
  8
1
 42
0.0
 10
2.1741867E+001
 20
8.2082449
 70
0
  0
VERTEX
  8
1
 42
0.0
 10
2.2356873E+001
 20
8.2082449
 70
0
  0
SEQEND
  0
POLYLINE
  8
1
  6
CONTINUOUS
 62
3
 66
1
 40
1.0E-003
 41
1.0E-003
 70
0
  0
VERTEX
  8
1
 42
0.0
 10
2.2356873E+001
 20
8.2082449
 70
0
  0
VERTEX
  8
1
 42
0.0
 10
2.2356873E+001
 20
9.3632456
 70
0
  0
SEQEND
  0
POLYLINE
  8
1
  6
CONTINUOUS
 62
3
 66
1
 40
1.0E-003
 41
1.0E-003
 70
0
  0
VERTEX
  8
1
 42
0.0
 10
2.2356873E+001
 20
9.3632456
 70
0
  0
VERTEX
  8
1
 42
0.0
 10
2.1073608E+001
 20
9.3632456
 70
0
  0
SEQEND
  0
POLYLINE
  8
1
  6
CONTINUOUS
 62
3
 66
1
 40
1.0E-003
 41
1.0E-003
 70
0
  0
VERTEX
  8
1
 42
0.0
 10
2.1073608E+001
 20
9.3632456
 70
0
  0
VERTEX
  8
1
 42
0.0
 10
2.0301865E+001
 20
7.3082472
 70
0
  0
SEQEND
  0
POLYLINE
  8
1
  6
CONTINUOUS
 62
3
 66
1
 40
1.0E-003
 41
1.0E-003
 70
0
  0
VERTEX
  8
1
 42
0.0
 10
2.4801865E+001
 20
7.3082472
 70
0
  0
VERTEX
  8
1
 42
0.0
 10
2.3676865E+001
 20
7.3082472
 70
0
  0
SEQEND
  0
POLYLINE
  8
1
  6
CONTINUOUS
 62
3
 66
1
 40
1.0E-003
 41
1.0E-003
 70
0
  0
VERTEX
  8
1
 42
0.0
 10
2.3676865E+001
 20
7.3082472
 70
0
  0
VERTEX
  8
1
 42
0.0
 10
2.3361862E+001
 20
8.2082449
 70
0
  0
SEQEND
  0
POLYLINE
  8
1
  6
CONTINUOUS
 62
3
 66
1
 40
1.0E-003
 41
1.0E-003
 70
0
  0
VERTEX
  8
1
 42
0.0
 10
2.3361862E+001
 20
8.2082449
 70
0
  0
VERTEX
  8
1
 42
0.0
 10
2.2746872E+001
 20
8.2082449
 70
0
  0
SEQEND
  0
POLYLINE
  8
1
  6
CONTINUOUS
 62
3
 66
1
 40
1.0E-003
 41
1.0E-003
 70
0
  0
VERTEX
  8
1
 42
0.0
 10
2.2746872E+001
 20
8.2082449
 70
0
  0
VERTEX
  8
1
 42
0.0
 10
2.2746872E+001
 20
9.3632456
 70
0
  0
SEQEND
  0
POLYLINE
  8
1
  6
CONTINUOUS
 62
3
 66
1
 40
1.0E-003
 41
1.0E-003
 70
0
  0
VERTEX
  8
1
 42
0.0
 10
2.2746872E+001
 20
9.3632456
 70
0
  0
VERTEX
  8
1
 42
0.0
 10
2.4030121E+001
 20
9.3632456
 70
0
  0
SEQEND
  0
POLYLINE
  8
1
  6
CONTINUOUS
 62
3
 66
1
 40
1.0E-003
 41
1.0E-003
 70
0
  0
VERTEX
  8
1
 42
0.0
 10
2.4030121E+001
 20
9.3632456
 70
0
  0
VERTEX
  8
1
 42
0.0
 10
2.4801865E+001
 20
7.3082472
 70
0
  0
SEQEND
  0
POLYLINE
  8
1
  6
CONTINUOUS
 62
3
 66
1
 40
1.0E-003
 41
1.0E-003
 70
0
  0
VERTEX
  8
1
 42
0.0
 10
2.2356873E+001
 20
9.753245
 70
0
  0
VERTEX
  8
1
 42
0.0
 10
2.1105118E+001
 20
9.753245
 70
0
  0
SEQEND
  0
POLYLINE
  8
1
  6
CONTINUOUS
 62
3
 66
1
 40
1.0E-003
 41
1.0E-003
 70
0
  0
VERTEX
  8
1
 42
0.0
 10
2.2356873E+001
 20
1.1808243E+001
 70
0
  0
VERTEX
  8
1
 42
0.0
 10
2.2356873E+001
 20
9.753245
 70
0
  0
SEQEND
  0
POLYLINE
  8
1
  6
CONTINUOUS
 62
3
 66
1
 40
1.0E-003
 41
1.0E-003
 70
0
  0
VERTEX
  8
1
 42
0.0
 10
2.2356873E+001
 20
1.1808243E+001
 70
0
  0
VERTEX
  8
1
 42
0.0
 10
2.1876862E+001
 20
1.1808243E+001
 70
0
  0
SEQEND
  0
POLYLINE
  8
1
  6
CONTINUOUS
 62
3
 66
1
 40
1.0E-003
 41
1.0E-003
 70
0
  0
VERTEX
  8
1
 42
0.0
 10
2.1876862E+001
 20
1.1808243E+001
 70
0
  0
VERTEX
  8
1
 42
0.0
 10
2.1105118E+001
 20
9.753245
 70
0
  0
SEQEND
  0
POLYLINE
  8
1
  6
CONTINUOUS
 62
3
 66
1
 40
1.0E-003
 41
1.0E-003
 70
0
  0
VERTEX
  8
1
 42
0.0
 10
2.2746872E+001
 20
9.753245
 70
0
  0
VERTEX
  8
1
 42
0.0
 10
2.3998611E+001
 20
9.753245
 70
0
  0
SEQEND
  0
POLYLINE
  8
1
  6
CONTINUOUS
 62
3
 66
1
 40
1.0E-003
 41
1.0E-003
 70
0
  0
VERTEX
  8
1
 42
0.0
 10
2.2746872E+001
 20
1.1808243E+001
 70
0
  0
VERTEX
  8
1
 42
0.0
 10
2.2746872E+001
 20
9.753245
 70
0
  0
SEQEND
  0
POLYLINE
  8
1
  6
CONTINUOUS
 62
3
 66
1
 40
1.0E-003
 41
1.0E-003
 70
0
  0
VERTEX
  8
1
 42
0.0
 10
2.2746872E+001
 20
1.1808243E+001
 70
0
  0
VERTEX
  8
1
 42
0.0
 10
2.3226868E+001
 20
1.1808243E+001
 70
0
  0
SEQEND
  0
POLYLINE
  8
1
  6
CONTINUOUS
 62
3
 66
1
 40
1.0E-003
 41
1.0E-003
 70
0
  0
VERTEX
  8
1
 42
0.0
 10
2.3226868E+001
 20
1.1808243E+001
 70
0
  0
VERTEX
  8
1
 42
0.0
 10
2.3998611E+001
 20
9.753245
 70
0
  0
SEQEND
  0
POLYLINE
  8
1
  6
CONTINUOUS
 62
3
 66
1
 40
1.0E-003
 41
1.0E-003
 70
0
  0
VERTEX
  8
1
 42
0.0
 10
2.5116867E+001
 20
9.3632456
 70
0
  0
VERTEX
  8
1
 42
0.0
 10
2.5116867E+001
 20
7.3082472
 70
0
  0
SEQEND
  0
POLYLINE
  8
1
  6
CONTINUOUS
 62
3
 66
1
 40
1.0E-003
 41
1.0E-003
 70
0
  0
VERTEX
  8
1
 42
0.0
 10
2.5116867E+001
 20
7.3082472
 70
0
  0
VERTEX
  8
1
 42
0.0
 10
2.6271881E+001
 20
7.3082472
 70
0
  0
SEQEND
  0
POLYLINE
  8
1
  6
CONTINUOUS
 62
3
 66
1
 40
1.0E-003
 41
1.0E-003
 70
0
  0
VERTEX
  8
1
 42
0.0
 10
2.6271881E+001
 20
9.3632456
 70
0
  0
VERTEX
  8
1
 42
0.0
 10
2.6271881E+001
 20
7.3082472
 70
0
  0
SEQEND
  0
POLYLINE
  8
1
  6
CONTINUOUS
 62
3
 66
1
 40
1.0E-003
 41
1.0E-003
 70
0
  0
VERTEX
  8
1
 42
0.0
 10
2.5116867E+001
 20
9.3632456
 70
0
  0
VERTEX
  8
1
 42
0.0
 10
2.6271881E+001
 20
9.3632456
 70
0
  0
SEQEND
  0
POLYLINE
  8
1
  6
CONTINUOUS
 62
3
 66
1
 40
1.0E-003
 41
1.0E-003
 70
0
  0
VERTEX
  8
1
 42
0.0
 10
2.5116867E+001
 20
9.753245
 70
0
  0
VERTEX
  8
1
 42
0.0
 10
2.6271881E+001
 20
9.753245
 70
0
  0
SEQEND
  0
POLYLINE
  8
1
  6
CONTINUOUS
 62
3
 66
1
 40
1.0E-003
 41
1.0E-003
 70
0
  0
VERTEX
  8
1
 42
0.0
 10
2.5116867E+001
 20
1.1808243E+001
 70
0
  0
VERTEX
  8
1
 42
0.0
 10
2.5116867E+001
 20
9.753245
 70
0
  0
SEQEND
  0
POLYLINE
  8
1
  6
CONTINUOUS
 62
3
 66
1
 40
1.0E-003
 41
1.0E-003
 70
0
  0
VERTEX
  8
1
 42
0.0
 10
2.5116867E+001
 20
1.1808243E+001
 70
0
  0
VERTEX
  8
1
 42
0.0
 10
2.6271881E+001
 20
1.1808243E+001
 70
0
  0
SEQEND
  0
POLYLINE
  8
1
  6
CONTINUOUS
 62
3
 66
1
 40
1.0E-003
 41
1.0E-003
 70
0
  0
VERTEX
  8
1
 42
0.0
 10
2.6271881E+001
 20
1.1808243E+001
 70
0
  0
VERTEX
  8
1
 42
0.0
 10
2.6271881E+001
 20
9.753245
 70
0
  0
SEQEND
  0
POLYLINE
  8
1
  6
CONTINUOUS
 62
3
 66
1
 40
1.0E-003
 41
1.0E-003
 70
0
  0
VERTEX
  8
1
 42
0.0
 10
2.6661865E+001
 20
9.3632456
 70
0
  0
VERTEX
  8
1
 42
0.0
 10
2.6661865E+001
 20
7.3082472
 70
0
  0
SEQEND
  0
POLYLINE
  8
1
  6
CONTINUOUS
 62
3
 66
1
 40
1.0E-003
 41
1.0E-003
 70
0
  0
VERTEX
  8
1
 42
0.0
 10
2.6661865E+001
 20
7.3082472
 70
0
  0
VERTEX
  8
1
 42
0.0
 10
2.691687E+001
 20
7.3082472
 70
0
  0
SEQEND
  0
POLYLINE
  8
1
  6
CONTINUOUS
 62
3
 66
1
 40
1.0E-003
 41
1.0E-003
 70
0
  0
VERTEX
  8
1
 42
0.0
 10
2.6661865E+001
 20
9.3632456
 70
0
  0
VERTEX
  8
1
 42
0.0
 10
2.8068161E+001
 20
9.3632456
 70
0
  0
SEQEND
  0
POLYLINE
  8
1
  6
CONTINUOUS
 62
3
 66
1
 40
1.0E-003
 41
1.0E-003
 70
0
  0
VERTEX
  8
1
 42
0.0
 10
2.6661865E+001
 20
1.1808243E+001
 70
0
  0
VERTEX
  8
1
 42
0.0
 10
2.6661865E+001
 20
9.753245
 70
0
  0
SEQEND
  0
POLYLINE
  8
1
  6
CONTINUOUS
 62
3
 66
1
 40
1.0E-003
 41
1.0E-003
 70
0
  0
VERTEX
  8
1
 42
0.0
 10
2.6661865E+001
 20
9.753245
 70
0
  0
VERTEX
  8
1
 42
0.0
 10
2.7706482E+001
 20
9.753245
 70
0
  0
SEQEND
  0
POLYLINE
  8
1
  6
CONTINUOUS
 62
3
 66
1
 40
1.0E-003
 41
1.0E-003
 70
0
  0
VERTEX
  8
1
 42
0.0
 10
2.6661865E+001
 20
1.1808243E+001
 70
0
  0
VERTEX
  8
1
 42
0.0
 10
2.691687E+001
 20
1.1808243E+001
 70
0
  0
SEQEND
  0
POLYLINE
  8
1
  6
CONTINUOUS
 62
3
 66
1
 40
1.0E-003
 41
1.0E-003
 70
0
  0
VERTEX
  8
1
 42
0.0
 10
2.8626862E+001
 20
9.3632456
 70
0
  0
VERTEX
  8
1
 42
0.0
 10
2.8626862E+001
 20
7.3082472
 70
0
  0
SEQEND
  0
POLYLINE
  8
1
  6
CONTINUOUS
 62
3
 66
1
 40
1.0E-003
 41
1.0E-003
 70
0
  0
VERTEX
  8
1
 42
0.0
 10
2.8626862E+001
 20
7.3082472
 70
0
  0
VERTEX
  8
1
 42
0.0
 10
2.9781876E+001
 20
7.3082472
 70
0
  0
SEQEND
  0
POLYLINE
  8
1
  6
CONTINUOUS
 62
3
 66
1
 40
1.0E-003
 41
1.0E-003
 70
0
  0
VERTEX
  8
1
 42
0.0
 10
2.9781876E+001
 20
9.3632456
 70
0
  0
VERTEX
  8
1
 42
0.0
 10
2.9781876E+001
 20
7.3082472
 70
0
  0
SEQEND
  0
POLYLINE
  8
1
  6
CONTINUOUS
 62
3
 66
1
 40
1.0E-003
 41
1.0E-003
 70
0
  0
VERTEX
  8
1
 42
0.0
 10
2.8626862E+001
 20
9.3632456
 70
0
  0
VERTEX
  8
1
 42
0.0
 10
2.9781876E+001
 20
9.3632456
 70
0
  0
SEQEND
  0
POLYLINE
  8
1
  6
CONTINUOUS
 62
3
 66
1
 40
1.0E-003
 41
1.0E-003
 70
0
  0
VERTEX
  8
1
 42
0.0
 10
2.8626862E+001
 20
1.1808243E+001
 70
0
  0
VERTEX
  8
1
 42
0.0
 10
2.8626862E+001
 20
9.753245
 70
0
  0
SEQEND
  0
POLYLINE
  8
1
  6
CONTINUOUS
 62
3
 66
1
 40
1.0E-003
 41
1.0E-003
 70
0
  0
VERTEX
  8
1
 42
0.0
 10
2.8626862E+001
 20
9.753245
 70
0
  0
VERTEX
  8
1
 42
0.0
 10
2.9781876E+001
 20
9.753245
 70
0
  0
SEQEND
  0
POLYLINE
  8
1
  6
CONTINUOUS
 62
3
 66
1
 40
1.0E-003
 41
1.0E-003
 70
0
  0
VERTEX
  8
1
 42
0.0
 10
2.9781876E+001
 20
1.1808243E+001
 70
0
  0
VERTEX
  8
1
 42
0.0
 10
2.9781876E+001
 20
9.753245
 70
0
  0
SEQEND
  0
POLYLINE
  8
1
  6
CONTINUOUS
 62
3
 66
1
 40
1.0E-003
 41
1.0E-003
 70
0
  0
VERTEX
  8
1
 42
0.0
 10
2.8626862E+001
 20
1.1808243E+001
 70
0
  0
VERTEX
  8
1
 42
0.0
 10
2.9781876E+001
 20
1.1808243E+001
 70
0
  0
SEQEND
  0
POLYLINE
  8
1
  6
CONTINUOUS
 62
3
 66
1
 40
1.0E-003
 41
1.0E-003
 70
0
  0
VERTEX
  8
1
 42
0.0
 10
3.017186E+001
 20
9.3632456
 70
0
  0
VERTEX
  8
1
 42
0.0
 10
3.017186E+001
 20
7.3082472
 70
0
  0
SEQEND
  0
POLYLINE
  8
1
  6
CONTINUOUS
 62
3
 66
1
 40
1.0E-003
 41
1.0E-003
 70
0
  0
VERTEX
  8
1
 42
0.0
 10
3.017186E+001
 20
7.3082472
 70
0
  0
VERTEX
  8
1
 42
0.0
 10
3.0426865E+001
 20
7.3082472
 70
0
  0
SEQEND
  0
POLYLINE
  8
1
  6
CONTINUOUS
 62
3
 66
1
 40
1.0E-003
 41
1.0E-003
 70
0
  0
VERTEX
  8
1
 42
0.0
 10
3.017186E+001
 20
9.3632456
 70
0
  0
VERTEX
  8
1
 42
0.0
 10
3.1578156E+001
 20
9.3632456
 70
0
  0
SEQEND
  0
POLYLINE
  8
1
  6
CONTINUOUS
 62
3
 66
1
 40
1.0E-003
 41
1.0E-003
 70
0
  0
VERTEX
  8
1
 42
0.0
 10
3.017186E+001
 20
1.1808243E+001
 70
0
  0
VERTEX
  8
1
 42
0.0
 10
3.017186E+001
 20
9.753245
 70
0
  0
SEQEND
  0
POLYLINE
  8
1
  6
CONTINUOUS
 62
3
 66
1
 40
1.0E-003
 41
1.0E-003
 70
0
  0
VERTEX
  8
1
 42
0.0
 10
3.017186E+001
 20
9.753245
 70
0
  0
VERTEX
  8
1
 42
0.0
 10
3.1216476E+001
 20
9.753245
 70
0
  0
SEQEND
  0
POLYLINE
  8
1
  6
CONTINUOUS
 62
3
 66
1
 40
1.0E-003
 41
1.0E-003
 70
0
  0
VERTEX
  8
1
 42
0.0
 10
3.017186E+001
 20
1.1808243E+001
 70
0
  0
VERTEX
  8
1
 42
0.0
 10
3.0426865E+001
 20
1.1808243E+001
 70
0
  0
SEQEND
  0
INSERT
  2
XHXH1NEW02NEW00NEW00
  8
1
 10
2.1933228E+001
 20
1.1581771E+001
  0
POLYLINE
  8
1
  6
CONTINUOUS
 62
3
 66
1
 40
1.0E-003
 41
1.0E-003
 70
0
  0
VERTEX
  8
1
 42
1.0
 10
1.4452078E+002
 20
1.825E+001
 70
0
  0
VERTEX
  8
1
 42
1.0
 10
1.4052078E+002
 20
1.825E+001
 70
0
  0
VERTEX
  8
1
 42
0.0
 10
1.4452078E+002
 20
1.825E+001
 70
0
  0
SEQEND
  0
POLYLINE
  8
1
  6
CONTINUOUS
 62
3
 66
1
 40
1.0E-003
 41
1.0E-003
 70
0
  0
VERTEX
  8
1
 42
1.0
 10
1.4352078E+002
 20
1.825E+001
 70
0
  0
VERTEX
  8
1
 42
1.0
 10
1.4152078E+002
 20
1.825E+001
 70
0
  0
VERTEX
  8
1
 42
0.0
 10
1.4352078E+002
 20
1.825E+001
 70
0
  0
SEQEND
  0
POLYLINE
  8
1
  6
CONTINUOUS
 62
3
 66
1
 40
1.0E-003
 41
1.0E-003
 70
0
  0
VERTEX
  8
1
 42
5.8600137E-001
 10
2.691687E+001
 20
7.3082456
 70
0
  0
VERTEX
  8
1
 42
0.0
 10
2.8068163E+001
 20
9.3632459
 70
0
  0
SEQEND
  0
POLYLINE
  8
1
  6
CONTINUOUS
 62
3
 66
1
 40
1.0E-003
 41
1.0E-003
 70
0
  0
VERTEX
  8
1
 42
6.2051509E-002
 10
2.7706476E+001
 20
9.7532445
 70
0
  0
VERTEX
  8
1
 42
0.0
 10
2.7413674E+001
 20
9.9135089
 70
0
  0
SEQEND
  0
POLYLINE
  8
1
  6
CONTINUOUS
 62
3
 66
1
 40
1.0E-003
 41
1.0E-003
 70
0
  0
VERTEX
  8
1
 42
7.7160142E-001
 10
2.7413674E+001
 20
9.9135095
 70
0
  0
VERTEX
  8
1
 42
0.0
 10
2.691687E+001
 20
1.1808246E+001
 70
0
  0
SEQEND
  0
POLYLINE
  8
1
  6
CONTINUOUS
 62
3
 66
1
 40
1.0E-003
 41
1.0E-003
 70
0
  0
VERTEX
  8
1
 42
5.8600137E-001
 10
3.0426865E+001
 20
7.3082456
 70
0
  0
VERTEX
  8
1
 42
0.0
 10
3.1578157E+001
 20
9.3632459
 70
0
  0
SEQEND
  0
POLYLINE
  8
1
  6
CONTINUOUS
 62
3
 66
1
 40
1.0E-003
 41
1.0E-003
 70
0
  0
VERTEX
  8
1
 42
6.2051509E-002
 10
3.1216471E+001
 20
9.7532445
 70
0
  0
VERTEX
  8
1
 42
0.0
 10
3.0923669E+001
 20
9.9135089
 70
0
  0
SEQEND
  0
POLYLINE
  8
1
  6
CONTINUOUS
 62
3
 66
1
 40
1.0E-003
 41
1.0E-003
 70
0
  0
VERTEX
  8
1
 42
7.7160142E-001
 10
3.0923669E+001
 20
9.9135095
 70
0
  0
VERTEX
  8
1
 42
0.0
 10
3.0426865E+001
 20
1.1808246E+001
 70
0
  0
SEQEND
  0
POINT
  8
Drafting_Hidden_Entities
  6
CONTINUOUS
 62
1
 10
0.0
 20
0.0
  0
ENDBLK
  0
BLOCK
  2
*XH35
  3
*XH
 10
0.0
 20
0.0
 70
65
  0
LINE
  8
1
  6
CONTINUOUS
 62
4
 10
-2.7251971E-001
 20
-2.7251971E-001
 11
2.7251971E-001
 21
2.7251971E-001
  0
LINE
  8
1
  6
CONTINUOUS
 62
4
 10
-1.2274803
 20
8.9384005E-001
 11
2.7251971E-001
 21
2.3938401
  0
LINE
  8
1
  6
CONTINUOUS
 62
4
 10
-1.2274803
 20
3.0151604
 11
2.7251971E-001
 21
4.5151604
  0
LINE
  8
1
  6
CONTINUOUS
 62
4
 10
-1.2274803
 20
5.1364807
 11
2.7251971E-001
 21
6.6364807
  0
LINE
  8
1
  6
CONTINUOUS
 62
4
 10
-1.2274803
 20
7.2578011
 11
2.7251971E-001
 21
8.7578011
  0
LINE
  8
1
  6
CONTINUOUS
 62
4
 10
-1.2274803
 20
9.3791214
 11
2.7251971E-001
 21
1.0879121E+001
  0
LINE
  8
1
  6
CONTINUOUS
 62
4
 10
-1.2274803
 20
1.1500442E+001
 11
2.7251971E-001
 21
1.3000442E+001
  0
LINE
  8
1
  6
CONTINUOUS
 62
4
 10
-1.2274803
 20
1.3621762E+001
 11
2.7251971E-001
 21
1.5121762E+001
  0
LINE
  8
1
  6
CONTINUOUS
 62
4
 10
-1.2274803
 20
1.5743082E+001
 11
2.7251971E-001
 21
1.7243082E+001
  0
LINE
  8
1
  6
CONTINUOUS
 62
4
 10
-1.2274803
 20
1.7864403E+001
 11
2.7251971E-001
 21
1.9364403E+001
  0
LINE
  8
1
  6
CONTINUOUS
 62
4
 10
-1.2274803
 20
1.9985723E+001
 11
2.7251971E-001
 21
2.1485723E+001
  0
LINE
  8
1
  6
CONTINUOUS
 62
4
 10
-1.2274803
 20
2.2107043E+001
 11
2.7251971E-001
 21
2.3607043E+001
  0
LINE
  8
1
  6
CONTINUOUS
 62
4
 10
-1.2274803
 20
2.4228364E+001
 11
2.7251971E-001
 21
2.5728364E+001
  0
LINE
  8
1
  6
CONTINUOUS
 62
4
 10
-1.2274803
 20
2.6349684E+001
 11
2.7251971E-001
 21
2.7849684E+001
  0
LINE
  8
1
  6
CONTINUOUS
 62
4
 10
-1.2274803
 20
2.8471005E+001
 11
2.7251971E-001
 21
2.9971005E+001
  0
LINE
  8
1
  6
CONTINUOUS
 62
4
 10
-1.2274803
 20
3.0592325E+001
 11
2.7251971E-001
 21
3.2092325E+001
  0
LINE
  8
1
  6
CONTINUOUS
 62
4
 10
-1.2274803
 20
3.2713645E+001
 11
2.7251971E-001
 21
3.4213645E+001
  0
LINE
  8
1
  6
CONTINUOUS
 62
4
 10
-1.2274803
 20
3.4834966E+001
 11
2.7251971E-001
 21
3.6334966E+001
  0
LINE
  8
1
  6
CONTINUOUS
 62
4
 10
-1.2274803
 20
3.6956286E+001
 11
2.7251971E-001
 21
3.8456286E+001
  0
LINE
  8
1
  6
CONTINUOUS
 62
4
 10
-1.2274803
 20
3.9077606E+001
 11
2.7251971E-001
 21
4.0577606E+001
  0
LINE
  8
1
  6
CONTINUOUS
 62
4
 10
-1.2274803
 20
4.1198927E+001
 11
2.7251971E-001
 21
4.2698927E+001
  0
LINE
  8
1
  6
CONTINUOUS
 62
4
 10
-1.2274803
 20
4.3320247E+001
 11
2.7251971E-001
 21
4.4820247E+001
  0
LINE
  8
1
  6
CONTINUOUS
 62
4
 10
-1.2274803
 20
4.5441567E+001
 11
2.7251971E-001
 21
4.6941567E+001
  0
LINE
  8
1
  6
CONTINUOUS
 62
4
 10
-1.2274803
 20
4.7562888E+001
 11
-1.0854851
 21
4.7704883E+001
  0
ENDBLK
  0
BLOCK
  2
*E906
  3
*E906
 10
6.8215414E+001
 20
1.7348951E+002
 70
65
  0
ARC
  8
1
  6
CONTINUOUS
 62
3
 10
6.8215414E+001
 20
1.7348951E+002
 40
5.0E-001
 50
1.7999998E+002
 51
2.7E+002
  0
ENDBLK
  0
BLOCK
  2
*E908
  3
*E908
 10
6.8215414E+001
 20
1.7598951E+002
 70
65
  0
ARC
  8
1
  6
CONTINUOUS
 62
3
 10
6.8215414E+001
 20
1.7598951E+002
 40
5.0E-001
 50
2.7E+002
 51
3.6E+002
  0
ENDBLK
  0
BLOCK
  2
*E910
  3
*E910
 10
5.9215414E+001
 20
1.7348951E+002
 70
65
  0
ARC
  8
1
  6
CONTINUOUS
 62
3
 10
5.9215414E+001
 20
1.7348951E+002
 40
5.0E-001
 50
1.7999998E+002
 51
2.7E+002
  0
ENDBLK
  0
BLOCK
  2
*E912
  3
*E912
 10
5.9215414E+001
 20
1.7598951E+002
 70
65
  0
ARC
  8
1
  6
CONTINUOUS
 62
3
 10
5.9215414E+001
 20
1.7598951E+002
 40
5.0E-001
 50
2.7E+002
 51
3.6E+002
  0
ENDBLK
  0
BLOCK
  2
*E914
  3
*E914
 10
5.3415414E+001
 20
1.7598951E+002
 70
65
  0
ARC
  8
1
  6
CONTINUOUS
 62
3
 10
5.3415414E+001
 20
1.7598951E+002
 40
5.0E-001
 50
0.0
 51
9.0E+001
  0
ENDBLK
  0
BLOCK
  2
*E917
  3
*E917
 10
5.3415414E+001
 20
1.7348951E+002
 70
65
  0
ARC
  8
1
  6
CONTINUOUS
 62
3
 10
5.3415414E+001
 20
1.7348951E+002
 40
5.0E-001
 50
9.0E+001
 51
1.8E+002
  0
ENDBLK
  0
BLOCK
  2
*E920
  3
*E920
 10
6.2915424E+001
 20
1.7348951E+002
 70
65
  0
ARC
  8
1
  6
CONTINUOUS
 62
3
 10
6.2915424E+001
 20
1.7348951E+002
 40
5.0E-001
 50
9.0E+001
 51
1.8E+002
  0
ENDBLK
  0
BLOCK
  2
*E921
  3
*E921
 10
6.2915424E+001
 20
1.7598951E+002
 70
65
  0
ARC
  8
1
  6
CONTINUOUS
 62
3
 10
6.2915424E+001
 20
1.7598951E+002
 40
5.0E-001
 50
0.0
 51
9.0E+001
  0
ENDBLK
  0
BLOCK
  2
*E1021
  3
*E1021
 10
1.6606642E+002
 20
1.9168961E+002
 70
65
  0
ARC
  8
1
  6
CONTINUOUS
 62
3
 10
1.6606642E+002
 20
1.9168961E+002
 40
1.0
 50
2.7E+002
 51
3.6E+002
  0
ENDBLK
  0
BLOCK
  2
*E1146
  3
*E1146
 10
5.1715414E+001
 20
2.0863951E+002
 70
65
  0
ARC
  8
1
  6
CONTINUOUS
 62
3
 10
5.1715414E+001
 20
2.0863951E+002
 40
8.0E-001
 50
1.7999998E+002
 51
2.7E+002
  0
ENDBLK
  0
BLOCK
  2
*E1147
  3
*E1147
 10
7.0415394E+001
 20
2.0863951E+002
 70
65
  0
ARC
  8
1
  6
CONTINUOUS
 62
3
 10
7.0415394E+001
 20
2.0863951E+002
 40
8.0E-001
 50
9.0E+001
 51
1.8E+002
  0
ENDBLK
  0
BLOCK
  2
*E1169
  3
*E1169
 10
7.4715274E+001
 20
1.6513941E+002
 70
65
  0
ARC
  8
1
  6
CONTINUOUS
 62
3
 10
7.4715274E+001
 20
1.6513941E+002
 40
5.0E-001
 50
0.0
 51
9.0E+001
  0
ENDBLK
  0
BLOCK
  2
*E1172
  3
*E1172
 10
6.3315404E+001
 20
1.6673941E+002
 70
65
  0
ARC
  8
1
  6
CONTINUOUS
 62
3
 10
6.3315404E+001
 20
1.6673941E+002
 40
3.5
 50
2.918016E+002
 51
3.690153E+002
  0
ENDBLK
  0
BLOCK
  2
*D1196
  3
*D
 10
0.0
 20
0.0
 70
65
  0
LINE
  8
1
  6
CONTINUOUS
 62
4
 10
6.5555394E+001
 20
2.0216091E+002
 11
6.5555394E+001
 21
2.1924441E+002
  0
LINE
  8
1
  6
CONTINUOUS
 62
4
 10
7.1215404E+001
 20
2.0863961E+002
 11
7.1215404E+001
 21
2.1924441E+002
  0
SOLID
  8
1
  6
CONTINUOUS
 62
0
 10
6.5555394E+001
 20
2.1774441E+002
 11
6.2555394E+001
 21
2.1824441E+002
 12
6.2555394E+001
 22
2.172444E+002
 13
6.2555394E+001
 23
2.172444E+002
  0
SOLID
  8
1
  6
CONTINUOUS
 62
0
 10
7.1215404E+001
 20
2.1774441E+002
 11
7.4215404E+001
 21
2.172444E+002
 12
7.4215404E+001
 22
2.1824441E+002
 13
7.4215404E+001
 23
2.1824441E+002
  0
LINE
  8
1
  6
CONTINUOUS
 62
4
 10
5.9555394E+001
 20
2.1774441E+002
 11
7.1215404E+001
 21
2.1774441E+002
  0
LINE
  8
1
  6
CONTINUOUS
 62
4
 10
7.1215404E+001
 20
2.1774441E+002
 11
8.5592654E+001
 21
2.1774441E+002
  0
ENDBLK
  0
BLOCK
  2
*D1198
  3
*D
 10
0.0
 20
0.0
 70
65
  0
LINE
  8
1
  6
CONTINUOUS
 62
4
 10
6.5555394E+001
 20
2.0216091E+002
 11
6.5555394E+001
 21
2.1924441E+002
  0
LINE
  8
1
  6
CONTINUOUS
 62
4
 10
5.5395394E+001
 20
2.0216091E+002
 11
5.5395394E+001
 21
2.1924441E+002
  0
SOLID
  8
1
  6
CONTINUOUS
 62
0
 10
6.5555394E+001
 20
2.1774441E+002
 11
6.2555394E+001
 21
2.1824441E+002
 12
6.2555394E+001
 22
2.172444E+002
 13
6.2555394E+001
 23
2.172444E+002
  0
SOLID
  8
1
  6
CONTINUOUS
 62
0
 10
5.5395394E+001
 20
2.1774441E+002
 11
5.8395394E+001
 21
2.172444E+002
 12
5.8395394E+001
 22
2.1824441E+002
 13
5.8395394E+001
 23
2.1824441E+002
  0
LINE
  8
1
  6
CONTINUOUS
 62
4
 10
6.5555394E+001
 20
2.1774441E+002
 11
5.9811174E+001
 21
2.1774441E+002
  0
LINE
  8
1
  6
CONTINUOUS
 62
4
 10
5.5395394E+001
 20
2.1774441E+002
 11
5.9811174E+001
 21
2.1774441E+002
  0
ENDBLK
  0
BLOCK
  2
*D1200
  3
*D
 10
0.0
 20
0.0
 70
65
  0
LINE
  8
1
  6
CONTINUOUS
 62
4
 10
5.0915414E+001
 20
2.0863961E+002
 11
5.0915414E+001
 21
2.2602101E+002
  0
LINE
  8
1
  6
CONTINUOUS
 62
4
 10
7.1215404E+001
 20
2.0863961E+002
 11
7.1215404E+001
 21
2.2602101E+002
  0
SOLID
  8
1
  6
CONTINUOUS
 62
0
 10
5.0915414E+001
 20
2.2452101E+002
 11
5.3915414E+001
 21
2.24021E+002
 12
5.3915414E+001
 22
2.2502101E+002
 13
5.3915414E+001
 23
2.2502101E+002
  0
SOLID
  8
1
  6
CONTINUOUS
 62
0
 10
7.1215404E+001
 20
2.2452101E+002
 11
6.8215404E+001
 21
2.2502101E+002
 12
6.8215404E+001
 22
2.24021E+002
 13
6.8215404E+001
 23
2.24021E+002
  0
LINE
  8
1
  6
CONTINUOUS
 62
4
 10
5.0915414E+001
 20
2.2452101E+002
 11
6.0453204E+001
 21
2.2452101E+002
  0
LINE
  8
1
  6
CONTINUOUS
 62
4
 10
7.1215404E+001
 20
2.2452101E+002
 11
6.0453204E+001
 21
2.2452101E+002
  0
ENDBLK
  0
BLOCK
  2
*D1201
  3
*D
 10
0.0
 20
0.0
 70
65
  0
LINE
  8
1
  6
CONTINUOUS
 62
4
 10
5.1715314E+001
 20
2.0943951E+002
 11
4.4495214E+001
 21
2.0943951E+002
  0
LINE
  8
1
  6
CONTINUOUS
 62
4
 10
5.1715314E+001
 20
1.6543951E+002
 11
4.4495214E+001
 21
1.6543951E+002
  0
SOLID
  8
1
  6
CONTINUOUS
 62
0
 10
4.5995214E+001
 20
2.0943951E+002
 11
4.549521E+001
 21
2.0643951E+002
 12
4.6495218E+001
 22
2.0643951E+002
 13
4.6495218E+001
 23
2.0643951E+002
  0
SOLID
  8
1
  6
CONTINUOUS
 62
0
 10
4.5995214E+001
 20
1.6543951E+002
 11
4.6495218E+001
 21
1.6843951E+002
 12
4.549521E+001
 22
1.6843951E+002
 13
4.549521E+001
 23
1.6843951E+002
  0
LINE
  8
1
  6
CONTINUOUS
 62
4
 10
4.5995214E+001
 20
2.0943951E+002
 11
4.5995214E+001
 21
1.8788121E+002
  0
LINE
  8
1
  6
CONTINUOUS
 62
4
 10
4.5995214E+001
 20
1.6543951E+002
 11
4.5995214E+001
 21
1.8788121E+002
  0
TEXT
  8
1
  6
CONTINUOUS
 62
4
 10
4.4494214E+001
 20
1.8548121E+002
 40
3.0
  1
44
 41
8.0E-001
 50
9.0E+001
 51
1.0
  0
ENDBLK
  0
BLOCK
  2
*D1205
  3
*D
 10
0.0
 20
0.0
 70
65
  0
LINE
  8
1
  6
CONTINUOUS
 62
4
 10
5.9814304E+001
 20
2.1163951E+002
 11
3.8170784E+001
 21
2.1163951E+002
  0
LINE
  8
1
  6
CONTINUOUS
 62
4
 10
5.9802224E+001
 20
1.6323941E+002
 11
3.8170784E+001
 21
1.6323941E+002
  0
SOLID
  8
1
  6
CONTINUOUS
 62
0
 10
3.9670784E+001
 20
2.1163951E+002
 11
3.917078E+001
 21
2.0863951E+002
 12
4.0170788E+001
 22
2.0863951E+002
 13
4.0170788E+001
 23
2.0863951E+002
  0
SOLID
  8
1
  6
CONTINUOUS
 62
0
 10
3.9670784E+001
 20
1.6323941E+002
 11
4.0170788E+001
 21
1.6623941E+002
 12
3.917078E+001
 22
1.6623941E+002
 13
3.917078E+001
 23
1.6623941E+002
  0
LINE
  8
1
  6
CONTINUOUS
 62
4
 10
3.9670784E+001
 20
2.1163951E+002
 11
3.9670784E+001
 21
1.8745591E+002
  0
LINE
  8
1
  6
CONTINUOUS
 62
4
 10
3.9670784E+001
 20
1.6323941E+002
 11
3.9670784E+001
 21
1.8745591E+002
  0
ENDBLK
  0
BLOCK
  2
*D1208
  3
*D
 10
0.0
 20
0.0
 70
65
  0
LINE
  8
1
  6
CONTINUOUS
 62
4
 10
1.7306652E+002
 20
1.9963961E+002
 11
1.8673592E+002
 21
1.9963961E+002
  0
LINE
  8
1
  6
CONTINUOUS
 62
4
 10
1.7306652E+002
 20
2.0063961E+002
 11
1.8673592E+002
 21
2.0063961E+002
  0
SOLID
  8
1
  6
CONTINUOUS
 62
0
 10
1.8523592E+002
 20
1.9963961E+002
 11
1.8473592E+002
 21
1.9663961E+002
 12
1.8573593E+002
 22
1.9663961E+002
 13
1.8573593E+002
 23
1.9663961E+002
  0
SOLID
  8
1
  6
CONTINUOUS
 62
0
 10
1.8523592E+002
 20
2.0063961E+002
 11
1.8573593E+002
 21
2.0363961E+002
 12
1.8473592E+002
 22
2.0363961E+002
 13
1.8473592E+002
 23
2.0363961E+002
  0
LINE
  8
1
  6
CONTINUOUS
 62
4
 10
1.8523592E+002
 20
1.9363961E+002
 11
1.8523592E+002
 21
2.0063961E+002
  0
LINE
  8
1
  6
CONTINUOUS
 62
4
 10
1.8523592E+002
 20
2.0063961E+002
 11
1.8523592E+002
 21
2.1484636E+002
  0
ENDBLK
  0
BLOCK
  2
*D1210
  3
*D
 10
0.0
 20
0.0
 70
65
  0
LINE
  8
1
  6
CONTINUOUS
 62
4
 10
1.7315992E+002
 20
1.7473961E+002
 11
1.9370892E+002
 21
1.7473961E+002
  0
LINE
  8
1
  6
CONTINUOUS
 62
4
 10
1.7315992E+002
 20
2.0013961E+002
 11
1.8406463E+002
 21
2.0013961E+002
  0
LINE
  8
1
  6
CONTINUOUS
 62
4
 10
1.8737291E+002
 20
2.0013961E+002
 11
1.9370892E+002
 21
2.0013961E+002
  0
SOLID
  8
1
  6
CONTINUOUS
 62
0
 10
1.9220892E+002
 20
1.7473961E+002
 11
1.9270893E+002
 21
1.7773961E+002
 12
1.9170892E+002
 22
1.7773961E+002
 13
1.9170892E+002
 23
1.7773961E+002
  0
SOLID
  8
1
  6
CONTINUOUS
 62
0
 10
1.9220892E+002
 20
2.0013961E+002
 11
1.9170892E+002
 21
1.9713961E+002
 12
1.9270893E+002
 22
1.9713961E+002
 13
1.9270893E+002
 23
1.9713961E+002
  0
LINE
  8
1
  6
CONTINUOUS
 62
4
 10
1.9220892E+002
 20
1.7473961E+002
 11
1.9220892E+002
 21
1.8754991E+002
  0
LINE
  8
1
  6
CONTINUOUS
 62
4
 10
1.9220892E+002
 20
2.0013961E+002
 11
1.9220892E+002
 21
1.8754991E+002
  0
ENDBLK
  0
BLOCK
  2
*D1212
  3
*D
 10
0.0
 20
0.0
 70
65
  0
LINE
  8
1
  6
CONTINUOUS
 62
4
 10
1.5856642E+002
 20
2.0943971E+002
 11
1.5856642E+002
 21
2.1924441E+002
  0
LINE
  8
1
  6
CONTINUOUS
 62
4
 10
1.7006642E+002
 20
2.1138211E+002
 11
1.7006642E+002
 21
2.1924441E+002
  0
SOLID
  8
1
  6
CONTINUOUS
 62
0
 10
1.5856642E+002
 20
2.1774441E+002
 11
1.6156642E+002
 21
2.172444E+002
 12
1.6156642E+002
 22
2.1824441E+002
 13
1.6156642E+002
 23
2.1824441E+002
  0
SOLID
  8
1
  6
CONTINUOUS
 62
0
 10
1.7006642E+002
 20
2.1774441E+002
 11
1.6706642E+002
 21
2.1824441E+002
 12
1.6706642E+002
 22
2.172444E+002
 13
1.6706642E+002
 23
2.172444E+002
  0
LINE
  8
1
  6
CONTINUOUS
 62
4
 10
1.5856642E+002
 20
2.1774441E+002
 11
1.6475332E+002
 21
2.1774441E+002
  0
LINE
  8
1
  6
CONTINUOUS
 62
4
 10
1.7006642E+002
 20
2.1774441E+002
 11
1.6475332E+002
 21
2.1774441E+002
  0
ENDBLK
  0
BLOCK
  2
*D1213
  3
*D
 10
0.0
 20
0.0
 70
65
  0
LINE
  8
1
  6
CONTINUOUS
 62
4
 10
1.7006642E+002
 20
2.1138211E+002
 11
1.7006642E+002
 21
2.3377971E+002
  0
LINE
  8
1
  6
CONTINUOUS
 62
4
 10
1.7406642E+002
 20
1.9990761E+002
 11
1.7406642E+002
 21
2.3377971E+002
  0
SOLID
  8
1
  6
CONTINUOUS
 62
0
 10
1.7006642E+002
 20
2.3227971E+002
 11
1.6706642E+002
 21
2.3277971E+002
 12
1.6706642E+002
 22
2.317797E+002
 13
1.6706642E+002
 23
2.317797E+002
  0
SOLID
  8
1
  6
CONTINUOUS
 62
0
 10
1.7406642E+002
 20
2.3227971E+002
 11
1.7706642E+002
 21
2.317797E+002
 12
1.7706642E+002
 22
2.3277971E+002
 13
1.7706642E+002
 23
2.3277971E+002
  0
LINE
  8
1
  6
CONTINUOUS
 62
4
 10
1.6406642E+002
 20
2.3227971E+002
 11
1.7006642E+002
 21
2.3227971E+002
  0
LINE
  8
1
  6
CONTINUOUS
 62
4
 10
1.8006642E+002
 20
2.3227971E+002
 11
1.7006642E+002
 21
2.3227971E+002
  0
TEXT
  8
1
  6
CONTINUOUS
 62
4
 10
1.7091912E+002
 20
2.3378071E+002
 40
3.0
  1
4
 41
8.0E-001
 51
1.0
  0
ENDBLK
  0
BLOCK
  2
*D1214
  3
*D
 10
0.0
 20
0.0
 70
65
  0
LINE
  8
1
  6
CONTINUOUS
 62
4
 10
1.7006642E+002
 20
2.1138211E+002
 11
1.7006642E+002
 21
2.2602101E+002
  0
LINE
  8
1
  6
CONTINUOUS
 62
4
 10
1.1716642E+002
 20
2.0543961E+002
 11
1.1716642E+002
 21
2.2602101E+002
  0
SOLID
  8
1
  6
CONTINUOUS
 62
0
 10
1.7006642E+002
 20
2.2452101E+002
 11
1.6706642E+002
 21
2.2502101E+002
 12
1.6706642E+002
 22
2.24021E+002
 13
1.6706642E+002
 23
2.24021E+002
  0
SOLID
  8
1
  6
CONTINUOUS
 62
0
 10
1.1716642E+002
 20
2.2452101E+002
 11
1.2016642E+002
 21
2.24021E+002
 12
1.2016642E+002
 22
2.2502101E+002
 13
1.2016642E+002
 23
2.2502101E+002
  0
LINE
  8
1
  6
CONTINUOUS
 62
4
 10
1.7006642E+002
 20
2.2452101E+002
 11
1.4314672E+002
 21
2.2452101E+002
  0
LINE
  8
1
  6
CONTINUOUS
 62
4
 10
1.1716642E+002
 20
2.2452101E+002
 11
1.4314672E+002
 21
2.2452101E+002
  0
TEXT
  8
1
  6
CONTINUOUS
 62
4
 10
1.4074672E+002
 20
2.2602201E+002
 40
3.0
  1
53
 41
8.0E-001
 50
3.6E+002
 51
1.0
  0
ENDBLK
  0
BLOCK
  2
*D1215
  3
*D
 10
0.0
 20
0.0
 70
65
  0
LINE
  8
1
  6
CONTINUOUS
 62
4
 10
1.7006642E+002
 20
2.1138211E+002
 11
1.7006642E+002
 21
2.3377971E+002
  0
LINE
  8
1
  6
CONTINUOUS
 62
4
 10
1.1416642E+002
 20
2.0853971E+002
 11
1.1416642E+002
 21
2.3377971E+002
  0
SOLID
  8
1
  6
CONTINUOUS
 62
0
 10
1.7006642E+002
 20
2.3227971E+002
 11
1.6706642E+002
 21
2.3277971E+002
 12
1.6706642E+002
 22
2.317797E+002
 13
1.6706642E+002
 23
2.317797E+002
  0
SOLID
  8
1
  6
CONTINUOUS
 62
0
 10
1.1416642E+002
 20
2.3227971E+002
 11
1.1716642E+002
 21
2.317797E+002
 12
1.1716642E+002
 22
2.3277971E+002
 13
1.1716642E+002
 23
2.3277971E+002
  0
LINE
  8
1
  6
CONTINUOUS
 62
4
 10
1.7006642E+002
 20
2.3227971E+002
 11
1.4216462E+002
 21
2.3227971E+002
  0
LINE
  8
1
  6
CONTINUOUS
 62
4
 10
1.1416642E+002
 20
2.3227971E+002
 11
1.4216462E+002
 21
2.3227971E+002
  0
TEXT
  8
1
  6
CONTINUOUS
 62
4
 10
1.3976462E+002
 20
2.3378071E+002
 40
3.0
  1
56
 41
8.0E-001
 50
3.6E+002
 51
1.0
  0
ENDBLK
  0
BLOCK
  2
*E1251
  3
*E1251
 10
7.5215404E+001
 20
1.8593941E+002
 70
65
  0
ARC
  8
1
  6
CONTINUOUS
 62
3
 10
7.5215404E+001
 20
1.8593941E+002
 40
5.0E-001
 50
0.0
 51
1.050002E+002
  0
ENDBLK
  0
ENDSEC
  0
SECTION
  2
ENTITIES
  0
INSERT
  2
RAHMENA4
  8
1
 10
0.0
 20
0.0
  0
TEXT
  8
1
  6
CONTINUOUS
 62
4
 10
2.6911155E+001
 20
9.0909862E+001
 40
3.0
  1
Gewicht: ca.30g
 41
8.1001493E-001
  0
TEXT
  8
1
  6
CONTINUOUS
 62
4
 10
1.3749325E+002
 20
2.3356121E+001
 40
3.5
  1
1:1
 41
6.2085333E-001
  0
TEXT
  8
1
  6
CONTINUOUS
 62
4
 10
1.1065204E+002
 20
2.7565649E+001
 40
2.4
  1
21.5.87 Dietzel
 41
6.0E-001
  0
TEXT
  8
1
  6
CONTINUOUS
 62
4
 10
1.5164038E+002
 20
7.207032
 40
5.0
  1
GJL 120 0420
 41
8.0E-001
  0
TEXT
  8
1
  6
CONTINUOUS
 62
4
 10
1.7116737E+002
 20
2.3163264E+001
 40
2.5
  1
X
 41
1.066667
  0
TEXT
  8
1
  6
CONTINUOUS
 62
4
 10
7.6737784E+001
 20
1.4823414E+001
 40
2.5
  1
STO/CLD
 41
1.083333
  0
TEXT
  8
1
  6
CONTINUOUS
 62
4
 10
2.7057241E+001
 20
2.7974514E+001
 40
2.5
  1
-
 41
7.6E-001
  0
TEXT
  8
1
  6
CONTINUOUS
 62
1
 10
7.4109235E+001
 20
6.98293
 40
4.5
  1
Massbild
 41
8.0E-001
 72
1
 11
5.9709235E+001
 21
6.98293
  0
TEXT
  8
1
  6
CONTINUOUS
 62
4
 10
3.3024961E+001
 20
2.7838884E+001
 40
2.2
  1
JL 121 0013
 41
7.1572832E-001
  0
TEXT
  8
1
  6
CONTINUOUS
 62
4
 10
3.3139981E+001
 20
2.3639074E+001
 40
2.2
  1
JL 121 031
 41
6.8621326E-001
  0
LINE
  8
1
  6
CENTERLINE
 62
1
 10
7.4466054E+001
 20
1.8743951E+002
 11
4.9378744E+001
 21
1.8743951E+002
  0
POLYLINE
  8
1
  6
CONTINUOUS
 62
3
 66
1
 40
5.0E-001
 41
5.0E-001
 70
0
  0
VERTEX
  8
1
 42
0.0
 10
5.0915414E+001
 20
1.6623951E+002
 70
0
  0
VERTEX
  8
1
 42
0.0
 10
5.0915414E+001
 20
1.8743951E+002
 70
0
  0
SEQEND
  0
POLYLINE
  8
1
  6
CONTINUOUS
 62
3
 66
1
 40
5.0E-001
 41
5.0E-001
 70
0
  0
VERTEX
  8
1
 42
1.0
 10
6.2815404E+001
 20
1.8743951E+002
 70
0
  0
VERTEX
  8
1
 42
1.0
 10
5.9315404E+001
 20
1.8743951E+002
 70
0
  0
VERTEX
  8
1
 42
0.0
 10
6.2815404E+001
 20
1.8743951E+002
 70
0
  0
SEQEND
  0
POLYLINE
  8
1
  6
CONTINUOUS
 62
3
 66
1
 40
5.0E-001
 41
5.0E-001
 70
0
  0
VERTEX
  8
1
 42
1.0
 10
6.4315404E+001
 20
1.8743951E+002
 70
0
  0
VERTEX
  8
1
 42
1.0
 10
5.7815404E+001
 20
1.8743951E+002
 70
0
  0
VERTEX
  8
1
 42
0.0
 10
6.4315404E+001
 20
1.8743951E+002
 70
0
  0
SEQEND
  0
POLYLINE
  8
1
  6
CONTINUOUS
 62
3
 66
1
 40
5.0E-001
 41
5.0E-001
 70
0
  0
VERTEX
  8
1
 42
0.0
 10
7.1415394E+001
 20
1.8593951E+002
 70
0
  0
VERTEX
  8
1
 42
0.0
 10
7.1215404E+001
 20
1.8593951E+002
 70
0
  0
SEQEND
  0
POLYLINE
  8
1
  6
CONTINUOUS
 62
3
 66
1
 40
5.0E-001
 41
5.0E-001
 70
0
  0
VERTEX
  8
1
 42
0.0
 10
7.2715404E+001
 20
1.8541451E+002
 70
0
  0
VERTEX
  8
1
 42
0.0
 10
7.2715404E+001
 20
1.8743951E+002
 70
0
  0
SEQEND
  0
POLYLINE
  8
1
  6
CONTINUOUS
 62
3
 66
1
 40
5.0E-001
 41
5.0E-001
 70
0
  0
VERTEX
  8
1
 42
0.0
 10
7.2715404E+001
 20
1.8541451E+002
 70
0
  0
VERTEX
  8
1
 42
0.0
 10
7.2515404E+001
 20
1.8541451E+002
 70
0
  0
SEQEND
  0
POLYLINE
  8
1
  6
CONTINUOUS
 62
3
 66
1
 40
5.0E-001
 41
5.0E-001
 70
0
  0
VERTEX
  8
1
 42
0.0
 10
7.1415394E+001
 20
1.8593951E+002
 70
0
  0
VERTEX
  8
1
 42
0.0
 10
7.2515404E+001
 20
1.8541451E+002
 70
0
  0
SEQEND
  0
POLYLINE
  8
1
  6
CONTINUOUS
 62
3
 66
1
 40
5.0E-001
 41
5.0E-001
 70
0
  0
VERTEX
  8
1
 42
0.0
 10
7.1215404E+001
 20
1.6623951E+002
 70
0
  0
VERTEX
  8
1
 42
0.0
 10
7.1215404E+001
 20
1.8593951E+002
 70
0
  0
SEQEND
  0
POLYLINE
  8
1
  6
CONTINUOUS
 62
3
 66
1
 40
5.0E-001
 41
5.0E-001
 70
0
  0
VERTEX
  8
1
 42
4.1421356E-001
 10
5.0915414E+001
 20
1.6623951E+002
 70
0
  0
VERTEX
  8
1
 42
0.0
 10
5.1715414E+001
 20
1.6543951E+002
 70
0
  0
SEQEND
  0
POLYLINE
  8
1
  6
CONTINUOUS
 62
3
 66
1
 40
5.0E-001
 41
5.0E-001
 70
0
  0
VERTEX
  8
1
 42
0.0
 10
1.6906642E+002
 20
1.7398961E+002
 70
0
  0
VERTEX
  8
1
 42
0.0
 10
1.6506642E+002
 20
1.7398961E+002
 70
0
  0
SEQEND
  0
POLYLINE
  8
1
  6
CONTINUOUS
 62
3
 66
1
 40
5.0E-001
 41
5.0E-001
 70
0
  0
VERTEX
  8
1
 42
0.0
 10
1.6506642E+002
 20
1.7548961E+002
 70
0
  0
VERTEX
  8
1
 42
0.0
 10
1.6906642E+002
 20
1.7548961E+002
 70
0
  0
SEQEND
  0
POLYLINE
  8
1
  6
CONTINUOUS
 62
3
 66
1
 40
5.0E-001
 41
5.0E-001
 70
0
  0
VERTEX
  8
1
 42
0.0
 10
1.7406642E+002
 20
1.7497161E+002
 70
0
  0
VERTEX
  8
1
 42
0.0
 10
1.7406642E+002
 20
1.7450751E+002
 70
0
  0
SEQEND
  0
LINE
  8
1
  6
CENTERLINE
 62
1
 10
1.6124462E+002
 20
1.7473961E+002
 11
1.7315982E+002
 21
1.7473961E+002
  0
POLYLINE
  8
1
  6
CONTINUOUS
 62
3
 66
1
 40
5.0E-001
 41
5.0E-001
 70
0
  0
VERTEX
  8
1
 42
0.0
 10
1.7306642E+002
 20
1.7423961E+002
 70
0
  0
VERTEX
  8
1
 42
0.0
 10
1.7156642E+002
 20
1.7423961E+002
 70
0
  0
SEQEND
  0
POLYLINE
  8
1
  6
CONTINUOUS
 62
3
 66
1
 40
5.0E-001
 41
5.0E-001
 70
0
  0
VERTEX
  8
1
 42
0.0
 10
1.7306642E+002
 20
1.7523961E+002
 70
0
  0
VERTEX
  8
1
 42
0.0
 10
1.7156642E+002
 20
1.7523961E+002
 70
0
  0
SEQEND
  0
POLYLINE
  8
1
  6
CONTINUOUS
 62
3
 66
1
 40
5.0E-001
 41
5.0E-001
 70
0
  0
VERTEX
  8
1
 42
0.0
 10
1.7006642E+002
 20
1.7423961E+002
 70
0
  0
VERTEX
  8
1
 42
0.0
 10
1.7006642E+002
 20
1.7303951E+002
 70
0
  0
SEQEND
  0
POLYLINE
  8
1
  6
CONTINUOUS
 62
3
 66
1
 40
5.0E-001
 41
5.0E-001
 70
0
  0
VERTEX
  8
1
 42
0.0
 10
1.7306642E+002
 20
1.7423961E+002
 70
0
  0
VERTEX
  8
1
 42
0.0
 10
1.7406642E+002
 20
1.7450751E+002
 70
0
  0
SEQEND
  0
POLYLINE
  8
1
  6
CONTINUOUS
 62
3
 66
1
 40
5.0E-001
 41
5.0E-001
 70
0
  0
VERTEX
  8
1
 42
0.0
 10
1.5856642E+002
 20
1.8503951E+002
 70
0
  0
VERTEX
  8
1
 42
0.0
 10
1.5856642E+002
 20
1.7843961E+002
 70
0
  0
SEQEND
  0
POLYLINE
  8
1
  6
CONTINUOUS
 62
3
 66
1
 40
5.0E-001
 41
5.0E-001
 70
0
  0
VERTEX
  8
1
 42
0.0
 10
1.5856642E+002
 20
1.8293961E+002
 70
0
  0
VERTEX
  8
1
 42
0.0
 10
1.6356642E+002
 20
1.8293961E+002
 70
0
  0
SEQEND
  0
POLYLINE
  8
1
  6
CONTINUOUS
 62
3
 66
1
 40
5.0E-001
 41
5.0E-001
 70
0
  0
VERTEX
  8
1
 42
0.0
 10
1.6256642E+002
 20
1.7843961E+002
 70
0
  0
VERTEX
  8
1
 42
0.0
 10
1.5856642E+002
 20
1.7843961E+002
 70
0
  0
SEQEND
  0
POLYLINE
  8
1
  6
CONTINUOUS
 62
3
 66
1
 40
5.0E-001
 41
5.0E-001
 70
0
  0
VERTEX
  8
1
 42
4.1421356E-001
 10
7.0415394E+001
 20
1.6543951E+002
 70
0
  0
VERTEX
  8
1
 42
0.0
 10
7.1215394E+001
 20
1.6623951E+002
 70
0
  0
SEQEND
  0
POLYLINE
  8
1
  6
CONTINUOUS
 62
3
 66
1
 40
5.0E-001
 41
5.0E-001
 70
0
  0
VERTEX
  8
1
 42
0.0
 10
1.6356142E+002
 20
1.7593961E+002
 70
0
  0
VERTEX
  8
1
 42
0.0
 10
1.5856642E+002
 20
1.7593961E+002
 70
0
  0
SEQEND
  0
POLYLINE
  8
1
  6
CONTINUOUS
 62
3
 66
1
 40
5.0E-001
 41
5.0E-001
 70
0
  0
VERTEX
  8
1
 42
0.0
 10
1.6356642E+002
 20
1.8293961E+002
 70
0
  0
VERTEX
  8
1
 42
0.0
 10
1.6356642E+002
 20
1.7593961E+002
 70
0
  0
SEQEND
  0
POLYLINE
  8
1
  6
CONTINUOUS
 62
3
 66
1
 40
5.0E-001
 41
5.0E-001
 70
0
  0
VERTEX
  8
1
 42
0.0
 10
1.5856642E+002
 20
1.7593961E+002
 70
0
  0
VERTEX
  8
1
 42
0.0
 10
1.5856642E+002
 20
1.6543961E+002
 70
0
  0
SEQEND
  0
POLYLINE
  8
1
  6
CONTINUOUS
 62
3
 66
1
 40
5.0E-001
 41
5.0E-001
 70
0
  0
VERTEX
  8
1
 42
0.0
 10
1.5656642E+002
 20
2.0883961E+002
 70
0
  0
VERTEX
  8
1
 42
0.0
 10
1.5656642E+002
 20
2.0853951E+002
 70
0
  0
SEQEND
  0
POLYLINE
  8
1
  6
CONTINUOUS
 62
3
 66
1
 40
5.0E-001
 41
5.0E-001
 70
0
  0
VERTEX
  8
1
 42
0.0
 10
1.4706642E+002
 20
1.6543961E+002
 70
0
  0
VERTEX
  8
1
 42
0.0
 10
1.4706642E+002
 20
1.6633951E+002
 70
0
  0
SEQEND
  0
POLYLINE
  8
1
  6
CONTINUOUS
 62
3
 66
1
 40
5.0E-001
 41
5.0E-001
 70
0
  0
VERTEX
  8
1
 42
0.0
 10
1.6256642E+002
 20
1.8293961E+002
 70
0
  0
VERTEX
  8
1
 42
0.0
 10
1.6256642E+002
 20
1.7593961E+002
 70
0
  0
SEQEND
  0
POLYLINE
  8
1
  6
CONTINUOUS
 62
3
 66
1
 40
5.0E-001
 41
5.0E-001
 70
0
  0
VERTEX
  8
1
 42
0.0
 10
1.5656642E+002
 20
1.6603951E+002
 70
0
  0
VERTEX
  8
1
 42
0.0
 10
1.4707262E+002
 20
1.6603951E+002
 70
0
  0
SEQEND
  0
POLYLINE
  8
1
  6
CONTINUOUS
 62
3
 66
1
 40
5.0E-001
 41
5.0E-001
 70
0
  0
VERTEX
  8
1
 42
0.0
 10
1.5746642E+002
 20
1.8983961E+002
 70
0
  0
VERTEX
  8
1
 42
0.0
 10
1.5746642E+002
 20
1.8503951E+002
 70
0
  0
SEQEND
  0
LINE
  8
1
  6
CONTINUOUS
 62
4
 10
1.7080452E+002
 20
1.6544331E+002
 11
1.5769002E+002
 21
1.3682981E+002
  0
TEXT
  8
1
  6
CONTINUOUS
 62
4
 10
2.5603691E+001
 20
2.3572012E+001
 40
2.5
  1
 a
 41
6.9333336E-001
  0
POLYLINE
  8
1
  6
CONTINUOUS
 62
3
 66
1
 40
5.0E-001
 41
5.0E-001
 70
0
  0
VERTEX
  8
1
 42
0.0
 10
1.4706642E+002
 20
1.6543961E+002
 70
0
  0
VERTEX
  8
1
 42
0.0
 10
1.6506642E+002
 20
1.6543961E+002
 70
0
  0
SEQEND
  0
POLYLINE
  8
1
  6
CONTINUOUS
 62
4
 66
1
 40
0.0
 41
0.0
 70
2
  0
VERTEX
  8
1
 42
0.0
 10
1.7006642E+002
 20
2.1138201E+002
 70
0
  0
VERTEX
  8
1
 42
3.3468608E-003
 10
1.7007952E+002
 20
2.1137995E+002
 70
1
  0
VERTEX
  8
1
 42
3.3920724E-003
 10
1.7009263E+002
 20
2.1137806E+002
 70
0
  0
VERTEX
  8
1
 42
3.364216E-003
 10
1.7010574E+002
 20
2.1137636E+002
 70
1
  0
VERTEX
  8
1
 42
3.2509688E-003
 10
1.7011887E+002
 20
2.1137483E+002
 70
0
  0
VERTEX
  8
1
 42
3.1584526E-003
 10
1.70132E+002
 20
2.1137348E+002
 70
1
  0
VERTEX
  8
1
 42
3.0627399E-003
 10
1.7014516E+002
 20
2.1137228E+002
 70
0
  0
VERTEX
  8
1
 42
3.0025903E-003
 10
1.7015833E+002
 20
2.1137125E+002
 70
1
  0
VERTEX
  8
1
 42
2.9639028E-003
 10
1.7017151E+002
 20
2.1137038E+002
 70
0
  0
VERTEX
  8
1
 42
3.063266E-003
 10
1.7018471E+002
 20
2.1136966E+002
 70
1
  0
VERTEX
  8
1
 42
3.3300364E-003
 10
1.7019793E+002
 20
2.1136911E+002
 70
0
  0
VERTEX
  8
1
 42
3.5541262E-003
 10
1.7021116E+002
 20
2.1136875E+002
 70
1
  0
VERTEX
  8
1
 42
3.7927312E-003
 10
1.7022438E+002
 20
2.1136858E+002
 70
0
  0
VERTEX
  8
1
 42
4.0105186E-003
 10
1.7023761E+002
 20
2.1136862E+002
 70
1
  0
VERTEX
  8
1
 42
4.2627371E-003
 10
1.7025084E+002
 20
2.1136888E+002
 70
0
  0
VERTEX
  8
1
 42
4.4848197E-003
 10
1.7026405E+002
 20
2.1136937E+002
 70
1
  0
VERTEX
  8
1
 42
4.7325106E-003
 10
1.7027726E+002
 20
2.113701E+002
 70
0
  0
VERTEX
  8
1
 42
4.7700218E-003
 10
1.7029044E+002
 20
2.113711E+002
 70
1
  0
VERTEX
  8
1
 42
4.6065512E-003
 10
1.7030361E+002
 20
2.1137233E+002
 70
0
  0
VERTEX
  8
1
 42
4.4588038E-003
 10
1.7031675E+002
 20
2.1137381E+002
 70
1
  0
VERTEX
  8
1
 42
4.2899624E-003
 10
1.7032987E+002
 20
2.1137552E+002
 70
0
  0
VERTEX
  8
1
 42
4.1417864E-003
 10
1.7034296E+002
 20
2.1137745E+002
 70
1
  0
VERTEX
  8
1
 42
3.9773851E-003
 10
1.7035602E+002
 20
2.113796E+002
 70
0
  0
VERTEX
  8
1
 42
3.8330132E-003
 10
1.7036905E+002
 20
2.1138195E+002
 70
1
  0
VERTEX
  8
1
 42
3.6723881E-003
 10
1.7038204E+002
 20
2.113845E+002
 70
0
  0
VERTEX
  8
1
 42
3.5308284E-003
 10
1.7039499E+002
 20
2.1138723E+002
 70
1
  0
VERTEX
  8
1
 42
3.3723688E-003
 10
1.704079E+002
 20
2.1139015E+002
 70
0
  0
VERTEX
  8
1
 42
3.2492449E-003
 10
1.7042077E+002
 20
2.1139323E+002
 70
1
  0
VERTEX
  8
1
 42
3.127495E-003
 10
1.7043359E+002
 20
2.1139648E+002
 70
0
  0
VERTEX
  8
1
 42
3.0212631E-003
 10
1.7044637E+002
 20
2.1139989E+002
 70
1
  0
VERTEX
  8
1
 42
2.9029961E-003
 10
1.7045911E+002
 20
2.1140345E+002
 70
0
  0
VERTEX
  8
1
 42
2.7976117E-003
 10
1.7047181E+002
 20
2.1140715E+002
 70
1
  0
VERTEX
  8
1
 42
2.6783188E-003
 10
1.7048446E+002
 20
2.1141099E+002
 70
0
  0
VERTEX
  8
1
 42
2.572615E-003
 10
1.7049707E+002
 20
2.1141497E+002
 70
1
  0
VERTEX
  8
1
 42
2.4536579E-003
 10
1.7050965E+002
 20
2.1141907E+002
 70
0
  0
VERTEX
  8
1
 42
2.3487288E-003
 10
1.7052218E+002
 20
2.114233E+002
 70
1
  0
VERTEX
  8
1
 42
2.2311712E-003
 10
1.7053468E+002
 20
2.1142764E+002
 70
0
  0
VERTEX
  8
1
 42
2.1257581E-003
 10
1.7054713E+002
 20
2.1143209E+002
 70
1
  0
VERTEX
  8
1
 42
2.0056601E-003
 10
1.7055955E+002
 20
2.1143665E+002
 70
0
  0
VERTEX
  8
1
 42
1.905807E-003
 10
1.7057193E+002
 20
2.114413E+002
 70
1
  0
VERTEX
  8
1
 42
1.8004689E-003
 10
1.7058428E+002
 20
2.1144604E+002
 70
0
  0
VERTEX
  8
1
 42
1.7251324E-003
 10
1.7059659E+002
 20
2.1145087E+002
 70
1
  0
VERTEX
  8
1
 42
1.6600434E-003
 10
1.7060886E+002
 20
2.1145578E+002
 70
0
  0
VERTEX
  8
1
 42
1.5998974E-003
 10
1.706211E+002
 20
2.1146077E+002
 70
1
  0
VERTEX
  8
1
 42
1.5293417E-003
 10
1.7063331E+002
 20
2.1146584E+002
 70
0
  0
VERTEX
  8
1
 42
1.467326E-003
 10
1.7064549E+002
 20
2.1147098E+002
 70
1
  0
VERTEX
  8
1
 42
1.3980122E-003
 10
1.7065764E+002
 20
2.1147619E+002
 70
0
  0
VERTEX
  8
1
 42
1.3363656E-003
 10
1.7066976E+002
 20
2.1148147E+002
 70
1
  0
VERTEX
  8
1
 42
1.2666843E-003
 10
1.7068185E+002
 20
2.1148682E+002
 70
0
  0
VERTEX
  8
1
 42
1.204972E-003
 10
1.7069392E+002
 20
2.1149222E+002
 70
1
  0
VERTEX
  8
1
 42
1.1355142E-003
 10
1.7070596E+002
 20
2.1149768E+002
 70
0
  0
VERTEX
  8
1
 42
1.0737642E-003
 10
1.7071798E+002
 20
2.1150319E+002
 70
1
  0
VERTEX
  8
1
 42
1.0039923E-003
 10
1.7072997E+002
 20
2.1150875E+002
 70
0
  0
VERTEX
  8
1
 42
9.428084E-004
 10
1.7074194E+002
 20
2.1151436E+002
 70
1
  0
VERTEX
  8
1
 42
8.746087E-004
 10
1.707539E+002
 20
2.1152002E+002
 70
0
  0
VERTEX
  8
1
 42
8.115994E-004
 10
1.7076583E+002
 20
2.1152571E+002
 70
1
  0
VERTEX
  8
1
 42
7.376989E-004
 10
1.7077774E+002
 20
2.1153144E+002
 70
0
  0
VERTEX
  8
1
 42
6.88756E-004
 10
1.7078964E+002
 20
2.1153721E+002
 70
1
  0
VERTEX
  8
1
 42
6.522227E-004
 10
1.7080152E+002
 20
2.1154301E+002
 70
0
  0
VERTEX
  8
1
 42
6.279092E-004
 10
1.7081339E+002
 20
2.1154884E+002
 70
1
  0
VERTEX
  8
1
 42
6.095756E-004
 10
1.7082524E+002
 20
2.1155469E+002
 70
0
  0
VERTEX
  8
1
 42
5.914758E-004
 10
1.7083708E+002
 20
2.1156058E+002
 70
1
  0
VERTEX
  8
1
 42
5.68981E-004
 10
1.708489E+002
 20
2.1156649E+002
 70
0
  0
VERTEX
  8
1
 42
5.494959E-004
 10
1.7086071E+002
 20
2.1157243E+002
 70
1
  0
VERTEX
  8
1
 42
5.28038E-004
 10
1.708725E+002
 20
2.1157839E+002
 70
0
  0
VERTEX
  8
1
 42
5.08891E-004
 10
1.7088429E+002
 20
2.1158438E+002
 70
1
  0
VERTEX
  8
1
 42
4.871626E-004
 10
1.7089606E+002
 20
2.1159039E+002
 70
0
  0
VERTEX
  8
1
 42
4.679177E-004
 10
1.7090782E+002
 20
2.1159643E+002
 70
1
  0
VERTEX
  8
1
 42
4.462407E-004
 10
1.7091956E+002
 20
2.1160248E+002
 70
0
  0
VERTEX
  8
1
 42
4.270299E-004
 10
1.709313E+002
 20
2.1160856E+002
 70
1
  0
VERTEX
  8
1
 42
4.053797E-004
 10
1.7094303E+002
 20
2.1161466E+002
 70
0
  0
VERTEX
  8
1
 42
3.861026E-004
 10
1.7095475E+002
 20
2.1162077E+002
 70
1
  0
VERTEX
  8
1
 42
3.642769E-004
 10
1.7096645E+002
 20
2.1162691E+002
 70
0
  0
VERTEX
  8
1
 42
3.452369E-004
 10
1.7097815E+002
 20
2.1163306E+002
 70
1
  0
VERTEX
  8
1
 42
3.241213E-004
 10
1.7098984E+002
 20
2.1163922E+002
 70
0
  0
VERTEX
  8
1
 42
3.041549E-004
 10
1.7100153E+002
 20
2.116454E+002
 70
1
  0
VERTEX
  8
1
 42
2.802391E-004
 10
1.710132E+002
 20
2.1165159E+002
 70
0
  0
VERTEX
  8
1
 42
2.647238E-004
 10
1.7102487E+002
 20
2.116578E+002
 70
1
  0
VERTEX
  8
1
 42
2.536474E-004
 10
1.7103653E+002
 20
2.1166402E+002
 70
0
  0
VERTEX
  8
1
 42
2.527787E-004
 10
1.7104819E+002
 20
2.1167025E+002
 70
1
  0
VERTEX
  8
1
 42
2.618872E-004
 10
1.7105984E+002
 20
2.1167649E+002
 70
0
  0
VERTEX
  8
1
 42
2.683171E-004
 10
1.7107148E+002
 20
2.1168275E+002
 70
1
  0
VERTEX
  8
1
 42
2.737316E-004
 10
1.7108311E+002
 20
2.1168901E+002
 70
0
  0
VERTEX
  8
1
 42
2.793028E-004
 10
1.7109474E+002
 20
2.1169529E+002
 70
1
  0
VERTEX
  8
1
 42
2.86359E-004
 10
1.7110636E+002
 20
2.1170159E+002
 70
0
  0
VERTEX
  8
1
 42
2.91163E-004
 10
1.7111798E+002
 20
2.1170789E+002
 70
1
  0
VERTEX
  8
1
 42
2.95325E-004
 10
1.7112959E+002
 20
2.1171421E+002
 70
0
  0
VERTEX
  8
1
 42
3.03776E-004
 10
1.7114118E+002
 20
2.1172055E+002
 70
1
  0
VERTEX
  8
1
 42
3.170834E-004
 10
1.7115278E+002
 20
2.117269E+002
 70
0
  0
VERTEX
  8
1
 42
3.126923E-004
 10
1.7116438E+002
 20
2.1173327E+002
 70
1
  0
VERTEX
  8
1
 42
2.958034E-004
 10
1.7117594E+002
 20
2.1173964E+002
 70
0
  0
VERTEX
  8
1
 42
3.349132E-004
 10
1.7118741E+002
 20
2.1174598E+002
 70
1
  0
VERTEX
  8
1
 42
4.115532E-004
 10
1.7119906E+002
 20
2.1175244E+002
 70
0
  0
VERTEX
  8
1
 42
3.127317E-004
 10
1.7121098E+002
 20
2.1175907E+002
 70
1
  0
VERTEX
  8
1
 42
9.74438E-005
 10
1.7122216E+002
 20
2.1176531E+002
 70
0
  0
VERTEX
  8
1
 42
4.601898E-004
 10
1.7123226E+002
 20
2.1177095E+002
 70
1
  0
VERTEX
  8
1
 42
8.1755E-004
 10
1.7124521E+002
 20
2.1177824E+002
 70
0
  0
VERTEX
  8
1
 42
4.012946E-004
 10
1.7126514E+002
 20
2.1178951E+002
 70
1
  0
VERTEX
  8
1
 42
2.112748E-004
 10
1.7129122E+002
 20
2.1180431E+002
 70
0
  0
SEQEND
  0
POLYLINE
  8
1
  6
CONTINUOUS
 62
3
 66
1
 40
5.0E-001
 41
5.0E-001
 70
0
  0
VERTEX
  8
1
 42
0.0
 10
1.6906642E+002
 20
1.7303951E+002
 70
0
  0
VERTEX
  8
1
 42
0.0
 10
1.6906642E+002
 20
1.7643961E+002
 70
0
  0
SEQEND
  0
POLYLINE
  8
1
  6
CONTINUOUS
 62
3
 66
1
 40
5.0E-001
 41
5.0E-001
 70
0
  0
VERTEX
  8
1
 42
0.0
 10
1.6506642E+002
 20
1.8743951E+002
 70
0
  0
VERTEX
  8
1
 42
0.0
 10
1.6506642E+002
 20
1.6543961E+002
 70
0
  0
SEQEND
  0
POLYLINE
  8
1
  6
CONTINUOUS
 62
3
 66
1
 40
5.0E-001
 41
5.0E-001
 70
0
  0
VERTEX
  8
1
 42
0.0
 10
1.6506642E+002
 20
1.7303951E+002
 70
0
  0
VERTEX
  8
1
 42
0.0
 10
1.7006642E+002
 20
1.7303951E+002
 70
0
  0
SEQEND
  0
POLYLINE
  8
1
  6
CONTINUOUS
 62
3
 66
1
 40
5.0E-001
 41
5.0E-001
 70
0
  0
VERTEX
  8
1
 42
0.0
 10
1.7006642E+002
 20
1.7643961E+002
 70
0
  0
VERTEX
  8
1
 42
0.0
 10
1.6506642E+002
 20
1.7643961E+002
 70
0
  0
SEQEND
  0
POLYLINE
  8
1
  6
CONTINUOUS
 62
3
 66
1
 40
5.0E-001
 41
5.0E-001
 70
0
  0
VERTEX
  8
1
 42
0.0
 10
1.7006642E+002
 20
1.7643961E+002
 70
0
  0
VERTEX
  8
1
 42
0.0
 10
1.7006642E+002
 20
1.7523961E+002
 70
0
  0
SEQEND
  0
POLYLINE
  8
1
  6
CONTINUOUS
 62
3
 66
1
 40
5.0E-001
 41
5.0E-001
 70
0
  0
VERTEX
  8
1
 42
0.0
 10
1.6606642E+002
 20
1.8418961E+002
 70
0
  0
VERTEX
  8
1
 42
0.0
 10
1.7006642E+002
 20
1.8418961E+002
 70
0
  0
SEQEND
  0
POLYLINE
  8
1
  6
CONTINUOUS
 62
3
 66
1
 40
5.0E-001
 41
5.0E-001
 70
0
  0
VERTEX
  8
1
 42
4.1421356E-001
 10
1.6606642E+002
 20
1.8418961E+002
 70
0
  0
VERTEX
  8
1
 42
0.0
 10
1.6506642E+002
 20
1.8318961E+002
 70
0
  0
SEQEND
  0
POLYLINE
  8
1
  6
CONTINUOUS
 62
3
 66
1
 40
5.0E-001
 41
5.0E-001
 70
0
  0
VERTEX
  8
1
 42
0.0
 10
5.1915414E+001
 20
1.7643951E+002
 70
0
  0
VERTEX
  8
1
 42
0.0
 10
5.1915414E+001
 20
1.7303951E+002
 70
0
  0
SEQEND
  0
POLYLINE
  8
1
  6
CONTINUOUS
 62
3
 66
1
 40
5.0E-001
 41
5.0E-001
 70
0
  0
VERTEX
  8
1
 42
0.0
 10
5.0915414E+001
 20
1.7303951E+002
 70
0
  0
VERTEX
  8
1
 42
0.0
 10
5.1915414E+001
 20
1.7303951E+002
 70
0
  0
SEQEND
  0
POLYLINE
  8
1
  6
CONTINUOUS
 62
3
 66
1
 40
5.0E-001
 41
5.0E-001
 70
0
  0
VERTEX
  8
1
 42
0.0
 10
5.0915414E+001
 20
1.7643951E+002
 70
0
  0
VERTEX
  8
1
 42
0.0
 10
5.1915414E+001
 20
1.7643951E+002
 70
0
  0
SEQEND
  0
POLYLINE
  8
1
  6
CONTINUOUS
 62
3
 66
1
 40
5.0E-001
 41
5.0E-001
 70
0
  0
VERTEX
  8
1
 42
0.0
 10
5.3915414E+001
 20
1.7303951E+002
 70
0
  0
VERTEX
  8
1
 42
0.0
 10
5.8715414E+001
 20
1.7303951E+002
 70
0
  0
SEQEND
  0
POLYLINE
  8
1
  6
CONTINUOUS
 62
3
 66
1
 40
5.0E-001
 41
5.0E-001
 70
0
  0
VERTEX
  8
1
 42
0.0
 10
5.3915414E+001
 20
1.7643951E+002
 70
0
  0
VERTEX
  8
1
 42
0.0
 10
5.8715414E+001
 20
1.7643951E+002
 70
0
  0
SEQEND
  0
POLYLINE
  8
1
  6
CONTINUOUS
 62
3
 66
1
 40
5.0E-001
 41
5.0E-001
 70
0
  0
VERTEX
  8
1
 42
0.0
 10
6.3415424E+001
 20
1.7303951E+002
 70
0
  0
VERTEX
  8
1
 42
0.0
 10
6.3415424E+001
 20
1.7643951E+002
 70
0
  0
SEQEND
  0
POLYLINE
  8
1
  6
CONTINUOUS
 62
3
 66
1
 40
5.0E-001
 41
5.0E-001
 70
0
  0
VERTEX
  8
1
 42
0.0
 10
6.3415424E+001
 20
1.7303951E+002
 70
0
  0
VERTEX
  8
1
 42
0.0
 10
6.7715414E+001
 20
1.7303951E+002
 70
0
  0
SEQEND
  0
POLYLINE
  8
1
  6
CONTINUOUS
 62
3
 66
1
 40
5.0E-001
 41
5.0E-001
 70
0
  0
VERTEX
  8
1
 42
0.0
 10
6.3415424E+001
 20
1.7643951E+002
 70
0
  0
VERTEX
  8
1
 42
0.0
 10
6.7715414E+001
 20
1.7643951E+002
 70
0
  0
SEQEND
  0
POLYLINE
  8
1
  6
CONTINUOUS
 62
3
 66
1
 40
5.0E-001
 41
5.0E-001
 70
0
  0
VERTEX
  8
1
 42
0.0
 10
6.4415424E+001
 20
1.7643951E+002
 70
0
  0
VERTEX
  8
1
 42
0.0
 10
6.4415424E+001
 20
1.7303951E+002
 70
0
  0
SEQEND
  0
POLYLINE
  8
1
  6
CONTINUOUS
 62
3
 66
1
 40
5.0E-001
 41
5.0E-001
 70
0
  0
VERTEX
  8
1
 42
0.0
 10
6.5305394E+001
 20
1.7413951E+002
 70
0
  0
VERTEX
  8
1
 42
0.0
 10
6.5805394E+001
 20
1.7413951E+002
 70
0
  0
SEQEND
  0
POLYLINE
  8
1
  6
CONTINUOUS
 62
3
 66
1
 40
5.0E-001
 41
5.0E-001
 70
0
  0
VERTEX
  8
1
 42
0.0
 10
6.5305394E+001
 20
1.7533951E+002
 70
0
  0
VERTEX
  8
1
 42
0.0
 10
6.5305394E+001
 20
1.7413951E+002
 70
0
  0
SEQEND
  0
POLYLINE
  8
1
  6
CONTINUOUS
 62
3
 66
1
 40
5.0E-001
 41
5.0E-001
 70
0
  0
VERTEX
  8
1
 42
0.0
 10
6.5305394E+001
 20
1.7533951E+002
 70
0
  0
VERTEX
  8
1
 42
0.0
 10
6.5805394E+001
 20
1.7533951E+002
 70
0
  0
SEQEND
  0
POLYLINE
  8
1
  6
CONTINUOUS
 62
3
 66
1
 40
5.0E-001
 41
5.0E-001
 70
0
  0
VERTEX
  8
1
 42
0.0
 10
6.5805394E+001
 20
1.7533951E+002
 70
0
  0
VERTEX
  8
1
 42
0.0
 10
6.5805394E+001
 20
1.7413951E+002
 70
0
  0
SEQEND
  0
POLYLINE
  8
1
  6
CONTINUOUS
 62
3
 66
1
 40
5.0E-001
 41
5.0E-001
 70
0
  0
VERTEX
  8
1
 42
0.0
 10
5.5645394E+001
 20
1.7533951E+002
 70
0
  0
VERTEX
  8
1
 42
0.0
 10
5.5645394E+001
 20
1.7413951E+002
 70
0
  0
SEQEND
  0
POLYLINE
  8
1
  6
CONTINUOUS
 62
3
 66
1
 40
5.0E-001
 41
5.0E-001
 70
0
  0
VERTEX
  8
1
 42
0.0
 10
5.5145394E+001
 20
1.7533951E+002
 70
0
  0
VERTEX
  8
1
 42
0.0
 10
5.5145394E+001
 20
1.7413951E+002
 70
0
  0
SEQEND
  0
POLYLINE
  8
1
  6
CONTINUOUS
 62
3
 66
1
 40
5.0E-001
 41
5.0E-001
 70
0
  0
VERTEX
  8
1
 42
0.0
 10
5.4645394E+001
 20
1.7413951E+002
 70
0
  0
VERTEX
  8
1
 42
0.0
 10
5.5645394E+001
 20
1.7413951E+002
 70
0
  0
SEQEND
  0
POLYLINE
  8
1
  6
CONTINUOUS
 62
3
 66
1
 40
5.0E-001
 41
5.0E-001
 70
0
  0
VERTEX
  8
1
 42
0.0
 10
5.4645394E+001
 20
1.7533951E+002
 70
0
  0
VERTEX
  8
1
 42
0.0
 10
5.5645394E+001
 20
1.7533951E+002
 70
0
  0
SEQEND
  0
POLYLINE
  8
1
  6
CONTINUOUS
 62
3
 66
1
 40
5.0E-001
 41
5.0E-001
 70
0
  0
VERTEX
  8
1
 42
0.0
 10
5.4645394E+001
 20
1.7533951E+002
 70
0
  0
VERTEX
  8
1
 42
0.0
 10
5.4645394E+001
 20
1.7413951E+002
 70
0
  0
SEQEND
  0
INSERT
  2
*E906
  8
1
 10
6.8215414E+001
 20
1.7348951E+002
 41
1.0
 42
1.0
 43
1.0
 50
2.7E+002
 62
3
  0
POLYLINE
  8
1
  6
CONTINUOUS
 62
3
 66
1
 40
5.0E-001
 41
5.0E-001
 70
0
  0
VERTEX
  8
1
 42
0.0
 10
6.7715414E+001
 20
1.7348951E+002
 70
0
  0
VERTEX
  8
1
 42
0.0
 10
6.7715414E+001
 20
1.7303951E+002
 70
0
  0
SEQEND
  0
INSERT
  2
*E908
  8
1
 10
6.8215414E+001
 20
1.7598951E+002
 41
1.0
 42
1.0
 43
1.0
 50
2.7E+002
 62
3
  0
POLYLINE
  8
1
  6
CONTINUOUS
 62
3
 66
1
 40
5.0E-001
 41
5.0E-001
 70
0
  0
VERTEX
  8
1
 42
0.0
 10
6.7715414E+001
 20
1.7643951E+002
 70
0
  0
VERTEX
  8
1
 42
0.0
 10
6.7715414E+001
 20
1.7598951E+002
 70
0
  0
SEQEND
  0
INSERT
  2
*E910
  8
1
 10
5.9215414E+001
 20
1.7348951E+002
 41
1.0
 42
1.0
 43
1.0
 50
2.7E+002
 62
3
  0
POLYLINE
  8
1
  6
CONTINUOUS
 62
3
 66
1
 40
5.0E-001
 41
5.0E-001
 70
0
  0
VERTEX
  8
1
 42
0.0
 10
5.8715414E+001
 20
1.7348951E+002
 70
0
  0
VERTEX
  8
1
 42
0.0
 10
5.8715414E+001
 20
1.7303951E+002
 70
0
  0
SEQEND
  0
INSERT
  2
*E912
  8
1
 10
5.9215414E+001
 20
1.7598951E+002
 41
1.0
 42
1.0
 43
1.0
 50
2.7E+002
 62
3
  0
POLYLINE
  8
1
  6
CONTINUOUS
 62
3
 66
1
 40
5.0E-001
 41
5.0E-001
 70
0
  0
VERTEX
  8
1
 42
0.0
 10
5.8715414E+001
 20
1.7643951E+002
 70
0
  0
VERTEX
  8
1
 42
0.0
 10
5.8715414E+001
 20
1.7598951E+002
 70
0
  0
SEQEND
  0
INSERT
  2
*E914
  8
1
 10
5.3415414E+001
 20
1.7598951E+002
 41
1.0
 42
1.0
 43
1.0
 50
2.7E+002
 62
3
  0
POLYLINE
  8
1
  6
CONTINUOUS
 62
3
 66
1
 40
5.0E-001
 41
5.0E-001
 70
0
  0
VERTEX
  8
1
 42
0.0
 10
5.3915414E+001
 20
1.7643951E+002
 70
0
  0
VERTEX
  8
1
 42
0.0
 10
5.3915414E+001
 20
1.7598951E+002
 70
0
  0
SEQEND
  0
POLYLINE
  8
1
  6
CONTINUOUS
 62
3
 66
1
 40
5.0E-001
 41
5.0E-001
 70
0
  0
VERTEX
  8
1
 42
0.0
 10
5.1915414E+001
 20
1.7548951E+002
 70
0
  0
VERTEX
  8
1
 42
0.0
 10
5.3415414E+001
 20
1.7548951E+002
 70
0
  0
SEQEND
  0
INSERT
  2
*E917
  8
1
 10
5.3415414E+001
 20
1.7348951E+002
 41
1.0
 42
1.0
 43
1.0
 50
2.7E+002
 62
3
  0
POLYLINE
  8
1
  6
CONTINUOUS
 62
3
 66
1
 40
5.0E-001
 41
5.0E-001
 70
0
  0
VERTEX
  8
1
 42
0.0
 10
5.3915414E+001
 20
1.7348951E+002
 70
0
  0
VERTEX
  8
1
 42
0.0
 10
5.3915414E+001
 20
1.7303951E+002
 70
0
  0
SEQEND
  0
POLYLINE
  8
1
  6
CONTINUOUS
 62
3
 66
1
 40
5.0E-001
 41
5.0E-001
 70
0
  0
VERTEX
  8
1
 42
0.0
 10
5.1915414E+001
 20
1.7398951E+002
 70
0
  0
VERTEX
  8
1
 42
0.0
 10
5.3415414E+001
 20
1.7398951E+002
 70
0
  0
SEQEND
  0
INSERT
  2
*E920
  8
1
 10
6.2915424E+001
 20
1.7348951E+002
 41
1.0
 42
1.0
 43
1.0
 50
2.7E+002
 62
3
  0
INSERT
  2
*E921
  8
1
 10
6.2915424E+001
 20
1.7598951E+002
 41
1.0
 42
1.0
 43
1.0
 50
2.7E+002
 62
3
  0
POLYLINE
  8
1
  6
CONTINUOUS
 62
3
 66
1
 40
5.0E-001
 41
5.0E-001
 70
0
  0
VERTEX
  8
1
 42
0.0
 10
5.9215414E+001
 20
1.7548951E+002
 70
0
  0
VERTEX
  8
1
 42
0.0
 10
6.2915424E+001
 20
1.7548951E+002
 70
0
  0
SEQEND
  0
POLYLINE
  8
1
  6
CONTINUOUS
 62
3
 66
1
 40
5.0E-001
 41
5.0E-001
 70
0
  0
VERTEX
  8
1
 42
0.0
 10
5.9215414E+001
 20
1.7398951E+002
 70
0
  0
VERTEX
  8
1
 42
0.0
 10
6.2915424E+001
 20
1.7398951E+002
 70
0
  0
SEQEND
  0
POLYLINE
  8
1
  6
CONTINUOUS
 62
3
 66
1
 40
5.0E-001
 41
5.0E-001
 70
0
  0
VERTEX
  8
1
 42
0.0
 10
6.8215414E+001
 20
1.7398951E+002
 70
0
  0
VERTEX
  8
1
 42
0.0
 10
7.1215404E+001
 20
1.7398951E+002
 70
0
  0
SEQEND
  0
POLYLINE
  8
1
  6
CONTINUOUS
 62
3
 66
1
 40
5.0E-001
 41
5.0E-001
 70
0
  0
VERTEX
  8
1
 42
0.0
 10
6.8215414E+001
 20
1.7548951E+002
 70
0
  0
VERTEX
  8
1
 42
0.0
 10
7.1215404E+001
 20
1.7548951E+002
 70
0
  0
SEQEND
  0
POLYLINE
  8
1
  6
CONTINUOUS
 62
3
 66
1
 40
5.0E-001
 41
5.0E-001
 70
0
  0
VERTEX
  8
1
 42
0.0
 10
6.4305394E+001
 20
1.7838951E+002
 70
0
  0
VERTEX
  8
1
 42
0.0
 10
6.4305394E+001
 20
1.8038951E+002
 70
0
  0
SEQEND
  0
POLYLINE
  8
1
  6
CONTINUOUS
 62
3
 66
1
 40
5.0E-001
 41
5.0E-001
 70
0
  0
VERTEX
  8
1
 42
0.0
 10
6.4305394E+001
 20
1.8038951E+002
 70
0
  0
VERTEX
  8
1
 42
0.0
 10
6.6805394E+001
 20
1.8038951E+002
 70
0
  0
SEQEND
  0
POLYLINE
  8
1
  6
CONTINUOUS
 62
3
 66
1
 40
5.0E-001
 41
5.0E-001
 70
0
  0
VERTEX
  8
1
 42
0.0
 10
6.6805394E+001
 20
1.7838951E+002
 70
0
  0
VERTEX
  8
1
 42
0.0
 10
6.6805394E+001
 20
1.8038951E+002
 70
0
  0
SEQEND
  0
POLYLINE
  8
1
  6
CONTINUOUS
 62
3
 66
1
 40
5.0E-001
 41
5.0E-001
 70
0
  0
VERTEX
  8
1
 42
0.0
 10
6.4305394E+001
 20
1.7838951E+002
 70
0
  0
VERTEX
  8
1
 42
0.0
 10
6.6805394E+001
 20
1.7838951E+002
 70
0
  0
SEQEND
  0
POLYLINE
  8
1
  6
CONTINUOUS
 62
3
 66
1
 40
5.0E-001
 41
5.0E-001
 70
0
  0
VERTEX
  8
1
 42
0.0
 10
6.6305394E+001
 20
1.7738951E+002
 70
0
  0
VERTEX
  8
1
 42
0.0
 10
6.6305394E+001
 20
1.7838951E+002
 70
0
  0
SEQEND
  0
POLYLINE
  8
1
  6
CONTINUOUS
 62
3
 66
1
 40
5.0E-001
 41
5.0E-001
 70
0
  0
VERTEX
  8
1
 42
0.0
 10
6.4805394E+001
 20
1.7838951E+002
 70
0
  0
VERTEX
  8
1
 42
0.0
 10
6.4805394E+001
 20
1.7738951E+002
 70
0
  0
SEQEND
  0
POLYLINE
  8
1
  6
CONTINUOUS
 62
3
 66
1
 40
5.0E-001
 41
5.0E-001
 70
0
  0
VERTEX
  8
1
 42
0.0
 10
6.4805394E+001
 20
1.7783951E+002
 70
0
  0
VERTEX
  8
1
 42
0.0
 10
6.6305394E+001
 20
1.7783951E+002
 70
0
  0
SEQEND
  0
POLYLINE
  8
1
  6
CONTINUOUS
 62
3
 66
1
 40
5.0E-001
 41
5.0E-001
 70
0
  0
VERTEX
  8
1
 42
0.0
 10
6.4805394E+001
 20
1.7738951E+002
 70
0
  0
VERTEX
  8
1
 42
0.0
 10
6.6305394E+001
 20
1.7738951E+002
 70
0
  0
SEQEND
  0
POLYLINE
  8
1
  6
CONTINUOUS
 62
3
 66
1
 40
5.0E-001
 41
5.0E-001
 70
0
  0
VERTEX
  8
1
 42
0.0
 10
6.4805394E+001
 20
1.7738951E+002
 70
0
  0
VERTEX
  8
1
 42
0.0
 10
6.6305394E+001
 20
1.7738951E+002
 70
0
  0
SEQEND
  0
POLYLINE
  8
1
  6
CONTINUOUS
 62
3
 66
1
 40
5.0E-001
 41
5.0E-001
 70
0
  0
VERTEX
  8
1
 42
0.0
 10
6.4805394E+001
 20
1.7783951E+002
 70
0
  0
VERTEX
  8
1
 42
0.0
 10
6.6305394E+001
 20
1.7783951E+002
 70
0
  0
SEQEND
  0
POLYLINE
  8
1
  6
CONTINUOUS
 62
3
 66
1
 40
5.0E-001
 41
5.0E-001
 70
0
  0
VERTEX
  8
1
 42
0.0
 10
6.4805394E+001
 20
1.7838951E+002
 70
0
  0
VERTEX
  8
1
 42
0.0
 10
6.4805394E+001
 20
1.7738951E+002
 70
0
  0
SEQEND
  0
POLYLINE
  8
1
  6
CONTINUOUS
 62
3
 66
1
 40
5.0E-001
 41
5.0E-001
 70
0
  0
VERTEX
  8
1
 42
0.0
 10
6.6305394E+001
 20
1.7738951E+002
 70
0
  0
VERTEX
  8
1
 42
0.0
 10
6.6305394E+001
 20
1.7838951E+002
 70
0
  0
SEQEND
  0
POLYLINE
  8
1
  6
CONTINUOUS
 62
3
 66
1
 40
5.0E-001
 41
5.0E-001
 70
0
  0
VERTEX
  8
1
 42
0.0
 10
6.4305394E+001
 20
1.7838951E+002
 70
0
  0
VERTEX
  8
1
 42
0.0
 10
6.6805394E+001
 20
1.7838951E+002
 70
0
  0
SEQEND
  0
POLYLINE
  8
1
  6
CONTINUOUS
 62
3
 66
1
 40
5.0E-001
 41
5.0E-001
 70
0
  0
VERTEX
  8
1
 42
0.0
 10
6.6805394E+001
 20
1.7838951E+002
 70
0
  0
VERTEX
  8
1
 42
0.0
 10
6.6805394E+001
 20
1.8038951E+002
 70
0
  0
SEQEND
  0
POLYLINE
  8
1
  6
CONTINUOUS
 62
3
 66
1
 40
5.0E-001
 41
5.0E-001
 70
0
  0
VERTEX
  8
1
 42
0.0
 10
6.4305394E+001
 20
1.8038951E+002
 70
0
  0
VERTEX
  8
1
 42
0.0
 10
6.6805394E+001
 20
1.8038951E+002
 70
0
  0
SEQEND
  0
POLYLINE
  8
1
  6
CONTINUOUS
 62
3
 66
1
 40
5.0E-001
 41
5.0E-001
 70
0
  0
VERTEX
  8
1
 42
0.0
 10
6.4305394E+001
 20
1.7838951E+002
 70
0
  0
VERTEX
  8
1
 42
0.0
 10
6.4305394E+001
 20
1.8038951E+002
 70
0
  0
SEQEND
  0
POLYLINE
  8
1
  6
CONTINUOUS
 62
3
 66
1
 40
5.0E-001
 41
5.0E-001
 70
0
  0
VERTEX
  8
1
 42
0.0
 10
6.4805394E+001
 20
1.6843951E+002
 70
0
  0
VERTEX
  8
1
 42
0.0
 10
6.4805394E+001
 20
1.6943951E+002
 70
0
  0
SEQEND
  0
POLYLINE
  8
1
  6
CONTINUOUS
 62
3
 66
1
 40
5.0E-001
 41
5.0E-001
 70
0
  0
VERTEX
  8
1
 42
0.0
 10
6.4805394E+001
 20
1.6943951E+002
 70
0
  0
VERTEX
  8
1
 42
0.0
 10
6.6305394E+001
 20
1.6943951E+002
 70
0
  0
SEQEND
  0
POLYLINE
  8
1
  6
CONTINUOUS
 62
3
 66
1
 40
5.0E-001
 41
5.0E-001
 70
0
  0
VERTEX
  8
1
 42
0.0
 10
6.4805394E+001
 20
1.6898951E+002
 70
0
  0
VERTEX
  8
1
 42
0.0
 10
6.6305394E+001
 20
1.6898951E+002
 70
0
  0
SEQEND
  0
POLYLINE
  8
1
  6
CONTINUOUS
 62
3
 66
1
 40
5.0E-001
 41
5.0E-001
 70
0
  0
VERTEX
  8
1
 42
0.0
 10
6.6305394E+001
 20
1.6943951E+002
 70
0
  0
VERTEX
  8
1
 42
0.0
 10
6.6305394E+001
 20
1.6843951E+002
 70
0
  0
SEQEND
  0
POLYLINE
  8
1
  6
CONTINUOUS
 62
3
 66
1
 40
5.0E-001
 41
5.0E-001
 70
0
  0
VERTEX
  8
1
 42
0.0
 10
6.4305394E+001
 20
1.6843951E+002
 70
0
  0
VERTEX
  8
1
 42
0.0
 10
6.6805394E+001
 20
1.6843951E+002
 70
0
  0
SEQEND
  0
POLYLINE
  8
1
  6
CONTINUOUS
 62
3
 66
1
 40
5.0E-001
 41
5.0E-001
 70
0
  0
VERTEX
  8
1
 42
0.0
 10
6.6805394E+001
 20
1.6843951E+002
 70
0
  0
VERTEX
  8
1
 42
0.0
 10
6.6805394E+001
 20
1.6643951E+002
 70
0
  0
SEQEND
  0
POLYLINE
  8
1
  6
CONTINUOUS
 62
3
 66
1
 40
5.0E-001
 41
5.0E-001
 70
0
  0
VERTEX
  8
1
 42
0.0
 10
6.4305394E+001
 20
1.6843951E+002
 70
0
  0
VERTEX
  8
1
 42
0.0
 10
6.4305394E+001
 20
1.6643951E+002
 70
0
  0
SEQEND
  0
POLYLINE
  8
1
  6
CONTINUOUS
 62
3
 66
1
 40
5.0E-001
 41
5.0E-001
 70
0
  0
VERTEX
  8
1
 42
0.0
 10
6.4305394E+001
 20
1.6643951E+002
 70
0
  0
VERTEX
  8
1
 42
0.0
 10
6.6805394E+001
 20
1.6643951E+002
 70
0
  0
SEQEND
  0
POLYLINE
  8
1
  6
CONTINUOUS
 62
3
 66
1
 40
5.0E-001
 41
5.0E-001
 70
0
  0
VERTEX
  8
1
 42
0.0
 10
6.4305394E+001
 20
1.6643951E+002
 70
0
  0
VERTEX
  8
1
 42
0.0
 10
6.6805394E+001
 20
1.6643951E+002
 70
0
  0
SEQEND
  0
POLYLINE
  8
1
  6
CONTINUOUS
 62
3
 66
1
 40
5.0E-001
 41
5.0E-001
 70
0
  0
VERTEX
  8
1
 42
0.0
 10
6.4305394E+001
 20
1.6843951E+002
 70
0
  0
VERTEX
  8
1
 42
0.0
 10
6.4305394E+001
 20
1.6643951E+002
 70
0
  0
SEQEND
  0
POLYLINE
  8
1
  6
CONTINUOUS
 62
3
 66
1
 40
5.0E-001
 41
5.0E-001
 70
0
  0
VERTEX
  8
1
 42
0.0
 10
6.6805394E+001
 20
1.6843951E+002
 70
0
  0
VERTEX
  8
1
 42
0.0
 10
6.6805394E+001
 20
1.6643951E+002
 70
0
  0
SEQEND
  0
POLYLINE
  8
1
  6
CONTINUOUS
 62
3
 66
1
 40
5.0E-001
 41
5.0E-001
 70
0
  0
VERTEX
  8
1
 42
0.0
 10
6.4305394E+001
 20
1.6843951E+002
 70
0
  0
VERTEX
  8
1
 42
0.0
 10
6.6805394E+001
 20
1.6843951E+002
 70
0
  0
SEQEND
  0
POLYLINE
  8
1
  6
CONTINUOUS
 62
3
 66
1
 40
5.0E-001
 41
5.0E-001
 70
0
  0
VERTEX
  8
1
 42
0.0
 10
6.6305394E+001
 20
1.6943951E+002
 70
0
  0
VERTEX
  8
1
 42
0.0
 10
6.6305394E+001
 20
1.6843951E+002
 70
0
  0
SEQEND
  0
POLYLINE
  8
1
  6
CONTINUOUS
 62
3
 66
1
 40
5.0E-001
 41
5.0E-001
 70
0
  0
VERTEX
  8
1
 42
0.0
 10
6.4805394E+001
 20
1.6898951E+002
 70
0
  0
VERTEX
  8
1
 42
0.0
 10
6.6305394E+001
 20
1.6898951E+002
 70
0
  0
SEQEND
  0
POLYLINE
  8
1
  6
CONTINUOUS
 62
3
 66
1
 40
5.0E-001
 41
5.0E-001
 70
0
  0
VERTEX
  8
1
 42
0.0
 10
6.4805394E+001
 20
1.6943951E+002
 70
0
  0
VERTEX
  8
1
 42
0.0
 10
6.6305394E+001
 20
1.6943951E+002
 70
0
  0
SEQEND
  0
POLYLINE
  8
1
  6
CONTINUOUS
 62
3
 66
1
 40
5.0E-001
 41
5.0E-001
 70
0
  0
VERTEX
  8
1
 42
0.0
 10
6.4805394E+001
 20
1.6843951E+002
 70
0
  0
VERTEX
  8
1
 42
0.0
 10
6.4805394E+001
 20
1.6943951E+002
 70
0
  0
SEQEND
  0
POLYLINE
  8
1
  6
CONTINUOUS
 62
3
 66
1
 40
5.0E-001
 41
5.0E-001
 70
0
  0
VERTEX
  8
1
 42
0.0
 10
5.5205394E+001
 20
1.7838951E+002
 70
0
  0
VERTEX
  8
1
 42
0.0
 10
5.5205394E+001
 20
1.8038951E+002
 70
0
  0
SEQEND
  0
POLYLINE
  8
1
  6
CONTINUOUS
 62
3
 66
1
 40
5.0E-001
 41
5.0E-001
 70
0
  0
VERTEX
  8
1
 42
0.0
 10
5.5205394E+001
 20
1.8038951E+002
 70
0
  0
VERTEX
  8
1
 42
0.0
 10
5.7705394E+001
 20
1.8038951E+002
 70
0
  0
SEQEND
  0
POLYLINE
  8
1
  6
CONTINUOUS
 62
3
 66
1
 40
5.0E-001
 41
5.0E-001
 70
0
  0
VERTEX
  8
1
 42
0.0
 10
5.7705394E+001
 20
1.7838951E+002
 70
0
  0
VERTEX
  8
1
 42
0.0
 10
5.7705394E+001
 20
1.8038951E+002
 70
0
  0
SEQEND
  0
POLYLINE
  8
1
  6
CONTINUOUS
 62
3
 66
1
 40
5.0E-001
 41
5.0E-001
 70
0
  0
VERTEX
  8
1
 42
0.0
 10
5.5205394E+001
 20
1.7838951E+002
 70
0
  0
VERTEX
  8
1
 42
0.0
 10
5.7705394E+001
 20
1.7838951E+002
 70
0
  0
SEQEND
  0
POLYLINE
  8
1
  6
CONTINUOUS
 62
3
 66
1
 40
5.0E-001
 41
5.0E-001
 70
0
  0
VERTEX
  8
1
 42
0.0
 10
5.7205394E+001
 20
1.7738951E+002
 70
0
  0
VERTEX
  8
1
 42
0.0
 10
5.7205394E+001
 20
1.7838951E+002
 70
0
  0
SEQEND
  0
POLYLINE
  8
1
  6
CONTINUOUS
 62
3
 66
1
 40
5.0E-001
 41
5.0E-001
 70
0
  0
VERTEX
  8
1
 42
0.0
 10
5.5705394E+001
 20
1.7838951E+002
 70
0
  0
VERTEX
  8
1
 42
0.0
 10
5.5705394E+001
 20
1.7738951E+002
 70
0
  0
SEQEND
  0
POLYLINE
  8
1
  6
CONTINUOUS
 62
3
 66
1
 40
5.0E-001
 41
5.0E-001
 70
0
  0
VERTEX
  8
1
 42
0.0
 10
5.5705394E+001
 20
1.7783951E+002
 70
0
  0
VERTEX
  8
1
 42
0.0
 10
5.7205394E+001
 20
1.7783951E+002
 70
0
  0
SEQEND
  0
POLYLINE
  8
1
  6
CONTINUOUS
 62
3
 66
1
 40
5.0E-001
 41
5.0E-001
 70
0
  0
VERTEX
  8
1
 42
0.0
 10
5.5705394E+001
 20
1.7738951E+002
 70
0
  0
VERTEX
  8
1
 42
0.0
 10
5.7205394E+001
 20
1.7738951E+002
 70
0
  0
SEQEND
  0
POLYLINE
  8
1
  6
CONTINUOUS
 62
3
 66
1
 40
5.0E-001
 41
5.0E-001
 70
0
  0
VERTEX
  8
1
 42
0.0
 10
5.5705394E+001
 20
1.7738951E+002
 70
0
  0
VERTEX
  8
1
 42
0.0
 10
5.7205394E+001
 20
1.7738951E+002
 70
0
  0
SEQEND
  0
POLYLINE
  8
1
  6
CONTINUOUS
 62
3
 66
1
 40
5.0E-001
 41
5.0E-001
 70
0
  0
VERTEX
  8
1
 42
0.0
 10
5.5705394E+001
 20
1.7783951E+002
 70
0
  0
VERTEX
  8
1
 42
0.0
 10
5.7205394E+001
 20
1.7783951E+002
 70
0
  0
SEQEND
  0
POLYLINE
  8
1
  6
CONTINUOUS
 62
3
 66
1
 40
5.0E-001
 41
5.0E-001
 70
0
  0
VERTEX
  8
1
 42
0.0
 10
5.5705394E+001
 20
1.7838951E+002
 70
0
  0
VERTEX
  8
1
 42
0.0
 10
5.5705394E+001
 20
1.7738951E+002
 70
0
  0
SEQEND
  0
POLYLINE
  8
1
  6
CONTINUOUS
 62
3
 66
1
 40
5.0E-001
 41
5.0E-001
 70
0
  0
VERTEX
  8
1
 42
0.0
 10
5.7205394E+001
 20
1.7738951E+002
 70
0
  0
VERTEX
  8
1
 42
0.0
 10
5.7205394E+001
 20
1.7838951E+002
 70
0
  0
SEQEND
  0
POLYLINE
  8
1
  6
CONTINUOUS
 62
3
 66
1
 40
5.0E-001
 41
5.0E-001
 70
0
  0
VERTEX
  8
1
 42
0.0
 10
5.5205394E+001
 20
1.7838951E+002
 70
0
  0
VERTEX
  8
1
 42
0.0
 10
5.7705394E+001
 20
1.7838951E+002
 70
0
  0
SEQEND
  0
POLYLINE
  8
1
  6
CONTINUOUS
 62
3
 66
1
 40
5.0E-001
 41
5.0E-001
 70
0
  0
VERTEX
  8
1
 42
0.0
 10
5.7705394E+001
 20
1.7838951E+002
 70
0
  0
VERTEX
  8
1
 42
0.0
 10
5.7705394E+001
 20
1.8038951E+002
 70
0
  0
SEQEND
  0
POLYLINE
  8
1
  6
CONTINUOUS
 62
3
 66
1
 40
5.0E-001
 41
5.0E-001
 70
0
  0
VERTEX
  8
1
 42
0.0
 10
5.5205394E+001
 20
1.8038951E+002
 70
0
  0
VERTEX
  8
1
 42
0.0
 10
5.7705394E+001
 20
1.8038951E+002
 70
0
  0
SEQEND
  0
POLYLINE
  8
1
  6
CONTINUOUS
 62
3
 66
1
 40
5.0E-001
 41
5.0E-001
 70
0
  0
VERTEX
  8
1
 42
0.0
 10
5.5205394E+001
 20
1.7838951E+002
 70
0
  0
VERTEX
  8
1
 42
0.0
 10
5.5205394E+001
 20
1.8038951E+002
 70
0
  0
SEQEND
  0
POLYLINE
  8
1
  6
CONTINUOUS
 62
3
 66
1
 40
5.0E-001
 41
5.0E-001
 70
0
  0
VERTEX
  8
1
 42
0.0
 10
5.5705394E+001
 20
1.6843951E+002
 70
0
  0
VERTEX
  8
1
 42
0.0
 10
5.5705394E+001
 20
1.6943951E+002
 70
0
  0
SEQEND
  0
POLYLINE
  8
1
  6
CONTINUOUS
 62
3
 66
1
 40
5.0E-001
 41
5.0E-001
 70
0
  0
VERTEX
  8
1
 42
0.0
 10
5.5705394E+001
 20
1.6943951E+002
 70
0
  0
VERTEX
  8
1
 42
0.0
 10
5.7205394E+001
 20
1.6943951E+002
 70
0
  0
SEQEND
  0
POLYLINE
  8
1
  6
CONTINUOUS
 62
3
 66
1
 40
5.0E-001
 41
5.0E-001
 70
0
  0
VERTEX
  8
1
 42
0.0
 10
5.5705394E+001
 20
1.6898951E+002
 70
0
  0
VERTEX
  8
1
 42
0.0
 10
5.7205394E+001
 20
1.6898951E+002
 70
0
  0
SEQEND
  0
POLYLINE
  8
1
  6
CONTINUOUS
 62
3
 66
1
 40
5.0E-001
 41
5.0E-001
 70
0
  0
VERTEX
  8
1
 42
0.0
 10
5.7205394E+001
 20
1.6943951E+002
 70
0
  0
VERTEX
  8
1
 42
0.0
 10
5.7205394E+001
 20
1.6843951E+002
 70
0
  0
SEQEND
  0
POLYLINE
  8
1
  6
CONTINUOUS
 62
3
 66
1
 40
5.0E-001
 41
5.0E-001
 70
0
  0
VERTEX
  8
1
 42
0.0
 10
5.5205394E+001
 20
1.6843951E+002
 70
0
  0
VERTEX
  8
1
 42
0.0
 10
5.7705394E+001
 20
1.6843951E+002
 70
0
  0
SEQEND
  0
POLYLINE
  8
1
  6
CONTINUOUS
 62
3
 66
1
 40
5.0E-001
 41
5.0E-001
 70
0
  0
VERTEX
  8
1
 42
0.0
 10
5.7705394E+001
 20
1.6843951E+002
 70
0
  0
VERTEX
  8
1
 42
0.0
 10
5.7705394E+001
 20
1.6643951E+002
 70
0
  0
SEQEND
  0
POLYLINE
  8
1
  6
CONTINUOUS
 62
3
 66
1
 40
5.0E-001
 41
5.0E-001
 70
0
  0
VERTEX
  8
1
 42
0.0
 10
5.5205394E+001
 20
1.6843951E+002
 70
0
  0
VERTEX
  8
1
 42
0.0
 10
5.5205394E+001
 20
1.6643951E+002
 70
0
  0
SEQEND
  0
POLYLINE
  8
1
  6
CONTINUOUS
 62
3
 66
1
 40
5.0E-001
 41
5.0E-001
 70
0
  0
VERTEX
  8
1
 42
0.0
 10
5.5205394E+001
 20
1.6643951E+002
 70
0
  0
VERTEX
  8
1
 42
0.0
 10
5.7705394E+001
 20
1.6643951E+002
 70
0
  0
SEQEND
  0
POLYLINE
  8
1
  6
CONTINUOUS
 62
3
 66
1
 40
5.0E-001
 41
5.0E-001
 70
0
  0
VERTEX
  8
1
 42
0.0
 10
5.5205394E+001
 20
1.6643951E+002
 70
0
  0
VERTEX
  8
1
 42
0.0
 10
5.7705394E+001
 20
1.6643951E+002
 70
0
  0
SEQEND
  0
POLYLINE
  8
1
  6
CONTINUOUS
 62
3
 66
1
 40
5.0E-001
 41
5.0E-001
 70
0
  0
VERTEX
  8
1
 42
0.0
 10
5.5205394E+001
 20
1.6843951E+002
 70
0
  0
VERTEX
  8
1
 42
0.0
 10
5.5205394E+001
 20
1.6643951E+002
 70
0
  0
SEQEND
  0
POLYLINE
  8
1
  6
CONTINUOUS
 62
3
 66
1
 40
5.0E-001
 41
5.0E-001
 70
0
  0
VERTEX
  8
1
 42
0.0
 10
5.7705394E+001
 20
1.6843951E+002
 70
0
  0
VERTEX
  8
1
 42
0.0
 10
5.7705394E+001
 20
1.6643951E+002
 70
0
  0
SEQEND
  0
POLYLINE
  8
1
  6
CONTINUOUS
 62
3
 66
1
 40
5.0E-001
 41
5.0E-001
 70
0
  0
VERTEX
  8
1
 42
0.0
 10
5.5205394E+001
 20
1.6843951E+002
 70
0
  0
VERTEX
  8
1
 42
0.0
 10
5.7705394E+001
 20
1.6843951E+002
 70
0
  0
SEQEND
  0
POLYLINE
  8
1
  6
CONTINUOUS
 62
3
 66
1
 40
5.0E-001
 41
5.0E-001
 70
0
  0
VERTEX
  8
1
 42
0.0
 10
5.7205394E+001
 20
1.6943951E+002
 70
0
  0
VERTEX
  8
1
 42
0.0
 10
5.7205394E+001
 20
1.6843951E+002
 70
0
  0
SEQEND
  0
POLYLINE
  8
1
  6
CONTINUOUS
 62
3
 66
1
 40
5.0E-001
 41
5.0E-001
 70
0
  0
VERTEX
  8
1
 42
0.0
 10
5.5705394E+001
 20
1.6898951E+002
 70
0
  0
VERTEX
  8
1
 42
0.0
 10
5.7205394E+001
 20
1.6898951E+002
 70
0
  0
SEQEND
  0
POLYLINE
  8
1
  6
CONTINUOUS
 62
3
 66
1
 40
5.0E-001
 41
5.0E-001
 70
0
  0
VERTEX
  8
1
 42
0.0
 10
5.5705394E+001
 20
1.6943951E+002
 70
0
  0
VERTEX
  8
1
 42
0.0
 10
5.7205394E+001
 20
1.6943951E+002
 70
0
  0
SEQEND
  0
POLYLINE
  8
1
  6
CONTINUOUS
 62
3
 66
1
 40
5.0E-001
 41
5.0E-001
 70
0
  0
VERTEX
  8
1
 42
0.0
 10
5.5705394E+001
 20
1.6843951E+002
 70
0
  0
VERTEX
  8
1
 42
0.0
 10
5.5705394E+001
 20
1.6943951E+002
 70
0
  0
SEQEND
  0
POLYLINE
  8
1
  6
CONTINUOUS
 62
3
 66
1
 40
5.0E-001
 41
5.0E-001
 70
0
  0
VERTEX
  8
1
 42
0.0
 10
1.7306642E+002
 20
1.7523961E+002
 70
0
  0
VERTEX
  8
1
 42
0.0
 10
1.7406642E+002
 20
1.7497161E+002
 70
0
  0
SEQEND
  0
POLYLINE
  8
1
  6
CONTINUOUS
 62
3
 66
1
 40
5.0E-001
 41
5.0E-001
 70
0
  0
VERTEX
  8
1
 42
0.0
 10
1.5056642E+002
 20
1.8483951E+002
 70
0
  0
VERTEX
  8
1
 42
0.0
 10
1.5056642E+002
 20
1.9003951E+002
 70
0
  0
SEQEND
  0
POLYLINE
  8
1
  6
CONTINUOUS
 62
3
 66
1
 40
5.0E-001
 41
5.0E-001
 70
0
  0
VERTEX
  8
1
 42
0.0
 10
1.7306642E+002
 20
1.7423961E+002
 70
0
  0
VERTEX
  8
1
 42
0.0
 10
1.7306642E+002
 20
1.7523961E+002
 70
0
  0
SEQEND
  0
POLYLINE
  8
1
  6
CONTINUOUS
 62
3
 66
1
 40
5.0E-001
 41
5.0E-001
 70
0
  0
VERTEX
  8
1
 42
0.0
 10
1.7306642E+002
 20
1.9963961E+002
 70
0
  0
VERTEX
  8
1
 42
0.0
 10
1.7306642E+002
 20
2.0063961E+002
 70
0
  0
SEQEND
  0
LINE
  8
1
  6
CONTINUOUS
 62
4
 10
1.7006642E+002
 20
1.6349711E+002
 11
1.7006642E+002
 21
1.8743951E+002
  0
LINE
  8
1
  6
CONTINUOUS
 62
4
 10
1.7156642E+002
 20
1.8743951E+002
 11
1.7156642E+002
 21
1.6291901E+002
  0
POLYLINE
  8
1
  6
CONTINUOUS
 62
4
 66
1
 40
0.0
 41
0.0
 70
2
  0
VERTEX
  8
1
 42
0.0
 10
1.7006642E+002
 20
1.6349711E+002
 70
0
  0
VERTEX
  8
1
 42
-1.7758537E-003
 10
1.7008038E+002
 20
1.6350113E+002
 70
1
  0
VERTEX
  8
1
 42
-1.8060631E-003
 10
1.7009436E+002
 20
1.6350504E+002
 70
0
  0
VERTEX
  8
1
 42
-1.7808237E-003
 10
1.7010837E+002
 20
1.6350886E+002
 70
1
  0
VERTEX
  8
1
 42
-1.6924617E-003
 10
1.7012238E+002
 20
1.6351257E+002
 70
0
  0
VERTEX
  8
1
 42
-1.627225E-003
 10
1.7013642E+002
 20
1.6351619E+002
 70
1
  0
VERTEX
  8
1
 42
-1.5682227E-003
 10
1.7015048E+002
 20
1.6351972E+002
 70
0
  0
VERTEX
  8
1
 42
-1.5115049E-003
 10
1.7016456E+002
 20
1.6352316E+002
 70
1
  0
VERTEX
  8
1
 42
-1.4424159E-003
 10
1.7017866E+002
 20
1.6352651E+002
 70
0
  0
VERTEX
  8
1
 42
-1.3847863E-003
 10
1.7019277E+002
 20
1.6352979E+002
 70
1
  0
VERTEX
  8
1
 42
-1.3239462E-003
 10
1.702069E+002
 20
1.6353299E+002
 70
0
  0
VERTEX
  8
1
 42
-1.2574678E-003
 10
1.7022105E+002
 20
1.6353611E+002
 70
1
  0
VERTEX
  8
1
 42
-1.1684899E-003
 10
1.7023522E+002
 20
1.6353917E+002
 70
0
  0
VERTEX
  8
1
 42
-1.1950392E-003
 10
1.7024941E+002
 20
1.6354216E+002
 70
1
  0
VERTEX
  8
1
 42
-1.3443584E-003
 10
1.7026361E+002
 20
1.6354508E+002
 70
0
  0
VERTEX
  8
1
 42
-1.505692E-003
 10
1.7027784E+002
 20
1.6354792E+002
 70
1
  0
VERTEX
  8
1
 42
-1.7204986E-003
 10
1.7029208E+002
 20
1.6355067E+002
 70
0
  0
VERTEX
  8
1
 42
-1.904276E-003
 10
1.7030634E+002
 20
1.6355331E+002
 70
1
  0
VERTEX
  8
1
 42
-2.1039214E-003
 10
1.7032063E+002
 20
1.6355584E+002
 70
0
  0
VERTEX
  8
1
 42
-2.2834098E-003
 10
1.7033493E+002
 20
1.6355824E+002
 70
1
  0
VERTEX
  8
1
 42
-2.4884064E-003
 10
1.7034926E+002
 20
1.6356051E+002
 70
0
  0
VERTEX
  8
1
 42
-2.6684917E-003
 10
1.703636E+002
 20
1.6356262E+002
 70
1
  0
VERTEX
  8
1
 42
-2.8694763E-003
 10
1.7037797E+002
 20
1.6356458E+002
 70
0
  0
VERTEX
  8
1
 42
-3.0530029E-003
 10
1.7039237E+002
 20
1.6356636E+002
 70
1
  0
VERTEX
  8
1
 42
-3.2655572E-003
 10
1.7040679E+002
 20
1.6356797E+002
 70
0
  0
VERTEX
  8
1
 42
-3.422422E-003
 10
1.7042123E+002
 20
1.6356937E+002
 70
1
  0
VERTEX
  8
1
 42
-3.5657868E-003
 10
1.704357E+002
 20
1.6357058E+002
 70
0
  0
VERTEX
  8
1
 42
-3.6740534E-003
 10
1.7045018E+002
 20
1.6357157E+002
 70
1
  0
VERTEX
  8
1
 42
-3.7766876E-003
 10
1.7046469E+002
 20
1.6357235E+002
 70
0
  0
VERTEX
  8
1
 42
-3.873518E-003
 10
1.704792E+002
 20
1.6357291E+002
 70
1
  0
VERTEX
  8
1
 42
-3.9890853E-003
 10
1.7049372E+002
 20
1.6357323E+002
 70
0
  0
VERTEX
  8
1
 42
-4.0924854E-003
 10
1.7050825E+002
 20
1.6357332E+002
 70
1
  0
VERTEX
  8
1
 42
-4.2099318E-003
 10
1.7052277E+002
 20
1.6357317E+002
 70
0
  0
VERTEX
  8
1
 42
-4.31391E-003
 10
1.7053729E+002
 20
1.6357277E+002
 70
1
  0
VERTEX
  8
1
 42
-4.4305633E-003
 10
1.7055179E+002
 20
1.6357211E+002
 70
0
  0
VERTEX
  8
1
 42
-4.5416576E-003
 10
1.7056628E+002
 20
1.6357119E+002
 70
1
  0
VERTEX
  8
1
 42
-4.6751039E-003
 10
1.7058076E+002
 20
1.6357001E+002
 70
0
  0
VERTEX
  8
1
 42
-4.7625424E-003
 10
1.7059521E+002
 20
1.6356854E+002
 70
1
  0
VERTEX
  8
1
 42
-4.827321E-003
 10
1.7060963E+002
 20
1.6356681E+002
 70
0
  0
VERTEX
  8
1
 42
-4.8375109E-003
 10
1.7062402E+002
 20
1.6356478E+002
 70
1
  0
VERTEX
  8
1
 42
-4.7980048E-003
 10
1.7063837E+002
 20
1.6356249E+002
 70
0
  0
VERTEX
  8
1
 42
-4.773389E-003
 10
1.7065268E+002
 20
1.6355991E+002
 70
1
  0
VERTEX
  8
1
 42
-4.7577147E-003
 10
1.7066694E+002
 20
1.6355706E+002
 70
0
  0
VERTEX
  8
1
 42
-4.743843E-003
 10
1.7068114E+002
 20
1.6355394E+002
 70
1
  0
VERTEX
  8
1
 42
-4.7285663E-003
 10
1.7069528E+002
 20
1.6355055E+002
 70
0
  0
VERTEX
  8
1
 42
-4.7183547E-003
 10
1.7070935E+002
 20
1.6354688E+002
 70
1
  0
VERTEX
  8
1
 42
-4.7104768E-003
 10
1.7072335E+002
 20
1.6354296E+002
 70
0
  0
VERTEX
  8
1
 42
-4.7044883E-003
 10
1.7073726E+002
 20
1.6353877E+002
 70
1
  0
VERTEX
  8
1
 42
-4.6982478E-003
 10
1.707511E+002
 20
1.6353432E+002
 70
0
  0
VERTEX
  8
1
 42
-4.7017282E-003
 10
1.7076484E+002
 20
1.6352961E+002
 70
1
  0
VERTEX
  8
1
 42
-4.7151303E-003
 10
1.7077849E+002
 20
1.6352465E+002
 70
0
  0
VERTEX
  8
1
 42
-4.657003E-003
 10
1.7079203E+002
 20
1.6351942E+002
 70
1
  0
VERTEX
  8
1
 42
-4.5082466E-003
 10
1.7080547E+002
 20
1.6351396E+002
 70
0
  0
VERTEX
  8
1
 42
-4.3625529E-003
 10
1.7081881E+002
 20
1.6350825E+002
 70
1
  0
VERTEX
  8
1
 42
-4.18227E-003
 10
1.7083206E+002
 20
1.6350232E+002
 70
0
  0
VERTEX
  8
1
 42
-4.0253348E-003
 10
1.708452E+002
 20
1.6349616E+002
 70
1
  0
VERTEX
  8
1
 42
-3.8525317E-003
 10
1.7085824E+002
 20
1.634898E+002
 70
0
  0
VERTEX
  8
1
 42
-3.6986368E-003
 10
1.7087119E+002
 20
1.6348324E+002
 70
1
  0
VERTEX
  8
1
 42
-3.525293E-003
 10
1.7088405E+002
 20
1.6347649E+002
 70
0
  0
VERTEX
  8
1
 42
-3.372098E-003
 10
1.7089682E+002
 20
1.6346956E+002
 70
1
  0
VERTEX
  8
1
 42
-3.2008008E-003
 10
1.709095E+002
 20
1.6346246E+002
 70
0
  0
VERTEX
  8
1
 42
-3.05068E-003
 10
1.7092209E+002
 20
1.634552E+002
 70
1
  0
VERTEX
  8
1
 42
-2.8838593E-003
 10
1.7093459E+002
 20
1.6344779E+002
 70
0
  0
VERTEX
  8
1
 42
-2.7335554E-003
 10
1.7094701E+002
 20
1.6344023E+002
 70
1
  0
VERTEX
  8
1
 42
-2.5615923E-003
 10
1.7095935E+002
 20
1.6343255E+002
 70
0
  0
VERTEX
  8
1
 42
-2.427052E-003
 10
1.7097161E+002
 20
1.6342475E+002
 70
1
  0
VERTEX
  8
1
 42
-2.2943809E-003
 10
1.7098378E+002
 20
1.6341683E+002
 70
0
  0
VERTEX
  8
1
 42
-2.1988392E-003
 10
1.7099588E+002
 20
1.6340881E+002
 70
1
  0
VERTEX
  8
1
 42
-2.1146214E-003
 10
1.7100791E+002
 20
1.6340069E+002
 70
0
  0
VERTEX
  8
1
 42
-2.0358274E-003
 10
1.7101986E+002
 20
1.6339246E+002
 70
1
  0
VERTEX
  8
1
 42
-1.942209E-003
 10
1.7103175E+002
 20
1.6338415E+002
 70
0
  0
VERTEX
  8
1
 42
-1.8601E-003
 10
1.7104357E+002
 20
1.6337574E+002
 70
1
  0
VERTEX
  8
1
 42
-1.7683529E-003
 10
1.7105533E+002
 20
1.6336725E+002
 70
0
  0
VERTEX
  8
1
 42
-1.6867224E-003
 10
1.7106703E+002
 20
1.6335868E+002
 70
1
  0
VERTEX
  8
1
 42
-1.5943163E-003
 10
1.7107867E+002
 20
1.6335003E+002
 70
0
  0
VERTEX
  8
1
 42
-1.5123739E-003
 10
1.7109025E+002
 20
1.6334131E+002
 70
1
  0
VERTEX
  8
1
 42
-1.4199483E-003
 10
1.7110179E+002
 20
1.6333252E+002
 70
0
  0
VERTEX
  8
1
 42
-1.3382558E-003
 10
1.7111327E+002
 20
1.6332367E+002
 70
1
  0
VERTEX
  8
1
 42
-1.2464306E-003
 10
1.7112471E+002
 20
1.6331476E+002
 70
0
  0
VERTEX
  8
1
 42
-1.164079E-003
 10
1.711361E+002
 20
1.633058E+002
 70
1
  0
VERTEX
  8
1
 42
-1.0701239E-003
 10
1.7114745E+002
 20
1.6329678E+002
 70
0
  0
VERTEX
  8
1
 42
-9.90842E-004
 10
1.7115876E+002
 20
1.6328772E+002
 70
1
  0
VERTEX
  8
1
 42
-9.060118E-004
 10
1.7117004E+002
 20
1.6327862E+002
 70
0
  0
VERTEX
  8
1
 42
-8.833771E-004
 10
1.7118129E+002
 20
1.6326947E+002
 70
1
  0
VERTEX
  8
1
 42
-9.16721E-004
 10
1.711925E+002
 20
1.6326029E+002
 70
0
  0
VERTEX
  8
1
 42
-9.39674E-004
 10
1.7120367E+002
 20
1.6325107E+002
 70
1
  0
VERTEX
  8
1
 42
-9.592873E-004
 10
1.7121481E+002
 20
1.632418E+002
 70
0
  0
VERTEX
  8
1
 42
-9.931723E-004
 10
1.7122591E+002
 20
1.632325E+002
 70
1
  0
VERTEX
  8
1
 42
-1.0447427E-003
 10
1.7123698E+002
 20
1.6322314E+002
 70
0
  0
VERTEX
  8
1
 42
-1.0352273E-003
 10
1.7124802E+002
 20
1.6321371E+002
 70
1
  0
VERTEX
  8
1
 42
-9.832072E-004
 10
1.7125899E+002
 20
1.6320429E+002
 70
0
  0
VERTEX
  8
1
 42
-1.121781E-003
 10
1.7126985E+002
 20
1.6319487E+002
 70
1
  0
VERTEX
  8
1
 42
-1.390601E-003
 10
1.7128084E+002
 20
1.6318524E+002
 70
0
  0
VERTEX
  8
1
 42
-1.0566164E-003
 10
1.7129204E+002
 20
1.6317533E+002
 70
1
  0
VERTEX
  8
1
 42
-3.19475E-004
 10
1.7130253E+002
 20
1.6316599E+002
 70
0
  0
VERTEX
  8
1
 42
-1.5728E-003
 10
1.7131199E+002
 20
1.6315753E+002
 70
1
  0
VERTEX
  8
1
 42
-2.81511E-003
 10
1.7132404E+002
 20
1.6314653E+002
 70
0
  0
VERTEX
  8
1
 42
-1.3816337E-003
 10
1.7134247E+002
 20
1.6312942E+002
 70
1
  0
VERTEX
  8
1
 42
-7.257684E-004
 10
1.7136652E+002
 20
1.6310691E+002
 70
0
  0
SEQEND
  0
POLYLINE
  8
1
  6
CONTINUOUS
 62
3
 66
1
 40
5.0E-001
 41
5.0E-001
 70
0
  0
VERTEX
  8
1
 42
0.0
 10
1.7006642E+002
 20
1.7523961E+002
 70
0
  0
VERTEX
  8
1
 42
0.0
 10
1.6906642E+002
 20
1.7523961E+002
 70
0
  0
SEQEND
  0
POLYLINE
  8
1
  6
CONTINUOUS
 62
3
 66
1
 40
5.0E-001
 41
5.0E-001
 70
0
  0
VERTEX
  8
1
 42
0.0
 10
1.7006642E+002
 20
1.7423961E+002
 70
0
  0
VERTEX
  8
1
 42
0.0
 10
1.6906642E+002
 20
1.7423961E+002
 70
0
  0
SEQEND
  0
POLYLINE
  8
1
  6
CONTINUOUS
 62
3
 66
1
 40
5.0E-001
 41
5.0E-001
 70
0
  0
VERTEX
  8
1
 42
0.0
 10
1.7006642E+002
 20
1.9963961E+002
 70
0
  0
VERTEX
  8
1
 42
0.0
 10
1.6906642E+002
 20
1.9963961E+002
 70
0
  0
SEQEND
  0
POLYLINE
  8
1
  6
CONTINUOUS
 62
3
 66
1
 40
5.0E-001
 41
5.0E-001
 70
0
  0
VERTEX
  8
1
 42
0.0
 10
1.7006642E+002
 20
2.0063961E+002
 70
0
  0
VERTEX
  8
1
 42
0.0
 10
1.6906642E+002
 20
2.0063961E+002
 70
0
  0
SEQEND
  0
TEXT
  8
1
  6
CONTINUOUS
 62
4
 10
1.1040015E+002
 20
2.3356121E+001
 40
2.4
  1
2.8.04 SteFei
 41
6.0E-001
  0
TEXT
  8
1
  6
CONTINUOUS
 62
4
 10
1.1066707E+002
 20
1.4680991E+001
 40
2.4
  1
2.8.04 GuNi
 41
6.0E-001
  0
POLYLINE
  8
1
  6
CONTINUOUS
 62
3
 66
1
 40
5.0E-001
 41
5.0E-001
 70
0
  0
VERTEX
  8
1
 42
0.0
 10
1.6506642E+002
 20
2.0183961E+002
 70
0
  0
VERTEX
  8
1
 42
0.0
 10
1.7006642E+002
 20
2.0183961E+002
 70
0
  0
SEQEND
  0
POLYLINE
  8
1
  6
CONTINUOUS
 62
3
 66
1
 40
5.0E-001
 41
5.0E-001
 70
0
  0
VERTEX
  8
1
 42
0.0
 10
1.7006642E+002
 20
1.9843961E+002
 70
0
  0
VERTEX
  8
1
 42
0.0
 10
1.6506642E+002
 20
1.9843961E+002
 70
0
  0
SEQEND
  0
POLYLINE
  8
1
  6
CONTINUOUS
 62
3
 66
1
 40
5.0E-001
 41
5.0E-001
 70
0
  0
VERTEX
  8
1
 42
0.0
 10
1.6906642E+002
 20
2.0183961E+002
 70
0
  0
VERTEX
  8
1
 42
0.0
 10
1.6906642E+002
 20
1.9843961E+002
 70
0
  0
SEQEND
  0
POLYLINE
  8
1
  6
CONTINUOUS
 62
3
 66
1
 40
5.0E-001
 41
5.0E-001
 70
0
  0
VERTEX
  8
1
 42
0.0
 10
1.6906642E+002
 20
2.0088961E+002
 70
0
  0
VERTEX
  8
1
 42
0.0
 10
1.6506642E+002
 20
2.0088961E+002
 70
0
  0
SEQEND
  0
POLYLINE
  8
1
  6
CONTINUOUS
 62
3
 66
1
 40
5.0E-001
 41
5.0E-001
 70
0
  0
VERTEX
  8
1
 42
0.0
 10
1.6506642E+002
 20
1.9938961E+002
 70
0
  0
VERTEX
  8
1
 42
0.0
 10
1.6906642E+002
 20
1.9938961E+002
 70
0
  0
SEQEND
  0
LINE
  8
1
  6
CENTERLINE
 62
1
 10
1.1326792E+002
 20
1.8743951E+002
 11
1.7355612E+002
 21
1.8743951E+002
  0
POLYLINE
  8
1
  6
CONTINUOUS
 62
3
 66
1
 40
5.0E-001
 41
5.0E-001
 70
0
  0
VERTEX
  8
1
 42
0.0
 10
1.7306642E+002
 20
2.0063961E+002
 70
0
  0
VERTEX
  8
1
 42
0.0
 10
1.7406642E+002
 20
2.0037161E+002
 70
0
  0
SEQEND
  0
POLYLINE
  8
1
  6
CONTINUOUS
 62
3
 66
1
 40
5.0E-001
 41
5.0E-001
 70
0
  0
VERTEX
  8
1
 42
0.0
 10
1.7306642E+002
 20
1.9963961E+002
 70
0
  0
VERTEX
  8
1
 42
0.0
 10
1.7406642E+002
 20
1.9990751E+002
 70
0
  0
SEQEND
  0
POLYLINE
  8
1
  6
CONTINUOUS
 62
3
 66
1
 40
5.0E-001
 41
5.0E-001
 70
0
  0
VERTEX
  8
1
 42
0.0
 10
1.7406642E+002
 20
1.9990751E+002
 70
0
  0
VERTEX
  8
1
 42
0.0
 10
1.7406642E+002
 20
2.0037161E+002
 70
0
  0
SEQEND
  0
POLYLINE
  8
1
  6
CONTINUOUS
 62
3
 66
1
 40
5.0E-001
 41
5.0E-001
 70
0
  0
VERTEX
  8
1
 42
0.0
 10
1.7306642E+002
 20
2.0063961E+002
 70
0
  0
VERTEX
  8
1
 42
0.0
 10
1.7156642E+002
 20
2.0063961E+002
 70
0
  0
SEQEND
  0
POLYLINE
  8
1
  6
CONTINUOUS
 62
3
 66
1
 40
5.0E-001
 41
5.0E-001
 70
0
  0
VERTEX
  8
1
 42
0.0
 10
1.7156642E+002
 20
1.9963961E+002
 70
0
  0
VERTEX
  8
1
 42
0.0
 10
1.7306642E+002
 20
1.9963961E+002
 70
0
  0
SEQEND
  0
POLYLINE
  8
1
  6
CONTINUOUS
 62
3
 66
1
 40
5.0E-001
 41
5.0E-001
 70
0
  0
VERTEX
  8
1
 42
0.0
 10
1.7006642E+002
 20
2.0063961E+002
 70
0
  0
VERTEX
  8
1
 42
0.0
 10
1.7006642E+002
 20
2.0183961E+002
 70
0
  0
SEQEND
  0
POLYLINE
  8
1
  6
CONTINUOUS
 62
3
 66
1
 40
5.0E-001
 41
5.0E-001
 70
0
  0
VERTEX
  8
1
 42
0.0
 10
1.7006642E+002
 20
1.9843961E+002
 70
0
  0
VERTEX
  8
1
 42
0.0
 10
1.7006642E+002
 20
1.9963961E+002
 70
0
  0
SEQEND
  0
POLYLINE
  8
1
  6
CONTINUOUS
 62
3
 66
1
 40
5.0E-001
 41
5.0E-001
 70
0
  0
VERTEX
  8
1
 42
0.0
 10
1.6356642E+002
 20
1.9193961E+002
 70
0
  0
VERTEX
  8
1
 42
0.0
 10
1.6356642E+002
 20
1.9893961E+002
 70
0
  0
SEQEND
  0
POLYLINE
  8
1
  6
CONTINUOUS
 62
3
 66
1
 40
5.0E-001
 41
5.0E-001
 70
0
  0
VERTEX
  8
1
 42
0.0
 10
1.6356142E+002
 20
1.9893961E+002
 70
0
  0
VERTEX
  8
1
 42
0.0
 10
1.5856642E+002
 20
1.9893961E+002
 70
0
  0
SEQEND
  0
POLYLINE
  8
1
  6
CONTINUOUS
 62
3
 66
1
 40
5.0E-001
 41
5.0E-001
 70
0
  0
VERTEX
  8
1
 42
0.0
 10
1.5856642E+002
 20
1.9193961E+002
 70
0
  0
VERTEX
  8
1
 42
0.0
 10
1.6356642E+002
 20
1.9193961E+002
 70
0
  0
SEQEND
  0
POLYLINE
  8
1
  6
CONTINUOUS
 62
3
 66
1
 40
5.0E-001
 41
5.0E-001
 70
0
  0
VERTEX
  8
1
 42
0.0
 10
1.5856642E+002
 20
1.8983961E+002
 70
0
  0
VERTEX
  8
1
 42
0.0
 10
1.5856642E+002
 20
1.9643961E+002
 70
0
  0
SEQEND
  0
POLYLINE
  8
1
  6
CONTINUOUS
 62
3
 66
1
 40
5.0E-001
 41
5.0E-001
 70
0
  0
VERTEX
  8
1
 42
0.0
 10
1.7006642E+002
 20
1.8743951E+002
 70
0
  0
VERTEX
  8
1
 42
0.0
 10
1.7006642E+002
 20
1.9068961E+002
 70
0
  0
SEQEND
  0
INSERT
  2
*E1021
  8
1
 10
1.6606642E+002
 20
1.9168961E+002
 41
1.0
 42
1.0
 43
1.0
 50
2.7E+002
 62
3
  0
POLYLINE
  8
1
  6
CONTINUOUS
 62
3
 66
1
 40
5.0E-001
 41
5.0E-001
 70
0
  0
VERTEX
  8
1
 42
0.0
 10
1.6606642E+002
 20
1.9068961E+002
 70
0
  0
VERTEX
  8
1
 42
0.0
 10
1.7006642E+002
 20
1.9068961E+002
 70
0
  0
SEQEND
  0
POLYLINE
  8
1
  6
CONTINUOUS
 62
3
 66
1
 40
5.0E-001
 41
5.0E-001
 70
0
  0
VERTEX
  8
1
 42
0.0
 10
1.4706642E+002
 20
2.0943961E+002
 70
0
  0
VERTEX
  8
1
 42
0.0
 10
1.6506642E+002
 20
2.0943961E+002
 70
0
  0
SEQEND
  0
POLYLINE
  8
1
  6
CONTINUOUS
 62
3
 66
1
 40
5.0E-001
 41
5.0E-001
 70
0
  0
VERTEX
  8
1
 42
0.0
 10
1.6256642E+002
 20
1.9193961E+002
 70
0
  0
VERTEX
  8
1
 42
0.0
 10
1.6256642E+002
 20
1.9893961E+002
 70
0
  0
SEQEND
  0
POLYLINE
  8
1
  6
CONTINUOUS
 62
3
 66
1
 40
5.0E-001
 41
5.0E-001
 70
0
  0
VERTEX
  8
1
 42
0.0
 10
1.6256642E+002
 20
1.9643961E+002
 70
0
  0
VERTEX
  8
1
 42
0.0
 10
1.5856642E+002
 20
1.9643961E+002
 70
0
  0
SEQEND
  0
POLYLINE
  8
1
  6
CONTINUOUS
 62
3
 66
1
 40
5.0E-001
 41
5.0E-001
 70
0
  0
VERTEX
  8
1
 42
0.0
 10
1.5746642E+002
 20
1.8823951E+002
 70
0
  0
VERTEX
  8
1
 42
0.0
 10
1.5056642E+002
 20
1.8823951E+002
 70
0
  0
SEQEND
  0
POLYLINE
  8
1
  6
CONTINUOUS
 62
3
 66
1
 40
5.0E-001
 41
5.0E-001
 70
0
  0
VERTEX
  8
1
 42
0.0
 10
1.5856642E+002
 20
1.8503951E+002
 70
0
  0
VERTEX
  8
1
 42
0.0
 10
1.5746642E+002
 20
1.8503951E+002
 70
0
  0
SEQEND
  0
POLYLINE
  8
1
  6
CONTINUOUS
 62
3
 66
1
 40
5.0E-001
 41
5.0E-001
 70
0
  0
VERTEX
  8
1
 42
0.0
 10
1.5856642E+002
 20
1.8983961E+002
 70
0
  0
VERTEX
  8
1
 42
0.0
 10
1.5746642E+002
 20
1.8983961E+002
 70
0
  0
SEQEND
  0
POLYLINE
  8
1
  6
CONTINUOUS
 62
3
 66
1
 40
5.0E-001
 41
5.0E-001
 70
0
  0
VERTEX
  8
1
 42
0.0
 10
1.5746642E+002
 20
1.8663951E+002
 70
0
  0
VERTEX
  8
1
 42
0.0
 10
1.5056642E+002
 20
1.8663951E+002
 70
0
  0
SEQEND
  0
POLYLINE
  8
1
  6
CONTINUOUS
 62
3
 66
1
 40
5.0E-001
 41
5.0E-001
 70
0
  0
VERTEX
  8
1
 42
0.0
 10
1.6506642E+002
 20
1.8743951E+002
 70
0
  0
VERTEX
  8
1
 42
0.0
 10
1.6506642E+002
 20
2.0943961E+002
 70
0
  0
SEQEND
  0
POLYLINE
  8
1
  6
CONTINUOUS
 62
3
 66
1
 40
5.0E-001
 41
5.0E-001
 70
0
  0
VERTEX
  8
1
 42
0.0
 10
1.5856642E+002
 20
1.9893961E+002
 70
0
  0
VERTEX
  8
1
 42
0.0
 10
1.5856642E+002
 20
2.0943961E+002
 70
0
  0
SEQEND
  0
POLYLINE
  8
1
  6
CONTINUOUS
 62
3
 66
1
 40
5.0E-001
 41
5.0E-001
 70
0
  0
VERTEX
  8
1
 42
0.0
 10
1.5656642E+002
 20
2.0883961E+002
 70
0
  0
VERTEX
  8
1
 42
0.0
 10
1.4707262E+002
 20
2.0883961E+002
 70
0
  0
SEQEND
  0
POLYLINE
  8
1
  6
CONTINUOUS
 62
3
 66
1
 40
5.0E-001
 41
5.0E-001
 70
0
  0
VERTEX
  8
1
 42
0.0
 10
5.1715414E+001
 20
1.6543951E+002
 70
0
  0
VERTEX
  8
1
 42
0.0
 10
7.0415394E+001
 20
1.6543951E+002
 70
0
  0
SEQEND
  0
POLYLINE
  8
1
  6
CONTINUOUS
 62
3
 66
1
 40
5.0E-001
 41
5.0E-001
 70
0
  0
VERTEX
  8
1
 42
0.0
 10
1.4706642E+002
 20
2.0943961E+002
 70
0
  0
VERTEX
  8
1
 42
0.0
 10
1.4706642E+002
 20
2.0873961E+002
 70
0
  0
SEQEND
  0
POLYLINE
  8
1
  6
CONTINUOUS
 62
3
 66
1
 40
5.0E-001
 41
5.0E-001
 70
0
  0
VERTEX
  8
1
 42
0.0
 10
1.5656642E+002
 20
1.6633951E+002
 70
0
  0
VERTEX
  8
1
 42
0.0
 10
1.5656642E+002
 20
1.6603951E+002
 70
0
  0
SEQEND
  0
POLYLINE
  8
1
  6
CONTINUOUS
 62
3
 66
1
 40
5.0E-001
 41
5.0E-001
 70
0
  0
VERTEX
  8
1
 42
0.0
 10
1.5056642E+002
 20
1.8483951E+002
 70
0
  0
VERTEX
  8
1
 42
0.0
 10
1.5856642E+002
 20
1.8483951E+002
 70
0
  0
SEQEND
  0
POLYLINE
  8
1
  6
CONTINUOUS
 62
3
 66
1
 40
5.0E-001
 41
5.0E-001
 70
0
  0
VERTEX
  8
1
 42
0.0
 10
1.5006642E+002
 20
1.6613961E+002
 70
0
  0
VERTEX
  8
1
 42
0.0
 10
1.5006642E+002
 20
1.6603951E+002
 70
0
  0
SEQEND
  0
LINE
  8
1
  6
CENTERLINE
 62
1
 10
6.5555394E+001
 20
1.7675201E+002
 11
6.5555394E+001
 21
1.7271831E+002
  0
LINE
  8
1
  6
CENTERLINE
 62
1
 10
5.5395394E+001
 20
1.7675201E+002
 11
5.5395394E+001
 21
1.7271831E+002
  0
LINE
  8
1
  6
CONTINUOUS
 62
4
 10
1.7006642E+002
 20
2.1138201E+002
 11
1.7006642E+002
 21
1.8743951E+002
  0
LINE
  8
1
  6
CONTINUOUS
 62
4
 10
1.7156642E+002
 20
1.8743951E+002
 11
1.7156642E+002
 21
2.1196011E+002
  0
LINE
  8
1
  6
CENTERLINE
 62
1
 10
1.6124462E+002
 20
2.0013961E+002
 11
1.7315982E+002
 21
2.0013961E+002
  0
TEXT
  8
1
  6
CONTINUOUS
 62
4
 10
1.3078157E+002
 20
1.2695819E+002
 40
3.0
  1
Leiterplatte
 41
7.7358733E-001
  0
POLYLINE
  8
1
  6
CONTINUOUS
 62
3
 66
1
 40
5.0E-001
 41
5.0E-001
 70
0
  0
VERTEX
  8
1
 42
0.0
 10
5.5705394E+001
 20
2.0643961E+002
 70
0
  0
VERTEX
  8
1
 42
0.0
 10
5.5705394E+001
 20
2.0543961E+002
 70
0
  0
SEQEND
  0
POLYLINE
  8
1
  6
CONTINUOUS
 62
3
 66
1
 40
5.0E-001
 41
5.0E-001
 70
0
  0
VERTEX
  8
1
 42
0.0
 10
5.5705394E+001
 20
2.0543961E+002
 70
0
  0
VERTEX
  8
1
 42
0.0
 10
5.7205394E+001
 20
2.0543961E+002
 70
0
  0
SEQEND
  0
POLYLINE
  8
1
  6
CONTINUOUS
 62
3
 66
1
 40
5.0E-001
 41
5.0E-001
 70
0
  0
VERTEX
  8
1
 42
0.0
 10
5.5705394E+001
 20
2.0588961E+002
 70
0
  0
VERTEX
  8
1
 42
0.0
 10
5.7205394E+001
 20
2.0588961E+002
 70
0
  0
SEQEND
  0
POLYLINE
  8
1
  6
CONTINUOUS
 62
3
 66
1
 40
5.0E-001
 41
5.0E-001
 70
0
  0
VERTEX
  8
1
 42
0.0
 10
5.7205394E+001
 20
2.0543961E+002
 70
0
  0
VERTEX
  8
1
 42
0.0
 10
5.7205394E+001
 20
2.0643961E+002
 70
0
  0
SEQEND
  0
POLYLINE
  8
1
  6
CONTINUOUS
 62
3
 66
1
 40
5.0E-001
 41
5.0E-001
 70
0
  0
VERTEX
  8
1
 42
0.0
 10
5.5205394E+001
 20
2.0643961E+002
 70
0
  0
VERTEX
  8
1
 42
0.0
 10
5.7705394E+001
 20
2.0643961E+002
 70
0
  0
SEQEND
  0
POLYLINE
  8
1
  6
CONTINUOUS
 62
3
 66
1
 40
5.0E-001
 41
5.0E-001
 70
0
  0
VERTEX
  8
1
 42
0.0
 10
5.7705394E+001
 20
2.0643961E+002
 70
0
  0
VERTEX
  8
1
 42
0.0
 10
5.7705394E+001
 20
2.0843961E+002
 70
0
  0
SEQEND
  0
POLYLINE
  8
1
  6
CONTINUOUS
 62
3
 66
1
 40
5.0E-001
 41
5.0E-001
 70
0
  0
VERTEX
  8
1
 42
0.0
 10
5.5205394E+001
 20
2.0643961E+002
 70
0
  0
VERTEX
  8
1
 42
0.0
 10
5.5205394E+001
 20
2.0843961E+002
 70
0
  0
SEQEND
  0
POLYLINE
  8
1
  6
CONTINUOUS
 62
3
 66
1
 40
5.0E-001
 41
5.0E-001
 70
0
  0
VERTEX
  8
1
 42
0.0
 10
5.5205394E+001
 20
2.0843961E+002
 70
0
  0
VERTEX
  8
1
 42
0.0
 10
5.7705394E+001
 20
2.0843961E+002
 70
0
  0
SEQEND
  0
POLYLINE
  8
1
  6
CONTINUOUS
 62
3
 66
1
 40
5.0E-001
 41
5.0E-001
 70
0
  0
VERTEX
  8
1
 42
0.0
 10
5.5205394E+001
 20
2.0843961E+002
 70
0
  0
VERTEX
  8
1
 42
0.0
 10
5.7705394E+001
 20
2.0843961E+002
 70
0
  0
SEQEND
  0
POLYLINE
  8
1
  6
CONTINUOUS
 62
3
 66
1
 40
5.0E-001
 41
5.0E-001
 70
0
  0
VERTEX
  8
1
 42
0.0
 10
5.5205394E+001
 20
2.0643961E+002
 70
0
  0
VERTEX
  8
1
 42
0.0
 10
5.5205394E+001
 20
2.0843961E+002
 70
0
  0
SEQEND
  0
POLYLINE
  8
1
  6
CONTINUOUS
 62
3
 66
1
 40
5.0E-001
 41
5.0E-001
 70
0
  0
VERTEX
  8
1
 42
0.0
 10
5.7705394E+001
 20
2.0643961E+002
 70
0
  0
VERTEX
  8
1
 42
0.0
 10
5.7705394E+001
 20
2.0843961E+002
 70
0
  0
SEQEND
  0
POLYLINE
  8
1
  6
CONTINUOUS
 62
3
 66
1
 40
5.0E-001
 41
5.0E-001
 70
0
  0
VERTEX
  8
1
 42
0.0
 10
5.5205394E+001
 20
2.0643961E+002
 70
0
  0
VERTEX
  8
1
 42
0.0
 10
5.7705394E+001
 20
2.0643961E+002
 70
0
  0
SEQEND
  0
POLYLINE
  8
1
  6
CONTINUOUS
 62
3
 66
1
 40
5.0E-001
 41
5.0E-001
 70
0
  0
VERTEX
  8
1
 42
0.0
 10
5.7205394E+001
 20
2.0543961E+002
 70
0
  0
VERTEX
  8
1
 42
0.0
 10
5.7205394E+001
 20
2.0643961E+002
 70
0
  0
SEQEND
  0
POLYLINE
  8
1
  6
CONTINUOUS
 62
3
 66
1
 40
5.0E-001
 41
5.0E-001
 70
0
  0
VERTEX
  8
1
 42
0.0
 10
5.5705394E+001
 20
2.0588961E+002
 70
0
  0
VERTEX
  8
1
 42
0.0
 10
5.7205394E+001
 20
2.0588961E+002
 70
0
  0
SEQEND
  0
POLYLINE
  8
1
  6
CONTINUOUS
 62
3
 66
1
 40
5.0E-001
 41
5.0E-001
 70
0
  0
VERTEX
  8
1
 42
0.0
 10
5.5705394E+001
 20
2.0543961E+002
 70
0
  0
VERTEX
  8
1
 42
0.0
 10
5.7205394E+001
 20
2.0543961E+002
 70
0
  0
SEQEND
  0
POLYLINE
  8
1
  6
CONTINUOUS
 62
3
 66
1
 40
5.0E-001
 41
5.0E-001
 70
0
  0
VERTEX
  8
1
 42
0.0
 10
5.5705394E+001
 20
2.0643961E+002
 70
0
  0
VERTEX
  8
1
 42
0.0
 10
5.5705394E+001
 20
2.0543961E+002
 70
0
  0
SEQEND
  0
POLYLINE
  8
1
  6
CONTINUOUS
 62
3
 66
1
 40
5.0E-001
 41
5.0E-001
 70
0
  0
VERTEX
  8
1
 42
0.0
 10
5.5205394E+001
 20
1.9648961E+002
 70
0
  0
VERTEX
  8
1
 42
0.0
 10
5.5205394E+001
 20
1.9448961E+002
 70
0
  0
SEQEND
  0
POLYLINE
  8
1
  6
CONTINUOUS
 62
3
 66
1
 40
5.0E-001
 41
5.0E-001
 70
0
  0
VERTEX
  8
1
 42
0.0
 10
5.5205394E+001
 20
1.9448961E+002
 70
0
  0
VERTEX
  8
1
 42
0.0
 10
5.7705394E+001
 20
1.9448961E+002
 70
0
  0
SEQEND
  0
POLYLINE
  8
1
  6
CONTINUOUS
 62
3
 66
1
 40
5.0E-001
 41
5.0E-001
 70
0
  0
VERTEX
  8
1
 42
0.0
 10
5.7705394E+001
 20
1.9648961E+002
 70
0
  0
VERTEX
  8
1
 42
0.0
 10
5.7705394E+001
 20
1.9448961E+002
 70
0
  0
SEQEND
  0
POLYLINE
  8
1
  6
CONTINUOUS
 62
3
 66
1
 40
5.0E-001
 41
5.0E-001
 70
0
  0
VERTEX
  8
1
 42
0.0
 10
5.5205394E+001
 20
1.9648961E+002
 70
0
  0
VERTEX
  8
1
 42
0.0
 10
5.7705394E+001
 20
1.9648961E+002
 70
0
  0
SEQEND
  0
POLYLINE
  8
1
  6
CONTINUOUS
 62
3
 66
1
 40
5.0E-001
 41
5.0E-001
 70
0
  0
VERTEX
  8
1
 42
0.0
 10
5.7205394E+001
 20
1.9748961E+002
 70
0
  0
VERTEX
  8
1
 42
0.0
 10
5.7205394E+001
 20
1.9648961E+002
 70
0
  0
SEQEND
  0
POLYLINE
  8
1
  6
CONTINUOUS
 62
3
 66
1
 40
5.0E-001
 41
5.0E-001
 70
0
  0
VERTEX
  8
1
 42
0.0
 10
5.5705394E+001
 20
1.9648961E+002
 70
0
  0
VERTEX
  8
1
 42
0.0
 10
5.5705394E+001
 20
1.9748961E+002
 70
0
  0
SEQEND
  0
POLYLINE
  8
1
  6
CONTINUOUS
 62
3
 66
1
 40
5.0E-001
 41
5.0E-001
 70
0
  0
VERTEX
  8
1
 42
0.0
 10
5.5705394E+001
 20
1.9703961E+002
 70
0
  0
VERTEX
  8
1
 42
0.0
 10
5.7205394E+001
 20
1.9703961E+002
 70
0
  0
SEQEND
  0
POLYLINE
  8
1
  6
CONTINUOUS
 62
3
 66
1
 40
5.0E-001
 41
5.0E-001
 70
0
  0
VERTEX
  8
1
 42
0.0
 10
5.5705394E+001
 20
1.9748961E+002
 70
0
  0
VERTEX
  8
1
 42
0.0
 10
5.7205394E+001
 20
1.9748961E+002
 70
0
  0
SEQEND
  0
POLYLINE
  8
1
  6
CONTINUOUS
 62
3
 66
1
 40
5.0E-001
 41
5.0E-001
 70
0
  0
VERTEX
  8
1
 42
0.0
 10
5.5705394E+001
 20
1.9748961E+002
 70
0
  0
VERTEX
  8
1
 42
0.0
 10
5.7205394E+001
 20
1.9748961E+002
 70
0
  0
SEQEND
  0
POLYLINE
  8
1
  6
CONTINUOUS
 62
3
 66
1
 40
5.0E-001
 41
5.0E-001
 70
0
  0
VERTEX
  8
1
 42
0.0
 10
5.5705394E+001
 20
1.9703961E+002
 70
0
  0
VERTEX
  8
1
 42
0.0
 10
5.7205394E+001
 20
1.9703961E+002
 70
0
  0
SEQEND
  0
POLYLINE
  8
1
  6
CONTINUOUS
 62
3
 66
1
 40
5.0E-001
 41
5.0E-001
 70
0
  0
VERTEX
  8
1
 42
0.0
 10
5.5705394E+001
 20
1.9648961E+002
 70
0
  0
VERTEX
  8
1
 42
0.0
 10
5.5705394E+001
 20
1.9748961E+002
 70
0
  0
SEQEND
  0
POLYLINE
  8
1
  6
CONTINUOUS
 62
3
 66
1
 40
5.0E-001
 41
5.0E-001
 70
0
  0
VERTEX
  8
1
 42
0.0
 10
5.7205394E+001
 20
1.9748961E+002
 70
0
  0
VERTEX
  8
1
 42
0.0
 10
5.7205394E+001
 20
1.9648961E+002
 70
0
  0
SEQEND
  0
POLYLINE
  8
1
  6
CONTINUOUS
 62
3
 66
1
 40
5.0E-001
 41
5.0E-001
 70
0
  0
VERTEX
  8
1
 42
0.0
 10
5.5205394E+001
 20
1.9648961E+002
 70
0
  0
VERTEX
  8
1
 42
0.0
 10
5.7705394E+001
 20
1.9648961E+002
 70
0
  0
SEQEND
  0
POLYLINE
  8
1
  6
CONTINUOUS
 62
3
 66
1
 40
5.0E-001
 41
5.0E-001
 70
0
  0
VERTEX
  8
1
 42
0.0
 10
5.7705394E+001
 20
1.9648961E+002
 70
0
  0
VERTEX
  8
1
 42
0.0
 10
5.7705394E+001
 20
1.9448961E+002
 70
0
  0
SEQEND
  0
POLYLINE
  8
1
  6
CONTINUOUS
 62
3
 66
1
 40
5.0E-001
 41
5.0E-001
 70
0
  0
VERTEX
  8
1
 42
0.0
 10
5.5205394E+001
 20
1.9448961E+002
 70
0
  0
VERTEX
  8
1
 42
0.0
 10
5.7705394E+001
 20
1.9448961E+002
 70
0
  0
SEQEND
  0
POLYLINE
  8
1
  6
CONTINUOUS
 62
3
 66
1
 40
5.0E-001
 41
5.0E-001
 70
0
  0
VERTEX
  8
1
 42
0.0
 10
5.5205394E+001
 20
1.9648961E+002
 70
0
  0
VERTEX
  8
1
 42
0.0
 10
5.5205394E+001
 20
1.9448961E+002
 70
0
  0
SEQEND
  0
POLYLINE
  8
1
  6
CONTINUOUS
 62
3
 66
1
 40
5.0E-001
 41
5.0E-001
 70
0
  0
VERTEX
  8
1
 42
0.0
 10
6.4805394E+001
 20
2.0643961E+002
 70
0
  0
VERTEX
  8
1
 42
0.0
 10
6.4805394E+001
 20
2.0543961E+002
 70
0
  0
SEQEND
  0
POLYLINE
  8
1
  6
CONTINUOUS
 62
3
 66
1
 40
5.0E-001
 41
5.0E-001
 70
0
  0
VERTEX
  8
1
 42
0.0
 10
6.4805394E+001
 20
2.0543961E+002
 70
0
  0
VERTEX
  8
1
 42
0.0
 10
6.6305394E+001
 20
2.0543961E+002
 70
0
  0
SEQEND
  0
POLYLINE
  8
1
  6
CONTINUOUS
 62
3
 66
1
 40
5.0E-001
 41
5.0E-001
 70
0
  0
VERTEX
  8
1
 42
0.0
 10
6.4805394E+001
 20
2.0588961E+002
 70
0
  0
VERTEX
  8
1
 42
0.0
 10
6.6305394E+001
 20
2.0588961E+002
 70
0
  0
SEQEND
  0
POLYLINE
  8
1
  6
CONTINUOUS
 62
3
 66
1
 40
5.0E-001
 41
5.0E-001
 70
0
  0
VERTEX
  8
1
 42
0.0
 10
6.6305394E+001
 20
2.0543961E+002
 70
0
  0
VERTEX
  8
1
 42
0.0
 10
6.6305394E+001
 20
2.0643961E+002
 70
0
  0
SEQEND
  0
POLYLINE
  8
1
  6
CONTINUOUS
 62
3
 66
1
 40
5.0E-001
 41
5.0E-001
 70
0
  0
VERTEX
  8
1
 42
0.0
 10
6.4305394E+001
 20
2.0643961E+002
 70
0
  0
VERTEX
  8
1
 42
0.0
 10
6.6805394E+001
 20
2.0643961E+002
 70
0
  0
SEQEND
  0
POLYLINE
  8
1
  6
CONTINUOUS
 62
3
 66
1
 40
5.0E-001
 41
5.0E-001
 70
0
  0
VERTEX
  8
1
 42
0.0
 10
6.6805394E+001
 20
2.0643961E+002
 70
0
  0
VERTEX
  8
1
 42
0.0
 10
6.6805394E+001
 20
2.0843961E+002
 70
0
  0
SEQEND
  0
POLYLINE
  8
1
  6
CONTINUOUS
 62
3
 66
1
 40
5.0E-001
 41
5.0E-001
 70
0
  0
VERTEX
  8
1
 42
0.0
 10
6.4305394E+001
 20
2.0643961E+002
 70
0
  0
VERTEX
  8
1
 42
0.0
 10
6.4305394E+001
 20
2.0843961E+002
 70
0
  0
SEQEND
  0
POLYLINE
  8
1
  6
CONTINUOUS
 62
3
 66
1
 40
5.0E-001
 41
5.0E-001
 70
0
  0
VERTEX
  8
1
 42
0.0
 10
6.4305394E+001
 20
2.0843961E+002
 70
0
  0
VERTEX
  8
1
 42
0.0
 10
6.6805394E+001
 20
2.0843961E+002
 70
0
  0
SEQEND
  0
POLYLINE
  8
1
  6
CONTINUOUS
 62
3
 66
1
 40
5.0E-001
 41
5.0E-001
 70
0
  0
VERTEX
  8
1
 42
0.0
 10
6.4305394E+001
 20
2.0843961E+002
 70
0
  0
VERTEX
  8
1
 42
0.0
 10
6.6805394E+001
 20
2.0843961E+002
 70
0
  0
SEQEND
  0
POLYLINE
  8
1
  6
CONTINUOUS
 62
3
 66
1
 40
5.0E-001
 41
5.0E-001
 70
0
  0
VERTEX
  8
1
 42
0.0
 10
6.4305394E+001
 20
2.0643961E+002
 70
0
  0
VERTEX
  8
1
 42
0.0
 10
6.4305394E+001
 20
2.0843961E+002
 70
0
  0
SEQEND
  0
POLYLINE
  8
1
  6
CONTINUOUS
 62
3
 66
1
 40
5.0E-001
 41
5.0E-001
 70
0
  0
VERTEX
  8
1
 42
0.0
 10
6.6805394E+001
 20
2.0643961E+002
 70
0
  0
VERTEX
  8
1
 42
0.0
 10
6.6805394E+001
 20
2.0843961E+002
 70
0
  0
SEQEND
  0
POLYLINE
  8
1
  6
CONTINUOUS
 62
3
 66
1
 40
5.0E-001
 41
5.0E-001
 70
0
  0
VERTEX
  8
1
 42
0.0
 10
6.4305394E+001
 20
2.0643961E+002
 70
0
  0
VERTEX
  8
1
 42
0.0
 10
6.6805394E+001
 20
2.0643961E+002
 70
0
  0
SEQEND
  0
POLYLINE
  8
1
  6
CONTINUOUS
 62
3
 66
1
 40
5.0E-001
 41
5.0E-001
 70
0
  0
VERTEX
  8
1
 42
0.0
 10
6.6305394E+001
 20
2.0543961E+002
 70
0
  0
VERTEX
  8
1
 42
0.0
 10
6.6305394E+001
 20
2.0643961E+002
 70
0
  0
SEQEND
  0
POLYLINE
  8
1
  6
CONTINUOUS
 62
3
 66
1
 40
5.0E-001
 41
5.0E-001
 70
0
  0
VERTEX
  8
1
 42
0.0
 10
6.4805394E+001
 20
2.0588961E+002
 70
0
  0
VERTEX
  8
1
 42
0.0
 10
6.6305394E+001
 20
2.0588961E+002
 70
0
  0
SEQEND
  0
POLYLINE
  8
1
  6
CONTINUOUS
 62
3
 66
1
 40
5.0E-001
 41
5.0E-001
 70
0
  0
VERTEX
  8
1
 42
0.0
 10
6.4805394E+001
 20
2.0543961E+002
 70
0
  0
VERTEX
  8
1
 42
0.0
 10
6.6305394E+001
 20
2.0543961E+002
 70
0
  0
SEQEND
  0
POLYLINE
  8
1
  6
CONTINUOUS
 62
3
 66
1
 40
5.0E-001
 41
5.0E-001
 70
0
  0
VERTEX
  8
1
 42
0.0
 10
6.4805394E+001
 20
2.0643961E+002
 70
0
  0
VERTEX
  8
1
 42
0.0
 10
6.4805394E+001
 20
2.0543961E+002
 70
0
  0
SEQEND
  0
POLYLINE
  8
1
  6
CONTINUOUS
 62
3
 66
1
 40
5.0E-001
 41
5.0E-001
 70
0
  0
VERTEX
  8
1
 42
0.0
 10
6.4305394E+001
 20
1.9648961E+002
 70
0
  0
VERTEX
  8
1
 42
0.0
 10
6.4305394E+001
 20
1.9448961E+002
 70
0
  0
SEQEND
  0
POLYLINE
  8
1
  6
CONTINUOUS
 62
3
 66
1
 40
5.0E-001
 41
5.0E-001
 70
0
  0
VERTEX
  8
1
 42
0.0
 10
6.4305394E+001
 20
1.9448961E+002
 70
0
  0
VERTEX
  8
1
 42
0.0
 10
6.6805394E+001
 20
1.9448961E+002
 70
0
  0
SEQEND
  0
POLYLINE
  8
1
  6
CONTINUOUS
 62
3
 66
1
 40
5.0E-001
 41
5.0E-001
 70
0
  0
VERTEX
  8
1
 42
0.0
 10
6.6805394E+001
 20
1.9648961E+002
 70
0
  0
VERTEX
  8
1
 42
0.0
 10
6.6805394E+001
 20
1.9448961E+002
 70
0
  0
SEQEND
  0
POLYLINE
  8
1
  6
CONTINUOUS
 62
3
 66
1
 40
5.0E-001
 41
5.0E-001
 70
0
  0
VERTEX
  8
1
 42
0.0
 10
6.4305394E+001
 20
1.9648961E+002
 70
0
  0
VERTEX
  8
1
 42
0.0
 10
6.6805394E+001
 20
1.9648961E+002
 70
0
  0
SEQEND
  0
POLYLINE
  8
1
  6
CONTINUOUS
 62
3
 66
1
 40
5.0E-001
 41
5.0E-001
 70
0
  0
VERTEX
  8
1
 42
0.0
 10
6.6305394E+001
 20
1.9748961E+002
 70
0
  0
VERTEX
  8
1
 42
0.0
 10
6.6305394E+001
 20
1.9648961E+002
 70
0
  0
SEQEND
  0
POLYLINE
  8
1
  6
CONTINUOUS
 62
3
 66
1
 40
5.0E-001
 41
5.0E-001
 70
0
  0
VERTEX
  8
1
 42
0.0
 10
6.4805394E+001
 20
1.9648961E+002
 70
0
  0
VERTEX
  8
1
 42
0.0
 10
6.4805394E+001
 20
1.9748961E+002
 70
0
  0
SEQEND
  0
POLYLINE
  8
1
  6
CONTINUOUS
 62
3
 66
1
 40
5.0E-001
 41
5.0E-001
 70
0
  0
VERTEX
  8
1
 42
0.0
 10
6.4805394E+001
 20
1.9703961E+002
 70
0
  0
VERTEX
  8
1
 42
0.0
 10
6.6305394E+001
 20
1.9703961E+002
 70
0
  0
SEQEND
  0
POLYLINE
  8
1
  6
CONTINUOUS
 62
3
 66
1
 40
5.0E-001
 41
5.0E-001
 70
0
  0
VERTEX
  8
1
 42
0.0
 10
6.4805394E+001
 20
1.9748961E+002
 70
0
  0
VERTEX
  8
1
 42
0.0
 10
6.6305394E+001
 20
1.9748961E+002
 70
0
  0
SEQEND
  0
POLYLINE
  8
1
  6
CONTINUOUS
 62
3
 66
1
 40
5.0E-001
 41
5.0E-001
 70
0
  0
VERTEX
  8
1
 42
0.0
 10
6.4805394E+001
 20
1.9748961E+002
 70
0
  0
VERTEX
  8
1
 42
0.0
 10
6.6305394E+001
 20
1.9748961E+002
 70
0
  0
SEQEND
  0
POLYLINE
  8
1
  6
CONTINUOUS
 62
3
 66
1
 40
5.0E-001
 41
5.0E-001
 70
0
  0
VERTEX
  8
1
 42
0.0
 10
6.4805394E+001
 20
1.9703961E+002
 70
0
  0
VERTEX
  8
1
 42
0.0
 10
6.6305394E+001
 20
1.9703961E+002
 70
0
  0
SEQEND
  0
POLYLINE
  8
1
  6
CONTINUOUS
 62
3
 66
1
 40
5.0E-001
 41
5.0E-001
 70
0
  0
VERTEX
  8
1
 42
0.0
 10
6.4805394E+001
 20
1.9648961E+002
 70
0
  0
VERTEX
  8
1
 42
0.0
 10
6.4805394E+001
 20
1.9748961E+002
 70
0
  0
SEQEND
  0
POLYLINE
  8
1
  6
CONTINUOUS
 62
3
 66
1
 40
5.0E-001
 41
5.0E-001
 70
0
  0
VERTEX
  8
1
 42
0.0
 10
6.6305394E+001
 20
1.9748961E+002
 70
0
  0
VERTEX
  8
1
 42
0.0
 10
6.6305394E+001
 20
1.9648961E+002
 70
0
  0
SEQEND
  0
POLYLINE
  8
1
  6
CONTINUOUS
 62
3
 66
1
 40
5.0E-001
 41
5.0E-001
 70
0
  0
VERTEX
  8
1
 42
0.0
 10
6.4305394E+001
 20
1.9648961E+002
 70
0
  0
VERTEX
  8
1
 42
0.0
 10
6.6805394E+001
 20
1.9648961E+002
 70
0
  0
SEQEND
  0
POLYLINE
  8
1
  6
CONTINUOUS
 62
3
 66
1
 40
5.0E-001
 41
5.0E-001
 70
0
  0
VERTEX
  8
1
 42
0.0
 10
6.6805394E+001
 20
1.9648961E+002
 70
0
  0
VERTEX
  8
1
 42
0.0
 10
6.6805394E+001
 20
1.9448961E+002
 70
0
  0
SEQEND
  0
POLYLINE
  8
1
  6
CONTINUOUS
 62
3
 66
1
 40
5.0E-001
 41
5.0E-001
 70
0
  0
VERTEX
  8
1
 42
0.0
 10
6.4305394E+001
 20
1.9448961E+002
 70
0
  0
VERTEX
  8
1
 42
0.0
 10
6.6805394E+001
 20
1.9448961E+002
 70
0
  0
SEQEND
  0
POLYLINE
  8
1
  6
CONTINUOUS
 62
3
 66
1
 40
5.0E-001
 41
5.0E-001
 70
0
  0
VERTEX
  8
1
 42
0.0
 10
6.4305394E+001
 20
1.9648961E+002
 70
0
  0
VERTEX
  8
1
 42
0.0
 10
6.4305394E+001
 20
1.9448961E+002
 70
0
  0
SEQEND
  0
POLYLINE
  8
1
  6
CONTINUOUS
 62
3
 66
1
 40
5.0E-001
 41
5.0E-001
 70
0
  0
VERTEX
  8
1
 42
4.1421356E-001
 10
6.3415424E+001
 20
1.9888961E+002
 70
0
  0
VERTEX
  8
1
 42
0.0
 10
6.2915424E+001
 20
1.9938961E+002
 70
0
  0
SEQEND
  0
POLYLINE
  8
1
  6
CONTINUOUS
 62
3
 66
1
 40
5.0E-001
 41
5.0E-001
 70
0
  0
VERTEX
  8
1
 42
4.1421356E-001
 10
6.2915424E+001
 20
2.0088961E+002
 70
0
  0
VERTEX
  8
1
 42
0.0
 10
6.3415424E+001
 20
2.0138961E+002
 70
0
  0
SEQEND
  0
POLYLINE
  8
1
  6
CONTINUOUS
 62
3
 66
1
 40
5.0E-001
 41
5.0E-001
 70
0
  0
VERTEX
  8
1
 42
0.0
 10
5.1915414E+001
 20
2.0088961E+002
 70
0
  0
VERTEX
  8
1
 42
0.0
 10
5.3415414E+001
 20
2.0088961E+002
 70
0
  0
SEQEND
  0
POLYLINE
  8
1
  6
CONTINUOUS
 62
3
 66
1
 40
5.0E-001
 41
5.0E-001
 70
0
  0
VERTEX
  8
1
 42
0.0
 10
5.3915414E+001
 20
2.0138961E+002
 70
0
  0
VERTEX
  8
1
 42
0.0
 10
5.3915414E+001
 20
2.0183961E+002
 70
0
  0
SEQEND
  0
POLYLINE
  8
1
  6
CONTINUOUS
 62
3
 66
1
 40
5.0E-001
 41
5.0E-001
 70
0
  0
VERTEX
  8
1
 42
4.1421356E-001
 10
5.3415414E+001
 20
2.0088961E+002
 70
0
  0
VERTEX
  8
1
 42
0.0
 10
5.3915414E+001
 20
2.0138961E+002
 70
0
  0
SEQEND
  0
POLYLINE
  8
1
  6
CONTINUOUS
 62
3
 66
1
 40
5.0E-001
 41
5.0E-001
 70
0
  0
VERTEX
  8
1
 42
0.0
 10
5.1915414E+001
 20
1.9938961E+002
 70
0
  0
VERTEX
  8
1
 42
0.0
 10
5.3415414E+001
 20
1.9938961E+002
 70
0
  0
SEQEND
  0
POLYLINE
  8
1
  6
CONTINUOUS
 62
3
 66
1
 40
5.0E-001
 41
5.0E-001
 70
0
  0
VERTEX
  8
1
 42
0.0
 10
5.3915414E+001
 20
1.9843961E+002
 70
0
  0
VERTEX
  8
1
 42
0.0
 10
5.3915414E+001
 20
1.9888961E+002
 70
0
  0
SEQEND
  0
POLYLINE
  8
1
  6
CONTINUOUS
 62
3
 66
1
 40
5.0E-001
 41
5.0E-001
 70
0
  0
VERTEX
  8
1
 42
4.1421356E-001
 10
5.3915414E+001
 20
1.9888961E+002
 70
0
  0
VERTEX
  8
1
 42
0.0
 10
5.3415414E+001
 20
1.9938961E+002
 70
0
  0
SEQEND
  0
POLYLINE
  8
1
  6
CONTINUOUS
 62
3
 66
1
 40
5.0E-001
 41
5.0E-001
 70
0
  0
VERTEX
  8
1
 42
0.0
 10
5.8715414E+001
 20
1.9843961E+002
 70
0
  0
VERTEX
  8
1
 42
0.0
 10
5.8715414E+001
 20
1.9888961E+002
 70
0
  0
SEQEND
  0
POLYLINE
  8
1
  6
CONTINUOUS
 62
3
 66
1
 40
5.0E-001
 41
5.0E-001
 70
0
  0
VERTEX
  8
1
 42
4.1421356E-001
 10
5.9215414E+001
 20
1.9938961E+002
 70
0
  0
VERTEX
  8
1
 42
0.0
 10
5.8715414E+001
 20
1.9888961E+002
 70
0
  0
SEQEND
  0
POLYLINE
  8
1
  6
CONTINUOUS
 62
3
 66
1
 40
5.0E-001
 41
5.0E-001
 70
0
  0
VERTEX
  8
1
 42
0.0
 10
5.8715414E+001
 20
2.0138961E+002
 70
0
  0
VERTEX
  8
1
 42
0.0
 10
5.8715414E+001
 20
2.0183961E+002
 70
0
  0
SEQEND
  0
POLYLINE
  8
1
  6
CONTINUOUS
 62
3
 66
1
 40
5.0E-001
 41
5.0E-001
 70
0
  0
VERTEX
  8
1
 42
4.1421356E-001
 10
5.8715414E+001
 20
2.0138961E+002
 70
0
  0
VERTEX
  8
1
 42
0.0
 10
5.9215414E+001
 20
2.0088961E+002
 70
0
  0
SEQEND
  0
POLYLINE
  8
1
  6
CONTINUOUS
 62
3
 66
1
 40
5.0E-001
 41
5.0E-001
 70
0
  0
VERTEX
  8
1
 42
0.0
 10
6.7715414E+001
 20
1.9843961E+002
 70
0
  0
VERTEX
  8
1
 42
0.0
 10
6.7715414E+001
 20
1.9888961E+002
 70
0
  0
SEQEND
  0
POLYLINE
  8
1
  6
CONTINUOUS
 62
3
 66
1
 40
5.0E-001
 41
5.0E-001
 70
0
  0
VERTEX
  8
1
 42
4.1421356E-001
 10
6.8215414E+001
 20
1.9938961E+002
 70
0
  0
VERTEX
  8
1
 42
0.0
 10
6.7715414E+001
 20
1.9888961E+002
 70
0
  0
SEQEND
  0
POLYLINE
  8
1
  6
CONTINUOUS
 62
3
 66
1
 40
5.0E-001
 41
5.0E-001
 70
0
  0
VERTEX
  8
1
 42
0.0
 10
6.7715414E+001
 20
2.0138961E+002
 70
0
  0
VERTEX
  8
1
 42
0.0
 10
6.7715414E+001
 20
2.0183961E+002
 70
0
  0
SEQEND
  0
POLYLINE
  8
1
  6
CONTINUOUS
 62
3
 66
1
 40
5.0E-001
 41
5.0E-001
 70
0
  0
VERTEX
  8
1
 42
4.1421356E-001
 10
6.7715414E+001
 20
2.0138961E+002
 70
0
  0
VERTEX
  8
1
 42
0.0
 10
6.8215414E+001
 20
2.0088961E+002
 70
0
  0
SEQEND
  0
POLYLINE
  8
1
  6
CONTINUOUS
 62
3
 66
1
 40
5.0E-001
 41
5.0E-001
 70
0
  0
VERTEX
  8
1
 42
0.0
 10
5.4645394E+001
 20
1.9953951E+002
 70
0
  0
VERTEX
  8
1
 42
0.0
 10
5.4645394E+001
 20
2.0073951E+002
 70
0
  0
SEQEND
  0
POLYLINE
  8
1
  6
CONTINUOUS
 62
3
 66
1
 40
5.0E-001
 41
5.0E-001
 70
0
  0
VERTEX
  8
1
 42
0.0
 10
5.4645394E+001
 20
1.9953951E+002
 70
0
  0
VERTEX
  8
1
 42
0.0
 10
5.5645394E+001
 20
1.9953951E+002
 70
0
  0
SEQEND
  0
POLYLINE
  8
1
  6
CONTINUOUS
 62
3
 66
1
 40
5.0E-001
 41
5.0E-001
 70
0
  0
VERTEX
  8
1
 42
0.0
 10
5.4645394E+001
 20
2.0073951E+002
 70
0
  0
VERTEX
  8
1
 42
0.0
 10
5.5645394E+001
 20
2.0073951E+002
 70
0
  0
SEQEND
  0
POLYLINE
  8
1
  6
CONTINUOUS
 62
3
 66
1
 40
5.0E-001
 41
5.0E-001
 70
0
  0
VERTEX
  8
1
 42
0.0
 10
5.5145394E+001
 20
1.9953951E+002
 70
0
  0
VERTEX
  8
1
 42
0.0
 10
5.5145394E+001
 20
2.0073951E+002
 70
0
  0
SEQEND
  0
POLYLINE
  8
1
  6
CONTINUOUS
 62
3
 66
1
 40
5.0E-001
 41
5.0E-001
 70
0
  0
VERTEX
  8
1
 42
0.0
 10
5.5645394E+001
 20
1.9953951E+002
 70
0
  0
VERTEX
  8
1
 42
0.0
 10
5.5645394E+001
 20
2.0073951E+002
 70
0
  0
SEQEND
  0
POLYLINE
  8
1
  6
CONTINUOUS
 62
3
 66
1
 40
5.0E-001
 41
5.0E-001
 70
0
  0
VERTEX
  8
1
 42
0.0
 10
6.5805394E+001
 20
1.9953951E+002
 70
0
  0
VERTEX
  8
1
 42
0.0
 10
6.5805394E+001
 20
2.0073951E+002
 70
0
  0
SEQEND
  0
POLYLINE
  8
1
  6
CONTINUOUS
 62
3
 66
1
 40
5.0E-001
 41
5.0E-001
 70
0
  0
VERTEX
  8
1
 42
0.0
 10
6.5305394E+001
 20
1.9953951E+002
 70
0
  0
VERTEX
  8
1
 42
0.0
 10
6.5805394E+001
 20
1.9953951E+002
 70
0
  0
SEQEND
  0
POLYLINE
  8
1
  6
CONTINUOUS
 62
3
 66
1
 40
5.0E-001
 41
5.0E-001
 70
0
  0
VERTEX
  8
1
 42
0.0
 10
6.5305394E+001
 20
1.9953951E+002
 70
0
  0
VERTEX
  8
1
 42
0.0
 10
6.5305394E+001
 20
2.0073951E+002
 70
0
  0
SEQEND
  0
POLYLINE
  8
1
  6
CONTINUOUS
 62
3
 66
1
 40
5.0E-001
 41
5.0E-001
 70
0
  0
VERTEX
  8
1
 42
0.0
 10
6.5305394E+001
 20
2.0073951E+002
 70
0
  0
VERTEX
  8
1
 42
0.0
 10
6.5805394E+001
 20
2.0073951E+002
 70
0
  0
SEQEND
  0
POLYLINE
  8
1
  6
CONTINUOUS
 62
3
 66
1
 40
5.0E-001
 41
5.0E-001
 70
0
  0
VERTEX
  8
1
 42
0.0
 10
6.4415424E+001
 20
1.9843961E+002
 70
0
  0
VERTEX
  8
1
 42
0.0
 10
6.4415424E+001
 20
2.0183961E+002
 70
0
  0
SEQEND
  0
POLYLINE
  8
1
  6
CONTINUOUS
 62
3
 66
1
 40
5.0E-001
 41
5.0E-001
 70
0
  0
VERTEX
  8
1
 42
0.0
 10
6.3415424E+001
 20
2.0183961E+002
 70
0
  0
VERTEX
  8
1
 42
0.0
 10
6.3415424E+001
 20
1.9843961E+002
 70
0
  0
SEQEND
  0
POLYLINE
  8
1
  6
CONTINUOUS
 62
3
 66
1
 40
5.0E-001
 41
5.0E-001
 70
0
  0
VERTEX
  8
1
 42
0.0
 10
5.3915414E+001
 20
1.9843961E+002
 70
0
  0
VERTEX
  8
1
 42
0.0
 10
5.8715414E+001
 20
1.9843961E+002
 70
0
  0
SEQEND
  0
POLYLINE
  8
1
  6
CONTINUOUS
 62
3
 66
1
 40
5.0E-001
 41
5.0E-001
 70
0
  0
VERTEX
  8
1
 42
0.0
 10
5.3915414E+001
 20
2.0183961E+002
 70
0
  0
VERTEX
  8
1
 42
0.0
 10
5.8715414E+001
 20
2.0183961E+002
 70
0
  0
SEQEND
  0
POLYLINE
  8
1
  6
CONTINUOUS
 62
3
 66
1
 40
5.0E-001
 41
5.0E-001
 70
0
  0
VERTEX
  8
1
 42
0.0
 10
5.0915414E+001
 20
1.9843961E+002
 70
0
  0
VERTEX
  8
1
 42
0.0
 10
5.1915414E+001
 20
1.9843961E+002
 70
0
  0
SEQEND
  0
POLYLINE
  8
1
  6
CONTINUOUS
 62
3
 66
1
 40
5.0E-001
 41
5.0E-001
 70
0
  0
VERTEX
  8
1
 42
0.0
 10
5.0915414E+001
 20
2.0183961E+002
 70
0
  0
VERTEX
  8
1
 42
0.0
 10
5.1915414E+001
 20
2.0183961E+002
 70
0
  0
SEQEND
  0
POLYLINE
  8
1
  6
CONTINUOUS
 62
3
 66
1
 40
5.0E-001
 41
5.0E-001
 70
0
  0
VERTEX
  8
1
 42
0.0
 10
5.1915414E+001
 20
1.9843961E+002
 70
0
  0
VERTEX
  8
1
 42
0.0
 10
5.1915414E+001
 20
2.0183961E+002
 70
0
  0
SEQEND
  0
POLYLINE
  8
1
  6
CONTINUOUS
 62
3
 66
1
 40
5.0E-001
 41
5.0E-001
 70
0
  0
VERTEX
  8
1
 42
0.0
 10
5.9215414E+001
 20
2.0088961E+002
 70
0
  0
VERTEX
  8
1
 42
0.0
 10
6.2915424E+001
 20
2.0088961E+002
 70
0
  0
SEQEND
  0
POLYLINE
  8
1
  6
CONTINUOUS
 62
3
 66
1
 40
5.0E-001
 41
5.0E-001
 70
0
  0
VERTEX
  8
1
 42
0.0
 10
5.9215414E+001
 20
1.9938961E+002
 70
0
  0
VERTEX
  8
1
 42
0.0
 10
6.2915424E+001
 20
1.9938961E+002
 70
0
  0
SEQEND
  0
POLYLINE
  8
1
  6
CONTINUOUS
 62
3
 66
1
 40
5.0E-001
 41
5.0E-001
 70
0
  0
VERTEX
  8
1
 42
0.0
 10
6.3415424E+001
 20
1.9843961E+002
 70
0
  0
VERTEX
  8
1
 42
0.0
 10
6.7715414E+001
 20
1.9843961E+002
 70
0
  0
SEQEND
  0
POLYLINE
  8
1
  6
CONTINUOUS
 62
3
 66
1
 40
5.0E-001
 41
5.0E-001
 70
0
  0
VERTEX
  8
1
 42
0.0
 10
6.3415424E+001
 20
2.0183961E+002
 70
0
  0
VERTEX
  8
1
 42
0.0
 10
6.7715414E+001
 20
2.0183961E+002
 70
0
  0
SEQEND
  0
POLYLINE
  8
1
  6
CONTINUOUS
 62
3
 66
1
 40
5.0E-001
 41
5.0E-001
 70
0
  0
VERTEX
  8
1
 42
0.0
 10
6.8215414E+001
 20
1.9938961E+002
 70
0
  0
VERTEX
  8
1
 42
0.0
 10
7.1215404E+001
 20
1.9938961E+002
 70
0
  0
SEQEND
  0
POLYLINE
  8
1
  6
CONTINUOUS
 62
3
 66
1
 40
5.0E-001
 41
5.0E-001
 70
0
  0
VERTEX
  8
1
 42
0.0
 10
6.8215414E+001
 20
2.0088961E+002
 70
0
  0
VERTEX
  8
1
 42
0.0
 10
7.1215404E+001
 20
2.0088961E+002
 70
0
  0
SEQEND
  0
INSERT
  2
*E1146
  8
1
 10
5.1715414E+001
 20
2.0863951E+002
 41
1.0
 42
1.0
 43
1.0
 50
2.7E+002
 62
3
  0
INSERT
  2
*E1147
  8
1
 10
7.0415394E+001
 20
2.0863951E+002
 41
1.0
 42
1.0
 43
1.0
 50
2.7E+002
 62
3
  0
POLYLINE
  8
1
  6
CONTINUOUS
 62
3
 66
1
 40
5.0E-001
 41
5.0E-001
 70
0
  0
VERTEX
  8
1
 42
0.0
 10
5.1715414E+001
 20
2.0943951E+002
 70
0
  0
VERTEX
  8
1
 42
0.0
 10
7.0415394E+001
 20
2.0943951E+002
 70
0
  0
SEQEND
  0
LINE
  8
1
  6
CENTERLINE
 62
1
 10
5.5395394E+001
 20
1.9812711E+002
 11
5.5395394E+001
 21
2.0216081E+002
  0
LINE
  8
1
  6
CENTERLINE
 62
1
 10
6.5555394E+001
 20
1.9812711E+002
 11
6.5555394E+001
 21
2.0216081E+002
  0
POLYLINE
  8
1
  6
CONTINUOUS
 62
3
 66
1
 40
5.0E-001
 41
5.0E-001
 70
0
  0
VERTEX
  8
1
 42
0.0
 10
7.1415394E+001
 20
1.8893961E+002
 70
0
  0
VERTEX
  8
1
 42
0.0
 10
7.2515404E+001
 20
1.8946461E+002
 70
0
  0
SEQEND
  0
POLYLINE
  8
1
  6
CONTINUOUS
 62
3
 66
1
 40
5.0E-001
 41
5.0E-001
 70
0
  0
VERTEX
  8
1
 42
0.0
 10
7.2715404E+001
 20
1.8946461E+002
 70
0
  0
VERTEX
  8
1
 42
0.0
 10
7.2515404E+001
 20
1.8946461E+002
 70
0
  0
SEQEND
  0
POLYLINE
  8
1
  6
CONTINUOUS
 62
3
 66
1
 40
5.0E-001
 41
5.0E-001
 70
0
  0
VERTEX
  8
1
 42
0.0
 10
7.1415394E+001
 20
1.8893961E+002
 70
0
  0
VERTEX
  8
1
 42
0.0
 10
7.1215404E+001
 20
1.8893961E+002
 70
0
  0
SEQEND
  0
POLYLINE
  8
1
  6
CONTINUOUS
 62
3
 66
1
 40
5.0E-001
 41
5.0E-001
 70
0
  0
VERTEX
  8
1
 42
0.0
 10
7.1215404E+001
 20
2.0863951E+002
 70
0
  0
VERTEX
  8
1
 42
0.0
 10
7.1215404E+001
 20
1.8893961E+002
 70
0
  0
SEQEND
  0
POLYLINE
  8
1
  6
CONTINUOUS
 62
3
 66
1
 40
5.0E-001
 41
5.0E-001
 70
0
  0
VERTEX
  8
1
 42
0.0
 10
7.2715404E+001
 20
1.8946461E+002
 70
0
  0
VERTEX
  8
1
 42
0.0
 10
7.2715404E+001
 20
1.8743951E+002
 70
0
  0
SEQEND
  0
POLYLINE
  8
1
  6
CONTINUOUS
 62
3
 66
1
 40
5.0E-001
 41
5.0E-001
 70
0
  0
VERTEX
  8
1
 42
0.0
 10
5.0915414E+001
 20
2.0863951E+002
 70
0
  0
VERTEX
  8
1
 42
0.0
 10
5.0915414E+001
 20
1.8743951E+002
 70
0
  0
SEQEND
  0
POLYLINE
  8
1
  6
CONTINUOUS
 62
3
 66
1
 40
5.0E-001
 41
5.0E-001
 70
0
  0
VERTEX
  8
1
 42
0.0
 10
7.2415274E+001
 20
2.0913951E+002
 70
0
  0
VERTEX
  8
1
 42
0.0
 10
7.1039894E+001
 20
2.0913951E+002
 70
0
  0
SEQEND
  0
POLYLINE
  8
1
  6
CONTINUOUS
 62
3
 66
1
 40
5.0E-001
 41
5.0E-001
 70
0
  0
VERTEX
  8
1
 42
0.0
 10
7.3915274E+001
 20
2.0723951E+002
 70
0
  0
VERTEX
  8
1
 42
0.0
 10
7.5215274E+001
 20
2.0853951E+002
 70
0
  0
SEQEND
  0
POLYLINE
  8
1
  6
CONTINUOUS
 62
3
 66
1
 40
5.0E-001
 41
5.0E-001
 70
0
  0
VERTEX
  8
1
 42
0.0
 10
7.2915274E+001
 20
2.0723951E+002
 70
0
  0
VERTEX
  8
1
 42
0.0
 10
7.2415274E+001
 20
2.0913951E+002
 70
0
  0
SEQEND
  0
POLYLINE
  8
1
  6
CONTINUOUS
 62
3
 66
1
 40
5.0E-001
 41
5.0E-001
 70
0
  0
VERTEX
  8
1
 42
0.0
 10
7.5215274E+001
 20
2.0853951E+002
 70
0
  0
VERTEX
  8
1
 42
0.0
 10
7.5215274E+001
 20
2.0973951E+002
 70
0
  0
SEQEND
  0
POLYLINE
  8
1
  6
CONTINUOUS
 62
3
 66
1
 40
5.0E-001
 41
5.0E-001
 70
0
  0
VERTEX
  8
1
 42
0.0
 10
7.4715274E+001
 20
2.1023951E+002
 70
0
  0
VERTEX
  8
1
 42
0.0
 10
7.2415274E+001
 20
2.1023951E+002
 70
0
  0
SEQEND
  0
POLYLINE
  8
1
  6
CONTINUOUS
 62
3
 66
1
 40
5.0E-001
 41
5.0E-001
 70
0
  0
VERTEX
  8
1
 42
4.1421356E-001
 10
7.5215274E+001
 20
2.0973951E+002
 70
0
  0
VERTEX
  8
1
 42
0.0
 10
7.4715274E+001
 20
2.1023951E+002
 70
0
  0
SEQEND
  0
POLYLINE
  8
1
  6
CONTINUOUS
 62
3
 66
1
 40
5.0E-001
 41
5.0E-001
 70
0
  0
VERTEX
  8
1
 42
3.5025125E-001
 10
6.3863847E+001
 20
2.1159627E+002
 70
0
  0
VERTEX
  8
1
 42
0.0
 10
6.006579E+001
 20
2.0943951E+002
 70
0
  0
SEQEND
  0
POLYLINE
  8
1
  6
CONTINUOUS
 62
3
 66
1
 40
5.0E-001
 41
5.0E-001
 70
0
  0
VERTEX
  8
1
 42
0.0
 10
7.2415274E+001
 20
2.1023951E+002
 70
0
  0
VERTEX
  8
1
 42
0.0
 10
6.3863854E+001
 20
2.1159631E+002
 70
0
  0
SEQEND
  0
POLYLINE
  8
1
  6
CONTINUOUS
 62
3
 66
1
 40
5.0E-001
 41
5.0E-001
 70
0
  0
VERTEX
  8
1
 42
0.0
 10
7.2415274E+001
 20
1.6573941E+002
 70
0
  0
VERTEX
  8
1
 42
0.0
 10
7.1039804E+001
 20
1.6573941E+002
 70
0
  0
SEQEND
  0
POLYLINE
  8
1
  6
CONTINUOUS
 62
3
 66
1
 40
5.0E-001
 41
5.0E-001
 70
0
  0
VERTEX
  8
1
 42
0.0
 10
7.2915274E+001
 20
1.6763941E+002
 70
0
  0
VERTEX
  8
1
 42
0.0
 10
7.2415274E+001
 20
1.6573941E+002
 70
0
  0
SEQEND
  0
POLYLINE
  8
1
  6
CONTINUOUS
 62
3
 66
1
 40
5.0E-001
 41
5.0E-001
 70
0
  0
VERTEX
  8
1
 42
0.0
 10
7.3915274E+001
 20
1.6763941E+002
 70
0
  0
VERTEX
  8
1
 42
0.0
 10
7.5215274E+001
 20
1.6633941E+002
 70
0
  0
SEQEND
  0
POLYLINE
  8
1
  6
CONTINUOUS
 62
3
 66
1
 40
5.0E-001
 41
5.0E-001
 70
0
  0
VERTEX
  8
1
 42
0.0
 10
7.5215274E+001
 20
1.6633941E+002
 70
0
  0
VERTEX
  8
1
 42
0.0
 10
7.5215274E+001
 20
1.6513941E+002
 70
0
  0
SEQEND
  0
INSERT
  2
*E1169
  8
1
 10
7.4715274E+001
 20
1.6513941E+002
 41
1.0
 42
1.0
 43
1.0
 50
2.7E+002
 62
3
  0
POLYLINE
  8
1
  6
CONTINUOUS
 62
3
 66
1
 40
5.0E-001
 41
5.0E-001
 70
0
  0
VERTEX
  8
1
 42
0.0
 10
7.4715274E+001
 20
1.6463941E+002
 70
0
  0
VERTEX
  8
1
 42
0.0
 10
7.2415274E+001
 20
1.6463941E+002
 70
0
  0
SEQEND
  0
POLYLINE
  8
1
  6
CONTINUOUS
 62
3
 66
1
 40
5.0E-001
 41
5.0E-001
 70
0
  0
VERTEX
  8
1
 42
0.0
 10
7.2415274E+001
 20
1.6463941E+002
 70
0
  0
VERTEX
  8
1
 42
0.0
 10
6.3863854E+001
 20
1.6328271E+002
 70
0
  0
SEQEND
  0
INSERT
  2
*E1172
  8
1
 10
6.3315404E+001
 20
1.6673941E+002
 41
1.0
 42
1.0
 43
1.0
 50
2.7E+002
 62
3
  0
POLYLINE
  8
1
  6
CONTINUOUS
 62
3
 66
1
 40
5.0E-001
 41
5.0E-001
 70
0
  0
VERTEX
  8
1
 42
0.0
 10
7.2115274E+001
 20
1.8443951E+002
 70
0
  0
VERTEX
  8
1
 42
0.0
 10
7.2115274E+001
 20
1.8560551E+002
 70
0
  0
SEQEND
  0
POLYLINE
  8
1
  6
CONTINUOUS
 62
3
 66
1
 40
5.0E-001
 41
5.0E-001
 70
0
  0
VERTEX
  8
1
 42
0.0
 10
7.1215274E+001
 20
1.8443951E+002
 70
0
  0
VERTEX
  8
1
 42
0.0
 10
7.2115274E+001
 20
1.8443951E+002
 70
0
  0
SEQEND
  0
POLYLINE
  8
1
  6
CONTINUOUS
 62
3
 66
1
 40
5.0E-001
 41
5.0E-001
 70
0
  0
VERTEX
  8
1
 42
0.0
 10
7.2115274E+001
 20
1.9043951E+002
 70
0
  0
VERTEX
  8
1
 42
0.0
 10
7.1215274E+001
 20
1.9043951E+002
 70
0
  0
SEQEND
  0
LINE
  8
1
  6
CENTERLINE
 62
1
 10
6.1065404E+001
 20
1.6401701E+002
 11
6.1065404E+001
 21
2.1085361E+002
  0
LINE
  8
1
  6
CENTERLINE
 62
1
 10
7.0352994E+001
 20
2.0013961E+002
 11
5.1830264E+001
 21
2.0013961E+002
  0
POLYLINE
  8
1
  6
CONTINUOUS
 62
3
 66
1
 40
5.0E-001
 41
5.0E-001
 70
0
  0
VERTEX
  8
1
 42
0.0
 10
7.2757374E+001
 20
2.0783961E+002
 70
0
  0
VERTEX
  8
1
 42
0.0
 10
7.4515284E+001
 20
2.0783961E+002
 70
0
  0
SEQEND
  0
POLYLINE
  8
1
  6
CONTINUOUS
 62
3
 66
1
 40
5.0E-001
 41
5.0E-001
 70
0
  0
VERTEX
  8
1
 42
0.0
 10
7.4515284E+001
 20
1.6703941E+002
 70
0
  0
VERTEX
  8
1
 42
0.0
 10
7.2757374E+001
 20
1.6703941E+002
 70
0
  0
SEQEND
  0
POLYLINE
  8
1
  6
CONTINUOUS
 62
3
 66
1
 40
5.0E-001
 41
5.0E-001
 70
0
  0
VERTEX
  8
1
 42
0.0
 10
7.2115274E+001
 20
1.8927361E+002
 70
0
  0
VERTEX
  8
1
 42
0.0
 10
7.2115274E+001
 20
1.9043951E+002
 70
0
  0
SEQEND
  0
POLYLINE
  8
1
  6
CONTINUOUS
 62
3
 66
1
 40
5.0E-001
 41
5.0E-001
 70
0
  0
VERTEX
  8
1
 42
0.0
 10
7.3915274E+001
 20
1.6763941E+002
 70
0
  0
VERTEX
  8
1
 42
0.0
 10
7.2915274E+001
 20
1.6763941E+002
 70
0
  0
SEQEND
  0
POLYLINE
  8
1
  6
CONTINUOUS
 62
3
 66
1
 40
5.0E-001
 41
5.0E-001
 70
0
  0
VERTEX
  8
1
 42
0.0
 10
7.3915274E+001
 20
2.0723951E+002
 70
0
  0
VERTEX
  8
1
 42
0.0
 10
7.2915274E+001
 20
2.0723951E+002
 70
0
  0
SEQEND
  0
LINE
  8
1
  6
CENTERLINE
 62
1
 10
5.1899374E+001
 20
1.7473941E+002
 11
7.0352994E+001
 21
1.7473941E+002
  0
POLYLINE
  8
1
  6
CONTINUOUS
 62
3
 66
1
 40
5.0E-001
 41
5.0E-001
 70
0
  0
VERTEX
  8
1
 42
0.0
 10
1.3556642E+002
 20
2.1163951E+002
 70
0
  0
VERTEX
  8
1
 42
0.0
 10
1.4556642E+002
 20
2.1163951E+002
 70
0
  0
SEQEND
  0
POLYLINE
  8
1
  6
CONTINUOUS
 62
3
 66
1
 40
5.0E-001
 41
5.0E-001
 70
0
  0
VERTEX
  8
1
 42
0.0
 10
1.4556642E+002
 20
2.0853951E+002
 70
0
  0
VERTEX
  8
1
 42
0.0
 10
1.4556642E+002
 20
2.1163951E+002
 70
0
  0
SEQEND
  0
POLYLINE
  8
1
  6
CONTINUOUS
 62
3
 66
1
 40
5.0E-001
 41
5.0E-001
 70
0
  0
VERTEX
  8
1
 42
0.0
 10
1.5856642E+002
 20
2.0753951E+002
 70
0
  0
VERTEX
  8
1
 42
0.0
 10
1.5756642E+002
 20
2.0853951E+002
 70
0
  0
SEQEND
  0
POLYLINE
  8
1
  6
CONTINUOUS
 62
3
 66
1
 40
5.0E-001
 41
5.0E-001
 70
0
  0
VERTEX
  8
1
 42
0.0
 10
1.5856642E+002
 20
1.6733931E+002
 70
0
  0
VERTEX
  8
1
 42
0.0
 10
1.5756642E+002
 20
1.6633931E+002
 70
0
  0
SEQEND
  0
POLYLINE
  8
1
  6
CONTINUOUS
 62
3
 66
1
 40
5.0E-001
 41
5.0E-001
 70
0
  0
VERTEX
  8
1
 42
0.0
 10
1.3556642E+002
 20
1.6323941E+002
 70
0
  0
VERTEX
  8
1
 42
0.0
 10
1.3556642E+002
 20
1.6633951E+002
 70
0
  0
SEQEND
  0
POLYLINE
  8
1
  6
CONTINUOUS
 62
3
 66
1
 40
5.0E-001
 41
5.0E-001
 70
0
  0
VERTEX
  8
1
 42
0.0
 10
1.5756642E+002
 20
2.0853951E+002
 70
0
  0
VERTEX
  8
1
 42
0.0
 10
1.4556642E+002
 20
2.0853951E+002
 70
0
  0
SEQEND
  0
POLYLINE
  8
1
  6
CONTINUOUS
 62
3
 66
1
 40
5.0E-001
 41
5.0E-001
 70
0
  0
VERTEX
  8
1
 42
0.0
 10
1.5856642E+002
 20
1.6733931E+002
 70
0
  0
VERTEX
  8
1
 42
0.0
 10
1.5856642E+002
 20
2.0753951E+002
 70
0
  0
SEQEND
  0
POLYLINE
  8
1
  6
CONTINUOUS
 62
3
 66
1
 40
5.0E-001
 41
5.0E-001
 70
0
  0
VERTEX
  8
1
 42
0.0
 10
1.4556642E+002
 20
1.6633931E+002
 70
0
  0
VERTEX
  8
1
 42
0.0
 10
1.4556642E+002
 20
1.6323931E+002
 70
0
  0
SEQEND
  0
POLYLINE
  8
1
  6
CONTINUOUS
 62
3
 66
1
 40
5.0E-001
 41
5.0E-001
 70
0
  0
VERTEX
  8
1
 42
0.0
 10
1.4556642E+002
 20
1.6323941E+002
 70
0
  0
VERTEX
  8
1
 42
0.0
 10
1.3556642E+002
 20
1.6323941E+002
 70
0
  0
SEQEND
  0
POLYLINE
  8
1
  6
CONTINUOUS
 62
3
 66
1
 40
5.0E-001
 41
5.0E-001
 70
0
  0
VERTEX
  8
1
 42
0.0
 10
1.5856642E+002
 20
1.9003951E+002
 70
0
  0
VERTEX
  8
1
 42
0.0
 10
1.5056642E+002
 20
1.9003951E+002
 70
0
  0
SEQEND
  0
POLYLINE
  8
1
  6
CONTINUOUS
 62
3
 66
1
 40
5.0E-001
 41
5.0E-001
 70
0
  0
VERTEX
  8
1
 42
0.0
 10
1.5756642E+002
 20
1.6633951E+002
 70
0
  0
VERTEX
  8
1
 42
0.0
 10
1.4556642E+002
 20
1.6633951E+002
 70
0
  0
SEQEND
  0
TEXT
  8
1
  6
CONTINUOUS
 62
4
 10
7.512101E+001
 20
2.192024E+002
 40
2.7
  1
5,66
 41
7.0E-001
  0
DIMENSION
  8
1
  6
CONTINUOUS
 62
4
  1
       
  2
*D1196
  3
DSTYLE1
 10
7.1215404E+001
 20
2.1774441E+002
 11
7.3067654E+001
 21
2.2074541E+002
 70
128
 13
6.5555394E+001
 23
2.0216091E+002
 14
7.1215404E+001
 24
2.0863961E+002
 40
1.25E-001
 50
0.0
  0
TEXT
  8
1
  6
CONTINUOUS
 62
4
 10
5.5803266E+001
 20
2.1915061E+002
 40
2.7
  1
10,16
 41
7.0E-001
  0
DIMENSION
  8
1
  6
CONTINUOUS
 62
4
  1
       
  2
*D1198
  3
DSTYLE1
 10
5.5395394E+001
 20
2.1774441E+002
 11
5.9811174E+001
 21
2.2074541E+002
 70
128
 13
6.5555394E+001
 23
2.0216091E+002
 14
5.5395394E+001
 24
2.0216091E+002
 40
1.25E-001
 50
0.0
  0
TEXT
  8
1
  6
CONTINUOUS
 62
4
 10
5.5647895E+001
 20
2.2577975E+002
 40
3.0
  1
20,3
 41
8.0E-001
  0
DIMENSION
  8
1
  6
CONTINUOUS
 62
4
  1
       
  2
*D1200
  3
DSTYLE1
 10
7.1215404E+001
 20
2.2452101E+002
 11
6.0453204E+001
 21
2.2752201E+002
 70
128
 13
5.0915414E+001
 23
2.0863961E+002
 14
7.1215404E+001
 24
2.0863961E+002
 40
1.25E-001
 50
0.0
  0
DIMENSION
  8
1
  6
CONTINUOUS
 62
4
  2
*D1201
  3
DSTYLE1
 10
4.5995214E+001
 20
1.6543951E+002
 11
4.2994214E+001
 21
1.8788121E+002
 70
128
 13
5.1715314E+001
 23
2.0943951E+002
 14
5.1715314E+001
 24
1.6543951E+002
 40
1.25E-001
 50
9.0E+001
  0
LINE
  8
1
  6
CONTINUOUS
 62
4
 10
6.3315404E+001
 20
2.1163951E+002
 11
5.9814404E+001
 21
2.1163951E+002
  0
LINE
  8
1
  6
CONTINUOUS
 62
4
 10
6.3315404E+001
 20
1.6323941E+002
 11
5.9802324E+001
 21
1.6323941E+002
  0
TEXT
  8
1
  6
CONTINUOUS
 62
4
 10
3.824796E+001
 20
1.8298462E+002
 40
3.0
  1
48,5
 41
8.0E-001
 50
9.0E+001
  0
DIMENSION
  8
1
  6
CONTINUOUS
 62
4
  1
       
  2
*D1205
  3
DSTYLE1
 10
3.9670784E+001
 20
1.6323941E+002
 11
3.6669784E+001
 21
1.8745591E+002
 70
128
 13
5.9814304E+001
 23
2.1163951E+002
 14
5.9802224E+001
 24
1.6323941E+002
 40
1.25E-001
 50
9.0E+001
  0
POLYLINE
  8
1
  6
CONTINUOUS
 62
3
 66
1
 40
5.0E-001
 41
5.0E-001
 70
0
  0
VERTEX
  8
1
 42
0.0
 10
1.3556642E+002
 20
2.0853951E+002
 70
0
  0
VERTEX
  8
1
 42
0.0
 10
1.3556642E+002
 20
2.1163951E+002
 70
0
  0
SEQEND
  0
TEXT
  8
1
  6
CONTINUOUS
 62
4
 10
1.8325772E+002
 20
2.044354E+002
 40
3.0
  1
1x0,3
 41
8.8932136E-001
 50
9.0E+001
  0
DIMENSION
  8
1
  6
CONTINUOUS
 62
4
  1
        
  2
*D1208
  3
DSTYLE1
 10
1.8523592E+002
 20
2.0063961E+002
 11
1.8223492E+002
 21
2.0267451E+002
 70
128
 13
1.7306652E+002
 23
1.9963961E+002
 14
1.7306652E+002
 24
2.0063961E+002
 40
1.25E-001
 50
9.0E+001
  0
TEXT
  8
1
  6
CONTINUOUS
 62
4
 10
1.9092327E+002
 20
1.8208428E+002
 40
3.0
  1
25,4
 41
8.0E-001
 50
9.0E+001
  0
DIMENSION
  8
1
  6
CONTINUOUS
 62
4
  1
       
  2
*D1210
  3
DSTYLE1
 10
1.9220892E+002
 20
2.0013961E+002
 11
1.8920792E+002
 21
1.8754991E+002
 70
128
 13
1.7315992E+002
 23
1.7473961E+002
 14
1.7315992E+002
 24
2.0013961E+002
 40
1.25E-001
 50
9.0E+001
  0
TEXT
  8
1
  6
CONTINUOUS
 62
4
 10
1.5960907E+002
 20
2.1914302E+002
 40
3.0
  1
11,5
 41
8.0E-001
  0
DIMENSION
  8
1
  6
CONTINUOUS
 62
4
  1
      
  2
*D1212
  3
DSTYLE1
 10
1.7006642E+002
 20
2.1774441E+002
 11
1.6475332E+002
 21
2.2074541E+002
 70
128
 13
1.5856642E+002
 23
2.0943971E+002
 14
1.7006642E+002
 24
2.1138211E+002
 40
1.25E-001
 50
0.0
  0
DIMENSION
  8
1
  6
CONTINUOUS
 62
4
  2
*D1213
  3
DSTYLE1
 10
1.7406642E+002
 20
2.3227971E+002
 11
1.7211912E+002
 21
2.3528071E+002
 70
128
 13
1.7006642E+002
 23
2.1138211E+002
 14
1.7406642E+002
 24
1.9990761E+002
 40
1.25E-001
 50
0.0
  0
DIMENSION
  8
1
  6
CONTINUOUS
 62
4
  2
*D1214
  3
DSTYLE2
 10
1.1716642E+002
 20
2.2452101E+002
 11
1.4314672E+002
 21
2.2752201E+002
 70
128
 13
1.7006642E+002
 23
2.1138211E+002
 14
1.1716642E+002
 24
2.0543961E+002
 40
1.25E-001
 50
0.0
  0
DIMENSION
  8
1
  6
CONTINUOUS
 62
4
  2
*D1215
  3
DSTYLE2
 10
1.1416642E+002
 20
2.3227971E+002
 11
1.4216462E+002
 21
2.3528071E+002
 70
128
 13
1.7006642E+002
 23
2.1138211E+002
 14
1.1416642E+002
 24
2.0853971E+002
 40
1.25E-001
 50
0.0
  0
TEXT
  8
1
  6
CONTINUOUS
 62
4
 10
2.5603691E+001
 20
1.9028142E+001
 40
2.5
  1
 b
 41
6.9333336E-001
  0
TEXT
  8
1
  6
CONTINUOUS
 62
4
 10
3.3156831E+001
 20
1.9297164E+001
 40
2.2
  1
ohne KAE 16.4.92
 41
7.0E-001
  0
POLYLINE
  8
1
  6
CONTINUOUS
 62
3
 66
1
 40
5.0E-001
 41
5.0E-001
 70
0
  0
VERTEX
  8
1
 42
0.0
 10
1.4516642E+002
 20
1.6733951E+002
 70
0
  0
VERTEX
  8
1
 42
0.0
 10
1.3606642E+002
 20
1.6733951E+002
 70
0
  0
SEQEND
  0
POLYLINE
  8
1
  6
CONTINUOUS
 62
3
 66
1
 40
5.0E-001
 41
5.0E-001
 70
0
  0
VERTEX
  8
1
 42
0.0
 10
1.1716642E+002
 20
1.6943951E+002
 70
0
  0
VERTEX
  8
1
 42
0.0
 10
1.1716642E+002
 20
2.0543951E+002
 70
0
  0
SEQEND
  0
POLYLINE
  8
1
  6
CONTINUOUS
 62
3
 66
1
 40
5.0E-001
 41
5.0E-001
 70
0
  0
VERTEX
  8
1
 42
0.0
 10
1.4516642E+002
 20
1.6633951E+002
 70
0
  0
VERTEX
  8
1
 42
0.0
 10
1.1416642E+002
 20
1.6633951E+002
 70
0
  0
SEQEND
  0
POLYLINE
  8
1
  6
CONTINUOUS
 62
3
 66
1
 40
5.0E-001
 41
5.0E-001
 70
0
  0
VERTEX
  8
1
 42
0.0
 10
1.3166642E+002
 20
2.1002651E+002
 70
0
  0
VERTEX
  8
1
 42
0.0
 10
1.2916642E+002
 20
2.1002651E+002
 70
0
  0
SEQEND
  0
POLYLINE
  8
1
  6
CONTINUOUS
 62
3
 66
1
 40
5.0E-001
 41
5.0E-001
 70
0
  0
VERTEX
  8
1
 42
0.0
 10
1.2916642E+002
 20
2.0853951E+002
 70
0
  0
VERTEX
  8
1
 42
0.0
 10
1.2916642E+002
 20
2.1002651E+002
 70
0
  0
SEQEND
  0
POLYLINE
  8
1
  6
CONTINUOUS
 62
3
 66
1
 40
5.0E-001
 41
5.0E-001
 70
0
  0
VERTEX
  8
1
 42
0.0
 10
1.3166642E+002
 20
2.1002651E+002
 70
0
  0
VERTEX
  8
1
 42
0.0
 10
1.3166642E+002
 20
2.0853951E+002
 70
0
  0
SEQEND
  0
POLYLINE
  8
1
  6
CONTINUOUS
 62
3
 66
1
 40
5.0E-001
 41
5.0E-001
 70
0
  0
VERTEX
  8
1
 42
0.0
 10
1.3166642E+002
 20
1.6485231E+002
 70
0
  0
VERTEX
  8
1
 42
0.0
 10
1.2916642E+002
 20
1.6485231E+002
 70
0
  0
SEQEND
  0
POLYLINE
  8
1
  6
CONTINUOUS
 62
3
 66
1
 40
5.0E-001
 41
5.0E-001
 70
0
  0
VERTEX
  8
1
 42
0.0
 10
1.3166642E+002
 20
1.6633951E+002
 70
0
  0
VERTEX
  8
1
 42
0.0
 10
1.3166642E+002
 20
1.6485231E+002
 70
0
  0
SEQEND
  0
POLYLINE
  8
1
  6
CONTINUOUS
 62
3
 66
1
 40
5.0E-001
 41
5.0E-001
 70
0
  0
VERTEX
  8
1
 42
0.0
 10
1.2916642E+002
 20
1.6633951E+002
 70
0
  0
VERTEX
  8
1
 42
0.0
 10
1.2916642E+002
 20
1.6485231E+002
 70
0
  0
SEQEND
  0
POLYLINE
  8
1
  6
CONTINUOUS
 62
3
 66
1
 40
5.0E-001
 41
5.0E-001
 70
0
  0
VERTEX
  8
1
 42
0.0
 10
1.4516642E+002
 20
1.6633951E+002
 70
0
  0
VERTEX
  8
1
 42
0.0
 10
1.4516642E+002
 20
1.6733951E+002
 70
0
  0
SEQEND
  0
POLYLINE
  8
1
  6
CONTINUOUS
 62
3
 66
1
 40
5.0E-001
 41
5.0E-001
 70
0
  0
VERTEX
  8
1
 42
0.0
 10
1.5746642E+002
 20
1.8628951E+002
 70
0
  0
VERTEX
  8
1
 42
0.0
 10
1.5056642E+002
 20
1.8628951E+002
 70
0
  0
SEQEND
  0
POLYLINE
  8
1
  6
CONTINUOUS
 62
3
 66
1
 40
5.0E-001
 41
5.0E-001
 70
0
  0
VERTEX
  8
1
 42
0.0
 10
1.1716642E+002
 20
1.6943951E+002
 70
0
  0
VERTEX
  8
1
 42
0.0
 10
1.1616642E+002
 20
1.6943951E+002
 70
0
  0
SEQEND
  0
POLYLINE
  8
1
  6
CONTINUOUS
 62
3
 66
1
 40
5.0E-001
 41
5.0E-001
 70
0
  0
VERTEX
  8
1
 42
0.0
 10
1.1616642E+002
 20
1.6943951E+002
 70
0
  0
VERTEX
  8
1
 42
0.0
 10
1.1416642E+002
 20
1.6890371E+002
 70
0
  0
SEQEND
  0
POLYLINE
  8
1
  6
CONTINUOUS
 62
3
 66
1
 40
5.0E-001
 41
5.0E-001
 70
0
  0
VERTEX
  8
1
 42
4.1421356E-001
 10
1.3556642E+002
 20
1.6783951E+002
 70
0
  0
VERTEX
  8
1
 42
0.0
 10
1.3606642E+002
 20
1.6733951E+002
 70
0
  0
SEQEND
  0
POLYLINE
  8
1
  6
CONTINUOUS
 62
3
 66
1
 40
5.0E-001
 41
5.0E-001
 70
0
  0
VERTEX
  8
1
 42
4.1421356E-001
 10
1.3606642E+002
 20
2.0753951E+002
 70
0
  0
VERTEX
  8
1
 42
0.0
 10
1.3556642E+002
 20
2.0703951E+002
 70
0
  0
SEQEND
  0
POLYLINE
  8
1
  6
CONTINUOUS
 62
3
 66
1
 40
5.0E-001
 41
5.0E-001
 70
0
  0
VERTEX
  8
1
 42
0.0
 10
1.4516642E+002
 20
2.0753951E+002
 70
0
  0
VERTEX
  8
1
 42
0.0
 10
1.3606642E+002
 20
2.0753951E+002
 70
0
  0
SEQEND
  0
POLYLINE
  8
1
  6
CONTINUOUS
 62
3
 66
1
 40
5.0E-001
 41
5.0E-001
 70
0
  0
VERTEX
  8
1
 42
0.0
 10
1.1416642E+002
 20
2.0597521E+002
 70
0
  0
VERTEX
  8
1
 42
0.0
 10
1.1616642E+002
 20
2.0543931E+002
 70
0
  0
SEQEND
  0
POLYLINE
  8
1
  6
CONTINUOUS
 62
3
 66
1
 40
5.0E-001
 41
5.0E-001
 70
0
  0
VERTEX
  8
1
 42
0.0
 10
1.1717982E+002
 20
2.0543951E+002
 70
0
  0
VERTEX
  8
1
 42
0.0
 10
1.1616642E+002
 20
2.0543951E+002
 70
0
  0
SEQEND
  0
POLYLINE
  8
1
  6
CONTINUOUS
 62
3
 66
1
 40
5.0E-001
 41
5.0E-001
 70
0
  0
VERTEX
  8
1
 42
0.0
 10
1.4516642E+002
 20
2.0753951E+002
 70
0
  0
VERTEX
  8
1
 42
0.0
 10
1.4516642E+002
 20
2.0853951E+002
 70
0
  0
SEQEND
  0
POLYLINE
  8
1
  6
CONTINUOUS
 62
3
 66
1
 40
5.0E-001
 41
5.0E-001
 70
0
  0
VERTEX
  8
1
 42
0.0
 10
1.1416642E+002
 20
2.0597521E+002
 70
0
  0
VERTEX
  8
1
 42
0.0
 10
1.1416642E+002
 20
2.0853951E+002
 70
0
  0
SEQEND
  0
POLYLINE
  8
1
  6
CONTINUOUS
 62
3
 66
1
 40
5.0E-001
 41
5.0E-001
 70
0
  0
VERTEX
  8
1
 42
0.0
 10
1.4516642E+002
 20
2.0853951E+002
 70
0
  0
VERTEX
  8
1
 42
0.0
 10
1.1416642E+002
 20
2.0853951E+002
 70
0
  0
SEQEND
  0
POLYLINE
  8
1
  6
CONTINUOUS
 62
3
 66
1
 40
5.0E-001
 41
5.0E-001
 70
0
  0
VERTEX
  8
1
 42
0.0
 10
1.3556642E+002
 20
1.6783951E+002
 70
0
  0
VERTEX
  8
1
 42
0.0
 10
1.3556642E+002
 20
2.0703951E+002
 70
0
  0
SEQEND
  0
POLYLINE
  8
1
  6
CONTINUOUS
 62
3
 66
1
 40
5.0E-001
 41
5.0E-001
 70
0
  0
VERTEX
  8
1
 42
0.0
 10
7.5215404E+001
 20
1.8943951E+002
 70
0
  0
VERTEX
  8
1
 42
0.0
 10
7.2115274E+001
 20
1.8943951E+002
 70
0
  0
SEQEND
  0
POLYLINE
  8
1
  6
CONTINUOUS
 62
3
 66
1
 40
5.0E-001
 41
5.0E-001
 70
0
  0
VERTEX
  8
1
 42
0.0
 10
7.4732274E+001
 20
1.8818951E+002
 70
0
  0
VERTEX
  8
1
 42
0.0
 10
7.5532084E+001
 20
1.8818951E+002
 70
0
  0
SEQEND
  0
POLYLINE
  8
1
  6
CONTINUOUS
 62
3
 66
1
 40
5.0E-001
 41
5.0E-001
 70
0
  0
VERTEX
  8
1
 42
0.0
 10
7.3884894E+001
 20
1.8873951E+002
 70
0
  0
VERTEX
  8
1
 42
0.0
 10
7.4584894E+001
 20
1.8873951E+002
 70
0
  0
SEQEND
  0
POLYLINE
  8
1
  6
CONTINUOUS
 62
3
 66
1
 40
5.0E-001
 41
5.0E-001
 70
0
  0
VERTEX
  8
1
 42
0.0
 10
7.4584894E+001
 20
1.8873951E+002
 70
0
  0
VERTEX
  8
1
 42
0.0
 10
7.4732174E+001
 20
1.8818991E+002
 70
0
  0
SEQEND
  0
POLYLINE
  8
1
  6
CONTINUOUS
 62
3
 66
1
 40
5.0E-001
 41
5.0E-001
 70
0
  0
VERTEX
  8
1
 42
0.0
 10
7.5532084E+001
 20
1.8818951E+002
 70
0
  0
VERTEX
  8
1
 42
0.0
 10
7.5698374E+001
 20
1.8881011E+002
 70
0
  0
SEQEND
  0
POLYLINE
  8
1
  6
CONTINUOUS
 62
3
 66
1
 40
5.0E-001
 41
5.0E-001
 70
0
  0
VERTEX
  8
1
 42
4.9314646E-001
 10
7.5698366E+001
 20
1.888101E+002
 70
0
  0
VERTEX
  8
1
 42
0.0
 10
7.5215404E+001
 20
1.8943951E+002
 70
0
  0
SEQEND
  0
POLYLINE
  8
1
  6
CONTINUOUS
 62
3
 66
1
 40
5.0E-001
 41
5.0E-001
 70
0
  0
VERTEX
  8
1
 42
0.0
 10
1.5746642E+002
 20
1.8858951E+002
 70
0
  0
VERTEX
  8
1
 42
0.0
 10
1.5056642E+002
 20
1.8858951E+002
 70
0
  0
SEQEND
  0
POLYLINE
  8
1
  6
CONTINUOUS
 62
3
 66
1
 40
5.0E-001
 41
5.0E-001
 70
0
  0
VERTEX
  8
1
 42
0.0
 10
7.3884894E+001
 20
1.8873951E+002
 70
0
  0
VERTEX
  8
1
 42
0.0
 10
7.2715404E+001
 20
1.8838941E+002
 70
0
  0
SEQEND
  0
POLYLINE
  8
1
  6
CONTINUOUS
 62
3
 66
1
 40
5.0E-001
 41
5.0E-001
 70
0
  0
VERTEX
  8
1
 42
0.0
 10
7.5532084E+001
 20
1.8668941E+002
 70
0
  0
VERTEX
  8
1
 42
0.0
 10
7.5698374E+001
 20
1.8606881E+002
 70
0
  0
SEQEND
  0
POLYLINE
  8
1
  6
CONTINUOUS
 62
3
 66
1
 40
5.0E-001
 41
5.0E-001
 70
0
  0
VERTEX
  8
1
 42
0.0
 10
7.4732274E+001
 20
1.8668941E+002
 70
0
  0
VERTEX
  8
1
 42
0.0
 10
7.5532084E+001
 20
1.8668941E+002
 70
0
  0
SEQEND
  0
INSERT
  2
*E1251
  8
1
 10
7.5215404E+001
 20
1.8593941E+002
 41
1.0
 42
1.0
 43
1.0
 50
2.7E+002
 62
3
  0
POLYLINE
  8
1
  6
CONTINUOUS
 62
3
 66
1
 40
5.0E-001
 41
5.0E-001
 70
0
  0
VERTEX
  8
1
 42
0.0
 10
7.4584894E+001
 20
1.8613941E+002
 70
0
  0
VERTEX
  8
1
 42
0.0
 10
7.4732174E+001
 20
1.8668901E+002
 70
0
  0
SEQEND
  0
POLYLINE
  8
1
  6
CONTINUOUS
 62
3
 66
1
 40
5.0E-001
 41
5.0E-001
 70
0
  0
VERTEX
  8
1
 42
0.0
 10
7.3884894E+001
 20
1.8613941E+002
 70
0
  0
VERTEX
  8
1
 42
0.0
 10
7.4584894E+001
 20
1.8613941E+002
 70
0
  0
SEQEND
  0
POLYLINE
  8
1
  6
CONTINUOUS
 62
3
 66
1
 40
5.0E-001
 41
5.0E-001
 70
0
  0
VERTEX
  8
1
 42
0.0
 10
7.3884894E+001
 20
1.8613941E+002
 70
0
  0
VERTEX
  8
1
 42
0.0
 10
7.2715404E+001
 20
1.8648951E+002
 70
0
  0
SEQEND
  0
POLYLINE
  8
1
  6
CONTINUOUS
 62
3
 66
1
 40
5.0E-001
 41
5.0E-001
 70
0
  0
VERTEX
  8
1
 42
0.0
 10
7.5215404E+001
 20
1.8543941E+002
 70
0
  0
VERTEX
  8
1
 42
0.0
 10
7.2115274E+001
 20
1.8543941E+002
 70
0
  0
SEQEND
  0
POLYLINE
  8
1
  6
CONTINUOUS
 62
3
 66
1
 40
5.0E-001
 41
5.0E-001
 70
0
  0
VERTEX
  8
1
 42
0.0
 10
7.5625864E+001
 20
1.8853951E+002
 70
0
  0
VERTEX
  8
1
 42
0.0
 10
7.4638484E+001
 20
1.8853951E+002
 70
0
  0
SEQEND
  0
POLYLINE
  8
1
  6
CONTINUOUS
 62
3
 66
1
 40
5.0E-001
 41
5.0E-001
 70
0
  0
VERTEX
  8
1
 42
0.0
 10
7.5625864E+001
 20
1.8633941E+002
 70
0
  0
VERTEX
  8
1
 42
0.0
 10
7.4638484E+001
 20
1.8633941E+002
 70
0
  0
SEQEND
  0
CIRCLE
  8
1
  6
CONTINUOUS
 62
4
 10
1.7792812E+002
 20
2.3659752E+002
 40
1.25
  0
TEXT
  8
1
  6
CONTINUOUS
 62
4
 10
1.7747132E+002
 20
2.3592783E+002
 40
1.5
  1
b
 41
8.666667E-001
  0
TEXT
  8
1
  6
CONTINUOUS
 62
4
 10
1.2102662E+002
 20
9.1170875E+001
 40
3.0
  1
Massaenderungen vorbehalten!
 41
8.4482171E-001
  0
TEXT
  8
1
  6
CONTINUOUS
 62
4
 10
1.2427071E+002
 20
1.1025679E+001
 40
2.2
  1
CA6-F+LB6-CA
 41
8.0E-001
  0
TEXT
  8
1
  6
CONTINUOUS
 62
4
 10
7.8853236E+001
 20
6.953829
 40
2.8
  1
dimension drawing
 41
8.0E-001
  0
INSERT
  2
*XH35
  8
1
 10
1.712939E+002
 20
1.6366393E+002
  0
TEXT
  8
1
  6
CONTINUOUS
 62
4
 10
1.3104472E+002
 20
1.3222103E+002
 40
3.0
  1
printed circuit board
 41
8.0E-001
  0
TEXT
  8
1
  6
CONTINUOUS
 62
4
 10
1.2083182E+002
 20
9.6163379E+001
 40
3.0
  1
Changes of dimensions reserved !
 41
8.0E-001
  0
TEXT
  8
1
  6
CONTINUOUS
 62
4
 10
2.7049646E+001
 20
9.5803214E+001
 40
3.0
  1
weight: ca.30g
 41
8.1001493E-001
  0
POLYLINE
  8
1
  6
CONTINUOUS
 62
3
 66
1
 40
5.0E-001
 41
5.0E-001
 70
0
  0
VERTEX
  8
1
 42
0.0
 10
1.1416642E+002
 20
1.6890371E+002
 70
0
  0
VERTEX
  8
1
 42
0.0
 10
1.1416642E+002
 20
1.6633951E+002
 70
0
  0
SEQEND
  0
TEXT
  8
1
  6
CONTINUOUS
 62
4
 10
2.5603691E+001
 20
1.5072012E+001
 40
2.5
  1
 c
 41
6.9333336E-001
  0
TEXT
  8
1
  6
CONTINUOUS
 62
4
 10
3.3139981E+001
 20
1.5139074E+001
 40
2.2
  1
L12 185  2.8.04
 41
6.8621326E-001
  0
VIEWPORT
 67
1
  8
0
  6
CONTINUOUS
 62
3
100
AcDbViewport
 10
1.05E+002
 20
1.485E+002
 30
0.0
 40
2.97E+002
 41
2.97E+002
 68
1
 69
1
1001
ACAD
1000
MVIEW
1002
{
1070
16
1010
0.0
1020
0.0
1030
0.0
1010
0.0
1020
0.0
1030
1.0
1040
0.0
1040
2.97E+002
1040
4.2E+001
1040
1.485E+002
1040
5.0E+001
1040
0.0
1040
0.0
1070
0
1070
100
1070
1
1070
0
1070
0
1070
0
1070
0
1070
0
1040
0.0
1040
0.0
1040
0.0
1040
5.0E-001
1040
5.0E-001
1040
5.0E-001
1040
5.0E-001
1070
0
1002
{
1002
}
1002
}
  0
VIEWPORT
 67
1
  8
0
  6
CONTINUOUS
 62
3
100
AcDbViewport
 10
1.05E+002
 20
1.485E+002
 30
0.0
 40
2.1E+002
 41
2.97E+002
 68
2
 69
2
1001
ACAD
1000
MVIEW
1002
{
1070
16
1010
0.0
1020
0.0
1030
0.0
1010
0.0
1020
0.0
1030
1.0
1040
0.0
1040
2.97E+002
1040
1.05E+002
1040
1.485E+002
1040
5.0E+001
1040
0.0
1040
0.0
1070
0
1070
100
1070
1
1070
0
1070
0
1070
0
1070
0
1070
0
1040
0.0
1040
0.0
1040
0.0
1040
5.0E-001
1040
5.0E-001
1040
5.0E-001
1040
5.0E-001
1070
0
1002
{
1002
}
1002
}
  0
ENDSEC
  0
EOF
