  0
SECTION
  2
HEADER
  9
$ACADVER
  1
AC1009
999
I-DEAS 8 Not Encoded
  9
$EXTMIN
 10
0.0
 20
0.0
  9
$EXTMAX
 10
2.1E+002
 20
2.97E+002
  9
$TEXTSIZE
 40
1.25E-001
  9
$LTSCALE
 40
1.0
  9
$CLAYER
  8
1
  9
$CECOLOR
 62
1
  9
$DIMASZ
 40
1.25E-001
  9
$DIMEXO
 40
6.25E-002
  9
$DIMDLI
 40
2.5E-001
  9
$DIMEXE
 40
1.25E-001
  9
$DIMTP
 40
5.0E-003
  9
$DIMTM
 40
-5.0E-003
  9
$DIMTXT
 40
3.0
  9
$DIMLIM
 70
0
  9
$DIMTIH
 70
1
  9
$DIMTOH
 70
1
  9
$DIMSE1
 70
0
  9
$DIMSE2
 70
0
  9
$DIMTAD
 70
0
  9
$DIMASO
 70
1
  9
$DIMALT
 70
0
  9
$DIMALTD
 70
0
  9
$DIMTOFL
 70
1
  9
$DIMTIX
 70
0
  9
$DIMSAH
 70
0
  9
$DIMTFAC
 40
1.0
  9
$DIMGAP
 40
6.25E-002
  9
$LUNITS
 70
2
  9
$LUPREC
 70
3
  9
$FILLETRAD
 40
1.0E+001
  9
$AUNITS
 70
0
  9
$AUPREC
 70
1
  9
$CHAMFERA
 40
6.0
  9
$CHAMFERB
 40
6.0
  9
$ANGBASE
 50
0.0
  9
$ANGDIR
 70
0
  9
$PEXTMIN
 10
0.0
 20
0.0
 30
0.0
  9
$PEXTMAX
 10
2.1E+002
 20
2.97E+002
 30
0.0
  9
$PLIMMIN
 10
0.0
 20
0.0
  9
$PLIMMAX
 10
2.1E+002
 20
2.97E+002
  9
$PDMODE
 70
2
  9
$PDSIZE
 40
-1.0E-002
  9
$SPLINETYPE
 70
6
  9
$TILEMODE
 70
0
  0
ENDSEC
  0
SECTION
  2
TABLES
  0
TABLE
  2
VPORT
 70
2
  0
VPORT
  2
*Active
 70
0
 10
0.0
 20
0.0
 11
2.1E+002
 21
2.97E+002
 12
1.05E+002
 22
1.485E+002
 13
0.0
 23
0.0
 14
1.0
 24
1.0
 15
0.0
 25
0.0
 16
0.0
 26
0.0
 36
1.0
 17
0.0
 27
0.0
 37
0.0
 40
2.97E+002
 41
7.0707071E-001
 42
5.0E+001
 43
0.0
 44
0.0
 50
0.0
 51
0.0
 71
0
 72
100
 73
1
 74
3
 75
0
 76
0
 77
0
 78
0
  0
ENDTAB
  0
TABLE
  2
LTYPE
 70
7
  0
LTYPE
  2
HIDDENNEW00
  3
_ 
 70
64
 72
65
 73
3
 40
4.5
 49
1.5
 49
-1.5
 49
1.5
  0
LTYPE
  2
HIDDENNEW01
  3
_ 
 70
64
 72
65
 73
3
 40
4.5
 49
1.5
 49
-1.5
 49
1.5
  0
LTYPE
  2
HIDDEN
  3
_ 
 70
64
 72
65
 73
3
 40
4.5
 49
1.5
 49
-1.5
 49
1.5
  0
LTYPE
  2
CENTERLINE
  3
_ 
 70
64
 72
65
 73
5
 40
3.0E+001
 49
1.2E+001
 49
-1.5
 49
3.0
 49
-1.5
 49
1.2E+001
  0
LTYPE
  2
PHANTOM
  3
_ 
 70
64
 72
65
 73
7
 40
2.95E+001
 49
9.5
 49
-1.5
 49
3.0
 49
-1.5
 49
3.0
 49
-1.5
 49
9.5
  0
LTYPE
  2
SHORT_DASH
  3
_ 
 70
64
 72
65
 73
3
 40
3.0
 49
7.5E-001
 49
-1.5
 49
7.5E-001
  0
LTYPE
  2
LONG_DASH
  3
_ 
 70
64
 72
65
 73
3
 40
9.0
 49
2.25
 49
-4.5
 49
2.25
  0
ENDTAB
  0
TABLE
  2
LAYER
 70
258
  0
LAYER
  2
1
 70
0
 62
7
  6
CONTINUOUS
  0
LAYER
  2
Drafting_Hidden_Entities
 70
1
 62
7
  6
CONTINUOUS
  0
ENDTAB
  0
TABLE
  2
STYLE
 70
1
  0
STYLE
  2
STANDARD
 70
64
 40
0.0
 41
1.0
 50
0.0
 71
0
 42
1.0
  3
monotxt.shx
  4

  0
ENDTAB
  0
TABLE
  2
VIEW
 70
0
  0
ENDTAB
  0
TABLE
  2
DIMSTYLE
 70
3
  0
DIMSTYLE
  2
DSTYLE1
 70
0
  3

  4

  5

  6

  7

 40
1.0
 41
3.0
 42
0.0
 43
3.8E-001
 44
1.5
 45
1.0E-001
 46
0.0
 47
0.0
 48
0.0
 71
0
 72
0
 73
0
 74
0
 75
0
 76
0
 77
1
 78
11
140
3.0
141
9.0E-002
142
0.0
143
2.54E+001
144
1.0
145
0.0
146
1.0
147
1.5
170
0
171
2
172
0
173
0
174
0
175
0
176
0
177
0
178
0
  0
DIMSTYLE
  2
DSTYLE2
 70
0
  3

  4

  5

  6

  7

 40
1.0
 41
3.0
 42
1.5
 43
3.8E-001
 44
1.5
 45
1.0E-001
 46
0.0
 47
0.0
 48
0.0
 71
0
 72
0
 73
0
 74
0
 75
0
 76
0
 77
1
 78
11
140
3.0
141
9.0E-002
142
0.0
143
2.54E+001
144
1.0
145
0.0
146
1.0
147
1.5
170
0
171
2
172
0
173
0
174
0
175
0
176
0
177
0
178
0
  0
DIMSTYLE
  2
DSTYLE3
 70
0
  3

  4

  5

  6

  7

 40
1.0
 41
3.0
 42
0.0
 43
3.8E-001
 44
1.5
 45
0.0
 46
0.0
 47
0.0
 48
0.0
 71
0
 72
0
 73
0
 74
0
 75
0
 76
0
 77
1
 78
11
140
3.0
141
9.0E-002
142
0.0
143
2.54E+001
144
1.0
145
0.0
146
1.0
147
1.5
170
0
171
2
172
0
173
0
174
0
175
0
176
0
177
0
178
0
  0
ENDTAB
  0
ENDSEC
  0
SECTION
  2
BLOCKS
  0
BLOCK
  2
*AH13
  3
*AH
 10
0.0
 20
0.0
 70
65
  0
LINE
  8
1
  6
CONTINUOUS
 62
0
 10
0.0
 20
0.0
 11
1.0
 21
-1.666679E-001
  0
LINE
  8
1
  6
CONTINUOUS
 62
0
 10
1.0
 20
-1.666679E-001
 11
1.0
 21
1.66668E-001
  0
LINE
  8
1
  6
CONTINUOUS
 62
0
 10
1.0
 20
1.66668E-001
 11
0.0
 21
0.0
  0
ENDBLK
  0
BLOCK
  2
XHXH1NEW02NEW00NEW00
 10
0.0
 20
0.0
 70
0
  0
POLYLINE
  8
254
  6
CONTINUOUS
 62
6
 66
1
 40
1.0E-003
 41
1.0E-003
 70
0
  0
VERTEX
  8
254
 42
0.0
 10
-2.2647095E-001
 20
-2.2647285E-001
 70
0
  0
VERTEX
  8
254
 42
0.0
 10
2.2647095E-001
 20
2.2647285E-001
 70
0
  0
SEQEND
  0
POLYLINE
  8
254
  6
CONTINUOUS
 62
6
 66
1
 40
1.0E-003
 41
1.0E-003
 70
0
  0
VERTEX
  8
254
 42
0.0
 10
-3.9656067E-001
 20
-6.7941666E-001
 70
0
  0
VERTEX
  8
254
 42
0.0
 10
4.2364502E-001
 20
1.4080048E-001
 70
0
  0
SEQEND
  0
POLYLINE
  8
254
  6
CONTINUOUS
 62
6
 66
1
 40
1.0E-003
 41
1.0E-003
 70
0
  0
VERTEX
  8
254
 42
0.0
 10
-5.6666565E-001
 20
-1.1323624
 70
0
  0
VERTEX
  8
254
 42
0.0
 10
4.2364502E-001
 20
-1.4204407E-001
 70
0
  0
SEQEND
  0
POLYLINE
  8
254
  6
CONTINUOUS
 62
6
 66
1
 40
1.0E-003
 41
1.0E-003
 70
0
  0
VERTEX
  8
254
 42
0.0
 10
-7.3677063E-001
 20
-1.5853081
 70
0
  0
VERTEX
  8
254
 42
0.0
 10
4.2364502E-001
 20
-4.248867E-001
 70
0
  0
SEQEND
  0
POLYLINE
  8
254
  6
CONTINUOUS
 62
6
 66
1
 40
1.0E-003
 41
1.0E-003
 70
0
  0
VERTEX
  8
254
 42
0.0
 10
8.1364441E-001
 20
-3.4885406E-002
 70
0
  0
VERTEX
  8
254
 42
0.0
 10
1.0749969
 20
2.2647285E-001
 70
0
  0
SEQEND
  0
POLYLINE
  8
254
  6
CONTINUOUS
 62
6
 66
1
 40
1.0E-003
 41
1.0E-003
 70
0
  0
VERTEX
  8
254
 42
0.0
 10
-6.9714355E-001
 20
-1.8285255
 70
0
  0
VERTEX
  8
254
 42
0.0
 10
4.2364502E-001
 20
-7.0773125E-001
 70
0
  0
SEQEND
  0
POLYLINE
  8
254
  6
CONTINUOUS
 62
6
 66
1
 40
1.0E-003
 41
1.0E-003
 70
0
  0
VERTEX
  8
254
 42
0.0
 10
8.1364441E-001
 20
-3.1772995E-001
 70
0
  0
VERTEX
  8
254
 42
0.0
 10
1.3111725
 20
1.7979813E-001
 70
0
  0
SEQEND
  0
POLYLINE
  8
254
  6
CONTINUOUS
 62
6
 66
1
 40
1.0E-003
 41
1.0E-003
 70
0
  0
VERTEX
  8
254
 42
0.0
 10
-8.928833E-001
 20
-2.3071117
 70
0
  0
VERTEX
  8
254
 42
0.0
 10
-8.0430603E-001
 20
-2.2185249
 70
0
  0
SEQEND
  0
POLYLINE
  8
254
  6
CONTINUOUS
 62
6
 66
1
 40
1.0E-003
 41
1.0E-003
 70
0
  0
VERTEX
  8
254
 42
0.0
 10
-4.1430664E-001
 20
-1.8285255
 70
0
  0
VERTEX
  8
254
 42
0.0
 10
4.2364502E-001
 20
-9.9057388E-001
 70
0
  0
SEQEND
  0
POLYLINE
  8
254
  6
CONTINUOUS
 62
6
 66
1
 40
1.0E-003
 41
1.0E-003
 70
0
  0
VERTEX
  8
254
 42
0.0
 10
8.1364441E-001
 20
-6.0057259E-001
 70
0
  0
VERTEX
  8
254
 42
0.0
 10
1.3883972
 20
-2.58255E-002
 70
0
  0
SEQEND
  0
POLYLINE
  8
254
  6
CONTINUOUS
 62
6
 66
1
 40
1.0E-003
 41
1.0E-003
 70
0
  0
VERTEX
  8
254
 42
0.0
 10
-1.0629883
 20
-2.7600574
 70
0
  0
VERTEX
  8
254
 42
0.0
 10
-5.2145386E-001
 20
-2.2185249
 70
0
  0
SEQEND
  0
POLYLINE
  8
254
  6
CONTINUOUS
 62
6
 66
1
 40
1.0E-003
 41
1.0E-003
 70
0
  0
VERTEX
  8
254
 42
0.0
 10
-1.3145447E-001
 20
-1.8285255
 70
0
  0
VERTEX
  8
254
 42
0.0
 10
4.2364502E-001
 20
-1.2734165
 70
0
  0
SEQEND
  0
POLYLINE
  8
254
  6
CONTINUOUS
 62
6
 66
1
 40
1.0E-003
 41
1.0E-003
 70
0
  0
VERTEX
  8
254
 42
0.0
 10
8.1364441E-001
 20
-8.8341522E-001
 70
0
  0
VERTEX
  8
254
 42
0.0
 10
1.4656067
 20
-2.3144722E-001
 70
0
  0
SEQEND
  0
POLYLINE
  8
254
  6
CONTINUOUS
 62
6
 66
1
 40
1.0E-003
 41
1.0E-003
 70
0
  0
VERTEX
  8
254
 42
0.0
 10
-1.2330933
 20
-3.2130032
 70
0
  0
VERTEX
  8
254
 42
0.0
 10
-2.3861694E-001
 20
-2.2185249
 70
0
  0
SEQEND
  0
POLYLINE
  8
254
  6
CONTINUOUS
 62
6
 66
1
 40
1.0E-003
 41
1.0E-003
 70
0
  0
VERTEX
  8
254
 42
0.0
 10
1.5138245E-001
 20
-1.8285255
 70
0
  0
VERTEX
  8
254
 42
0.0
 10
4.2364502E-001
 20
-1.5562611
 70
0
  0
SEQEND
  0
POLYLINE
  8
254
  6
CONTINUOUS
 62
6
 66
1
 40
1.0E-003
 41
1.0E-003
 70
0
  0
VERTEX
  8
254
 42
0.0
 10
8.1364441E-001
 20
-1.1662598
 70
0
  0
VERTEX
  8
254
 42
0.0
 10
1.5428314
 20
-4.3707085E-001
 70
0
  0
SEQEND
  0
POLYLINE
  8
254
  6
CONTINUOUS
 62
6
 66
1
 40
1.0E-003
 41
1.0E-003
 70
0
  0
VERTEX
  8
254
 42
0.0
 10
-1.4031982
 20
-3.665947
 70
0
  0
VERTEX
  8
254
 42
0.0
 10
4.4219971E-002
 20
-2.2185249
 70
0
  0
SEQEND
  0
POLYLINE
  8
254
  6
CONTINUOUS
 62
6
 66
1
 40
1.0E-003
 41
1.0E-003
 70
0
  0
VERTEX
  8
254
 42
0.0
 10
8.1364441E-001
 20
-1.4491024
 70
0
  0
VERTEX
  8
254
 42
0.0
 10
1.6200562
 20
-6.4269257E-001
 70
0
  0
SEQEND
  0
POLYLINE
  8
254
  6
CONTINUOUS
 62
6
 66
1
 40
1.0E-003
 41
1.0E-003
 70
0
  0
VERTEX
  8
254
 42
0.0
 10
-1.573288
 20
-4.1188927
 70
0
  0
VERTEX
  8
254
 42
0.0
 10
3.2707214E-001
 20
-2.2185249
 70
0
  0
SEQEND
  0
POLYLINE
  8
254
  6
CONTINUOUS
 62
6
 66
1
 40
1.0E-003
 41
1.0E-003
 70
0
  0
VERTEX
  8
254
 42
0.0
 10
8.1364441E-001
 20
-1.731945
 70
0
  0
VERTEX
  8
254
 42
0.0
 10
1.6972656
 20
-8.4831619E-001
 70
0
  0
SEQEND
  0
POLYLINE
  8
254
  6
CONTINUOUS
 62
6
 66
1
 40
1.0E-003
 41
1.0E-003
 70
0
  0
VERTEX
  8
254
 42
0.0
 10
-1.4450836
 20
-4.2735233
 70
0
  0
VERTEX
  8
254
 42
0.0
 10
4.2364502E-001
 20
-2.4047909
 70
0
  0
SEQEND
  0
POLYLINE
  8
254
  6
CONTINUOUS
 62
6
 66
1
 40
1.0E-003
 41
1.0E-003
 70
0
  0
VERTEX
  8
254
 42
0.0
 10
9.9990845E-001
 20
-1.8285255
 70
0
  0
VERTEX
  8
254
 42
0.0
 10
1.7744904
 20
-1.0539379
 70
0
  0
SEQEND
  0
POLYLINE
  8
254
  6
CONTINUOUS
 62
6
 66
1
 40
1.0E-003
 41
1.0E-003
 70
0
  0
VERTEX
  8
254
 42
0.0
 10
-1.1622314
 20
-4.2735233
 70
0
  0
VERTEX
  8
254
 42
0.0
 10
4.2364502E-001
 20
-2.6876335
 70
0
  0
SEQEND
  0
POLYLINE
  8
254
  6
CONTINUOUS
 62
6
 66
1
 40
1.0E-003
 41
1.0E-003
 70
0
  0
VERTEX
  8
254
 42
0.0
 10
8.1364441E-001
 20
-2.2976322
 70
0
  0
VERTEX
  8
254
 42
0.0
 10
8.9274597E-001
 20
-2.2185249
 70
0
  0
SEQEND
  0
POLYLINE
  8
254
  6
CONTINUOUS
 62
6
 66
1
 40
1.0E-003
 41
1.0E-003
 70
0
  0
VERTEX
  8
254
 42
0.0
 10
1.2827454
 20
-1.8285255
 70
0
  0
VERTEX
  8
254
 42
0.0
 10
1.8517151
 20
-1.2595596
 70
0
  0
SEQEND
  0
POLYLINE
  8
254
  6
CONTINUOUS
 62
6
 66
1
 40
1.0E-003
 41
1.0E-003
 70
0
  0
VERTEX
  8
254
 42
0.0
 10
3.1836395
 20
7.2372437E-002
 70
0
  0
VERTEX
  8
254
 42
0.0
 10
3.337738
 20
2.2647285E-001
 70
0
  0
SEQEND
  0
POLYLINE
  8
254
  6
CONTINUOUS
 62
6
 66
1
 40
1.0E-003
 41
1.0E-003
 70
0
  0
VERTEX
  8
254
 42
0.0
 10
-8.7939453E-001
 20
-4.2735233
 70
0
  0
VERTEX
  8
254
 42
0.0
 10
-3.0549622E-001
 20
-3.6996193
 70
0
  0
SEQEND
  0
POLYLINE
  8
254
  6
CONTINUOUS
 62
6
 66
1
 40
1.0E-003
 41
1.0E-003
 70
0
  0
VERTEX
  8
254
 42
0.0
 10
2.0599365E-002
 20
-3.3735256
 70
0
  0
VERTEX
  8
254
 42
0.0
 10
4.2364502E-001
 20
-2.9704762
 70
0
  0
SEQEND
  0
POLYLINE
  8
254
  6
CONTINUOUS
 62
6
 66
1
 40
1.0E-003
 41
1.0E-003
 70
0
  0
VERTEX
  8
254
 42
0.0
 10
8.1364441E-001
 20
-2.5804749
 70
0
  0
VERTEX
  8
254
 42
0.0
 10
1.1755981
 20
-2.2185249
 70
0
  0
SEQEND
  0
POLYLINE
  8
254
  6
CONTINUOUS
 62
6
 66
1
 40
1.0E-003
 41
1.0E-003
 70
0
  0
VERTEX
  8
254
 42
0.0
 10
1.5655975
 20
-1.8285255
 70
0
  0
VERTEX
  8
254
 42
0.0
 10
1.9289398
 20
-1.4651833
 70
0
  0
SEQEND
  0
POLYLINE
  8
254
  6
CONTINUOUS
 62
6
 66
1
 40
1.0E-003
 41
1.0E-003
 70
0
  0
VERTEX
  8
254
 42
0.0
 10
3.1836395
 20
-2.104702E-001
 70
0
  0
VERTEX
  8
254
 42
0.0
 10
3.620575
 20
2.2647285E-001
 70
0
  0
SEQEND
  0
POLYLINE
  8
254
  6
CONTINUOUS
 62
6
 66
1
 40
1.0E-003
 41
1.0E-003
 70
0
  0
VERTEX
  8
254
 42
0.0
 10
-5.9655762E-001
 20
-4.2735233
 70
0
  0
VERTEX
  8
254
 42
0.0
 10
-4.5779419E-001
 20
-4.1347656
 70
0
  0
SEQEND
  0
POLYLINE
  8
254
  6
CONTINUOUS
 62
6
 66
1
 40
1.0E-003
 41
1.0E-003
 70
0
  0
VERTEX
  8
254
 42
0.0
 10
3.0343628E-001
 20
-3.3735256
 70
0
  0
VERTEX
  8
254
 42
0.0
 10
4.2364502E-001
 20
-3.2533207
 70
0
  0
SEQEND
  0
POLYLINE
  8
254
  6
CONTINUOUS
 62
6
 66
1
 40
1.0E-003
 41
1.0E-003
 70
0
  0
VERTEX
  8
254
 42
0.0
 10
8.1364441E-001
 20
-2.8633194
 70
0
  0
VERTEX
  8
254
 42
0.0
 10
1.4584351
 20
-2.2185249
 70
0
  0
SEQEND
  0
POLYLINE
  8
254
  6
CONTINUOUS
 62
6
 66
1
 40
1.0E-003
 41
1.0E-003
 70
0
  0
VERTEX
  8
254
 42
0.0
 10
1.8484344
 20
-1.8285255
 70
0
  0
VERTEX
  8
254
 42
0.0
 10
2.0061493
 20
-1.670805
 70
0
  0
SEQEND
  0
POLYLINE
  8
254
  6
CONTINUOUS
 62
6
 66
1
 40
1.0E-003
 41
1.0E-003
 70
0
  0
VERTEX
  8
254
 42
0.0
 10
3.1836395
 20
-4.9331474E-001
 70
0
  0
VERTEX
  8
254
 42
0.0
 10
3.9034271
 20
2.2647285E-001
 70
0
  0
SEQEND
  0
POLYLINE
  8
254
  6
CONTINUOUS
 62
6
 66
1
 40
1.0E-003
 41
1.0E-003
 70
0
  0
VERTEX
  8
254
 42
0.0
 10
8.1364441E-001
 20
-3.146162
 70
0
  0
VERTEX
  8
254
 42
0.0
 10
1.741272
 20
-2.2185249
 70
0
  0
SEQEND
  0
POLYLINE
  8
254
  6
CONTINUOUS
 62
6
 66
1
 40
1.0E-003
 41
1.0E-003
 70
0
  0
VERTEX
  8
254
 42
0.0
 10
3.1836395
 20
-7.7615738E-001
 70
0
  0
VERTEX
  8
254
 42
0.0
 10
4.186264
 20
2.2647285E-001
 70
0
  0
SEQEND
  0
POLYLINE
  8
254
  6
CONTINUOUS
 62
6
 66
1
 40
1.0E-003
 41
1.0E-003
 70
0
  0
VERTEX
  8
254
 42
0.0
 10
8.6912537E-001
 20
-3.3735256
 70
0
  0
VERTEX
  8
254
 42
0.0
 10
2.0241241
 20
-2.2185249
 70
0
  0
SEQEND
  0
POLYLINE
  8
254
  6
CONTINUOUS
 62
6
 66
1
 40
1.0E-003
 41
1.0E-003
 70
0
  0
VERTEX
  8
254
 42
0.0
 10
3.1836395
 20
-1.059
 70
0
  0
VERTEX
  8
254
 42
0.0
 10
4.3386536
 20
9.6017838E-002
 70
0
  0
SEQEND
  0
POLYLINE
  8
254
  6
CONTINUOUS
 62
6
 66
1
 40
1.0E-003
 41
1.0E-003
 70
0
  0
VERTEX
  8
254
 42
0.0
 10
1.1519623
 20
-3.3735256
 70
0
  0
VERTEX
  8
254
 42
0.0
 10
2.1542511
 20
-2.3712425
 70
0
  0
SEQEND
  0
POLYLINE
  8
254
  6
CONTINUOUS
 62
6
 66
1
 40
1.0E-003
 41
1.0E-003
 70
0
  0
VERTEX
  8
254
 42
0.0
 10
3.1836395
 20
-1.3418446
 70
0
  0
VERTEX
  8
254
 42
0.0
 10
4.3386536
 20
-1.868248E-001
 70
0
  0
SEQEND
  0
POLYLINE
  8
254
  6
CONTINUOUS
 62
6
 66
1
 40
1.0E-003
 41
1.0E-003
 70
0
  0
VERTEX
  8
254
 42
0.0
 10
4.7286377
 20
2.0316124E-001
 70
0
  0
VERTEX
  8
254
 42
0.0
 10
4.7519531
 20
2.2647285E-001
 70
0
  0
SEQEND
  0
POLYLINE
  8
254
  6
CONTINUOUS
 62
6
 66
1
 40
1.0E-003
 41
1.0E-003
 70
0
  0
VERTEX
  8
254
 42
0.0
 10
1.4302368
 20
-3.3780994
 70
0
  0
VERTEX
  8
254
 42
0.0
 10
2.2314606
 20
-2.5768642
 70
0
  0
SEQEND
  0
POLYLINE
  8
254
  6
CONTINUOUS
 62
6
 66
1
 40
1.0E-003
 41
1.0E-003
 70
0
  0
VERTEX
  8
254
 42
0.0
 10
3.1836395
 20
-1.6246872
 70
0
  0
VERTEX
  8
254
 42
0.0
 10
4.3386536
 20
-4.6966743E-001
 70
0
  0
SEQEND
  0
POLYLINE
  8
254
  6
CONTINUOUS
 62
6
 66
1
 40
1.0E-003
 41
1.0E-003
 70
0
  0
VERTEX
  8
254
 42
0.0
 10
4.7286377
 20
-7.9683304E-002
 70
0
  0
VERTEX
  8
254
 42
0.0
 10
5.0330811
 20
2.2476578E-001
 70
0
  0
SEQEND
  0
POLYLINE
  8
254
  6
CONTINUOUS
 62
6
 66
1
 40
1.0E-003
 41
1.0E-003
 70
0
  0
VERTEX
  8
254
 42
0.0
 10
1.5035706
 20
-3.5876122
 70
0
  0
VERTEX
  8
254
 42
0.0
 10
2.3086853
 20
-2.7824879
 70
0
  0
SEQEND
  0
POLYLINE
  8
254
  6
CONTINUOUS
 62
6
 66
1
 40
1.0E-003
 41
1.0E-003
 70
0
  0
VERTEX
  8
254
 42
0.0
 10
3.2626495
 20
-1.8285255
 70
0
  0
VERTEX
  8
254
 42
0.0
 10
4.3386536
 20
-7.5251198E-001
 70
0
  0
SEQEND
  0
POLYLINE
  8
254
  6
CONTINUOUS
 62
6
 66
1
 40
1.0E-003
 41
1.0E-003
 70
0
  0
VERTEX
  8
254
 42
0.0
 10
4.7286377
 20
-3.6252594E-001
 70
0
  0
VERTEX
  8
254
 42
0.0
 10
5.2719421
 20
1.8078232E-001
 70
0
  0
SEQEND
  0
POLYLINE
  8
254
  6
CONTINUOUS
 62
6
 66
1
 40
1.0E-003
 41
1.0E-003
 70
0
  0
VERTEX
  8
254
 42
0.0
 10
1.576889
 20
-3.7971249
 70
0
  0
VERTEX
  8
254
 42
0.0
 10
2.38591
 20
-2.9881096
 70
0
  0
SEQEND
  0
POLYLINE
  8
254
  6
CONTINUOUS
 62
6
 66
1
 40
1.0E-003
 41
1.0E-003
 70
0
  0
VERTEX
  8
254
 42
0.0
 10
3.5454865
 20
-1.8285255
 70
0
  0
VERTEX
  8
254
 42
0.0
 10
4.3386536
 20
-1.0353546
 70
0
  0
SEQEND
  0
POLYLINE
  8
254
  6
CONTINUOUS
 62
6
 66
1
 40
1.0E-003
 41
1.0E-003
 70
0
  0
VERTEX
  8
254
 42
0.0
 10
4.7286377
 20
-6.4536858E-001
 70
0
  0
VERTEX
  8
254
 42
0.0
 10
5.4707031
 20
9.6696854E-002
 70
0
  0
SEQEND
  0
POLYLINE
  8
254
  6
CONTINUOUS
 62
6
 66
1
 40
1.0E-003
 41
1.0E-003
 70
0
  0
VERTEX
  8
254
 42
0.0
 10
1.6502228
 20
-4.0066376
 70
0
  0
VERTEX
  8
254
 42
0.0
 10
2.4631348
 20
-3.1937332
 70
0
  0
SEQEND
  0
POLYLINE
  8
254
  6
CONTINUOUS
 62
6
 66
1
 40
1.0E-003
 41
1.0E-003
 70
0
  0
VERTEX
  8
254
 42
0.0
 10
3.1836395
 20
-2.473217
 70
0
  0
VERTEX
  8
254
 42
0.0
 10
3.438324
 20
-2.2185249
 70
0
  0
SEQEND
  0
POLYLINE
  8
254
  6
CONTINUOUS
 62
6
 66
1
 40
1.0E-003
 41
1.0E-003
 70
0
  0
VERTEX
  8
254
 42
0.0
 10
3.8283234
 20
-1.8285255
 70
0
  0
VERTEX
  8
254
 42
0.0
 10
4.3386536
 20
-1.3181992
 70
0
  0
SEQEND
  0
POLYLINE
  8
254
  6
CONTINUOUS
 62
6
 66
1
 40
1.0E-003
 41
1.0E-003
 70
0
  0
VERTEX
  8
254
 42
0.0
 10
4.7286377
 20
-9.2821312E-001
 70
0
  0
VERTEX
  8
254
 42
0.0
 10
5.6378021
 20
-1.9039154E-002
 70
0
  0
SEQEND
  0
POLYLINE
  8
254
  6
CONTINUOUS
 62
6
 66
1
 40
1.0E-003
 41
1.0E-003
 70
0
  0
VERTEX
  8
254
 42
0.0
 10
1.7235565
 20
-4.2161503
 70
0
  0
VERTEX
  8
254
 42
0.0
 10
2.5403442
 20
-3.3993549
 70
0
  0
SEQEND
  0
POLYLINE
  8
254
  6
CONTINUOUS
 62
6
 66
1
 40
1.0E-003
 41
1.0E-003
 70
0
  0
VERTEX
  8
254
 42
0.0
 10
3.1836395
 20
-2.7560596
 70
0
  0
VERTEX
  8
254
 42
0.0
 10
3.7211761
 20
-2.2185249
 70
0
  0
SEQEND
  0
POLYLINE
  8
254
  6
CONTINUOUS
 62
6
 66
1
 40
1.0E-003
 41
1.0E-003
 70
0
  0
VERTEX
  8
254
 42
0.0
 10
4.1111755
 20
-1.8285255
 70
0
  0
VERTEX
  8
254
 42
0.0
 10
4.3386536
 20
-1.6010418
 70
0
  0
SEQEND
  0
POLYLINE
  8
254
  6
CONTINUOUS
 62
6
 66
1
 40
1.0E-003
 41
1.0E-003
 70
0
  0
VERTEX
  8
254
 42
0.0
 10
4.7286377
 20
-1.2110558
 70
0
  0
VERTEX
  8
254
 42
0.0
 10
5.7763824
 20
-1.633091E-001
 70
0
  0
SEQEND
  0
POLYLINE
  8
254
  6
CONTINUOUS
 62
6
 66
1
 40
1.0E-003
 41
1.0E-003
 70
0
  0
VERTEX
  8
254
 42
0.0
 10
1.9490204
 20
-4.2735233
 70
0
  0
VERTEX
  8
254
 42
0.0
 10
2.617569
 20
-3.6049767
 70
0
  0
SEQEND
  0
POLYLINE
  8
254
  6
CONTINUOUS
 62
6
 66
1
 40
1.0E-003
 41
1.0E-003
 70
0
  0
VERTEX
  8
254
 42
0.0
 10
3.1836395
 20
-3.0389042
 70
0
  0
VERTEX
  8
254
 42
0.0
 10
4.0040131
 20
-2.2185249
 70
0
  0
SEQEND
  0
POLYLINE
  8
254
  6
CONTINUOUS
 62
6
 66
1
 40
1.0E-003
 41
1.0E-003
 70
0
  0
VERTEX
  8
254
 42
0.0
 10
4.7286377
 20
-1.4938984
 70
0
  0
VERTEX
  8
254
 42
0.0
 10
5.885849
 20
-3.3667946E-001
 70
0
  0
SEQEND
  0
POLYLINE
  8
254
  6
CONTINUOUS
 62
6
 66
1
 40
1.0E-003
 41
1.0E-003
 70
0
  0
VERTEX
  8
254
 42
0.0
 10
2.2318726
 20
-4.2735233
 70
0
  0
VERTEX
  8
254
 42
0.0
 10
2.6947937
 20
-3.8106003
 70
0
  0
SEQEND
  0
POLYLINE
  8
254
  6
CONTINUOUS
 62
6
 66
1
 40
1.0E-003
 41
1.0E-003
 70
0
  0
VERTEX
  8
254
 42
0.0
 10
3.1836395
 20
-3.3217468
 70
0
  0
VERTEX
  8
254
 42
0.0
 10
4.2868652
 20
-2.2185249
 70
0
  0
SEQEND
  0
POLYLINE
  8
254
  6
CONTINUOUS
 62
6
 66
1
 40
1.0E-003
 41
1.0E-003
 70
0
  0
VERTEX
  8
254
 42
0.0
 10
4.7286377
 20
-1.7767429
 70
0
  0
VERTEX
  8
254
 42
0.0
 10
5.9616241
 20
-5.4375839E-001
 70
0
  0
SEQEND
  0
POLYLINE
  8
254
  6
CONTINUOUS
 62
6
 66
1
 40
1.0E-003
 41
1.0E-003
 70
0
  0
VERTEX
  8
254
 42
0.0
 10
6.693634
 20
1.8826294E-001
 70
0
  0
VERTEX
  8
254
 42
0.0
 10
6.731842
 20
2.2647285E-001
 70
0
  0
SEQEND
  0
POLYLINE
  8
254
  6
CONTINUOUS
 62
6
 66
1
 40
1.0E-003
 41
1.0E-003
 70
0
  0
VERTEX
  8
254
 42
0.0
 10
2.5147095
 20
-4.2735233
 70
0
  0
VERTEX
  8
254
 42
0.0
 10
2.7720032
 20
-4.016222
 70
0
  0
SEQEND
  0
POLYLINE
  8
254
  6
CONTINUOUS
 62
6
 66
1
 40
1.0E-003
 41
1.0E-003
 70
0
  0
VERTEX
  8
254
 42
0.0
 10
3.1836395
 20
-3.6045914
 70
0
  0
VERTEX
  8
254
 42
0.0
 10
4.3386536
 20
-2.4495716
 70
0
  0
SEQEND
  0
POLYLINE
  8
254
  6
CONTINUOUS
 62
6
 66
1
 40
1.0E-003
 41
1.0E-003
 70
0
  0
VERTEX
  8
254
 42
0.0
 10
4.9597015
 20
-1.8285255
 70
0
  0
VERTEX
  8
254
 42
0.0
 10
5.9921417
 20
-7.9607391E-001
 70
0
  0
SEQEND
  0
POLYLINE
  8
254
  6
CONTINUOUS
 62
6
 66
1
 40
1.0E-003
 41
1.0E-003
 70
0
  0
VERTEX
  8
254
 42
0.0
 10
6.693634
 20
-9.4581604E-002
 70
0
  0
VERTEX
  8
254
 42
0.0
 10
7.0146942
 20
2.2647285E-001
 70
0
  0
SEQEND
  0
POLYLINE
  8
254
  6
CONTINUOUS
 62
6
 66
1
 40
1.0E-003
 41
1.0E-003
 70
0
  0
VERTEX
  8
254
 42
0.0
 10
2.7975464
 20
-4.2735233
 70
0
  0
VERTEX
  8
254
 42
0.0
 10
2.8492279
 20
-4.2218456
 70
0
  0
SEQEND
  0
POLYLINE
  8
254
  6
CONTINUOUS
 62
6
 66
1
 40
1.0E-003
 41
1.0E-003
 70
0
  0
VERTEX
  8
254
 42
0.0
 10
3.1836395
 20
-3.887434
 70
0
  0
VERTEX
  8
254
 42
0.0
 10
4.3386536
 20
-2.7324142
 70
0
  0
SEQEND
  0
POLYLINE
  8
254
  6
CONTINUOUS
 62
6
 66
1
 40
1.0E-003
 41
1.0E-003
 70
0
  0
VERTEX
  8
254
 42
0.0
 10
4.7286377
 20
-2.3424282
 70
0
  0
VERTEX
  8
254
 42
0.0
 10
4.8525391
 20
-2.2185249
 70
0
  0
SEQEND
  0
POLYLINE
  8
254
  6
CONTINUOUS
 62
6
 66
1
 40
1.0E-003
 41
1.0E-003
 70
0
  0
VERTEX
  8
254
 42
0.0
 10
5.2425385
 20
-1.8285255
 70
0
  0
VERTEX
  8
254
 42
0.0
 10
5.9243927
 20
-1.1466713
 70
0
  0
SEQEND
  0
POLYLINE
  8
254
  6
CONTINUOUS
 62
6
 66
1
 40
1.0E-003
 41
1.0E-003
 70
0
  0
VERTEX
  8
254
 42
0.0
 10
6.693634
 20
-3.7742424E-001
 70
0
  0
VERTEX
  8
254
 42
0.0
 10
7.2975311
 20
2.2647285E-001
 70
0
  0
SEQEND
  0
POLYLINE
  8
254
  6
CONTINUOUS
 62
6
 66
1
 40
1.0E-003
 41
1.0E-003
 70
0
  0
VERTEX
  8
254
 42
0.0
 10
3.1836395
 20
-4.1702766
 70
0
  0
VERTEX
  8
254
 42
0.0
 10
4.3386536
 20
-3.0152588
 70
0
  0
SEQEND
  0
POLYLINE
  8
254
  6
CONTINUOUS
 62
6
 66
1
 40
1.0E-003
 41
1.0E-003
 70
0
  0
VERTEX
  8
254
 42
0.0
 10
4.7286377
 20
-2.6252728
 70
0
  0
VERTEX
  8
254
 42
0.0
 10
5.1353912
 20
-2.2185249
 70
0
  0
SEQEND
  0
POLYLINE
  8
254
  6
CONTINUOUS
 62
6
 66
1
 40
1.0E-003
 41
1.0E-003
 70
0
  0
VERTEX
  8
254
 42
0.0
 10
5.5253754
 20
-1.8285255
 70
0
  0
VERTEX
  8
254
 42
0.0
 10
5.618103
 20
-1.7358074
 70
0
  0
SEQEND
  0
POLYLINE
  8
254
  6
CONTINUOUS
 62
6
 66
1
 40
1.0E-003
 41
1.0E-003
 70
0
  0
VERTEX
  8
254
 42
0.0
 10
6.693634
 20
-6.6026688E-001
 70
0
  0
VERTEX
  8
254
 42
0.0
 10
7.580368
 20
2.2647285E-001
 70
0
  0
SEQEND
  0
POLYLINE
  8
254
  6
CONTINUOUS
 62
6
 66
1
 40
1.0E-003
 41
1.0E-003
 70
0
  0
VERTEX
  8
254
 42
0.0
 10
3.3632355
 20
-4.2735233
 70
0
  0
VERTEX
  8
254
 42
0.0
 10
4.3386536
 20
-3.2981014
 70
0
  0
SEQEND
  0
POLYLINE
  8
254
  6
CONTINUOUS
 62
6
 66
1
 40
1.0E-003
 41
1.0E-003
 70
0
  0
VERTEX
  8
254
 42
0.0
 10
4.7286377
 20
-2.9081154
 70
0
  0
VERTEX
  8
254
 42
0.0
 10
5.4182281
 20
-2.2185249
 70
0
  0
SEQEND
  0
POLYLINE
  8
254
  6
CONTINUOUS
 62
6
 66
1
 40
1.0E-003
 41
1.0E-003
 70
0
  0
VERTEX
  8
254
 42
0.0
 10
6.693634
 20
-9.4311142E-001
 70
0
  0
VERTEX
  8
254
 42
0.0
 10
7.8486481
 20
2.1190834E-001
 70
0
  0
SEQEND
  0
POLYLINE
  8
254
  6
CONTINUOUS
 62
6
 66
1
 40
1.0E-003
 41
1.0E-003
 70
0
  0
VERTEX
  8
254
 42
0.0
 10
3.6460724
 20
-4.2735233
 70
0
  0
VERTEX
  8
254
 42
0.0
 10
4.3386536
 20
-3.5809441
 70
0
  0
SEQEND
  0
POLYLINE
  8
254
  6
CONTINUOUS
 62
6
 66
1
 40
1.0E-003
 41
1.0E-003
 70
0
  0
VERTEX
  8
254
 42
0.0
 10
4.7286377
 20
-3.1909599
 70
0
  0
VERTEX
  8
254
 42
0.0
 10
5.7010651
 20
-2.2185249
 70
0
  0
SEQEND
  0
POLYLINE
  8
254
  6
CONTINUOUS
 62
6
 66
1
 40
1.0E-003
 41
1.0E-003
 70
0
  0
VERTEX
  8
254
 42
0.0
 10
6.693634
 20
-1.2259541
 70
0
  0
VERTEX
  8
254
 42
0.0
 10
7.8486481
 20
-7.0936203E-002
 70
0
  0
SEQEND
  0
POLYLINE
  8
254
  6
CONTINUOUS
 62
6
 66
1
 40
1.0E-003
 41
1.0E-003
 70
0
  0
VERTEX
  8
254
 42
0.0
 10
3.9289246
 20
-4.2735233
 70
0
  0
VERTEX
  8
254
 42
0.0
 10
4.3386536
 20
-3.8637886
 70
0
  0
SEQEND
  0
POLYLINE
  8
254
  6
CONTINUOUS
 62
6
 66
1
 40
1.0E-003
 41
1.0E-003
 70
0
  0
VERTEX
  8
254
 42
0.0
 10
4.7286377
 20
-3.4738026
 70
0
  0
VERTEX
  8
254
 42
0.0
 10
5.9839172
 20
-2.2185249
 70
0
  0
SEQEND
  0
POLYLINE
  8
254
  6
CONTINUOUS
 62
6
 66
1
 40
1.0E-003
 41
1.0E-003
 70
0
  0
VERTEX
  8
254
 42
0.0
 10
6.693634
 20
-1.5087986
 70
0
  0
VERTEX
  8
254
 42
0.0
 10
7.8486481
 20
-3.5377884E-001
 70
0
  0
SEQEND
  0
POLYLINE
  8
254
  6
CONTINUOUS
 62
6
 66
1
 40
1.0E-003
 41
1.0E-003
 70
0
  0
VERTEX
  8
254
 42
0.0
 10
8.2386322
 20
3.6207199E-002
 70
0
  0
VERTEX
  8
254
 42
0.0
 10
8.428894
 20
2.2647285E-001
 70
0
  0
SEQEND
  0
POLYLINE
  8
254
  6
CONTINUOUS
 62
6
 66
1
 40
1.0E-003
 41
1.0E-003
 70
0
  0
VERTEX
  8
254
 42
0.0
 10
4.2117615
 20
-4.2735233
 70
0
  0
VERTEX
  8
254
 42
0.0
 10
4.3386536
 20
-4.1466312
 70
0
  0
SEQEND
  0
POLYLINE
  8
254
  6
CONTINUOUS
 62
6
 66
1
 40
1.0E-003
 41
1.0E-003
 70
0
  0
VERTEX
  8
254
 42
0.0
 10
4.7286377
 20
-3.7566452
 70
0
  0
VERTEX
  8
254
 42
0.0
 10
6.181076
 20
-2.3042011
 70
0
  0
SEQEND
  0
POLYLINE
  8
254
  6
CONTINUOUS
 62
6
 66
1
 40
1.0E-003
 41
1.0E-003
 70
0
  0
VERTEX
  8
254
 42
0.0
 10
6.693634
 20
-1.7916412
 70
0
  0
VERTEX
  8
254
 42
0.0
 10
7.8486481
 20
-6.3662148E-001
 70
0
  0
SEQEND
  0
POLYLINE
  8
254
  6
CONTINUOUS
 62
6
 66
1
 40
1.0E-003
 41
1.0E-003
 70
0
  0
VERTEX
  8
254
 42
0.0
 10
8.2386322
 20
-2.4663544E-001
 70
0
  0
VERTEX
  8
254
 42
0.0
 10
8.6889954
 20
2.0372772E-001
 70
0
  0
SEQEND
  0
POLYLINE
  8
254
  6
CONTINUOUS
 62
6
 66
1
 40
1.0E-003
 41
1.0E-003
 70
0
  0
VERTEX
  8
254
 42
0.0
 10
4.7286377
 20
-4.0394897
 70
0
  0
VERTEX
  8
254
 42
0.0
 10
6.2656097
 20
-2.5025082
 70
0
  0
SEQEND
  0
POLYLINE
  8
254
  6
CONTINUOUS
 62
6
 66
1
 40
1.0E-003
 41
1.0E-003
 70
0
  0
VERTEX
  8
254
 42
0.0
 10
6.9395905
 20
-1.8285255
 70
0
  0
VERTEX
  8
254
 42
0.0
 10
7.8486481
 20
-9.1946602E-001
 70
0
  0
SEQEND
  0
POLYLINE
  8
254
  6
CONTINUOUS
 62
6
 66
1
 40
1.0E-003
 41
1.0E-003
 70
0
  0
VERTEX
  8
254
 42
0.0
 10
8.2386322
 20
-5.2947998E-001
 70
0
  0
VERTEX
  8
254
 42
0.0
 10
8.9050598
 20
1.3694763E-001
 70
0
  0
SEQEND
  0
POLYLINE
  8
254
  6
CONTINUOUS
 62
6
 66
1
 40
1.0E-003
 41
1.0E-003
 70
0
  0
VERTEX
  8
254
 42
0.0
 10
4.7774506
 20
-4.2735233
 70
0
  0
VERTEX
  8
254
 42
0.0
 10
6.3190155
 20
-2.7319412
 70
0
  0
SEQEND
  0
POLYLINE
  8
254
  6
CONTINUOUS
 62
6
 66
1
 40
1.0E-003
 41
1.0E-003
 70
0
  0
VERTEX
  8
254
 42
0.0
 10
6.693634
 20
-2.3573284
 70
0
  0
VERTEX
  8
254
 42
0.0
 10
6.8324432
 20
-2.2185249
 70
0
  0
SEQEND
  0
POLYLINE
  8
254
  6
CONTINUOUS
 62
6
 66
1
 40
1.0E-003
 41
1.0E-003
 70
0
  0
VERTEX
  8
254
 42
0.0
 10
7.2224274
 20
-1.8285255
 70
0
  0
VERTEX
  8
254
 42
0.0
 10
7.8486481
 20
-1.2023087
 70
0
  0
SEQEND
  0
POLYLINE
  8
254
  6
CONTINUOUS
 62
6
 66
1
 40
1.0E-003
 41
1.0E-003
 70
0
  0
VERTEX
  8
254
 42
0.0
 10
8.2386322
 20
-8.1232262E-001
 70
0
  0
VERTEX
  8
254
 42
0.0
 10
9.0850067
 20
3.4049988E-002
 70
0
  0
SEQEND
  0
POLYLINE
  8
254
  6
CONTINUOUS
 62
6
 66
1
 40
1.0E-003
 41
1.0E-003
 70
0
  0
VERTEX
  8
254
 42
0.0
 10
5.0675201
 20
-4.2662849
 70
0
  0
VERTEX
  8
254
 42
0.0
 10
6.3274994
 20
-3.0063057
 70
0
  0
SEQEND
  0
POLYLINE
  8
254
  6
CONTINUOUS
 62
6
 66
1
 40
1.0E-003
 41
1.0E-003
 70
0
  0
VERTEX
  8
254
 42
0.0
 10
6.693634
 20
-2.6401711
 70
0
  0
VERTEX
  8
254
 42
0.0
 10
7.1152802
 20
-2.2185249
 70
0
  0
SEQEND
  0
POLYLINE
  8
254
  6
CONTINUOUS
 62
6
 66
1
 40
1.0E-003
 41
1.0E-003
 70
0
  0
VERTEX
  8
254
 42
0.0
 10
7.5052795
 20
-1.8285255
 70
0
  0
VERTEX
  8
254
 42
0.0
 10
7.8486481
 20
-1.4851513
 70
0
  0
SEQEND
  0
POLYLINE
  8
254
  6
CONTINUOUS
 62
6
 66
1
 40
1.0E-003
 41
1.0E-003
 70
0
  0
VERTEX
  8
254
 42
0.0
 10
8.2386322
 20
-1.0951672
 70
0
  0
VERTEX
  8
254
 42
0.0
 10
9.2350922
 20
-9.869957E-002
 70
0
  0
SEQEND
  0
POLYLINE
  8
254
  6
CONTINUOUS
 62
6
 66
1
 40
1.0E-003
 41
1.0E-003
 70
0
  0
VERTEX
  8
254
 42
0.0
 10
5.416275
 20
-4.2003727
 70
0
  0
VERTEX
  8
254
 42
0.0
 10
6.2580872
 20
-3.3585587
 70
0
  0
SEQEND
  0
POLYLINE
  8
254
  6
CONTINUOUS
 62
6
 66
1
 40
1.0E-003
 41
1.0E-003
 70
0
  0
VERTEX
  8
254
 42
0.0
 10
6.693634
 20
-2.9230137
 70
0
  0
VERTEX
  8
254
 42
0.0
 10
7.3981171
 20
-2.2185249
 70
0
  0
SEQEND
  0
POLYLINE
  8
254
  6
CONTINUOUS
 62
6
 66
1
 40
1.0E-003
 41
1.0E-003
 70
0
  0
VERTEX
  8
254
 42
0.0
 10
7.7881165
 20
-1.8285255
 70
0
  0
VERTEX
  8
254
 42
0.0
 10
7.8486481
 20
-1.7679958
 70
0
  0
SEQEND
  0
POLYLINE
  8
254
  6
CONTINUOUS
 62
6
 66
1
 40
1.0E-003
 41
1.0E-003
 70
0
  0
VERTEX
  8
254
 42
0.0
 10
8.2386322
 20
-1.3780098
 70
0
  0
VERTEX
  8
254
 42
0.0
 10
9.3569641
 20
-2.5967217E-001
 70
0
  0
SEQEND
  0
POLYLINE
  8
254
  6
CONTINUOUS
 62
6
 66
1
 40
1.0E-003
 41
1.0E-003
 70
0
  0
VERTEX
  8
254
 42
0.0
 10
6.693634
 20
-3.2058582
 70
0
  0
VERTEX
  8
254
 42
0.0
 10
7.6809692
 20
-2.2185249
 70
0
  0
SEQEND
  0
POLYLINE
  8
254
  6
CONTINUOUS
 62
6
 66
1
 40
1.0E-003
 41
1.0E-003
 70
0
  0
VERTEX
  8
254
 42
0.0
 10
8.2386322
 20
-1.6608524
 70
0
  0
VERTEX
  8
254
 42
0.0
 10
9.4486694
 20
-4.5081711E-001
 70
0
  0
SEQEND
  0
POLYLINE
  8
254
  6
CONTINUOUS
 62
6
 66
1
 40
1.0E-003
 41
1.0E-003
 70
0
  0
VERTEX
  8
254
 42
0.0
 10
6.693634
 20
-3.4887009
 70
0
  0
VERTEX
  8
254
 42
0.0
 10
7.8486481
 20
-2.3336811
 70
0
  0
SEQEND
  0
POLYLINE
  8
254
  6
CONTINUOUS
 62
6
 66
1
 40
1.0E-003
 41
1.0E-003
 70
0
  0
VERTEX
  8
254
 42
0.0
 10
8.3538055
 20
-1.8285255
 70
0
  0
VERTEX
  8
254
 42
0.0
 10
9.4981384
 20
-6.8418121E-001
 70
0
  0
SEQEND
  0
POLYLINE
  8
254
  6
CONTINUOUS
 62
6
 66
1
 40
1.0E-003
 41
1.0E-003
 70
0
  0
VERTEX
  8
254
 42
0.0
 10
6.693634
 20
-3.7715435
 70
0
  0
VERTEX
  8
254
 42
0.0
 10
7.8486481
 20
-2.6165256
 70
0
  0
SEQEND
  0
POLYLINE
  8
254
  6
CONTINUOUS
 62
6
 66
1
 40
1.0E-003
 41
1.0E-003
 70
0
  0
VERTEX
  8
254
 42
0.0
 10
8.2386322
 20
-2.2265396
 70
0
  0
VERTEX
  8
254
 42
0.0
 10
8.2466431
 20
-2.2185249
 70
0
  0
SEQEND
  0
POLYLINE
  8
254
  6
CONTINUOUS
 62
6
 66
1
 40
1.0E-003
 41
1.0E-003
 70
0
  0
VERTEX
  8
254
 42
0.0
 10
8.6366425
 20
-1.8285255
 70
0
  0
VERTEX
  8
254
 42
0.0
 10
9.4822998
 20
-9.8287392E-001
 70
0
  0
SEQEND
  0
POLYLINE
  8
254
  6
CONTINUOUS
 62
6
 66
1
 40
1.0E-003
 41
1.0E-003
 70
0
  0
VERTEX
  8
254
 42
0.0
 10
6.693634
 20
-4.054388
 70
0
  0
VERTEX
  8
254
 42
0.0
 10
7.8486481
 20
-2.8993683
 70
0
  0
SEQEND
  0
POLYLINE
  8
254
  6
CONTINUOUS
 62
6
 66
1
 40
1.0E-003
 41
1.0E-003
 70
0
  0
VERTEX
  8
254
 42
0.0
 10
8.2386322
 20
-2.5093822
 70
0
  0
VERTEX
  8
254
 42
0.0
 10
8.5294952
 20
-2.2185249
 70
0
  0
SEQEND
  0
POLYLINE
  8
254
  6
CONTINUOUS
 62
6
 66
1
 40
1.0E-003
 41
1.0E-003
 70
0
  0
VERTEX
  8
254
 42
0.0
 10
8.9194946
 20
-1.8285255
 70
0
  0
VERTEX
  8
254
 42
0.0
 10
9.0524445
 20
-1.6955605
 70
0
  0
SEQEND
  0
POLYLINE
  8
254
  6
CONTINUOUS
 62
6
 66
1
 40
1.0E-003
 41
1.0E-003
 70
0
  0
VERTEX
  8
254
 42
0.0
 10
6.7573395
 20
-4.2735233
 70
0
  0
VERTEX
  8
254
 42
0.0
 10
7.8486481
 20
-3.1822128
 70
0
  0
SEQEND
  0
POLYLINE
  8
254
  6
CONTINUOUS
 62
6
 66
1
 40
1.0E-003
 41
1.0E-003
 70
0
  0
VERTEX
  8
254
 42
0.0
 10
8.2386322
 20
-2.7922268
 70
0
  0
VERTEX
  8
254
 42
0.0
 10
8.8123322
 20
-2.2185249
 70
0
  0
SEQEND
  0
POLYLINE
  8
254
  6
CONTINUOUS
 62
6
 66
1
 40
1.0E-003
 41
1.0E-003
 70
0
  0
VERTEX
  8
254
 42
0.0
 10
9.2023315
 20
-1.8285255
 70
0
  0
VERTEX
  8
254
 42
0.0
 10
9.2325897
 20
-1.7982578
 70
0
  0
SEQEND
  0
POLYLINE
  8
254
  6
CONTINUOUS
 62
6
 66
1
 40
1.0E-003
 41
1.0E-003
 70
0
  0
VERTEX
  8
254
 42
0.0
 10
7.0401917
 20
-4.2735233
 70
0
  0
VERTEX
  8
254
 42
0.0
 10
7.8486481
 20
-3.4650555
 70
0
  0
SEQEND
  0
POLYLINE
  8
254
  6
CONTINUOUS
 62
6
 66
1
 40
1.0E-003
 41
1.0E-003
 70
0
  0
VERTEX
  8
254
 42
0.0
 10
8.2386322
 20
-3.0750694
 70
0
  0
VERTEX
  8
254
 42
0.0
 10
9.0951691
 20
-2.2185249
 70
0
  0
SEQEND
  0
POLYLINE
  8
254
  6
CONTINUOUS
 62
6
 66
1
 40
1.0E-003
 41
1.0E-003
 70
0
  0
VERTEX
  8
254
 42
0.0
 10
7.3230286
 20
-4.2735233
 70
0
  0
VERTEX
  8
254
 42
0.0
 10
7.8486481
 20
-3.7478981
 70
0
  0
SEQEND
  0
POLYLINE
  8
254
  6
CONTINUOUS
 62
6
 66
1
 40
1.0E-003
 41
1.0E-003
 70
0
  0
VERTEX
  8
254
 42
0.0
 10
8.2386322
 20
-3.3579121
 70
0
  0
VERTEX
  8
254
 42
0.0
 10
9.3780212
 20
-2.2185249
 70
0
  0
SEQEND
  0
POLYLINE
  8
254
  6
CONTINUOUS
 62
6
 66
1
 40
1.0E-003
 41
1.0E-003
 70
0
  0
VERTEX
  8
254
 42
0.0
 10
7.6058655
 20
-4.2735233
 70
0
  0
VERTEX
  8
254
 42
0.0
 10
7.8486481
 20
-4.0307426
 70
0
  0
SEQEND
  0
POLYLINE
  8
254
  6
CONTINUOUS
 62
6
 66
1
 40
1.0E-003
 41
1.0E-003
 70
0
  0
VERTEX
  8
254
 42
0.0
 10
8.2386322
 20
-3.6407566
 70
0
  0
VERTEX
  8
254
 42
0.0
 10
9.6507568
 20
-2.228632
 70
0
  0
SEQEND
  0
POLYLINE
  8
254
  6
CONTINUOUS
 62
6
 66
1
 40
1.0E-003
 41
1.0E-003
 70
0
  0
VERTEX
  8
254
 42
0.0
 10
8.2386322
 20
-3.9235992
 70
0
  0
VERTEX
  8
254
 42
0.0
 10
9.7415924
 20
-2.4206371
 70
0
  0
SEQEND
  0
POLYLINE
  8
254
  6
CONTINUOUS
 62
6
 66
1
 40
1.0E-003
 41
1.0E-003
 70
0
  0
VERTEX
  8
254
 42
0.0
 10
8.2386322
 20
-4.2064419
 70
0
  0
VERTEX
  8
254
 42
0.0
 10
9.8081055
 20
-2.6369629
 70
0
  0
SEQEND
  0
POLYLINE
  8
254
  6
CONTINUOUS
 62
6
 66
1
 40
1.0E-003
 41
1.0E-003
 70
0
  0
VERTEX
  8
254
 42
0.0
 10
8.4543915
 20
-4.2735233
 70
0
  0
VERTEX
  8
254
 42
0.0
 10
9.8392181
 20
-2.8886967
 70
0
  0
SEQEND
  0
POLYLINE
  8
254
  6
CONTINUOUS
 62
6
 66
1
 40
1.0E-003
 41
1.0E-003
 70
0
  0
VERTEX
  8
254
 42
0.0
 10
8.7687836
 20
-4.2419796
 70
0
  0
VERTEX
  8
254
 42
0.0
 10
9.8147125
 20
-3.196043
 70
0
  0
SEQEND
  0
POLYLINE
  8
254
  6
CONTINUOUS
 62
6
 66
1
 40
1.0E-003
 41
1.0E-003
 70
0
  0
VERTEX
  8
254
 42
0.0
 10
9.275238
 20
-4.0183601
 70
0
  0
VERTEX
  8
254
 42
0.0
 10
9.5876312
 20
-3.7059689
 70
0
  0
SEQEND
  0
ENDBLK
  0
BLOCK
  2
RAHMENA4
 10
0.0
 20
0.0
 70
0
  0
POLYLINE
  8
1
  6
CONTINUOUS
 62
6
 66
1
 40
7.0E-001
 41
7.0E-001
 70
0
  0
VERTEX
  8
1
 42
0.0
 10
1.9000008E+001
 20
2.9150003E+002
 70
0
  0
VERTEX
  8
1
 42
0.0
 10
1.9000008E+001
 20
5.5
 70
0
  0
SEQEND
  0
POLYLINE
  8
1
  6
CONTINUOUS
 62
6
 66
1
 40
7.0E-001
 41
7.0E-001
 70
0
  0
VERTEX
  8
1
 42
0.0
 10
2.05E+002
 20
5.5
 70
0
  0
VERTEX
  8
1
 42
0.0
 10
1.9000008E+001
 20
5.5
 70
0
  0
SEQEND
  0
POLYLINE
  8
1
  6
CONTINUOUS
 62
6
 66
1
 40
7.0E-001
 41
7.0E-001
 70
0
  0
VERTEX
  8
1
 42
0.0
 10
5.0
 20
5.5
 70
0
  0
VERTEX
  8
1
 42
0.0
 10
5.0
 20
1.045E+002
 70
0
  0
SEQEND
  0
POLYLINE
  8
1
  6
CONTINUOUS
 62
6
 66
1
 40
7.0E-001
 41
7.0E-001
 70
0
  0
VERTEX
  8
1
 42
0.0
 10
5.0
 20
1.045E+002
 70
0
  0
VERTEX
  8
1
 42
0.0
 10
1.9000008E+001
 20
1.045E+002
 70
0
  0
SEQEND
  0
POLYLINE
  8
1
  6
CONTINUOUS
 62
6
 66
1
 40
1.0E-003
 41
1.0E-003
 70
0
  0
VERTEX
  8
1
 42
0.0
 10
1.9000008E+001
 20
1.335E+002
 70
0
  0
VERTEX
  8
1
 42
0.0
 10
1.4500008E+001
 20
1.335E+002
 70
0
  0
SEQEND
  0
POLYLINE
  8
1
  6
CONTINUOUS
 62
6
 66
1
 40
1.0E-003
 41
1.0E-003
 70
0
  0
VERTEX
  8
1
 42
0.0
 10
1.9000008E+001
 20
1.435E+002
 70
0
  0
VERTEX
  8
1
 42
0.0
 10
1.4500008E+001
 20
1.435E+002
 70
0
  0
SEQEND
  0
POLYLINE
  8
1
  6
CONTINUOUS
 62
6
 66
1
 40
1.0E-003
 41
1.0E-003
 70
0
  0
VERTEX
  8
1
 42
0.0
 10
1.9000008E+001
 20
1.5350002E+002
 70
0
  0
VERTEX
  8
1
 42
0.0
 10
1.4500008E+001
 20
1.5350002E+002
 70
0
  0
SEQEND
  0
POLYLINE
  8
1
  6
CONTINUOUS
 62
6
 66
1
 40
1.0E-003
 41
1.0E-003
 70
0
  0
VERTEX
  8
1
 42
0.0
 10
1.9000008E+001
 20
1.6350002E+002
 70
0
  0
VERTEX
  8
1
 42
0.0
 10
1.4500008E+001
 20
1.6350002E+002
 70
0
  0
SEQEND
  0
POLYLINE
  8
1
  6
CONTINUOUS
 62
6
 66
1
 40
1.0E-003
 41
1.0E-003
 70
0
  0
VERTEX
  8
1
 42
0.0
 10
1.9000008E+001
 20
1.7350002E+002
 70
0
  0
VERTEX
  8
1
 42
0.0
 10
1.4500008E+001
 20
1.7350002E+002
 70
0
  0
SEQEND
  0
POLYLINE
  8
1
  6
CONTINUOUS
 62
6
 66
1
 40
1.0E-003
 41
1.0E-003
 70
0
  0
VERTEX
  8
1
 42
0.0
 10
1.9000008E+001
 20
1.285E+002
 70
0
  0
VERTEX
  8
1
 42
0.0
 10
1.7000008E+001
 20
1.285E+002
 70
0
  0
SEQEND
  0
POLYLINE
  8
1
  6
CONTINUOUS
 62
6
 66
1
 40
1.0E-003
 41
1.0E-003
 70
0
  0
VERTEX
  8
1
 42
0.0
 10
1.9000008E+001
 20
1.385E+002
 70
0
  0
VERTEX
  8
1
 42
0.0
 10
1.7000008E+001
 20
1.385E+002
 70
0
  0
SEQEND
  0
POLYLINE
  8
1
  6
CONTINUOUS
 62
6
 66
1
 40
1.0E-003
 41
1.0E-003
 70
0
  0
VERTEX
  8
1
 42
0.0
 10
1.9000008E+001
 20
1.4850002E+002
 70
0
  0
VERTEX
  8
1
 42
0.0
 10
1.2345772E+001
 20
1.4850002E+002
 70
0
  0
SEQEND
  0
POLYLINE
  8
1
  6
CONTINUOUS
 62
6
 66
1
 40
1.0E-003
 41
1.0E-003
 70
0
  0
VERTEX
  8
1
 42
0.0
 10
1.9000008E+001
 20
1.5850002E+002
 70
0
  0
VERTEX
  8
1
 42
0.0
 10
1.7000008E+001
 20
1.5850002E+002
 70
0
  0
SEQEND
  0
POLYLINE
  8
1
  6
CONTINUOUS
 62
6
 66
1
 40
1.0E-003
 41
1.0E-003
 70
0
  0
VERTEX
  8
1
 42
0.0
 10
1.9000008E+001
 20
1.6850002E+002
 70
0
  0
VERTEX
  8
1
 42
0.0
 10
1.7000008E+001
 20
1.6850002E+002
 70
0
  0
SEQEND
  0
POLYLINE
  8
1
  6
CONTINUOUS
 62
6
 66
1
 40
1.0E-003
 41
1.0E-003
 70
0
  0
VERTEX
  8
1
 42
0.0
 10
1.7568611E+001
 20
1.235E+002
 70
0
  0
VERTEX
  8
1
 42
0.0
 10
1.9000008E+001
 20
1.235E+002
 70
0
  0
SEQEND
  0
POLYLINE
  8
1
  6
CONTINUOUS
 62
6
 66
1
 40
1.0E-003
 41
1.0E-003
 70
0
  0
VERTEX
  8
1
 42
0.0
 10
1.9000008E+001
 20
1.235E+002
 70
0
  0
VERTEX
  8
1
 42
0.0
 10
1.5000008E+001
 20
1.235E+002
 70
0
  0
SEQEND
  0
POLYLINE
  8
1
  6
CONTINUOUS
 62
6
 66
1
 40
1.0E-003
 41
1.0E-003
 70
0
  0
VERTEX
  8
1
 42
0.0
 10
1.9000008E+001
 20
1.235E+002
 70
0
  0
VERTEX
  8
1
 42
0.0
 10
1.4500008E+001
 20
1.235E+002
 70
0
  0
SEQEND
  0
POLYLINE
  8
1
  6
CONTINUOUS
 62
3
 66
1
 40
1.0E-003
 41
1.0E-003
 70
0
  0
VERTEX
  8
1
 42
0.0
 10
1.6487923E+001
 20
2.0867195E+002
 70
0
  0
VERTEX
  8
1
 42
0.0
 10
1.3487923E+001
 20
2.0867195E+002
 70
0
  0
SEQEND
  0
POLYLINE
  8
1
  6
CONTINUOUS
 62
3
 66
1
 40
1.0E-003
 41
1.0E-003
 70
0
  0
VERTEX
  8
1
 42
0.0
 10
1.3487923E+001
 20
2.2806367E+002
 70
0
  0
VERTEX
  8
1
 42
0.0
 10
1.6487923E+001
 20
2.2806367E+002
 70
0
  0
SEQEND
  0
POLYLINE
  8
1
  6
CONTINUOUS
 62
3
 66
1
 40
1.0E-003
 41
1.0E-003
 70
0
  0
VERTEX
  8
1
 42
0.0
 10
1.3487923E+001
 20
2.3106367E+002
 70
0
  0
VERTEX
  8
1
 42
0.0
 10
1.6487923E+001
 20
2.3106367E+002
 70
0
  0
SEQEND
  0
POLYLINE
  8
1
  6
CONTINUOUS
 62
3
 66
1
 40
1.0E-003
 41
1.0E-003
 70
0
  0
VERTEX
  8
1
 42
0.0
 10
1.6487923E+001
 20
2.1167192E+002
 70
0
  0
VERTEX
  8
1
 42
0.0
 10
1.3487923E+001
 20
2.1167192E+002
 70
0
  0
SEQEND
  0
POLYLINE
  8
1
  6
CONTINUOUS
 62
3
 66
1
 40
1.0E-003
 41
1.0E-003
 70
0
  0
VERTEX
  8
1
 42
0.0
 10
1.3487923E+001
 20
2.2806367E+002
 70
0
  0
VERTEX
  8
1
 42
0.0
 10
1.3487923E+001
 20
2.3106367E+002
 70
0
  0
SEQEND
  0
POLYLINE
  8
1
  6
CONTINUOUS
 62
3
 66
1
 40
1.0E-003
 41
1.0E-003
 70
0
  0
VERTEX
  8
1
 42
0.0
 10
1.3487923E+001
 20
2.0867195E+002
 70
0
  0
VERTEX
  8
1
 42
0.0
 10
1.3487923E+001
 20
2.1167192E+002
 70
0
  0
SEQEND
  0
POLYLINE
  8
1
  6
CONTINUOUS
 62
3
 66
1
 40
1.0E-003
 41
1.0E-003
 70
0
  0
VERTEX
  8
1
 42
0.0
 10
1.6487923E+001
 20
2.2806367E+002
 70
0
  0
VERTEX
  8
1
 42
0.0
 10
1.6487923E+001
 20
2.3106367E+002
 70
0
  0
SEQEND
  0
POLYLINE
  8
1
  6
CONTINUOUS
 62
4
 66
1
 40
1.0E-003
 41
1.0E-003
 70
0
  0
VERTEX
  8
1
 42
0.0
 10
2.1E+002
 20
0.0
 70
0
  0
VERTEX
  8
1
 42
0.0
 10
2.1E+002
 20
2.9700003E+002
 70
0
  0
SEQEND
  0
POLYLINE
  8
1
  6
CONTINUOUS
 62
6
 66
1
 40
7.0E-001
 41
7.0E-001
 70
0
  0
VERTEX
  8
1
 42
0.0
 10
2.05E+002
 20
2.9150003E+002
 70
0
  0
VERTEX
  8
1
 42
0.0
 10
2.05E+002
 20
5.5
 70
0
  0
SEQEND
  0
POLYLINE
  8
1
  6
CONTINUOUS
 62
6
 66
1
 40
7.0E-001
 41
7.0E-001
 70
0
  0
VERTEX
  8
1
 42
0.0
 10
1.9000008E+001
 20
2.9150003E+002
 70
0
  0
VERTEX
  8
1
 42
0.0
 10
2.05E+002
 20
2.9150003E+002
 70
0
  0
SEQEND
  0
LINE
  8
1
  6
CONTINUOUS
 62
6
 10
3.0000008E+001
 20
2.6550003E+002
 11
2.05E+002
 21
2.6550003E+002
  0
POLYLINE
  8
1
  6
CONTINUOUS
 62
6
 66
1
 40
7.0E-001
 41
7.0E-001
 70
0
  0
VERTEX
  8
1
 42
0.0
 10
2.05E+002
 20
2.7800003E+002
 70
0
  0
VERTEX
  8
1
 42
0.0
 10
3.0000008E+001
 20
2.7800003E+002
 70
0
  0
SEQEND
  0
POLYLINE
  8
1
  6
CONTINUOUS
 62
6
 66
1
 40
7.0E-001
 41
7.0E-001
 70
0
  0
VERTEX
  8
1
 42
0.0
 10
3.0000008E+001
 20
2.9150003E+002
 70
0
  0
VERTEX
  8
1
 42
0.0
 10
3.0000008E+001
 20
2.6550003E+002
 70
0
  0
SEQEND
  0
POLYLINE
  8
1
  6
CONTINUOUS
 62
6
 66
1
 40
5.0E-001
 41
5.0E-001
 70
0
  0
VERTEX
  8
1
 42
0.0
 10
3.7000008E+001
 20
2.9150003E+002
 70
0
  0
VERTEX
  8
1
 42
0.0
 10
3.7000008E+001
 20
2.6550003E+002
 70
0
  0
SEQEND
  0
LINE
  8
1
  6
CONTINUOUS
 62
6
 10
4.2000008E+001
 20
2.9150003E+002
 11
4.2000008E+001
 21
2.6550003E+002
  0
POLYLINE
  8
1
  6
CONTINUOUS
 62
6
 66
1
 40
7.0E-001
 41
7.0E-001
 70
0
  0
VERTEX
  8
1
 42
0.0
 10
5.4000008E+001
 20
2.9150003E+002
 70
0
  0
VERTEX
  8
1
 42
0.0
 10
5.4000008E+001
 20
2.6550003E+002
 70
0
  0
SEQEND
  0
POLYLINE
  8
1
  6
CONTINUOUS
 62
6
 66
1
 40
5.0E-001
 41
5.0E-001
 70
0
  0
VERTEX
  8
1
 42
0.0
 10
1.2000001E+002
 20
2.9150003E+002
 70
0
  0
VERTEX
  8
1
 42
0.0
 10
1.2000001E+002
 20
2.6550003E+002
 70
0
  0
SEQEND
  0
POLYLINE
  8
1
  6
CONTINUOUS
 62
6
 66
1
 40
5.0E-001
 41
5.0E-001
 70
0
  0
VERTEX
  8
1
 42
0.0
 10
1.61E+002
 20
2.9150003E+002
 70
0
  0
VERTEX
  8
1
 42
0.0
 10
1.61E+002
 20
2.6550003E+002
 70
0
  0
SEQEND
  0
POLYLINE
  8
1
  6
CONTINUOUS
 62
6
 66
1
 40
5.0E-001
 41
5.0E-001
 70
0
  0
VERTEX
  8
1
 42
0.0
 10
1.66E+002
 20
2.9150003E+002
 70
0
  0
VERTEX
  8
1
 42
0.0
 10
1.66E+002
 20
2.6550003E+002
 70
0
  0
SEQEND
  0
POLYLINE
  8
1
  6
CONTINUOUS
 62
6
 66
1
 40
5.0E-001
 41
5.0E-001
 70
0
  0
VERTEX
  8
1
 42
0.0
 10
1.76E+002
 20
2.9150003E+002
 70
0
  0
VERTEX
  8
1
 42
0.0
 10
1.76E+002
 20
2.6550003E+002
 70
0
  0
SEQEND
  0
POLYLINE
  8
1
  6
CONTINUOUS
 62
6
 66
1
 40
5.0E-001
 41
5.0E-001
 70
0
  0
VERTEX
  8
1
 42
0.0
 10
1.92E+002
 20
2.9150003E+002
 70
0
  0
VERTEX
  8
1
 42
0.0
 10
1.92E+002
 20
2.6550003E+002
 70
0
  0
SEQEND
  0
LINE
  8
1
  6
CONTINUOUS
 62
6
 10
3.0000008E+001
 20
2.7175003E+002
 11
2.05E+002
 21
2.7175003E+002
  0
POLYLINE
  8
1
  6
CONTINUOUS
 62
6
 66
1
 40
5.0E-001
 41
5.0E-001
 70
0
  0
VERTEX
  8
1
 42
0.0
 10
1.66E+002
 20
2.8475003E+002
 70
0
  0
VERTEX
  8
1
 42
0.0
 10
1.92E+002
 20
2.8475003E+002
 70
0
  0
SEQEND
  0
POLYLINE
  8
1
  6
CONTINUOUS
 62
4
 66
1
 40
1.0E-003
 41
1.0E-003
 70
0
  0
VERTEX
  8
1
 42
0.0
 10
0.0
 20
2.9700003E+002
 70
0
  0
VERTEX
  8
1
 42
0.0
 10
2.1E+002
 20
2.9700003E+002
 70
0
  0
SEQEND
  0
POLYLINE
  8
1
  6
CONTINUOUS
 62
6
 66
1
 40
1.0E-003
 41
1.0E-003
 70
0
  0
VERTEX
  8
1
 42
0.0
 10
2.05E+002
 20
2.5925003E+002
 70
0
  0
VERTEX
  8
1
 42
0.0
 10
2.0E+002
 20
2.5925003E+002
 70
0
  0
SEQEND
  0
POLYLINE
  8
1
  6
CONTINUOUS
 62
6
 66
1
 40
1.0E-003
 41
1.0E-003
 70
0
  0
VERTEX
  8
1
 42
0.0
 10
2.05E+002
 20
2.53E+002
 70
0
  0
VERTEX
  8
1
 42
0.0
 10
2.0E+002
 20
2.53E+002
 70
0
  0
SEQEND
  0
POLYLINE
  8
1
  6
CONTINUOUS
 62
6
 66
1
 40
1.0E-003
 41
1.0E-003
 70
0
  0
VERTEX
  8
1
 42
0.0
 10
2.05E+002
 20
2.4674998E+002
 70
0
  0
VERTEX
  8
1
 42
0.0
 10
2.0E+002
 20
2.4674998E+002
 70
0
  0
SEQEND
  0
POLYLINE
  8
1
  6
CONTINUOUS
 62
6
 66
1
 40
1.0E-003
 41
1.0E-003
 70
0
  0
VERTEX
  8
1
 42
0.0
 10
2.05E+002
 20
2.4049998E+002
 70
0
  0
VERTEX
  8
1
 42
0.0
 10
2.0E+002
 20
2.4049998E+002
 70
0
  0
SEQEND
  0
POLYLINE
  8
1
  6
CONTINUOUS
 62
6
 66
1
 40
1.0E-003
 41
1.0E-003
 70
0
  0
VERTEX
  8
1
 42
0.0
 10
2.05E+002
 20
2.3424998E+002
 70
0
  0
VERTEX
  8
1
 42
0.0
 10
2.0E+002
 20
2.3424998E+002
 70
0
  0
SEQEND
  0
POLYLINE
  8
1
  6
CONTINUOUS
 62
6
 66
1
 40
1.0E-003
 41
1.0E-003
 70
0
  0
VERTEX
  8
1
 42
0.0
 10
2.05E+002
 20
2.2800002E+002
 70
0
  0
VERTEX
  8
1
 42
0.0
 10
2.0E+002
 20
2.2800002E+002
 70
0
  0
SEQEND
  0
POLYLINE
  8
1
  6
CONTINUOUS
 62
6
 66
1
 40
1.0E-003
 41
1.0E-003
 70
0
  0
VERTEX
  8
1
 42
0.0
 10
2.05E+002
 20
2.2175002E+002
 70
0
  0
VERTEX
  8
1
 42
0.0
 10
2.0E+002
 20
2.2175002E+002
 70
0
  0
SEQEND
  0
POLYLINE
  8
1
  6
CONTINUOUS
 62
6
 66
1
 40
1.0E-003
 41
1.0E-003
 70
0
  0
VERTEX
  8
1
 42
0.0
 10
2.05E+002
 20
2.1550002E+002
 70
0
  0
VERTEX
  8
1
 42
0.0
 10
2.0E+002
 20
2.1550002E+002
 70
0
  0
SEQEND
  0
POLYLINE
  8
1
  6
CONTINUOUS
 62
6
 66
1
 40
1.0E-003
 41
1.0E-003
 70
0
  0
VERTEX
  8
1
 42
0.0
 10
2.05E+002
 20
2.9150003E+002
 70
0
  0
VERTEX
  8
1
 42
0.0
 10
2.075E+002
 20
2.9150003E+002
 70
0
  0
SEQEND
  0
POLYLINE
  8
1
  6
CONTINUOUS
 62
6
 66
1
 40
1.0E-003
 41
1.0E-003
 70
0
  0
VERTEX
  8
1
 42
0.0
 10
2.05E+002
 20
2.3175002E+002
 70
0
  0
VERTEX
  8
1
 42
0.0
 10
2.075E+002
 20
2.3175002E+002
 70
0
  0
SEQEND
  0
POLYLINE
  8
1
  6
CONTINUOUS
 62
6
 66
1
 40
1.0E-003
 41
1.0E-003
 70
0
  0
VERTEX
  8
1
 42
0.0
 10
2.05E+002
 20
1.7200002E+002
 70
0
  0
VERTEX
  8
1
 42
0.0
 10
2.075E+002
 20
1.7200002E+002
 70
0
  0
SEQEND
  0
POLYLINE
  8
1
  6
CONTINUOUS
 62
6
 66
1
 40
1.0E-003
 41
1.0E-003
 70
0
  0
VERTEX
  8
1
 42
0.0
 10
2.05E+002
 20
1.1225E+002
 70
0
  0
VERTEX
  8
1
 42
0.0
 10
2.075E+002
 20
1.1225E+002
 70
0
  0
SEQEND
  0
POLYLINE
  8
1
  6
CONTINUOUS
 62
6
 66
1
 40
1.0E-003
 41
1.0E-003
 70
0
  0
VERTEX
  8
1
 42
0.0
 10
2.05E+002
 20
2.9150003E+002
 70
0
  0
VERTEX
  8
1
 42
0.0
 10
2.05E+002
 20
2.9400003E+002
 70
0
  0
SEQEND
  0
POLYLINE
  8
1
  6
CONTINUOUS
 62
6
 66
1
 40
1.0E-003
 41
1.0E-003
 70
0
  0
VERTEX
  8
1
 42
0.0
 10
1.585E+002
 20
2.9150003E+002
 70
0
  0
VERTEX
  8
1
 42
0.0
 10
1.585E+002
 20
2.9400003E+002
 70
0
  0
SEQEND
  0
POLYLINE
  8
1
  6
CONTINUOUS
 62
6
 66
1
 40
1.0E-003
 41
1.0E-003
 70
0
  0
VERTEX
  8
1
 42
0.0
 10
1.1200001E+002
 20
2.9150003E+002
 70
0
  0
VERTEX
  8
1
 42
0.0
 10
1.1200001E+002
 20
2.9400003E+002
 70
0
  0
SEQEND
  0
POLYLINE
  8
1
  6
CONTINUOUS
 62
6
 66
1
 40
1.0E-003
 41
1.0E-003
 70
0
  0
VERTEX
  8
1
 42
0.0
 10
1.9000008E+001
 20
2.9150003E+002
 70
0
  0
VERTEX
  8
1
 42
0.0
 10
1.9000008E+001
 20
2.9400003E+002
 70
0
  0
SEQEND
  0
POLYLINE
  8
1
  6
CONTINUOUS
 62
6
 66
1
 40
1.0E-003
 41
1.0E-003
 70
0
  0
VERTEX
  8
1
 42
0.0
 10
6.5500008E+001
 20
2.9150003E+002
 70
0
  0
VERTEX
  8
1
 42
0.0
 10
6.5500008E+001
 20
2.9400003E+002
 70
0
  0
SEQEND
  0
POLYLINE
  8
1
  6
CONTINUOUS
 62
6
 66
1
 40
7.0E-001
 41
7.0E-001
 70
0
  0
VERTEX
  8
1
 42
0.0
 10
1.0650001E+002
 20
5.5
 70
0
  0
VERTEX
  8
1
 42
0.0
 10
1.0650001E+002
 20
1.5
 70
0
  0
SEQEND
  0
POLYLINE
  8
1
  6
CONTINUOUS
 62
6
 66
1
 40
7.0E-001
 41
7.0E-001
 70
0
  0
VERTEX
  8
1
 42
0.0
 10
1.0350001E+002
 20
5.5
 70
0
  0
VERTEX
  8
1
 42
0.0
 10
1.0350001E+002
 20
1.5
 70
0
  0
SEQEND
  0
POLYLINE
  8
1
  6
CONTINUOUS
 62
6
 66
1
 40
7.0E-001
 41
7.0E-001
 70
0
  0
VERTEX
  8
1
 42
0.0
 10
1.0650001E+002
 20
2.9150003E+002
 70
0
  0
VERTEX
  8
1
 42
0.0
 10
1.0650001E+002
 20
2.9550003E+002
 70
0
  0
SEQEND
  0
POLYLINE
  8
1
  6
CONTINUOUS
 62
6
 66
1
 40
7.0E-001
 41
7.0E-001
 70
0
  0
VERTEX
  8
1
 42
0.0
 10
1.0350001E+002
 20
2.9150003E+002
 70
0
  0
VERTEX
  8
1
 42
0.0
 10
1.0350001E+002
 20
2.9550003E+002
 70
0
  0
SEQEND
  0
POLYLINE
  8
1
  6
CONTINUOUS
 62
6
 66
1
 40
1.0E-003
 41
1.0E-003
 70
0
  0
VERTEX
  8
1
 42
0.0
 10
2.05E+002
 20
5.25E+001
 70
0
  0
VERTEX
  8
1
 42
0.0
 10
2.075E+002
 20
5.25E+001
 70
0
  0
SEQEND
  0
POLYLINE
  8
1
  6
CONTINUOUS
 62
6
 66
1
 40
7.0E-001
 41
7.0E-001
 70
0
  0
VERTEX
  8
1
 42
0.0
 10
1.9000008E+001
 20
5.5
 70
0
  0
VERTEX
  8
1
 42
0.0
 10
5.0
 20
5.5
 70
0
  0
SEQEND
  0
POLYLINE
  8
1
  6
CONTINUOUS
 62
4
 66
1
 40
1.0E-003
 41
1.0E-003
 70
0
  0
VERTEX
  8
1
 42
0.0
 10
0.0
 20
0.0
 70
0
  0
VERTEX
  8
1
 42
0.0
 10
2.1E+002
 20
0.0
 70
0
  0
SEQEND
  0
POLYLINE
  8
1
  6
CONTINUOUS
 62
3
 66
1
 40
1.0E-003
 41
1.0E-003
 70
0
  0
VERTEX
  8
1
 42
0.0
 10
1.6487923E+001
 20
2.1167192E+002
 70
0
  0
VERTEX
  8
1
 42
0.0
 10
1.6487923E+001
 20
2.0867195E+002
 70
0
  0
SEQEND
  0
POLYLINE
  8
1
  6
CONTINUOUS
 62
3
 66
1
 40
1.0E-003
 41
1.0E-003
 70
0
  0
VERTEX
  8
1
 42
0.0
 10
1.6487923E+001
 20
2.1167192E+002
 70
0
  0
VERTEX
  8
1
 42
0.0
 10
1.6487923E+001
 20
2.0867195E+002
 70
0
  0
SEQEND
  0
TEXT
  8
1
  6
CONTINUOUS
 62
3
 10
2.065E+002
 20
2.6162503E+002
 40
2.0
  1
A
  0
TEXT
  8
1
  6
CONTINUOUS
 62
3
 10
2.065E+002
 20
2.0187502E+002
 40
2.0
  1
B
  0
TEXT
  8
1
  6
CONTINUOUS
 62
3
 10
2.065E+002
 20
1.42125E+002
 40
2.0
  1
C
  0
TEXT
  8
1
  6
CONTINUOUS
 62
3
 10
2.065E+002
 20
8.2375E+001
 40
2.0
  1
D
  0
TEXT
  8
1
  6
CONTINUOUS
 62
3
 10
1.6509621E+001
 20
2.1872429E+002
 40
2.0
  1
"grob"
 41
6.5E-001
 50
9.0000003E+001
  0
TEXT
  8
1
  6
CONTINUOUS
 62
3
 10
1.6487923E+001
 20
1.9736339E+002
 40
2.0
  1
"mittel"
 41
6.5E-001
 50
9.0000003E+001
  0
TEXT
  8
1
  6
CONTINUOUS
 62
3
 10
5.8622437
 20
1.9528923E+002
 40
2.0
  1
Allgemeintoleranzen nach
 41
8.0E-001
 50
9.0000003E+001
  0
TEXT
  8
1
  6
CONTINUOUS
 62
3
 10
5.8622437
 20
1.2295421E+002
 40
2.0
  1
Rauheits-Symbole nach GZN 020007
 41
8.0E-001
 50
9.0000003E+001
  0
TEXT
  8
1
  6
CONTINUOUS
 62
3
 10
9.8622437
 20
1.2295421E+002
 40
2.0
  1
    entsprechend DIN ISO 1302
 41
8.0E-001
 50
9.0000003E+001
  0
TEXT
  8
1
  6
CONTINUOUS
 62
6
 10
1.306617E+001
 20
1.2349451E+002
 40
2.0
  1
0
 41
5.25E-001
 50
9.0000003E+001
  0
TEXT
  8
1
  6
CONTINUOUS
 62
6
 10
1.306617E+001
 20
1.7212105E+002
 40
2.0
  1
50
 41
6.75E-001
 50
9.0000003E+001
  0
POLYLINE
  8
1
  6
CONTINUOUS
 62
4
 66
1
 40
1.0E-003
 41
1.0E-003
 70
0
  0
VERTEX
  8
1
 42
0.0
 10
0.0
 20
2.9700003E+002
 70
0
  0
VERTEX
  8
1
 42
0.0
 10
0.0
 20
0.0
 70
0
  0
SEQEND
  0
POLYLINE
  8
1
  6
CONTINUOUS
 62
4
 66
1
 40
1.0E-003
 41
1.0E-003
 70
0
  0
VERTEX
  8
1
 42
0.0
 10
0.0
 20
0.0
 70
0
  0
VERTEX
  8
1
 42
0.0
 10
0.0
 20
2.9700003E+002
 70
0
  0
SEQEND
  0
TEXT
  8
1
  6
CONTINUOUS
 62
3
 10
1.7001917E+002
 20
2.8040002E+002
 40
2.0
  1
I
 41
3.17E-001
  0
TEXT
  8
1
  6
CONTINUOUS
 62
3
 10
4.2250008E+001
 20
2.9300003E+002
 40
2.0
  1
1
  0
TEXT
  8
1
  6
CONTINUOUS
 62
3
 10
8.8750008E+001
 20
2.9300003E+002
 40
2.0
  1
2
  0
TEXT
  8
1
  6
CONTINUOUS
 62
3
 10
1.3525E+002
 20
2.9300003E+002
 40
2.0
  1
3
  0
TEXT
  8
1
  6
CONTINUOUS
 62
3
 10
1.8175E+002
 20
2.9300003E+002
 40
2.0
  1
4
  0
TEXT
  8
1
  6
CONTINUOUS
 62
3
 10
3.0841621E+001
 20
2.8556284E+002
 40
2.0
  1
Ein-
 41
7.925E-001
  0
TEXT
  8
1
  6
CONTINUOUS
 62
3
 10
3.0841621E+001
 20
2.8256284E+002
 40
2.0
  1
heit
 41
7.925E-001
  0
TEXT
  8
1
  6
CONTINUOUS
 62
3
 10
3.8324684E+001
 20
2.8350003E+002
 40
2.0
  1
ZC
 41
7.925E-001
  0
TEXT
  8
1
  6
CONTINUOUS
 62
3
 10
1.6235593E+002
 20
2.8350003E+002
 40
2.0
  1
EC
 41
7.925E-001
  0
TEXT
  8
1
  6
CONTINUOUS
 62
3
 10
1.6759302E+002
 20
2.8716838E+002
 40
2.0
  1
Aend.
 41
8.0E-001
  0
TEXT
  8
1
  6
CONTINUOUS
 62
3
 10
1.7796625E+002
 20
2.8715002E+002
 40
2.0
  1
Masse/E
 41
7.925E-001
  0
TEXT
  8
1
  6
CONTINUOUS
 62
3
 10
1.2262052E+002
 20
2.8350003E+002
 40
2.0
  1
Ident-Nummer
 41
7.925E-001
  0
TEXT
  8
1
  6
CONTINUOUS
 62
3
 10
5.6489449E+001
 20
2.8350003E+002
 40
2.0
  1
Text
 41
7.925E-001
  0
TEXT
  8
1
  6
CONTINUOUS
 62
3
 10
4.343354E+001
 20
2.8350003E+002
 40
2.0
  1
Pos.-Nr.
 41
6.0E-001
  0
TEXT
  8
1
  6
CONTINUOUS
 62
3
 10
1.8364273E+002
 20
2.8040002E+002
 40
2.0
  1
II
 41
7.5E-001
  0
TEXT
  8
1
  6
CONTINUOUS
 62
3
 10
1.9726633E+002
 20
2.8350003E+002
 40
2.0
  1
III
 41
7.5E-001
  0
TEXT
  8
1
  6
CONTINUOUS
 62
3
 10
8.58746
 20
8.773347
 40
1.7
  1
Fuer diese Unterlage behalten wir uns alle Rechte, auch fuer den Fall der Patent-
 41
6.8E-001
 50
9.0000003E+001
  0
TEXT
  8
1
  6
CONTINUOUS
 62
3
 10
1.1408791E+001
 20
8.3925096
 40
1.7
  1
erteilung und der Eintragung eines anderen gewerblichen Schutzrechtes, vor.
 41
6.8E-001
 50
9.0000003E+001
  0
TEXT
  8
1
  6
CONTINUOUS
 62
3
 10
1.4298791E+001
 20
8.3925096
 40
1.7
  1
Missbraeuchliche Verwendung, wie insbesondere Vervielfaeltigung und Weitergabe an
 41
6.8E-001
 50
9.0000003E+001
  0
TEXT
  8
1
  6
CONTINUOUS
 62
3
 10
1.7188792E+001
 20
8.3925096
 40
1.7
  1
Dritte ist nicht gestattet: sie kann zivil- und strafrechtlich geahndet werden.
 41
6.8E-001
 50
9.0000003E+001
  0
TEXT
  8
1
  6
CONTINUOUS
 62
3
 10
1.0199852E+001
 20
2.0239064E+002
 40
2.0
  1
ISO 2768
 41
8.0E-001
 50
9.0000003E+001
  0
POLYLINE
  8
1
  6
CONTINUOUS
 62
6
 66
1
 40
7.0E-001
 41
7.0E-001
 70
0
  0
VERTEX
  8
1
 42
0.0
 10
1.8999985E+001
 20
3.1E+001
 70
0
  0
VERTEX
  8
1
 42
0.0
 10
2.05E+002
 20
3.1E+001
 70
0
  0
SEQEND
  0
POLYLINE
  8
1
  6
CONTINUOUS
 62
6
 66
1
 40
7.0E-001
 41
7.0E-001
 70
0
  0
VERTEX
  8
1
 42
0.0
 10
1.8999985E+001
 20
1.4E+001
 70
0
  0
VERTEX
  8
1
 42
0.0
 10
5.85E+001
 20
1.4E+001
 70
0
  0
SEQEND
  0
LINE
  8
1
  6
CONTINUOUS
 62
6
 10
2.4499985E+001
 20
3.1E+001
 11
2.4499985E+001
 21
1.4E+001
  0
TEXT
  8
1
  6
CONTINUOUS
 62
3
 10
2.2718704E+001
 20
1.9207314E+001
 40
2.0
  1
Aend.
 41
5.0E-001
 50
9.0000003E+001
  0
LINE
  8
1
  6
CONTINUOUS
 62
6
 10
2.4499985E+001
 20
2.675E+001
 11
5.85E+001
 21
2.675E+001
  0
POLYLINE
  8
1
  6
CONTINUOUS
 62
6
 66
1
 40
5.0E-001
 41
5.0E-001
 70
0
  0
VERTEX
  8
1
 42
0.0
 10
1.465E+002
 20
2.675E+001
 70
0
  0
VERTEX
  8
1
 42
0.0
 10
2.05E+002
 20
2.675E+001
 70
0
  0
SEQEND
  0
POLYLINE
  8
1
  6
CONTINUOUS
 62
1
 66
1
 40
1.0E-003
 41
1.0E-003
 70
0
  0
VERTEX
  8
1
 42
0.0
 10
1.75E+002
 20
3.1E+001
 70
0
  0
VERTEX
  8
1
 42
0.0
 10
1.75E+002
 20
2.25E+001
 70
0
  0
SEQEND
  0
POLYLINE
  8
1
  6
CONTINUOUS
 62
6
 66
1
 40
7.0E-001
 41
7.0E-001
 70
0
  0
VERTEX
  8
1
 42
0.0
 10
1.465E+002
 20
3.1E+001
 70
0
  0
VERTEX
  8
1
 42
0.0
 10
1.465E+002
 20
5.5
 70
0
  0
SEQEND
  0
POLYLINE
  8
1
  6
CONTINUOUS
 62
6
 66
1
 40
7.0E-001
 41
7.0E-001
 70
0
  0
VERTEX
  8
1
 42
0.0
 10
1.35E+002
 20
3.0795013E+001
 70
0
  0
VERTEX
  8
1
 42
0.0
 10
1.35E+002
 20
1.4E+001
 70
0
  0
SEQEND
  0
POLYLINE
  8
1
  6
CONTINUOUS
 62
6
 66
1
 40
7.0E-001
 41
7.0E-001
 70
0
  0
VERTEX
  8
1
 42
0.0
 10
9.75E+001
 20
3.1E+001
 70
0
  0
VERTEX
  8
1
 42
0.0
 10
9.75E+001
 20
1.4E+001
 70
0
  0
SEQEND
  0
POLYLINE
  8
1
  6
CONTINUOUS
 62
6
 66
1
 40
7.0E-001
 41
7.0E-001
 70
0
  0
VERTEX
  8
1
 42
0.0
 10
5.85E+001
 20
3.1E+001
 70
0
  0
VERTEX
  8
1
 42
0.0
 10
5.85E+001
 20
1.4E+001
 70
0
  0
SEQEND
  0
POLYLINE
  8
1
  6
CONTINUOUS
 62
6
 66
1
 40
5.0E-001
 41
5.0E-001
 70
0
  0
VERTEX
  8
1
 42
0.0
 10
5.85E+001
 20
2.25E+001
 70
0
  0
VERTEX
  8
1
 42
0.0
 10
1.35E+002
 20
2.25E+001
 70
0
  0
SEQEND
  0
POLYLINE
  8
1
  6
CONTINUOUS
 62
6
 66
1
 40
5.0E-001
 41
5.0E-001
 70
0
  0
VERTEX
  8
1
 42
0.0
 10
5.85E+001
 20
1.825E+001
 70
0
  0
VERTEX
  8
1
 42
0.0
 10
1.35E+002
 20
1.825E+001
 70
0
  0
SEQEND
  0
POLYLINE
  8
1
  6
CONTINUOUS
 62
6
 66
1
 40
7.0E-001
 41
7.0E-001
 70
0
  0
VERTEX
  8
1
 42
0.0
 10
5.85E+001
 20
1.4E+001
 70
0
  0
VERTEX
  8
1
 42
0.0
 10
2.05E+002
 20
1.4E+001
 70
0
  0
SEQEND
  0
POLYLINE
  8
1
  6
CONTINUOUS
 62
6
 66
1
 40
7.0E-001
 41
7.0E-001
 70
0
  0
VERTEX
  8
1
 42
0.0
 10
1.35E+002
 20
2.25E+001
 70
0
  0
VERTEX
  8
1
 42
0.0
 10
2.05E+002
 20
2.25E+001
 70
0
  0
SEQEND
  0
POLYLINE
  8
1
  6
CONTINUOUS
 62
6
 66
1
 40
7.0E-001
 41
7.0E-001
 70
0
  0
VERTEX
  8
1
 42
0.0
 10
1.58E+002
 20
2.25E+001
 70
0
  0
VERTEX
  8
1
 42
0.0
 10
1.58E+002
 20
1.4E+001
 70
0
  0
SEQEND
  0
POLYLINE
  8
1
  6
CONTINUOUS
 62
110
 66
1
 40
7.0E-001
 41
7.0E-001
 70
0
  0
VERTEX
  8
1
 42
0.0
 10
1.68E+002
 20
2.25E+001
 70
0
  0
VERTEX
  8
1
 42
0.0
 10
1.68E+002
 20
1.4E+001
 70
0
  0
SEQEND
  0
POLYLINE
  8
1
  6
CONTINUOUS
 62
110
 66
1
 40
7.0E-001
 41
7.0E-001
 70
0
  0
VERTEX
  8
1
 42
0.0
 10
1.795E+002
 20
2.25E+001
 70
0
  0
VERTEX
  8
1
 42
0.0
 10
1.795E+002
 20
1.4E+001
 70
0
  0
SEQEND
  0
POLYLINE
  8
1
  6
CONTINUOUS
 62
110
 66
1
 40
7.0E-001
 41
7.0E-001
 70
0
  0
VERTEX
  8
1
 42
0.0
 10
1.915E+002
 20
2.25E+001
 70
0
  0
VERTEX
  8
1
 42
0.0
 10
1.915E+002
 20
1.4E+001
 70
0
  0
SEQEND
  0
LINE
  8
1
  6
HIDDEN
 62
6
 10
1.465E+002
 20
7.0
 11
2.05E+002
 21
7.0
  0
LINE
  8
1
  6
CONTINUOUS
 62
6
 10
2.4499985E+001
 20
2.25E+001
 11
5.85E+001
 21
2.25E+001
  0
LINE
  8
1
  6
CONTINUOUS
 62
6
 10
2.4499985E+001
 20
1.825E+001
 11
5.85E+001
 21
1.825E+001
  0
POLYLINE
  8
1
  6
CONTINUOUS
 62
6
 66
1
 40
5.0E-001
 41
5.0E-001
 70
0
  0
VERTEX
  8
1
 42
0.0
 10
5.85E+001
 20
2.675E+001
 70
0
  0
VERTEX
  8
1
 42
0.0
 10
1.35E+002
 20
2.675E+001
 70
0
  0
SEQEND
  0
POLYLINE
  8
1
  6
CONTINUOUS
 62
6
 66
1
 40
7.0E-001
 41
7.0E-001
 70
0
  0
VERTEX
  8
1
 42
0.0
 10
3.3999985E+001
 20
1.4E+001
 70
0
  0
VERTEX
  8
1
 42
0.0
 10
3.3999985E+001
 20
5.5
 70
0
  0
SEQEND
  0
POLYLINE
  8
1
  6
HIDDEN
 62
3
 66
1
 40
1.0E-003
 41
1.0E-003
 70
0
  0
VERTEX
  8
1
 42
0.0
 10
1.5225E+002
 20
1.825E+001
 70
0
  0
VERTEX
  8
1
 42
0.0
 10
1.5225E+002
 20
1.4E+001
 70
0
  0
SEQEND
  0
POLYLINE
  8
1
  6
HIDDEN
 62
3
 66
1
 40
1.0E-003
 41
1.0E-003
 70
0
  0
VERTEX
  8
1
 42
0.0
 10
1.63E+002
 20
1.825E+001
 70
0
  0
VERTEX
  8
1
 42
0.0
 10
1.63E+002
 20
1.4E+001
 70
0
  0
SEQEND
  0
POLYLINE
  8
1
  6
CONTINUOUS
 62
3
 66
1
 40
1.0E-003
 41
1.0E-003
 70
0
  0
VERTEX
  8
1
 42
0.0
 10
1.7079001E+002
 20
2.7410446E+001
 70
0
  0
VERTEX
  8
1
 42
0.0
 10
1.7079001E+002
 20
3.0034676E+001
 70
0
  0
SEQEND
  0
POLYLINE
  8
1
  6
CONTINUOUS
 62
3
 66
1
 40
1.0E-003
 41
1.0E-003
 70
0
  0
VERTEX
  8
1
 42
0.0
 10
1.7079001E+002
 20
3.0034676E+001
 70
0
  0
VERTEX
  8
1
 42
0.0
 10
1.7397659E+002
 20
3.0034676E+001
 70
0
  0
SEQEND
  0
POLYLINE
  8
1
  6
CONTINUOUS
 62
3
 66
1
 40
1.0E-003
 41
1.0E-003
 70
0
  0
VERTEX
  8
1
 42
0.0
 10
1.7397659E+002
 20
3.0034676E+001
 70
0
  0
VERTEX
  8
1
 42
0.0
 10
1.7397659E+002
 20
2.7410446E+001
 70
0
  0
SEQEND
  0
POLYLINE
  8
1
  6
CONTINUOUS
 62
3
 66
1
 40
1.0E-003
 41
1.0E-003
 70
0
  0
VERTEX
  8
1
 42
0.0
 10
1.7397659E+002
 20
2.7410446E+001
 70
0
  0
VERTEX
  8
1
 42
0.0
 10
1.7079001E+002
 20
2.7410446E+001
 70
0
  0
SEQEND
  0
POLYLINE
  8
1
  6
CONTINUOUS
 62
3
 66
1
 40
1.0E-003
 41
1.0E-003
 70
0
  0
VERTEX
  8
1
 42
0.0
 10
2.0079001E+002
 20
2.7410446E+001
 70
0
  0
VERTEX
  8
1
 42
0.0
 10
2.0079001E+002
 20
3.0034676E+001
 70
0
  0
SEQEND
  0
POLYLINE
  8
1
  6
CONTINUOUS
 62
3
 66
1
 40
1.0E-003
 41
1.0E-003
 70
0
  0
VERTEX
  8
1
 42
0.0
 10
2.0079001E+002
 20
3.0034676E+001
 70
0
  0
VERTEX
  8
1
 42
0.0
 10
2.0397659E+002
 20
3.0034676E+001
 70
0
  0
SEQEND
  0
POLYLINE
  8
1
  6
CONTINUOUS
 62
3
 66
1
 40
1.0E-003
 41
1.0E-003
 70
0
  0
VERTEX
  8
1
 42
0.0
 10
2.0397659E+002
 20
3.0034676E+001
 70
0
  0
VERTEX
  8
1
 42
0.0
 10
2.0397659E+002
 20
2.7410446E+001
 70
0
  0
SEQEND
  0
POLYLINE
  8
1
  6
CONTINUOUS
 62
3
 66
1
 40
1.0E-003
 41
1.0E-003
 70
0
  0
VERTEX
  8
1
 42
0.0
 10
2.0397659E+002
 20
2.7410446E+001
 70
0
  0
VERTEX
  8
1
 42
0.0
 10
2.0079001E+002
 20
2.7410446E+001
 70
0
  0
SEQEND
  0
POLYLINE
  8
1
  6
CONTINUOUS
 62
3
 66
1
 40
1.0E-003
 41
1.0E-003
 70
0
  0
VERTEX
  8
1
 42
0.0
 10
1.7079001E+002
 20
2.3160446E+001
 70
0
  0
VERTEX
  8
1
 42
0.0
 10
1.7079001E+002
 20
2.5784676E+001
 70
0
  0
SEQEND
  0
POLYLINE
  8
1
  6
CONTINUOUS
 62
3
 66
1
 40
1.0E-003
 41
1.0E-003
 70
0
  0
VERTEX
  8
1
 42
0.0
 10
1.7079001E+002
 20
2.5784676E+001
 70
0
  0
VERTEX
  8
1
 42
0.0
 10
1.7397659E+002
 20
2.5784676E+001
 70
0
  0
SEQEND
  0
POLYLINE
  8
1
  6
CONTINUOUS
 62
3
 66
1
 40
1.0E-003
 41
1.0E-003
 70
0
  0
VERTEX
  8
1
 42
0.0
 10
1.7397659E+002
 20
2.5784676E+001
 70
0
  0
VERTEX
  8
1
 42
0.0
 10
1.7397659E+002
 20
2.3160446E+001
 70
0
  0
SEQEND
  0
POLYLINE
  8
1
  6
CONTINUOUS
 62
3
 66
1
 40
1.0E-003
 41
1.0E-003
 70
0
  0
VERTEX
  8
1
 42
0.0
 10
1.7397659E+002
 20
2.3160446E+001
 70
0
  0
VERTEX
  8
1
 42
0.0
 10
1.7079001E+002
 20
2.3160446E+001
 70
0
  0
SEQEND
  0
LINE
  8
1
  6
CONTINUOUS
 62
6
 10
3.1499985E+001
 20
3.1E+001
 11
3.1499985E+001
 21
1.4E+001
  0
POLYLINE
  8
1
  6
CONTINUOUS
 62
3
 66
1
 40
1.0E-003
 41
1.0E-003
 70
0
  0
VERTEX
  8
1
 42
0.0
 10
1.3877496E+002
 20
2.025E+001
 70
0
  0
VERTEX
  8
1
 42
0.0
 10
1.3877496E+002
 20
1.625E+001
 70
0
  0
SEQEND
  0
POLYLINE
  8
1
  6
CONTINUOUS
 62
3
 66
1
 40
1.0E-003
 41
1.0E-003
 70
0
  0
VERTEX
  8
1
 42
0.0
 10
1.3601489E+002
 20
1.925E+001
 70
0
  0
VERTEX
  8
1
 42
0.0
 10
1.3601489E+002
 20
1.725E+001
 70
0
  0
SEQEND
  0
POLYLINE
  8
1
  6
CONTINUOUS
 62
3
 66
1
 40
1.0E-003
 41
1.0E-003
 70
0
  0
VERTEX
  8
1
 42
0.0
 10
1.3601489E+002
 20
1.925E+001
 70
0
  0
VERTEX
  8
1
 42
0.0
 10
1.3877496E+002
 20
2.025E+001
 70
0
  0
SEQEND
  0
POLYLINE
  8
1
  6
CONTINUOUS
 62
3
 66
1
 40
1.0E-003
 41
1.0E-003
 70
0
  0
VERTEX
  8
1
 42
0.0
 10
1.3601489E+002
 20
1.725E+001
 70
0
  0
VERTEX
  8
1
 42
0.0
 10
1.3877496E+002
 20
1.625E+001
 70
0
  0
SEQEND
  0
POLYLINE
  8
1
  6
HIDDEN
 62
3
 66
1
 40
1.0E-003
 41
1.0E-003
 70
0
  0
VERTEX
  8
1
 42
0.0
 10
1.4252081E+002
 20
2.0649994E+001
 70
0
  0
VERTEX
  8
1
 42
0.0
 10
1.4252081E+002
 20
1.5849998E+001
 70
0
  0
SEQEND
  0
POLYLINE
  8
1
  6
HIDDEN
 62
3
 66
1
 40
1.0E-003
 41
1.0E-003
 70
0
  0
VERTEX
  8
1
 42
0.0
 10
1.4492081E+002
 20
1.825E+001
 70
0
  0
VERTEX
  8
1
 42
0.0
 10
1.3581775E+002
 20
1.825E+001
 70
0
  0
SEQEND
  0
TEXT
  8
1
  6
CONTINUOUS
 62
3
 10
5.9224213E+001
 20
2.3520981E+001
 40
2.0
  1
Ersatz fuer:
 41
6.0E-001
  0
TEXT
  8
1
  6
CONTINUOUS
 62
3
 10
5.9224213E+001
 20
1.9296745E+001
 40
2.0
  1
Ers. durch:
 41
6.5308091E-001
  0
TEXT
  8
1
  6
CONTINUOUS
 62
3
 10
5.9096191E+001
 20
1.4944511E+001
 40
2.0
  1
Zust. Stelle:
 41
6.3073385E-001
  0
TEXT
  8
1
  6
CONTINUOUS
 62
3
 10
9.8266327E+001
 20
2.7745209E+001
 40
2.0
  1
Ausgest.:
 41
6.0E-001
  0
TEXT
  8
1
  6
CONTINUOUS
 62
3
 10
9.8138336E+001
 20
2.3648987E+001
 40
2.0
  1
Geprueft:
 41
6.0E-001
  0
TEXT
  8
1
  6
CONTINUOUS
 62
3
 10
9.8138336E+001
 20
1.9424751E+001
 40
2.0
  1
Normgepr.:
 41
6.0E-001
  0
TEXT
  8
1
  6
CONTINUOUS
 62
3
 10
9.8138336E+001
 20
1.5072517E+001
 40
2.0
  1
Freigeg.:
 41
6.0E-001
  0
TEXT
  8
1
  6
CONTINUOUS
 62
3
 10
3.4718704E+001
 20
1.0957314E+001
 40
2.0
  1
Titel:
 41
5.9703E-001
  0
TEXT
  8
1
  6
CONTINUOUS
 62
3
 10
1.3619501E+002
 20
2.7965616E+001
 40
2.0
  1
Massstab
 41
6.0E-001
  0
TEXT
  8
1
  6
CONTINUOUS
 62
3
 10
1.7571872E+002
 20
2.7957314E+001
 40
2.0
  1
Sep.SL anderer Nr.
 41
6.0E-001
  0
TEXT
  8
1
  6
CONTINUOUS
 62
3
 10
1.4721872E+002
 20
1.9457314E+001
 40
2.0
  1
Dok.-Art
 41
6.0E-001
  0
TEXT
  8
1
  6
CONTINUOUS
 62
3
 10
1.5971872E+002
 20
1.9457314E+001
 40
2.0
  1
Format
 41
6.0E-001
  0
TEXT
  8
1
  6
CONTINUOUS
 62
3
 10
1.6971872E+002
 20
1.9457314E+001
 40
2.0
  1
Sprache
 41
6.0E-001
  0
TEXT
  8
1
  6
CONTINUOUS
 62
3
 10
1.8171872E+002
 20
1.9457314E+001
 40
2.0
  1
Bl. Nr.
 41
6.0E-001
  0
TEXT
  8
1
  6
CONTINUOUS
 62
3
 10
1.9221872E+002
 20
1.9457314E+001
 40
2.0
  1
Anz. Bl.
 41
6.0E-001
  0
TEXT
  8
1
  6
CONTINUOUS
 62
3
 10
1.4721872E+002
 20
2.7957314E+001
 40
2.0
  1
Sep.SL gleicher Nr.
 41
6.0E-001
  0
TEXT
  8
1
  6
CONTINUOUS
 62
3
 10
1.472323E+002
 20
2.3457428E+001
 40
2.0
  1
O
 41
6.3E-001
  0
TEXT
  8
1
  6
CONTINUOUS
 62
3
 10
1.486723E+002
 20
2.3457428E+001
 40
2.0
  1
hne sep. Stckl.:
 41
6.3727875E-001
  0
TEXT
  8
1
  6
CONTINUOUS
 62
6
 10
1.7570981E+002
 20
2.3817909E+001
 40
2.0
  1
 
 41
8.1E-001
  0
TEXT
  8
1
  6
CONTINUOUS
 62
3
 10
1.7603071E+002
 20
2.3683216E+001
 40
2.0
  1
Uebern. Stelle:
 41
6.0127615E-001
  0
TEXT
  8
1
  6
CONTINUOUS
 62
3
 10
1.595E+002
 20
1.5E+001
 40
2.5
  1
A
  0
TEXT
  8
1
  6
CONTINUOUS
 62
3
 10
1.645E+002
 20
1.5E+001
 40
2.5
  1
4
  0
TEXT
  8
1
  6
CONTINUOUS
 62
3
 10
1.7312595E+002
 20
1.5027565E+001
 40
2.5
  1
D
  0
TEXT
  8
1
  6
CONTINUOUS
 62
3
 10
1.8441553E+002
 20
1.5027565E+001
 40
2.5
  1
1
  0
TEXT
  8
1
  6
CONTINUOUS
 62
3
 10
1.9647238E+002
 20
1.5027565E+001
 40
2.5
  1
1
  0
TEXT
  8
1
  6
CONTINUOUS
 62
3
 10
5.9352203E+001
 20
2.7617203E+001
 40
2.0
  1
E
 41
6.3E-001
  0
TEXT
  8
1
  6
CONTINUOUS
 62
3
 10
6.0612213E+001
 20
2.7617203E+001
 40
2.0
  1
ntst. aus:
 41
6.09444E-001
  0
POLYLINE
  8
1
  6
CONTINUOUS
 62
3
 66
1
 40
1.0E-003
 41
1.0E-003
 70
0
  0
VERTEX
  8
1
 42
0.0
 10
2.0301865E+001
 20
7.3082472
 70
0
  0
VERTEX
  8
1
 42
0.0
 10
2.1426865E+001
 20
7.3082472
 70
0
  0
SEQEND
  0
POLYLINE
  8
1
  6
CONTINUOUS
 62
3
 66
1
 40
1.0E-003
 41
1.0E-003
 70
0
  0
VERTEX
  8
1
 42
0.0
 10
2.1426865E+001
 20
7.3082472
 70
0
  0
VERTEX
  8
1
 42
0.0
 10
2.1741867E+001
 20
8.2082449
 70
0
  0
SEQEND
  0
POLYLINE
  8
1
  6
CONTINUOUS
 62
3
 66
1
 40
1.0E-003
 41
1.0E-003
 70
0
  0
VERTEX
  8
1
 42
0.0
 10
2.1741867E+001
 20
8.2082449
 70
0
  0
VERTEX
  8
1
 42
0.0
 10
2.2356873E+001
 20
8.2082449
 70
0
  0
SEQEND
  0
POLYLINE
  8
1
  6
CONTINUOUS
 62
3
 66
1
 40
1.0E-003
 41
1.0E-003
 70
0
  0
VERTEX
  8
1
 42
0.0
 10
2.2356873E+001
 20
8.2082449
 70
0
  0
VERTEX
  8
1
 42
0.0
 10
2.2356873E+001
 20
9.3632456
 70
0
  0
SEQEND
  0
POLYLINE
  8
1
  6
CONTINUOUS
 62
3
 66
1
 40
1.0E-003
 41
1.0E-003
 70
0
  0
VERTEX
  8
1
 42
0.0
 10
2.2356873E+001
 20
9.3632456
 70
0
  0
VERTEX
  8
1
 42
0.0
 10
2.1073608E+001
 20
9.3632456
 70
0
  0
SEQEND
  0
POLYLINE
  8
1
  6
CONTINUOUS
 62
3
 66
1
 40
1.0E-003
 41
1.0E-003
 70
0
  0
VERTEX
  8
1
 42
0.0
 10
2.1073608E+001
 20
9.3632456
 70
0
  0
VERTEX
  8
1
 42
0.0
 10
2.0301865E+001
 20
7.3082472
 70
0
  0
SEQEND
  0
POLYLINE
  8
1
  6
CONTINUOUS
 62
3
 66
1
 40
1.0E-003
 41
1.0E-003
 70
0
  0
VERTEX
  8
1
 42
0.0
 10
2.4801865E+001
 20
7.3082472
 70
0
  0
VERTEX
  8
1
 42
0.0
 10
2.3676865E+001
 20
7.3082472
 70
0
  0
SEQEND
  0
POLYLINE
  8
1
  6
CONTINUOUS
 62
3
 66
1
 40
1.0E-003
 41
1.0E-003
 70
0
  0
VERTEX
  8
1
 42
0.0
 10
2.3676865E+001
 20
7.3082472
 70
0
  0
VERTEX
  8
1
 42
0.0
 10
2.3361862E+001
 20
8.2082449
 70
0
  0
SEQEND
  0
POLYLINE
  8
1
  6
CONTINUOUS
 62
3
 66
1
 40
1.0E-003
 41
1.0E-003
 70
0
  0
VERTEX
  8
1
 42
0.0
 10
2.3361862E+001
 20
8.2082449
 70
0
  0
VERTEX
  8
1
 42
0.0
 10
2.2746872E+001
 20
8.2082449
 70
0
  0
SEQEND
  0
POLYLINE
  8
1
  6
CONTINUOUS
 62
3
 66
1
 40
1.0E-003
 41
1.0E-003
 70
0
  0
VERTEX
  8
1
 42
0.0
 10
2.2746872E+001
 20
8.2082449
 70
0
  0
VERTEX
  8
1
 42
0.0
 10
2.2746872E+001
 20
9.3632456
 70
0
  0
SEQEND
  0
POLYLINE
  8
1
  6
CONTINUOUS
 62
3
 66
1
 40
1.0E-003
 41
1.0E-003
 70
0
  0
VERTEX
  8
1
 42
0.0
 10
2.2746872E+001
 20
9.3632456
 70
0
  0
VERTEX
  8
1
 42
0.0
 10
2.4030121E+001
 20
9.3632456
 70
0
  0
SEQEND
  0
POLYLINE
  8
1
  6
CONTINUOUS
 62
3
 66
1
 40
1.0E-003
 41
1.0E-003
 70
0
  0
VERTEX
  8
1
 42
0.0
 10
2.4030121E+001
 20
9.3632456
 70
0
  0
VERTEX
  8
1
 42
0.0
 10
2.4801865E+001
 20
7.3082472
 70
0
  0
SEQEND
  0
POLYLINE
  8
1
  6
CONTINUOUS
 62
3
 66
1
 40
1.0E-003
 41
1.0E-003
 70
0
  0
VERTEX
  8
1
 42
0.0
 10
2.2356873E+001
 20
9.753245
 70
0
  0
VERTEX
  8
1
 42
0.0
 10
2.1105118E+001
 20
9.753245
 70
0
  0
SEQEND
  0
POLYLINE
  8
1
  6
CONTINUOUS
 62
3
 66
1
 40
1.0E-003
 41
1.0E-003
 70
0
  0
VERTEX
  8
1
 42
0.0
 10
2.2356873E+001
 20
1.1808243E+001
 70
0
  0
VERTEX
  8
1
 42
0.0
 10
2.2356873E+001
 20
9.753245
 70
0
  0
SEQEND
  0
POLYLINE
  8
1
  6
CONTINUOUS
 62
3
 66
1
 40
1.0E-003
 41
1.0E-003
 70
0
  0
VERTEX
  8
1
 42
0.0
 10
2.2356873E+001
 20
1.1808243E+001
 70
0
  0
VERTEX
  8
1
 42
0.0
 10
2.1876862E+001
 20
1.1808243E+001
 70
0
  0
SEQEND
  0
POLYLINE
  8
1
  6
CONTINUOUS
 62
3
 66
1
 40
1.0E-003
 41
1.0E-003
 70
0
  0
VERTEX
  8
1
 42
0.0
 10
2.1876862E+001
 20
1.1808243E+001
 70
0
  0
VERTEX
  8
1
 42
0.0
 10
2.1105118E+001
 20
9.753245
 70
0
  0
SEQEND
  0
POLYLINE
  8
1
  6
CONTINUOUS
 62
3
 66
1
 40
1.0E-003
 41
1.0E-003
 70
0
  0
VERTEX
  8
1
 42
0.0
 10
2.2746872E+001
 20
9.753245
 70
0
  0
VERTEX
  8
1
 42
0.0
 10
2.3998611E+001
 20
9.753245
 70
0
  0
SEQEND
  0
POLYLINE
  8
1
  6
CONTINUOUS
 62
3
 66
1
 40
1.0E-003
 41
1.0E-003
 70
0
  0
VERTEX
  8
1
 42
0.0
 10
2.2746872E+001
 20
1.1808243E+001
 70
0
  0
VERTEX
  8
1
 42
0.0
 10
2.2746872E+001
 20
9.753245
 70
0
  0
SEQEND
  0
POLYLINE
  8
1
  6
CONTINUOUS
 62
3
 66
1
 40
1.0E-003
 41
1.0E-003
 70
0
  0
VERTEX
  8
1
 42
0.0
 10
2.2746872E+001
 20
1.1808243E+001
 70
0
  0
VERTEX
  8
1
 42
0.0
 10
2.3226868E+001
 20
1.1808243E+001
 70
0
  0
SEQEND
  0
POLYLINE
  8
1
  6
CONTINUOUS
 62
3
 66
1
 40
1.0E-003
 41
1.0E-003
 70
0
  0
VERTEX
  8
1
 42
0.0
 10
2.3226868E+001
 20
1.1808243E+001
 70
0
  0
VERTEX
  8
1
 42
0.0
 10
2.3998611E+001
 20
9.753245
 70
0
  0
SEQEND
  0
POLYLINE
  8
1
  6
CONTINUOUS
 62
3
 66
1
 40
1.0E-003
 41
1.0E-003
 70
0
  0
VERTEX
  8
1
 42
0.0
 10
2.5116867E+001
 20
9.3632456
 70
0
  0
VERTEX
  8
1
 42
0.0
 10
2.5116867E+001
 20
7.3082472
 70
0
  0
SEQEND
  0
POLYLINE
  8
1
  6
CONTINUOUS
 62
3
 66
1
 40
1.0E-003
 41
1.0E-003
 70
0
  0
VERTEX
  8
1
 42
0.0
 10
2.5116867E+001
 20
7.3082472
 70
0
  0
VERTEX
  8
1
 42
0.0
 10
2.6271881E+001
 20
7.3082472
 70
0
  0
SEQEND
  0
POLYLINE
  8
1
  6
CONTINUOUS
 62
3
 66
1
 40
1.0E-003
 41
1.0E-003
 70
0
  0
VERTEX
  8
1
 42
0.0
 10
2.6271881E+001
 20
9.3632456
 70
0
  0
VERTEX
  8
1
 42
0.0
 10
2.6271881E+001
 20
7.3082472
 70
0
  0
SEQEND
  0
POLYLINE
  8
1
  6
CONTINUOUS
 62
3
 66
1
 40
1.0E-003
 41
1.0E-003
 70
0
  0
VERTEX
  8
1
 42
0.0
 10
2.5116867E+001
 20
9.3632456
 70
0
  0
VERTEX
  8
1
 42
0.0
 10
2.6271881E+001
 20
9.3632456
 70
0
  0
SEQEND
  0
POLYLINE
  8
1
  6
CONTINUOUS
 62
3
 66
1
 40
1.0E-003
 41
1.0E-003
 70
0
  0
VERTEX
  8
1
 42
0.0
 10
2.5116867E+001
 20
9.753245
 70
0
  0
VERTEX
  8
1
 42
0.0
 10
2.6271881E+001
 20
9.753245
 70
0
  0
SEQEND
  0
POLYLINE
  8
1
  6
CONTINUOUS
 62
3
 66
1
 40
1.0E-003
 41
1.0E-003
 70
0
  0
VERTEX
  8
1
 42
0.0
 10
2.5116867E+001
 20
1.1808243E+001
 70
0
  0
VERTEX
  8
1
 42
0.0
 10
2.5116867E+001
 20
9.753245
 70
0
  0
SEQEND
  0
POLYLINE
  8
1
  6
CONTINUOUS
 62
3
 66
1
 40
1.0E-003
 41
1.0E-003
 70
0
  0
VERTEX
  8
1
 42
0.0
 10
2.5116867E+001
 20
1.1808243E+001
 70
0
  0
VERTEX
  8
1
 42
0.0
 10
2.6271881E+001
 20
1.1808243E+001
 70
0
  0
SEQEND
  0
POLYLINE
  8
1
  6
CONTINUOUS
 62
3
 66
1
 40
1.0E-003
 41
1.0E-003
 70
0
  0
VERTEX
  8
1
 42
0.0
 10
2.6271881E+001
 20
1.1808243E+001
 70
0
  0
VERTEX
  8
1
 42
0.0
 10
2.6271881E+001
 20
9.753245
 70
0
  0
SEQEND
  0
POLYLINE
  8
1
  6
CONTINUOUS
 62
3
 66
1
 40
1.0E-003
 41
1.0E-003
 70
0
  0
VERTEX
  8
1
 42
0.0
 10
2.6661865E+001
 20
9.3632456
 70
0
  0
VERTEX
  8
1
 42
0.0
 10
2.6661865E+001
 20
7.3082472
 70
0
  0
SEQEND
  0
POLYLINE
  8
1
  6
CONTINUOUS
 62
3
 66
1
 40
1.0E-003
 41
1.0E-003
 70
0
  0
VERTEX
  8
1
 42
0.0
 10
2.6661865E+001
 20
7.3082472
 70
0
  0
VERTEX
  8
1
 42
0.0
 10
2.691687E+001
 20
7.3082472
 70
0
  0
SEQEND
  0
POLYLINE
  8
1
  6
CONTINUOUS
 62
3
 66
1
 40
1.0E-003
 41
1.0E-003
 70
0
  0
VERTEX
  8
1
 42
0.0
 10
2.6661865E+001
 20
9.3632456
 70
0
  0
VERTEX
  8
1
 42
0.0
 10
2.8068161E+001
 20
9.3632456
 70
0
  0
SEQEND
  0
POLYLINE
  8
1
  6
CONTINUOUS
 62
3
 66
1
 40
1.0E-003
 41
1.0E-003
 70
0
  0
VERTEX
  8
1
 42
0.0
 10
2.6661865E+001
 20
1.1808243E+001
 70
0
  0
VERTEX
  8
1
 42
0.0
 10
2.6661865E+001
 20
9.753245
 70
0
  0
SEQEND
  0
POLYLINE
  8
1
  6
CONTINUOUS
 62
3
 66
1
 40
1.0E-003
 41
1.0E-003
 70
0
  0
VERTEX
  8
1
 42
0.0
 10
2.6661865E+001
 20
9.753245
 70
0
  0
VERTEX
  8
1
 42
0.0
 10
2.7706482E+001
 20
9.753245
 70
0
  0
SEQEND
  0
POLYLINE
  8
1
  6
CONTINUOUS
 62
3
 66
1
 40
1.0E-003
 41
1.0E-003
 70
0
  0
VERTEX
  8
1
 42
0.0
 10
2.6661865E+001
 20
1.1808243E+001
 70
0
  0
VERTEX
  8
1
 42
0.0
 10
2.691687E+001
 20
1.1808243E+001
 70
0
  0
SEQEND
  0
POLYLINE
  8
1
  6
CONTINUOUS
 62
3
 66
1
 40
1.0E-003
 41
1.0E-003
 70
0
  0
VERTEX
  8
1
 42
0.0
 10
2.8626862E+001
 20
9.3632456
 70
0
  0
VERTEX
  8
1
 42
0.0
 10
2.8626862E+001
 20
7.3082472
 70
0
  0
SEQEND
  0
POLYLINE
  8
1
  6
CONTINUOUS
 62
3
 66
1
 40
1.0E-003
 41
1.0E-003
 70
0
  0
VERTEX
  8
1
 42
0.0
 10
2.8626862E+001
 20
7.3082472
 70
0
  0
VERTEX
  8
1
 42
0.0
 10
2.9781876E+001
 20
7.3082472
 70
0
  0
SEQEND
  0
POLYLINE
  8
1
  6
CONTINUOUS
 62
3
 66
1
 40
1.0E-003
 41
1.0E-003
 70
0
  0
VERTEX
  8
1
 42
0.0
 10
2.9781876E+001
 20
9.3632456
 70
0
  0
VERTEX
  8
1
 42
0.0
 10
2.9781876E+001
 20
7.3082472
 70
0
  0
SEQEND
  0
POLYLINE
  8
1
  6
CONTINUOUS
 62
3
 66
1
 40
1.0E-003
 41
1.0E-003
 70
0
  0
VERTEX
  8
1
 42
0.0
 10
2.8626862E+001
 20
9.3632456
 70
0
  0
VERTEX
  8
1
 42
0.0
 10
2.9781876E+001
 20
9.3632456
 70
0
  0
SEQEND
  0
POLYLINE
  8
1
  6
CONTINUOUS
 62
3
 66
1
 40
1.0E-003
 41
1.0E-003
 70
0
  0
VERTEX
  8
1
 42
0.0
 10
2.8626862E+001
 20
1.1808243E+001
 70
0
  0
VERTEX
  8
1
 42
0.0
 10
2.8626862E+001
 20
9.753245
 70
0
  0
SEQEND
  0
POLYLINE
  8
1
  6
CONTINUOUS
 62
3
 66
1
 40
1.0E-003
 41
1.0E-003
 70
0
  0
VERTEX
  8
1
 42
0.0
 10
2.8626862E+001
 20
9.753245
 70
0
  0
VERTEX
  8
1
 42
0.0
 10
2.9781876E+001
 20
9.753245
 70
0
  0
SEQEND
  0
POLYLINE
  8
1
  6
CONTINUOUS
 62
3
 66
1
 40
1.0E-003
 41
1.0E-003
 70
0
  0
VERTEX
  8
1
 42
0.0
 10
2.9781876E+001
 20
1.1808243E+001
 70
0
  0
VERTEX
  8
1
 42
0.0
 10
2.9781876E+001
 20
9.753245
 70
0
  0
SEQEND
  0
POLYLINE
  8
1
  6
CONTINUOUS
 62
3
 66
1
 40
1.0E-003
 41
1.0E-003
 70
0
  0
VERTEX
  8
1
 42
0.0
 10
2.8626862E+001
 20
1.1808243E+001
 70
0
  0
VERTEX
  8
1
 42
0.0
 10
2.9781876E+001
 20
1.1808243E+001
 70
0
  0
SEQEND
  0
POLYLINE
  8
1
  6
CONTINUOUS
 62
3
 66
1
 40
1.0E-003
 41
1.0E-003
 70
0
  0
VERTEX
  8
1
 42
0.0
 10
3.017186E+001
 20
9.3632456
 70
0
  0
VERTEX
  8
1
 42
0.0
 10
3.017186E+001
 20
7.3082472
 70
0
  0
SEQEND
  0
POLYLINE
  8
1
  6
CONTINUOUS
 62
3
 66
1
 40
1.0E-003
 41
1.0E-003
 70
0
  0
VERTEX
  8
1
 42
0.0
 10
3.017186E+001
 20
7.3082472
 70
0
  0
VERTEX
  8
1
 42
0.0
 10
3.0426865E+001
 20
7.3082472
 70
0
  0
SEQEND
  0
POLYLINE
  8
1
  6
CONTINUOUS
 62
3
 66
1
 40
1.0E-003
 41
1.0E-003
 70
0
  0
VERTEX
  8
1
 42
0.0
 10
3.017186E+001
 20
9.3632456
 70
0
  0
VERTEX
  8
1
 42
0.0
 10
3.1578156E+001
 20
9.3632456
 70
0
  0
SEQEND
  0
POLYLINE
  8
1
  6
CONTINUOUS
 62
3
 66
1
 40
1.0E-003
 41
1.0E-003
 70
0
  0
VERTEX
  8
1
 42
0.0
 10
3.017186E+001
 20
1.1808243E+001
 70
0
  0
VERTEX
  8
1
 42
0.0
 10
3.017186E+001
 20
9.753245
 70
0
  0
SEQEND
  0
POLYLINE
  8
1
  6
CONTINUOUS
 62
3
 66
1
 40
1.0E-003
 41
1.0E-003
 70
0
  0
VERTEX
  8
1
 42
0.0
 10
3.017186E+001
 20
9.753245
 70
0
  0
VERTEX
  8
1
 42
0.0
 10
3.1216476E+001
 20
9.753245
 70
0
  0
SEQEND
  0
POLYLINE
  8
1
  6
CONTINUOUS
 62
3
 66
1
 40
1.0E-003
 41
1.0E-003
 70
0
  0
VERTEX
  8
1
 42
0.0
 10
3.017186E+001
 20
1.1808243E+001
 70
0
  0
VERTEX
  8
1
 42
0.0
 10
3.0426865E+001
 20
1.1808243E+001
 70
0
  0
SEQEND
  0
INSERT
  2
XHXH1NEW02NEW00NEW00
  8
1
 10
2.1933228E+001
 20
1.1581771E+001
  0
POLYLINE
  8
1
  6
CONTINUOUS
 62
3
 66
1
 40
1.0E-003
 41
1.0E-003
 70
0
  0
VERTEX
  8
1
 42
1.0
 10
1.4452078E+002
 20
1.825E+001
 70
0
  0
VERTEX
  8
1
 42
1.0
 10
1.4052078E+002
 20
1.825E+001
 70
0
  0
VERTEX
  8
1
 42
0.0
 10
1.4452078E+002
 20
1.825E+001
 70
0
  0
SEQEND
  0
POLYLINE
  8
1
  6
CONTINUOUS
 62
3
 66
1
 40
1.0E-003
 41
1.0E-003
 70
0
  0
VERTEX
  8
1
 42
1.0
 10
1.4352078E+002
 20
1.825E+001
 70
0
  0
VERTEX
  8
1
 42
1.0
 10
1.4152078E+002
 20
1.825E+001
 70
0
  0
VERTEX
  8
1
 42
0.0
 10
1.4352078E+002
 20
1.825E+001
 70
0
  0
SEQEND
  0
POLYLINE
  8
1
  6
CONTINUOUS
 62
3
 66
1
 40
1.0E-003
 41
1.0E-003
 70
0
  0
VERTEX
  8
1
 42
5.8600137E-001
 10
2.691687E+001
 20
7.3082456
 70
0
  0
VERTEX
  8
1
 42
0.0
 10
2.8068163E+001
 20
9.3632459
 70
0
  0
SEQEND
  0
POLYLINE
  8
1
  6
CONTINUOUS
 62
3
 66
1
 40
1.0E-003
 41
1.0E-003
 70
0
  0
VERTEX
  8
1
 42
6.2051509E-002
 10
2.7706476E+001
 20
9.7532445
 70
0
  0
VERTEX
  8
1
 42
0.0
 10
2.7413674E+001
 20
9.9135089
 70
0
  0
SEQEND
  0
POLYLINE
  8
1
  6
CONTINUOUS
 62
3
 66
1
 40
1.0E-003
 41
1.0E-003
 70
0
  0
VERTEX
  8
1
 42
7.7160142E-001
 10
2.7413674E+001
 20
9.9135095
 70
0
  0
VERTEX
  8
1
 42
0.0
 10
2.691687E+001
 20
1.1808246E+001
 70
0
  0
SEQEND
  0
POLYLINE
  8
1
  6
CONTINUOUS
 62
3
 66
1
 40
1.0E-003
 41
1.0E-003
 70
0
  0
VERTEX
  8
1
 42
5.8600137E-001
 10
3.0426865E+001
 20
7.3082456
 70
0
  0
VERTEX
  8
1
 42
0.0
 10
3.1578157E+001
 20
9.3632459
 70
0
  0
SEQEND
  0
POLYLINE
  8
1
  6
CONTINUOUS
 62
3
 66
1
 40
1.0E-003
 41
1.0E-003
 70
0
  0
VERTEX
  8
1
 42
6.2051509E-002
 10
3.1216471E+001
 20
9.7532445
 70
0
  0
VERTEX
  8
1
 42
0.0
 10
3.0923669E+001
 20
9.9135089
 70
0
  0
SEQEND
  0
POLYLINE
  8
1
  6
CONTINUOUS
 62
3
 66
1
 40
1.0E-003
 41
1.0E-003
 70
0
  0
VERTEX
  8
1
 42
7.7160142E-001
 10
3.0923669E+001
 20
9.9135095
 70
0
  0
VERTEX
  8
1
 42
0.0
 10
3.0426865E+001
 20
1.1808246E+001
 70
0
  0
SEQEND
  0
POINT
  8
Drafting_Hidden_Entities
  6
CONTINUOUS
 62
1
 10
0.0
 20
0.0
  0
ENDBLK
  0
BLOCK
  2
*E1206
  3
*E1206
 10
1.3545874E+002
 20
1.9310092E+002
 70
65
  0
ARC
  8
1
  6
CONTINUOUS
 62
3
 10
1.3545874E+002
 20
1.9310092E+002
 40
1.0
 50
9.0E+001
 51
1.8E+002
  0
ENDBLK
  0
BLOCK
  2
*D1208
  3
*D
 10
0.0
 20
0.0
 70
65
  0
LINE
  8
1
  6
CONTINUOUS
 62
4
 10
8.614991E+001
 20
1.9120102E+002
 11
8.614991E+001
 21
2.1841672E+002
  0
LINE
  8
1
  6
CONTINUOUS
 62
4
 10
3.864989E+001
 20
1.9120102E+002
 11
3.864989E+001
 21
2.1841672E+002
  0
SOLID
  8
1
  6
CONTINUOUS
 62
0
 10
8.614991E+001
 20
2.1691672E+002
 11
8.314991E+001
 21
2.1741672E+002
 12
8.314991E+001
 22
2.1641672E+002
 13
8.314991E+001
 23
2.1641672E+002
  0
SOLID
  8
1
  6
CONTINUOUS
 62
0
 10
3.864989E+001
 20
2.1691672E+002
 11
4.164989E+001
 21
2.1641672E+002
 12
4.164989E+001
 22
2.1741672E+002
 13
4.164989E+001
 23
2.1741672E+002
  0
LINE
  8
1
  6
CONTINUOUS
 62
4
 10
8.614991E+001
 20
2.1691672E+002
 11
6.172594E+001
 21
2.1691672E+002
  0
LINE
  8
1
  6
CONTINUOUS
 62
4
 10
3.864989E+001
 20
2.1691672E+002
 11
6.172594E+001
 21
2.1691672E+002
  0
ENDBLK
  0
BLOCK
  2
*D1248
  3
*D
 10
0.0
 20
0.0
 70
65
  0
LINE
  8
1
  6
CONTINUOUS
 62
4
 10
6.239991E+001
 20
1.8932102E+002
 11
6.239991E+001
 21
2.1041672E+002
  0
LINE
  8
1
  6
CONTINUOUS
 62
4
 10
7.14999E+001
 20
1.8932102E+002
 11
7.14999E+001
 21
2.1041672E+002
  0
SOLID
  8
1
  6
CONTINUOUS
 62
0
 10
6.239991E+001
 20
2.0891672E+002
 11
5.939991E+001
 21
2.0941672E+002
 12
5.939991E+001
 22
2.0841672E+002
 13
5.939991E+001
 23
2.0841672E+002
  0
SOLID
  8
1
  6
CONTINUOUS
 62
0
 10
7.14999E+001
 20
2.0891672E+002
 11
7.44999E+001
 21
2.0841672E+002
 12
7.44999E+001
 22
2.0941672E+002
 13
7.44999E+001
 23
2.0941672E+002
  0
LINE
  8
1
  6
CONTINUOUS
 62
4
 10
5.639991E+001
 20
2.0891672E+002
 11
6.239991E+001
 21
2.0891672E+002
  0
LINE
  8
1
  6
CONTINUOUS
 62
4
 10
7.74999E+001
 20
2.0891672E+002
 11
6.239991E+001
 21
2.0891672E+002
  0
ENDBLK
  0
BLOCK
  2
*D1253
  3
*D
 10
0.0
 20
0.0
 70
65
  0
LINE
  8
1
  6
CONTINUOUS
 62
4
 10
9.214989E+001
 20
1.7000082E+002
 11
9.214989E+001
 21
1.623596E+002
  0
LINE
  8
1
  6
CONTINUOUS
 62
4
 10
8.614989E+001
 20
1.5280102E+002
 11
8.614989E+001
 21
1.653596E+002
  0
SOLID
  8
1
  6
CONTINUOUS
 62
0
 10
9.214989E+001
 20
1.638596E+002
 11
9.514989E+001
 21
1.6335959E+002
 12
9.514989E+001
 22
1.643596E+002
 13
9.514989E+001
 23
1.643596E+002
  0
SOLID
  8
1
  6
CONTINUOUS
 62
0
 10
8.614989E+001
 20
1.638596E+002
 11
8.314989E+001
 21
1.643596E+002
 12
8.314989E+001
 22
1.6335959E+002
 13
8.314989E+001
 23
1.6335959E+002
  0
LINE
  8
1
  6
CONTINUOUS
 62
4
 10
9.814989E+001
 20
1.638596E+002
 11
9.214989E+001
 21
1.638596E+002
  0
LINE
  8
1
  6
CONTINUOUS
 62
4
 10
8.014989E+001
 20
1.638596E+002
 11
9.214989E+001
 21
1.638596E+002
  0
TEXT
  8
1
  6
CONTINUOUS
 62
4
 10
8.7845067E+001
 20
1.653606E+002
 40
3.0
  1
6
 41
8.0E-001
 50
3.6E+002
 51
1.0
  0
ENDBLK
  0
BLOCK
  2
*D1255
  3
*D
 10
0.0
 20
0.0
 70
65
  0
LINE
  8
1
  6
CONTINUOUS
 62
4
 10
8.614991E+001
 20
1.9120102E+002
 11
8.614991E+001
 21
2.2641672E+002
  0
LINE
  8
1
  6
CONTINUOUS
 62
4
 10
3.364988E+001
 20
1.4700102E+002
 11
3.364988E+001
 21
2.2641672E+002
  0
SOLID
  8
1
  6
CONTINUOUS
 62
0
 10
8.614991E+001
 20
2.2491672E+002
 11
8.314991E+001
 21
2.2541672E+002
 12
8.314991E+001
 22
2.2441672E+002
 13
8.314991E+001
 23
2.2441672E+002
  0
SOLID
  8
1
  6
CONTINUOUS
 62
0
 10
3.364988E+001
 20
2.2491672E+002
 11
3.664988E+001
 21
2.2441672E+002
 12
3.664988E+001
 22
2.2541672E+002
 13
3.664988E+001
 23
2.2541672E+002
  0
LINE
  8
1
  6
CONTINUOUS
 62
4
 10
8.614991E+001
 20
2.2491672E+002
 11
5.972594E+001
 21
2.2491672E+002
  0
LINE
  8
1
  6
CONTINUOUS
 62
4
 10
3.364988E+001
 20
2.2491672E+002
 11
5.972594E+001
 21
2.2491672E+002
  0
ENDBLK
  0
BLOCK
  2
*D1280
  3
*D
 10
0.0
 20
0.0
 70
65
  0
LINE
  8
1
  6
CONTINUOUS
 62
4
 10
6.439979E+001
 20
1.9460092E+002
 11
2.722694E+001
 21
1.9460092E+002
  0
LINE
  8
1
  6
CONTINUOUS
 62
4
 10
6.039979E+001
 20
1.4940092E+002
 11
2.722694E+001
 21
1.4940092E+002
  0
SOLID
  8
1
  6
CONTINUOUS
 62
0
 10
2.872694E+001
 20
1.9460092E+002
 11
2.8226936E+001
 21
1.9160092E+002
 12
2.9226944E+001
 22
1.9160092E+002
 13
2.9226944E+001
 23
1.9160092E+002
  0
SOLID
  8
1
  6
CONTINUOUS
 62
0
 10
2.872694E+001
 20
1.4940092E+002
 11
2.9226944E+001
 21
1.5240092E+002
 12
2.8226936E+001
 22
1.5240092E+002
 13
2.8226936E+001
 23
1.5240092E+002
  0
LINE
  8
1
  6
CONTINUOUS
 62
4
 10
2.872694E+001
 20
1.9460092E+002
 11
2.872694E+001
 21
1.7191772E+002
  0
LINE
  8
1
  6
CONTINUOUS
 62
4
 10
2.872694E+001
 20
1.4940092E+002
 11
2.872694E+001
 21
1.7191772E+002
  0
TEXT
  8
1
  6
CONTINUOUS
 62
4
 10
2.722594E+001
 20
1.6951772E+002
 40
3.0
  1
45
 41
8.0E-001
 50
9.0E+001
 51
1.0
  0
ENDBLK
  0
BLOCK
  2
*D1299
  3
*D
 10
0.0
 20
0.0
 70
65
  0
LINE
  8
1
  6
CONTINUOUS
 62
4
 10
8.24E+001
 20
1.9475092E+002
 11
9.5050551E+001
 21
1.9475092E+002
  0
LINE
  8
1
  6
CONTINUOUS
 62
4
 10
8.24E+001
 20
1.9925092E+002
 11
9.5050551E+001
 21
1.9925092E+002
  0
SOLID
  8
1
  6
CONTINUOUS
 62
0
 10
9.3550551E+001
 20
1.9475092E+002
 11
9.3050547E+001
 21
1.9175092E+002
 12
9.4050555E+001
 22
1.9175092E+002
 13
9.4050555E+001
 23
1.9175092E+002
  0
SOLID
  8
1
  6
CONTINUOUS
 62
0
 10
9.3550551E+001
 20
1.9925092E+002
 11
9.4050555E+001
 21
2.0225092E+002
 12
9.3050547E+001
 22
2.0225092E+002
 13
9.3050547E+001
 23
2.0225092E+002
  0
LINE
  8
1
  6
CONTINUOUS
 62
4
 10
9.3550551E+001
 20
1.8875092E+002
 11
9.3550551E+001
 21
1.9925092E+002
  0
LINE
  8
1
  6
CONTINUOUS
 62
4
 10
9.3550551E+001
 20
1.9925092E+002
 11
9.3550551E+001
 21
2.1253082E+002
  0
ENDBLK
  0
BLOCK
  2
*D1301
  3
*D
 10
0.0
 20
0.0
 70
65
  0
LINE
  8
1
  6
CONTINUOUS
 62
4
 10
1.3645874E+002
 20
1.8950102E+002
 11
1.3645874E+002
 21
2.1041672E+002
  0
LINE
  8
1
  6
CONTINUOUS
 62
4
 10
1.7005874E+002
 20
1.8970102E+002
 11
1.7005874E+002
 21
2.1041672E+002
  0
SOLID
  8
1
  6
CONTINUOUS
 62
0
 10
1.3645874E+002
 20
2.0891672E+002
 11
1.3945874E+002
 21
2.0841672E+002
 12
1.3945874E+002
 22
2.0941672E+002
 13
1.3945874E+002
 23
2.0941672E+002
  0
SOLID
  8
1
  6
CONTINUOUS
 62
0
 10
1.7005874E+002
 20
2.0891672E+002
 11
1.6705874E+002
 21
2.0941672E+002
 12
1.6705874E+002
 22
2.0841672E+002
 13
1.6705874E+002
 23
2.0841672E+002
  0
LINE
  8
1
  6
CONTINUOUS
 62
4
 10
1.3645874E+002
 20
2.0891672E+002
 11
1.5172594E+002
 21
2.0891672E+002
  0
LINE
  8
1
  6
CONTINUOUS
 62
4
 10
1.7005874E+002
 20
2.0891672E+002
 11
1.5172594E+002
 21
2.0891672E+002
  0
ENDBLK
  0
BLOCK
  2
*D1305
  3
*D
 10
0.0
 20
0.0
 70
65
  0
LINE
  8
1
  6
CONTINUOUS
 62
4
 10
1.3795874E+002
 20
1.4375082E+002
 11
1.3795874E+002
 21
1.3080536E+002
  0
LINE
  8
1
  6
CONTINUOUS
 62
4
 10
1.3345874E+002
 20
1.4325082E+002
 11
1.3345874E+002
 21
1.3080536E+002
  0
SOLID
  8
1
  6
CONTINUOUS
 62
0
 10
1.3795874E+002
 20
1.3230536E+002
 11
1.4095874E+002
 21
1.3180536E+002
 12
1.4095874E+002
 22
1.3280537E+002
 13
1.4095874E+002
 23
1.3280537E+002
  0
SOLID
  8
1
  6
CONTINUOUS
 62
0
 10
1.3345874E+002
 20
1.3230536E+002
 11
1.3045874E+002
 21
1.3280537E+002
 12
1.3045874E+002
 22
1.3180536E+002
 13
1.3045874E+002
 23
1.3180536E+002
  0
LINE
  8
1
  6
CONTINUOUS
 62
4
 10
1.3795874E+002
 20
1.3230536E+002
 11
1.5760139E+002
 21
1.3230536E+002
  0
LINE
  8
1
  6
CONTINUOUS
 62
4
 10
1.2745874E+002
 20
1.3230536E+002
 11
1.3795874E+002
 21
1.3230536E+002
  0
ENDBLK
  0
BLOCK
  2
*D1307
  3
*D
 10
0.0
 20
0.0
 70
65
  0
LINE
  8
1
  6
CONTINUOUS
 62
4
 10
1.3645874E+002
 20
1.8950102E+002
 11
1.3645874E+002
 21
2.1841672E+002
  0
LINE
  8
1
  6
CONTINUOUS
 62
4
 10
1.7995874E+002
 20
1.9120102E+002
 11
1.7995874E+002
 21
2.1841672E+002
  0
SOLID
  8
1
  6
CONTINUOUS
 62
0
 10
1.3645874E+002
 20
2.1691672E+002
 11
1.3945874E+002
 21
2.1641672E+002
 12
1.3945874E+002
 22
2.1741672E+002
 13
1.3945874E+002
 23
2.1741672E+002
  0
SOLID
  8
1
  6
CONTINUOUS
 62
0
 10
1.7995874E+002
 20
2.1691672E+002
 11
1.7695874E+002
 21
2.1741672E+002
 12
1.7695874E+002
 22
2.1641672E+002
 13
1.7695874E+002
 23
2.1641672E+002
  0
LINE
  8
1
  6
CONTINUOUS
 62
4
 10
1.3645874E+002
 20
2.1691672E+002
 11
1.5772594E+002
 21
2.1691672E+002
  0
LINE
  8
1
  6
CONTINUOUS
 62
4
 10
1.7995874E+002
 20
2.1691672E+002
 11
1.5772594E+002
 21
2.1691672E+002
  0
ENDBLK
  0
BLOCK
  2
*D1309
  3
*D
 10
0.0
 20
0.0
 70
65
  0
LINE
  8
1
  6
CONTINUOUS
 62
4
 10
4.668937E+001
 20
1.4331882E+002
 11
1.2022694E+002
 21
1.4331882E+002
  0
LINE
  8
1
  6
CONTINUOUS
 62
4
 10
8.24E+001
 20
2.0075092E+002
 11
1.2022694E+002
 21
2.0075092E+002
  0
SOLID
  8
1
  6
CONTINUOUS
 62
0
 10
1.1872694E+002
 20
1.4331882E+002
 11
1.1922694E+002
 21
1.4631882E+002
 12
1.1822694E+002
 22
1.4631882E+002
 13
1.1822694E+002
 23
1.4631882E+002
  0
SOLID
  8
1
  6
CONTINUOUS
 62
0
 10
1.1872694E+002
 20
2.0075092E+002
 11
1.1822694E+002
 21
1.9775092E+002
 12
1.1922694E+002
 22
1.9775092E+002
 13
1.1922694E+002
 23
1.9775092E+002
  0
LINE
  8
1
  6
CONTINUOUS
 62
4
 10
1.1872694E+002
 20
1.4331882E+002
 11
1.1872694E+002
 21
1.7391772E+002
  0
LINE
  8
1
  6
CONTINUOUS
 62
4
 10
1.1872694E+002
 20
2.0075092E+002
 11
1.1872694E+002
 21
1.7391772E+002
  0
ENDBLK
  0
BLOCK
  2
*D1312
  3
*D
 10
0.0
 20
0.0
 70
65
  0
LINE
  8
1
  6
CONTINUOUS
 62
4
 10
5.32999E+001
 20
1.8782102E+002
 11
5.32999E+001
 21
2.1041672E+002
  0
LINE
  8
1
  6
CONTINUOUS
 62
4
 10
6.239991E+001
 20
1.8782102E+002
 11
6.239991E+001
 21
2.1041672E+002
  0
SOLID
  8
1
  6
CONTINUOUS
 62
0
 10
5.32999E+001
 20
2.0891672E+002
 11
5.02999E+001
 21
2.0941672E+002
 12
5.02999E+001
 22
2.0841672E+002
 13
5.02999E+001
 23
2.0841672E+002
  0
SOLID
  8
1
  6
CONTINUOUS
 62
0
 10
6.239991E+001
 20
2.0891672E+002
 11
6.539991E+001
 21
2.0841672E+002
 12
6.539991E+001
 22
2.0941672E+002
 13
6.539991E+001
 23
2.0941672E+002
  0
LINE
  8
1
  6
CONTINUOUS
 62
4
 10
4.72999E+001
 20
2.0891672E+002
 11
5.32999E+001
 21
2.0891672E+002
  0
LINE
  8
1
  6
CONTINUOUS
 62
4
 10
6.839991E+001
 20
2.0891672E+002
 11
5.32999E+001
 21
2.0891672E+002
  0
ENDBLK
  0
BLOCK
  2
*D1315
  3
*D
 10
0.0
 20
0.0
 70
65
  0
LINE
  8
1
  6
CONTINUOUS
 62
4
 10
8.239991E+001
 20
1.9207762E+002
 11
8.239991E+001
 21
1.2941672E+002
  0
LINE
  8
1
  6
CONTINUOUS
 62
4
 10
4.739987E+001
 20
1.4240962E+002
 11
4.739987E+001
 21
1.2941672E+002
  0
SOLID
  8
1
  6
CONTINUOUS
 62
0
 10
8.239991E+001
 20
1.3091672E+002
 11
7.939991E+001
 21
1.3141672E+002
 12
7.939991E+001
 22
1.3041672E+002
 13
7.939991E+001
 23
1.3041672E+002
  0
SOLID
  8
1
  6
CONTINUOUS
 62
0
 10
4.739987E+001
 20
1.3091672E+002
 11
5.039987E+001
 21
1.3041672E+002
 12
5.039987E+001
 22
1.3141672E+002
 13
5.039987E+001
 23
1.3141672E+002
  0
LINE
  8
1
  6
CONTINUOUS
 62
4
 10
8.239991E+001
 20
1.3091672E+002
 11
6.372594E+001
 21
1.3091672E+002
  0
LINE
  8
1
  6
CONTINUOUS
 62
4
 10
4.739987E+001
 20
1.3091672E+002
 11
6.372594E+001
 21
1.3091672E+002
  0
TEXT
  8
1
  6
CONTINUOUS
 62
4
 10
6.132594E+001
 20
1.3241772E+002
 40
3.0
  1
35
 41
8.0E-001
 50
3.6E+002
 51
1.0
  0
ENDBLK
  0
BLOCK
  2
*D1322
  3
*D
 10
0.0
 20
0.0
 70
65
  0
LINE
  8
1
  6
CONTINUOUS
 62
4
 10
4.419989E+001
 20
1.8782102E+002
 11
4.419989E+001
 21
2.1041672E+002
  0
LINE
  8
1
  6
CONTINUOUS
 62
4
 10
5.32999E+001
 20
1.8782102E+002
 11
5.32999E+001
 21
2.1041672E+002
  0
SOLID
  8
1
  6
CONTINUOUS
 62
0
 10
4.419989E+001
 20
2.0891672E+002
 11
4.719989E+001
 21
2.0841672E+002
 12
4.719989E+001
 22
2.0941672E+002
 13
4.719989E+001
 23
2.0941672E+002
  0
SOLID
  8
1
  6
CONTINUOUS
 62
0
 10
5.32999E+001
 20
2.0891672E+002
 11
5.02999E+001
 21
2.0941672E+002
 12
5.02999E+001
 22
2.0841672E+002
 13
5.02999E+001
 23
2.0841672E+002
  0
LINE
  8
1
  6
CONTINUOUS
 62
4
 10
4.419989E+001
 20
2.0891672E+002
 11
4.772594E+001
 21
2.0891672E+002
  0
LINE
  8
1
  6
CONTINUOUS
 62
4
 10
5.32999E+001
 20
2.0891672E+002
 11
4.772594E+001
 21
2.0891672E+002
  0
ENDBLK
  0
BLOCK
  2
*D1326
  3
*D
 10
0.0
 20
0.0
 70
65
  0
LINE
  8
1
  6
CONTINUOUS
 62
4
 10
1.7995874E+002
 20
1.9120102E+002
 11
1.7995874E+002
 21
2.2641672E+002
  0
LINE
  8
1
  6
CONTINUOUS
 62
4
 10
1.3345874E+002
 20
2.0075102E+002
 11
1.3345874E+002
 21
2.2641672E+002
  0
SOLID
  8
1
  6
CONTINUOUS
 62
0
 10
1.7995874E+002
 20
2.2491672E+002
 11
1.7695874E+002
 21
2.2541672E+002
 12
1.7695874E+002
 22
2.2441672E+002
 13
1.7695874E+002
 23
2.2441672E+002
  0
SOLID
  8
1
  6
CONTINUOUS
 62
0
 10
1.3345874E+002
 20
2.2491672E+002
 11
1.3645874E+002
 21
2.2441672E+002
 12
1.3645874E+002
 22
2.2541672E+002
 13
1.3645874E+002
 23
2.2541672E+002
  0
LINE
  8
1
  6
CONTINUOUS
 62
4
 10
1.7995874E+002
 20
2.2491672E+002
 11
1.5572594E+002
 21
2.2491672E+002
  0
LINE
  8
1
  6
CONTINUOUS
 62
4
 10
1.3345874E+002
 20
2.2491672E+002
 11
1.5572594E+002
 21
2.2491672E+002
  0
ENDBLK
  0
BLOCK
  2
*D1328
  3
*D
 10
0.0
 20
0.0
 70
65
  0
LINE
  8
1
  6
CONTINUOUS
 62
4
 10
8.713002E+001
 20
1.9700092E+002
 11
1.1222694E+002
 21
1.9700092E+002
  0
LINE
  8
1
  6
CONTINUOUS
 62
4
 10
5.25316E+001
 20
1.4700092E+002
 11
1.1222694E+002
 21
1.4700092E+002
  0
SOLID
  8
1
  6
CONTINUOUS
 62
0
 10
1.1072694E+002
 20
1.9700092E+002
 11
1.1022694E+002
 21
1.9400092E+002
 12
1.1122694E+002
 22
1.9400092E+002
 13
1.1122694E+002
 23
1.9400092E+002
  0
SOLID
  8
1
  6
CONTINUOUS
 62
0
 10
1.1072694E+002
 20
1.4700092E+002
 11
1.1122694E+002
 21
1.5000092E+002
 12
1.1022694E+002
 22
1.5000092E+002
 13
1.1022694E+002
 23
1.5000092E+002
  0
LINE
  8
1
  6
CONTINUOUS
 62
4
 10
1.1072694E+002
 20
1.9700092E+002
 11
1.1072694E+002
 21
1.7191772E+002
  0
LINE
  8
1
  6
CONTINUOUS
 62
4
 10
1.1072694E+002
 20
1.4700092E+002
 11
1.1072694E+002
 21
1.7191772E+002
  0
TEXT
  8
1
  6
CONTINUOUS
 62
4
 10
1.0922594E+002
 20
1.6951772E+002
 40
3.0
  1
50
 41
8.0E-001
 50
9.0E+001
 51
1.0
  0
ENDBLK
  0
BLOCK
  2
*E1338
  3
*E1338
 10
1.7915874E+002
 20
1.5280092E+002
 70
65
  0
ARC
  8
1
  6
CONTINUOUS
 62
3
 10
1.7915874E+002
 20
1.5280092E+002
 40
8.0E-001
 50
0.0
 51
9.0E+001
  0
ENDBLK
  0
BLOCK
  2
*E1351
  3
*E1351
 10
1.3745874E+002
 20
1.4375092E+002
 70
65
  0
ARC
  8
1
  6
CONTINUOUS
 62
3
 10
1.3745874E+002
 20
1.4375092E+002
 40
5.0E-001
 50
0.0
 51
9.0E+001
  0
ENDBLK
  0
BLOCK
  2
*D1361
  3
*D
 10
0.0
 20
0.0
 70
65
  0
LINE
  8
1
  6
CONTINUOUS
 62
4
 10
8.239991E+001
 20
1.9207762E+002
 11
8.239991E+001
 21
1.1341672E+002
  0
LINE
  8
1
  6
CONTINUOUS
 62
4
 10
3.739988E+001
 20
1.4258692E+002
 11
3.739988E+001
 21
1.1341672E+002
  0
SOLID
  8
1
  6
CONTINUOUS
 62
0
 10
8.239991E+001
 20
1.1491672E+002
 11
7.939991E+001
 21
1.1541672E+002
 12
7.939991E+001
 22
1.1441672E+002
 13
7.939991E+001
 23
1.1441672E+002
  0
SOLID
  8
1
  6
CONTINUOUS
 62
0
 10
3.739988E+001
 20
1.1491672E+002
 11
4.039988E+001
 21
1.1441672E+002
 12
4.039988E+001
 22
1.1541672E+002
 13
4.039988E+001
 23
1.1541672E+002
  0
LINE
  8
1
  6
CONTINUOUS
 62
4
 10
8.239991E+001
 20
1.1491672E+002
 11
5.972594E+001
 21
1.1491672E+002
  0
LINE
  8
1
  6
CONTINUOUS
 62
4
 10
3.739988E+001
 20
1.1491672E+002
 11
5.972594E+001
 21
1.1491672E+002
  0
TEXT
  8
1
  6
CONTINUOUS
 62
4
 10
5.732594E+001
 20
1.1641772E+002
 40
3.0
  1
45
 41
8.0E-001
 50
3.6E+002
 51
1.0
  0
ENDBLK
  0
BLOCK
  2
*D1363
  3
*D
 10
0.0
 20
0.0
 70
65
  0
LINE
  8
1
  6
CONTINUOUS
 62
4
 10
7.14999E+001
 20
1.8782102E+002
 11
7.14999E+001
 21
2.1041672E+002
  0
LINE
  8
1
  6
CONTINUOUS
 62
4
 10
8.05999E+001
 20
1.8782102E+002
 11
8.05999E+001
 21
2.1041672E+002
  0
SOLID
  8
1
  6
CONTINUOUS
 62
0
 10
7.14999E+001
 20
2.0891672E+002
 11
7.44999E+001
 21
2.0841672E+002
 12
7.44999E+001
 22
2.0941672E+002
 13
7.44999E+001
 23
2.0941672E+002
  0
SOLID
  8
1
  6
CONTINUOUS
 62
0
 10
8.05999E+001
 20
2.0891672E+002
 11
7.75999E+001
 21
2.0941672E+002
 12
7.75999E+001
 22
2.0841672E+002
 13
7.75999E+001
 23
2.0841672E+002
  0
LINE
  8
1
  6
CONTINUOUS
 62
4
 10
7.14999E+001
 20
2.0891672E+002
 11
7.572594E+001
 21
2.0891672E+002
  0
LINE
  8
1
  6
CONTINUOUS
 62
4
 10
8.05999E+001
 20
2.0891672E+002
 11
7.572594E+001
 21
2.0891672E+002
  0
ENDBLK
  0
BLOCK
  2
*D1364
  3
*D
 10
0.0
 20
0.0
 70
65
  0
LINE
  8
1
  6
CONTINUOUS
 62
4
 10
4.239987E+001
 20
1.4258692E+002
 11
4.239987E+001
 21
1.2141672E+002
  0
LINE
  8
1
  6
CONTINUOUS
 62
4
 10
8.239991E+001
 20
1.9207762E+002
 11
8.239991E+001
 21
1.2141672E+002
  0
SOLID
  8
1
  6
CONTINUOUS
 62
0
 10
4.239987E+001
 20
1.2291672E+002
 11
4.539987E+001
 21
1.2241672E+002
 12
4.539987E+001
 22
1.2341672E+002
 13
4.539987E+001
 23
1.2341672E+002
  0
SOLID
  8
1
  6
CONTINUOUS
 62
0
 10
8.239991E+001
 20
1.2291672E+002
 11
7.939991E+001
 21
1.2341672E+002
 12
7.939991E+001
 22
1.2241672E+002
 13
7.939991E+001
 23
1.2241672E+002
  0
LINE
  8
1
  6
CONTINUOUS
 62
4
 10
4.239987E+001
 20
1.2291672E+002
 11
6.172594E+001
 21
1.2291672E+002
  0
LINE
  8
1
  6
CONTINUOUS
 62
4
 10
8.239991E+001
 20
1.2291672E+002
 11
6.172594E+001
 21
1.2291672E+002
  0
TEXT
  8
1
  6
CONTINUOUS
 62
4
 10
5.932594E+001
 20
1.2441772E+002
 40
3.0
  1
40
 41
8.0E-001
 51
1.0
  0
ENDBLK
  0
BLOCK
  2
*D1401
  3
*D
 10
0.0
 20
0.0
 70
65
  0
LINE
  8
1
  6
CONTINUOUS
 62
4
 10
1.8191074E+002
 20
1.8470092E+002
 11
1.9422694E+002
 21
1.8470092E+002
  0
LINE
  8
1
  6
CONTINUOUS
 62
4
 10
1.8191074E+002
 20
1.5930092E+002
 11
1.9422694E+002
 21
1.5930092E+002
  0
SOLID
  8
1
  6
CONTINUOUS
 62
0
 10
1.9272694E+002
 20
1.8470092E+002
 11
1.9222694E+002
 21
1.8170092E+002
 12
1.9322694E+002
 22
1.8170092E+002
 13
1.9322694E+002
 23
1.8170092E+002
  0
SOLID
  8
1
  6
CONTINUOUS
 62
0
 10
1.9272694E+002
 20
1.5930092E+002
 11
1.9322694E+002
 21
1.6230092E+002
 12
1.9222694E+002
 22
1.6230092E+002
 13
1.9222694E+002
 23
1.6230092E+002
  0
LINE
  8
1
  6
CONTINUOUS
 62
4
 10
1.9272694E+002
 20
1.8470092E+002
 11
1.9272694E+002
 21
1.7191772E+002
  0
LINE
  8
1
  6
CONTINUOUS
 62
4
 10
1.9272694E+002
 20
1.5930092E+002
 11
1.9272694E+002
 21
1.7191772E+002
  0
ENDBLK
  0
BLOCK
  2
*E1492
  3
*E1492
 10
3.94499E+001
 20
1.9230092E+002
 70
65
  0
ARC
  8
1
  6
CONTINUOUS
 62
3
 10
3.94499E+001
 20
1.9230092E+002
 40
8.0E-001
 50
1.7999999E+002
 51
2.7E+002
  0
ENDBLK
  0
BLOCK
  2
*E1519
  3
*E1519
 10
4.934989E+001
 20
1.6995092E+002
 70
65
  0
ARC
  8
1
  6
CONTINUOUS
 62
3
 10
4.934989E+001
 20
1.6995092E+002
 40
5.0E-001
 50
0.0
 51
9.0E+001
  0
ENDBLK
  0
BLOCK
  2
*E1520
  3
*E1520
 10
8.534989E+001
 20
1.5170092E+002
 70
65
  0
ARC
  8
1
  6
CONTINUOUS
 62
3
 10
8.534989E+001
 20
1.5170092E+002
 40
8.0E-001
 50
0.0
 51
9.0E+001
  0
ENDBLK
  0
BLOCK
  2
*E1521
  3
*E1521
 10
7.605216E+001
 20
1.5125312E+002
 70
65
  0
ARC
  8
1
  6
CONTINUOUS
 62
3
 10
7.605216E+001
 20
1.5125312E+002
 40
3.522591E-001
 50
2.703412E+002
 51
4.59195E+002
  0
ENDBLK
  0
BLOCK
  2
*E1523
  3
*E1523
 10
6.695215E+001
 20
1.5125312E+002
 70
65
  0
ARC
  8
1
  6
CONTINUOUS
 62
3
 10
6.695215E+001
 20
1.5125312E+002
 40
3.522591E-001
 50
2.703412E+002
 51
4.59195E+002
  0
ENDBLK
  0
BLOCK
  2
*E1524
  3
*E1524
 10
5.785216E+001
 20
1.5125312E+002
 70
65
  0
ARC
  8
1
  6
CONTINUOUS
 62
3
 10
5.785216E+001
 20
1.5125312E+002
 40
3.522591E-001
 50
2.703412E+002
 51
4.59195E+002
  0
ENDBLK
  0
BLOCK
  2
*E1525
  3
*E1525
 10
4.875215E+001
 20
1.5125312E+002
 70
65
  0
ARC
  8
1
  6
CONTINUOUS
 62
3
 10
4.875215E+001
 20
1.5125312E+002
 40
3.522591E-001
 50
2.703412E+002
 51
4.59195E+002
  0
ENDBLK
  0
BLOCK
  2
*E1527
  3
*E1527
 10
3.949988E+001
 20
1.5140092E+002
 70
65
  0
ARC
  8
1
  6
CONTINUOUS
 62
3
 10
3.949988E+001
 20
1.5140092E+002
 40
5.0E-001
 50
0.0
 51
9.0E+001
  0
ENDBLK
  0
BLOCK
  2
*E1531
  3
*E1531
 10
8.52999E+001
 20
1.9260092E+002
 70
65
  0
ARC
  8
1
  6
CONTINUOUS
 62
3
 10
8.52999E+001
 20
1.9260092E+002
 40
5.0E-001
 50
1.7999999E+002
 51
2.7E+002
  0
ENDBLK
  0
BLOCK
  2
*E1535
  3
*E1535
 10
8.534989E+001
 20
1.5170092E+002
 70
65
  0
ARC
  8
1
  6
CONTINUOUS
 62
3
 10
8.534989E+001
 20
1.5170092E+002
 40
8.0E-001
 50
0.0
 51
9.0E+001
  0
ENDBLK
  0
BLOCK
  2
*E1536
  3
*E1536
 10
3.94499E+001
 20
1.5170092E+002
 70
65
  0
ARC
  8
1
  6
CONTINUOUS
 62
3
 10
3.94499E+001
 20
1.5170092E+002
 40
8.0E-001
 50
2.7E+002
 51
3.6E+002
  0
ENDBLK
  0
BLOCK
  2
*E1538
  3
*E1538
 10
8.53499E+001
 20
1.9230092E+002
 70
65
  0
ARC
  8
1
  6
CONTINUOUS
 62
3
 10
8.53499E+001
 20
1.9230092E+002
 40
8.0E-001
 50
9.0E+001
 51
1.7999999E+002
  0
ENDBLK
  0
BLOCK
  2
*E1539
  3
*E
 10
0.0
 20
0.0
 70
65
  0
CIRCLE
  8
1
  6
CONTINUOUS
 62
3
 10
0.0
 20
0.0
 40
1.0
  0
ENDBLK
  0
BLOCK
  2
*E1540
  3
*E1540
 10
3.739988E+001
 20
1.4700092E+002
 70
65
  0
ARC
  8
1
  6
CONTINUOUS
 62
3
 10
3.739988E+001
 20
1.4700092E+002
 40
2.25
 50
2.0726605E+002
 51
3.872661E+002
  0
ENDBLK
  0
BLOCK
  2
*E1541
  3
*E1541
 10
8.239991E+001
 20
1.9700092E+002
 70
65
  0
ARC
  8
1
  6
CONTINUOUS
 62
3
 10
8.239991E+001
 20
1.9700092E+002
 40
3.75
 50
9.0E+001
 51
2.7E+002
  0
ENDBLK
  0
BLOCK
  2
*E1542
  3
*E1542
 10
4.739987E+001
 20
1.4700092E+002
 70
65
  0
ARC
  8
1
  6
CONTINUOUS
 62
3
 10
4.739987E+001
 20
1.4700092E+002
 40
3.75
 50
3.490767E+002
 51
4.5E+002
  0
ENDBLK
  0
BLOCK
  2
*E1543
  3
*E1543
 10
3.739988E+001
 20
1.4700092E+002
 70
65
  0
ARC
  8
1
  6
CONTINUOUS
 62
3
 10
3.739988E+001
 20
1.4700092E+002
 40
3.75
 50
2.1934598E+002
 51
3.6E+002
  0
ENDBLK
  0
BLOCK
  2
*E1544
  3
*E1544
 10
4.239987E+001
 20
1.4700092E+002
 70
65
  0
ARC
  8
1
  6
CONTINUOUS
 62
3
 10
4.239987E+001
 20
1.4700092E+002
 40
2.25
 50
3.327339E+002
 51
5.1273393E+002
  0
ENDBLK
  0
BLOCK
  2
*E1545
  3
*E1545
 10
4.739987E+001
 20
1.4700092E+002
 70
65
  0
ARC
  8
1
  6
CONTINUOUS
 62
3
 10
4.739987E+001
 20
1.4700092E+002
 40
2.25
 50
2.0726607E+002
 51
5.1273393E+002
  0
ENDBLK
  0
BLOCK
  2
*E1578
  3
*E1578
 10
4.198453E+001
 20
1.7299412E+002
 70
65
  0
ARC
  8
1
  6
CONTINUOUS
 62
3
 10
4.198453E+001
 20
1.7299412E+002
 40
6.419031E-002
 50
2.0695312E+002
 51
3.79765E+002
  0
ENDBLK
  0
BLOCK
  2
*E1583
  3
*E1583
 10
4.567392E+001
 20
1.7388372E+002
 70
65
  0
ARC
  8
1
  6
CONTINUOUS
 62
3
 10
4.567392E+001
 20
1.7388372E+002
 40
5.0E-001
 50
1.7999999E+002
 51
2.7E+002
  0
ENDBLK
  0
BLOCK
  2
*E1694
  3
*E1694
 10
8.05999E+001
 20
1.8470092E+002
 70
65
  0
ARC
  8
1
  6
CONTINUOUS
 62
3
 10
8.05999E+001
 20
1.8470092E+002
 40
7.5E-001
 50
1.22231E+002
 51
1.4776898E+002
  0
ENDBLK
  0
BLOCK
  2
*E1695
  3
*E1695
 10
8.05999E+001
 20
1.8470092E+002
 70
65
  0
ARC
  8
1
  6
CONTINUOUS
 62
3
 10
8.05999E+001
 20
1.8470092E+002
 40
7.5E-001
 50
3.2231E+001
 51
5.7769E+001
  0
ENDBLK
  0
BLOCK
  2
*E1712
  3
*E1712
 10
7.14999E+001
 20
1.8470092E+002
 70
65
  0
ARC
  8
1
  6
CONTINUOUS
 62
3
 10
7.14999E+001
 20
1.8470092E+002
 40
7.5E-001
 50
1.22231E+002
 51
1.4776898E+002
  0
ENDBLK
  0
BLOCK
  2
*E1713
  3
*E1713
 10
7.14999E+001
 20
1.8470092E+002
 70
65
  0
ARC
  8
1
  6
CONTINUOUS
 62
3
 10
7.14999E+001
 20
1.8470092E+002
 40
7.5E-001
 50
3.2231E+001
 51
5.7769E+001
  0
ENDBLK
  0
BLOCK
  2
*E1732
  3
*E1732
 10
6.239991E+001
 20
1.8470092E+002
 70
65
  0
ARC
  8
1
  6
CONTINUOUS
 62
3
 10
6.239991E+001
 20
1.8470092E+002
 40
7.5E-001
 50
1.22231E+002
 51
1.4776898E+002
  0
ENDBLK
  0
BLOCK
  2
*E1733
  3
*E1733
 10
6.239991E+001
 20
1.8470092E+002
 70
65
  0
ARC
  8
1
  6
CONTINUOUS
 62
3
 10
6.239991E+001
 20
1.8470092E+002
 40
7.5E-001
 50
3.2231E+001
 51
5.7769E+001
  0
ENDBLK
  0
BLOCK
  2
*E1752
  3
*E1752
 10
5.32999E+001
 20
1.8470092E+002
 70
65
  0
ARC
  8
1
  6
CONTINUOUS
 62
3
 10
5.32999E+001
 20
1.8470092E+002
 40
7.5E-001
 50
1.22231E+002
 51
1.4776898E+002
  0
ENDBLK
  0
BLOCK
  2
*E1753
  3
*E1753
 10
5.32999E+001
 20
1.8470092E+002
 70
65
  0
ARC
  8
1
  6
CONTINUOUS
 62
3
 10
5.32999E+001
 20
1.8470092E+002
 40
7.5E-001
 50
3.2231E+001
 51
5.7769E+001
  0
ENDBLK
  0
BLOCK
  2
*E1772
  3
*E1772
 10
4.419989E+001
 20
1.8470092E+002
 70
65
  0
ARC
  8
1
  6
CONTINUOUS
 62
3
 10
4.419989E+001
 20
1.8470092E+002
 40
7.5E-001
 50
1.22231E+002
 51
1.4776898E+002
  0
ENDBLK
  0
BLOCK
  2
*E1773
  3
*E1773
 10
4.419989E+001
 20
1.8470092E+002
 70
65
  0
ARC
  8
1
  6
CONTINUOUS
 62
3
 10
4.419989E+001
 20
1.8470092E+002
 40
7.5E-001
 50
3.2231E+001
 51
5.7769E+001
  0
ENDBLK
  0
BLOCK
  2
*E1792
  3
*E1792
 10
8.059989E+001
 20
1.5930092E+002
 70
65
  0
ARC
  8
1
  6
CONTINUOUS
 62
3
 10
8.059989E+001
 20
1.5930092E+002
 40
7.5E-001
 50
2.1223097E+002
 51
2.3776895E+002
  0
ENDBLK
  0
BLOCK
  2
*E1793
  3
*E1793
 10
8.059989E+001
 20
1.5930092E+002
 70
65
  0
ARC
  8
1
  6
CONTINUOUS
 62
3
 10
8.059989E+001
 20
1.5930092E+002
 40
7.5E-001
 50
3.02231E+002
 51
3.27769E+002
  0
ENDBLK
  0
BLOCK
  2
*E1810
  3
*E1810
 10
7.14999E+001
 20
1.5930092E+002
 70
65
  0
ARC
  8
1
  6
CONTINUOUS
 62
3
 10
7.14999E+001
 20
1.5930092E+002
 40
7.5E-001
 50
2.1223097E+002
 51
2.3776895E+002
  0
ENDBLK
  0
BLOCK
  2
*E1811
  3
*E1811
 10
7.14999E+001
 20
1.5930092E+002
 70
65
  0
ARC
  8
1
  6
CONTINUOUS
 62
3
 10
7.14999E+001
 20
1.5930092E+002
 40
7.5E-001
 50
3.02231E+002
 51
3.27769E+002
  0
ENDBLK
  0
BLOCK
  2
*E1830
  3
*E1830
 10
6.239989E+001
 20
1.5930092E+002
 70
65
  0
ARC
  8
1
  6
CONTINUOUS
 62
3
 10
6.239989E+001
 20
1.5930092E+002
 40
7.5E-001
 50
2.1223097E+002
 51
2.3776895E+002
  0
ENDBLK
  0
BLOCK
  2
*E1831
  3
*E1831
 10
6.239989E+001
 20
1.5930092E+002
 70
65
  0
ARC
  8
1
  6
CONTINUOUS
 62
3
 10
6.239989E+001
 20
1.5930092E+002
 40
7.5E-001
 50
3.02231E+002
 51
3.27769E+002
  0
ENDBLK
  0
BLOCK
  2
*E1850
  3
*E1850
 10
5.32999E+001
 20
1.5930092E+002
 70
65
  0
ARC
  8
1
  6
CONTINUOUS
 62
3
 10
5.32999E+001
 20
1.5930092E+002
 40
7.5E-001
 50
2.1223097E+002
 51
2.3776895E+002
  0
ENDBLK
  0
BLOCK
  2
*E1851
  3
*E1851
 10
5.32999E+001
 20
1.5930092E+002
 70
65
  0
ARC
  8
1
  6
CONTINUOUS
 62
3
 10
5.32999E+001
 20
1.5930092E+002
 40
7.5E-001
 50
3.02231E+002
 51
3.27769E+002
  0
ENDBLK
  0
BLOCK
  2
*E1870
  3
*E1870
 10
4.419989E+001
 20
1.5930092E+002
 70
65
  0
ARC
  8
1
  6
CONTINUOUS
 62
3
 10
4.419989E+001
 20
1.5930092E+002
 40
7.5E-001
 50
2.1223097E+002
 51
2.3776895E+002
  0
ENDBLK
  0
BLOCK
  2
*E1871
  3
*E1871
 10
4.419989E+001
 20
1.5930092E+002
 70
65
  0
ARC
  8
1
  6
CONTINUOUS
 62
3
 10
4.419989E+001
 20
1.5930092E+002
 40
7.5E-001
 50
3.02231E+002
 51
3.27769E+002
  0
ENDBLK
  0
BLOCK
  2
*D1878
  3
*D
 10
0.0
 20
0.0
 70
65
  0
LINE
  8
1
  6
CONTINUOUS
 62
4
 10
7.669999E+001
 20
1.9310092E+002
 11
1.0422694E+002
 21
1.9310092E+002
  0
LINE
  8
1
  6
CONTINUOUS
 62
4
 10
7.669999E+001
 20
1.5090092E+002
 11
1.0422694E+002
 21
1.5090092E+002
  0
SOLID
  8
1
  6
CONTINUOUS
 62
0
 10
1.0272694E+002
 20
1.9310092E+002
 11
1.0222694E+002
 21
1.9010092E+002
 12
1.0322694E+002
 22
1.9010092E+002
 13
1.0322694E+002
 23
1.9010092E+002
  0
SOLID
  8
1
  6
CONTINUOUS
 62
0
 10
1.0272694E+002
 20
1.5090092E+002
 11
1.0322694E+002
 21
1.5390092E+002
 12
1.0222694E+002
 22
1.5390092E+002
 13
1.0222694E+002
 23
1.5390092E+002
  0
LINE
  8
1
  6
CONTINUOUS
 62
4
 10
1.0272694E+002
 20
1.9310092E+002
 11
1.0272694E+002
 21
1.7191772E+002
  0
LINE
  8
1
  6
CONTINUOUS
 62
4
 10
1.0272694E+002
 20
1.5090092E+002
 11
1.0272694E+002
 21
1.7191772E+002
  0
TEXT
  8
1
  6
CONTINUOUS
 62
4
 10
1.0122594E+002
 20
1.6951772E+002
 40
3.0
  1
42
 41
8.0E-001
 50
9.0E+001
 51
1.0
  0
ENDBLK
  0
ENDSEC
  0
SECTION
  2
ENTITIES
  0
INSERT
  2
RAHMENA4
  8
1
 10
0.0
 20
0.0
  0
TEXT
  8
1
  6
CONTINUOUS
 62
4
 10
2.6102902E+001
 20
2.7679117E+001
 40
2.5
  1
 -
 41
7.6E-001
  0
TEXT
  8
1
  6
CONTINUOUS
 62
4
 10
3.3196112E+001
 20
2.7680997E+001
 40
2.212
  1
JL 121 002
 41
7.2872802E-001
  0
POLYLINE
  8
1
  6
CONTINUOUS
 62
3
 66
1
 40
5.0E-001
 41
5.0E-001
 70
0
  0
VERTEX
  8
1
 42
4.1421356E-001
 10
1.3795874E+002
 20
2.0025082E+002
 70
0
  0
VERTEX
  8
1
 42
0.0
 10
1.3745874E+002
 20
2.0075082E+002
 70
0
  0
SEQEND
  0
POLYLINE
  8
1
  6
CONTINUOUS
 62
3
 66
1
 40
5.0E-001
 41
5.0E-001
 70
0
  0
VERTEX
  8
1
 42
4.1421356E-001
 10
1.4495874E+002
 20
1.9210082E+002
 70
0
  0
VERTEX
  8
1
 42
0.0
 10
1.4445874E+002
 20
1.9160082E+002
 70
0
  0
SEQEND
  0
POLYLINE
  8
1
  6
CONTINUOUS
 62
3
 66
1
 40
5.0E-001
 41
5.0E-001
 70
0
  0
VERTEX
  8
1
 42
4.5162701E-002
 10
1.3627912E+002
 20
1.855173E+002
 70
0
  0
VERTEX
  8
1
 42
0.0
 10
1.3645866E+002
 20
1.8450091E+002
 70
0
  0
SEQEND
  0
POLYLINE
  8
1
  6
CONTINUOUS
 62
3
 66
1
 40
5.0E-001
 41
5.0E-001
 70
0
  0
VERTEX
  8
1
 42
5.549069E-002
 10
1.3516657E+002
 20
1.8770087E+002
 70
0
  0
VERTEX
  8
1
 42
0.0
 10
1.3545872E+002
 20
1.8817063E+002
 70
0
  0
SEQEND
  0
POLYLINE
  8
1
  6
CONTINUOUS
 62
3
 66
1
 40
5.0E-001
 41
5.0E-001
 70
0
  0
VERTEX
  8
1
 42
4.1421356E-001
 10
1.4445874E+002
 20
1.5240092E+002
 70
0
  0
VERTEX
  8
1
 42
0.0
 10
1.4495874E+002
 20
1.5190092E+002
 70
0
  0
SEQEND
  0
POLYLINE
  8
1
  6
CONTINUOUS
 62
3
 66
1
 40
5.0E-001
 41
5.0E-001
 70
0
  0
VERTEX
  8
1
 42
0.0
 10
1.3555704E+002
 20
1.5410092E+002
 70
0
  0
VERTEX
  8
1
 42
0.0
 10
1.3345874E+002
 20
1.5353862E+002
 70
0
  0
SEQEND
  0
INSERT
  2
*E1206
  8
1
 10
1.3545874E+002
 20
1.9310092E+002
 41
1.0
 42
1.0
 43
1.0
 50
2.7E+002
 62
3
  0
TEXT
  8
1
  6
CONTINUOUS
 62
4
 10
5.5331342E+001
 20
2.1819187E+002
 40
3.0
  1
47,5
 41
8.0E-001
  0
DIMENSION
  8
1
  6
CONTINUOUS
 62
4
  1
       
  2
*D1208
  3
DSTYLE1
 10
3.864989E+001
 20
2.1691672E+002
 11
6.172594E+001
 21
2.1991772E+002
 70
128
 13
8.614991E+001
 23
1.9120102E+002
 14
3.864989E+001
 24
1.9120102E+002
 40
1.25E-001
 50
0.0
  0
POLYLINE
  8
1
  6
CONTINUOUS
 62
3
 66
1
 40
5.0E-001
 41
5.0E-001
 70
0
  0
VERTEX
  8
1
 42
0.0
 10
1.5455874E+002
 20
1.5090092E+002
 70
0
  0
VERTEX
  8
1
 42
0.0
 10
1.3795874E+002
 20
1.5090092E+002
 70
0
  0
SEQEND
  0
POLYLINE
  8
1
  6
CONTINUOUS
 62
3
 66
1
 40
5.0E-001
 41
5.0E-001
 70
0
  0
VERTEX
  8
1
 42
0.0
 10
1.4495874E+002
 20
1.5190092E+002
 70
0
  0
VERTEX
  8
1
 42
0.0
 10
1.5455874E+002
 20
1.5190092E+002
 70
0
  0
SEQEND
  0
POLYLINE
  8
1
  6
CONTINUOUS
 62
3
 66
1
 40
5.0E-001
 41
5.0E-001
 70
0
  0
VERTEX
  8
1
 42
0.0
 10
1.5455874E+002
 20
1.9210082E+002
 70
0
  0
VERTEX
  8
1
 42
0.0
 10
1.4495874E+002
 20
1.9210082E+002
 70
0
  0
SEQEND
  0
POLYLINE
  8
1
  6
CONTINUOUS
 62
3
 66
1
 40
5.0E-001
 41
5.0E-001
 70
0
  0
VERTEX
  8
1
 42
0.0
 10
1.5455874E+002
 20
1.9310092E+002
 70
0
  0
VERTEX
  8
1
 42
0.0
 10
1.3345874E+002
 20
1.9310092E+002
 70
0
  0
SEQEND
  0
LINE
  8
1
  6
CENTERLINE
 62
1
 10
1.3911924E+002
 20
1.9700082E+002
 11
1.3265094E+002
 21
1.9700082E+002
  0
POLYLINE
  8
1
  6
CONTINUOUS
 62
3
 66
1
 40
5.0E-001
 41
5.0E-001
 70
0
  0
VERTEX
  8
1
 42
0.0
 10
1.3745874E+002
 20
2.0075082E+002
 70
0
  0
VERTEX
  8
1
 42
0.0
 10
1.3345874E+002
 20
2.0075082E+002
 70
0
  0
SEQEND
  0
POLYLINE
  8
1
  6
CONTINUOUS
 62
3
 66
1
 40
5.0E-001
 41
5.0E-001
 70
0
  0
VERTEX
  8
1
 42
0.0
 10
1.5455874E+002
 20
1.9310092E+002
 70
0
  0
VERTEX
  8
1
 42
0.0
 10
1.5455874E+002
 20
1.9210082E+002
 70
0
  0
SEQEND
  0
POLYLINE
  8
1
  6
CONTINUOUS
 62
3
 66
1
 40
5.0E-001
 41
5.0E-001
 70
0
  0
VERTEX
  8
1
 42
0.0
 10
1.5455874E+002
 20
1.5190092E+002
 70
0
  0
VERTEX
  8
1
 42
0.0
 10
1.5455874E+002
 20
1.5090092E+002
 70
0
  0
SEQEND
  0
POLYLINE
  8
1
  6
CONTINUOUS
 62
3
 66
1
 40
5.0E-001
 41
5.0E-001
 70
0
  0
VERTEX
  8
1
 42
0.0
 10
1.3345874E+002
 20
1.5381222E+002
 70
0
  0
VERTEX
  8
1
 42
0.0
 10
1.3345874E+002
 20
1.5090092E+002
 70
0
  0
SEQEND
  0
POLYLINE
  8
1
  6
CONTINUOUS
 62
3
 66
1
 40
5.0E-001
 41
5.0E-001
 70
0
  0
VERTEX
  8
1
 42
0.0
 10
1.3795874E+002
 20
2.0025082E+002
 70
0
  0
VERTEX
  8
1
 42
0.0
 10
1.3795874E+002
 20
1.9310092E+002
 70
0
  0
SEQEND
  0
POLYLINE
  8
1
  6
CONTINUOUS
 62
3
 66
1
 40
5.0E-001
 41
5.0E-001
 70
0
  0
VERTEX
  8
1
 42
0.0
 10
1.3545874E+002
 20
1.9410092E+002
 70
0
  0
VERTEX
  8
1
 42
0.0
 10
1.3345874E+002
 20
1.9410092E+002
 70
0
  0
SEQEND
  0
POLYLINE
  8
1
  6
CONTINUOUS
 62
3
 66
1
 40
5.0E-001
 41
5.0E-001
 70
0
  0
VERTEX
  8
1
 42
0.0
 10
1.3345874E+002
 20
2.0075082E+002
 70
0
  0
VERTEX
  8
1
 42
0.0
 10
1.3345874E+002
 20
1.9410092E+002
 70
0
  0
SEQEND
  0
ARC
  8
1
  6
PHANTOM
 62
4
 10
1.3045874E+002
 20
1.6000092E+002
 40
5.0E-001
 50
1.8E+002
 51
2.7E+002
  0
ARC
  8
1
  6
PHANTOM
 62
4
 10
1.3495874E+002
 20
1.5800092E+002
 40
5.0E-001
 50
0.0
 51
9.0E+001
  0
POLYLINE
  8
1
  6
PHANTOM
 62
4
 66
1
 40
5.0E-001
 41
5.0E-001
 70
0
  0
VERTEX
  8
1
 42
0.0
 10
1.3645874E+002
 20
1.8630092E+002
 70
0
  0
VERTEX
  8
1
 42
0.0
 10
1.3645874E+002
 20
1.8950092E+002
 70
0
  0
SEQEND
  0
ARC
  8
1
  6
PHANTOM
 62
4
 10
1.3075874E+002
 20
1.6030092E+002
 40
1.8
 50
1.8E+002
 51
2.7E+002
  0
LINE
  8
1
  6
PHANTOM
 62
3
 10
1.3645874E+002
 20
1.5770092E+002
 11
1.3645874E+002
 21
1.5450092E+002
  0
POLYLINE
  8
1
  6
CONTINUOUS
 62
3
 66
1
 40
5.0E-001
 41
5.0E-001
 70
0
  0
VERTEX
  8
1
 42
0.0
 10
1.3516654E+002
 20
1.8770082E+002
 70
0
  0
VERTEX
  8
1
 42
0.0
 10
1.3345874E+002
 20
1.8770082E+002
 70
0
  0
SEQEND
  0
POLYLINE
  8
1
  6
CONTINUOUS
 62
3
 66
1
 40
5.0E-001
 41
5.0E-001
 70
0
  0
VERTEX
  8
1
 42
0.0
 10
1.3345874E+002
 20
1.9310092E+002
 70
0
  0
VERTEX
  8
1
 42
0.0
 10
1.3345874E+002
 20
1.8770082E+002
 70
0
  0
SEQEND
  0
POLYLINE
  8
1
  6
CONTINUOUS
 62
3
 66
1
 40
5.0E-001
 41
5.0E-001
 70
0
  0
VERTEX
  8
1
 42
1.6286034E-001
 10
1.3355942E+002
 20
1.5411313E+002
 70
0
  0
VERTEX
  8
1
 42
0.0
 10
1.3345874E+002
 20
1.5381222E+002
 70
0
  0
SEQEND
  0
POLYLINE
  8
1
  6
CONTINUOUS
 62
3
 66
1
 40
5.0E-001
 41
5.0E-001
 70
0
  0
VERTEX
  8
1
 42
0.0
 10
1.3555704E+002
 20
1.5410092E+002
 70
0
  0
VERTEX
  8
1
 42
0.0
 10
1.3645874E+002
 20
1.5410092E+002
 70
0
  0
SEQEND
  0
LINE
  8
1
  6
PHANTOM
 62
3
 10
1.3645684E+002
 20
1.5450092E+002
 11
1.3555704E+002
 21
1.5450092E+002
  0
POLYLINE
  8
1
  6
CONTINUOUS
 62
3
 66
1
 40
5.0E-001
 41
5.0E-001
 70
0
  0
VERTEX
  8
1
 42
0.0
 10
1.3645874E+002
 20
1.8950082E+002
 70
0
  0
VERTEX
  8
1
 42
0.0
 10
1.3585874E+002
 20
1.8950082E+002
 70
0
  0
SEQEND
  0
POLYLINE
  8
1
  6
CONTINUOUS
 62
3
 66
1
 40
5.0E-001
 41
5.0E-001
 70
0
  0
VERTEX
  8
1
 42
0.0
 10
1.3545874E+002
 20
1.5489392E+002
 70
0
  0
VERTEX
  8
1
 42
0.0
 10
1.3518184E+002
 20
1.5600092E+002
 70
0
  0
SEQEND
  0
POLYLINE
  8
1
  6
CONTINUOUS
 62
3
 66
1
 40
5.0E-001
 41
5.0E-001
 70
0
  0
VERTEX
  8
1
 42
0.0
 10
1.3645874E+002
 20
1.5600092E+002
 70
0
  0
VERTEX
  8
1
 42
0.0
 10
1.3645574E+002
 20
1.5600092E+002
 70
0
  0
SEQEND
  0
POLYLINE
  8
1
  6
CONTINUOUS
 62
3
 66
1
 40
5.0E-001
 41
5.0E-001
 70
0
  0
VERTEX
  8
1
 42
0.0
 10
1.3645874E+002
 20
1.8950082E+002
 70
0
  0
VERTEX
  8
1
 42
0.0
 10
1.3645874E+002
 20
1.5410092E+002
 70
0
  0
SEQEND
  0
ARC
  8
1
  6
PHANTOM
 62
4
 10
1.3495874E+002
 20
1.8600092E+002
 40
5.0E-001
 50
2.7E+002
 51
3.6E+002
  0
ARC
  8
1
  6
PHANTOM
 62
4
 10
1.3465874E+002
 20
1.5770092E+002
 40
1.8
 50
0.0
 51
9.0E+001
  0
POLYLINE
  8
1
  6
CONTINUOUS
 62
3
 66
1
 40
5.0E-001
 41
5.0E-001
 70
0
  0
VERTEX
  8
1
 42
0.0
 10
1.3645874E+002
 20
1.9310092E+002
 70
0
  0
VERTEX
  8
1
 42
0.0
 10
1.3645874E+002
 20
1.9700082E+002
 70
0
  0
SEQEND
  0
POLYLINE
  8
1
  6
CONTINUOUS
 62
3
 66
1
 40
5.0E-001
 41
5.0E-001
 70
0
  0
VERTEX
  8
1
 42
0.0
 10
1.4925534E+002
 20
1.9310092E+002
 70
0
  0
VERTEX
  8
1
 42
0.0
 10
1.4925544E+002
 20
1.9310082E+002
 70
0
  0
SEQEND
  0
POLYLINE
  8
1
  6
CONTINUOUS
 62
3
 66
1
 40
5.0E-001
 41
5.0E-001
 70
0
  0
VERTEX
  8
1
 42
0.0
 10
1.4571984E+002
 20
1.9310092E+002
 70
0
  0
VERTEX
  8
1
 42
0.0
 10
1.4571984E+002
 20
1.9310082E+002
 70
0
  0
SEQEND
  0
POLYLINE
  8
1
  6
CONTINUOUS
 62
3
 66
1
 40
5.0E-001
 41
5.0E-001
 70
0
  0
VERTEX
  8
1
 42
0.0
 10
1.4925534E+002
 20
1.9310092E+002
 70
0
  0
VERTEX
  8
1
 42
0.0
 10
1.4925544E+002
 20
1.9310082E+002
 70
0
  0
SEQEND
  0
POLYLINE
  8
1
  6
CONTINUOUS
 62
3
 66
1
 40
5.0E-001
 41
5.0E-001
 70
0
  0
VERTEX
  8
1
 42
0.0
 10
1.3645864E+002
 20
1.8844022E+002
 70
0
  0
VERTEX
  8
1
 42
0.0
 10
1.3645874E+002
 20
1.8844022E+002
 70
0
  0
SEQEND
  0
POLYLINE
  8
1
  6
CONTINUOUS
 62
3
 66
1
 40
5.0E-001
 41
5.0E-001
 70
0
  0
VERTEX
  8
1
 42
0.0
 10
1.3498194E+002
 20
1.5600092E+002
 70
0
  0
VERTEX
  8
1
 42
0.0
 10
1.3355934E+002
 20
1.5411312E+002
 70
0
  0
SEQEND
  0
LINE
  8
1
  6
PHANTOM
 62
3
 10
1.3645674E+002
 20
1.5450082E+002
 11
1.3645684E+002
 21
1.5450082E+002
  0
POLYLINE
  8
1
  6
CONTINUOUS
 62
3
 66
1
 40
5.0E-001
 41
5.0E-001
 70
0
  0
VERTEX
  8
1
 42
0.0
 10
1.3645874E+002
 20
1.5090092E+002
 70
0
  0
VERTEX
  8
1
 42
0.0
 10
1.3345874E+002
 20
1.5090092E+002
 70
0
  0
SEQEND
  0
POLYLINE
  8
1
  6
CONTINUOUS
 62
3
 66
1
 40
5.0E-001
 41
5.0E-001
 70
0
  0
VERTEX
  8
1
 42
0.0
 10
1.3518184E+002
 20
1.5600092E+002
 70
0
  0
VERTEX
  8
1
 42
0.0
 10
1.3498194E+002
 20
1.5600092E+002
 70
0
  0
SEQEND
  0
LINE
  8
1
  6
PHANTOM
 62
4
 10
1.3545874E+002
 20
1.8600092E+002
 11
1.3545874E+002
 21
1.8950092E+002
  0
TEXT
  8
1
  6
CONTINUOUS
 62
4
 10
6.3403108E+001
 20
2.1018699E+002
 40
3.0
  1
9,1
 41
8.0586135E-001
  0
DIMENSION
  8
1
  6
CONTINUOUS
 62
4
  1
     
  2
*D1248
  3
DSTYLE2
 10
7.14999E+001
 20
2.0891672E+002
 11
6.572594E+001
 21
2.1191772E+002
 70
128
 13
6.239991E+001
 23
1.8782102E+002
 14
7.14999E+001
 24
1.8782102E+002
 40
1.25E-001
 50
0.0
  0
TEXT
  8
1
  6
CONTINUOUS
 62
4
 10
1.3731069E+002
 20
2.3641319E+001
 40
3.5
  1
1:1
 41
6.2085333E-001
  0
TEXT
  8
1
  6
CONTINUOUS
 62
4
 10
2.2463678E+001
 20
7.116271E+001
 40
3.0
  1
Anschluesse : 1 ... 2,5mm  mehrdraehtig
 41
7.8139399E-001
  0
TEXT
  8
1
  6
CONTINUOUS
 62
4
 10
7.9161981E+001
 20
6.077188E+001
 40
2.0
  1
2
  0
TEXT
  8
1
  6
CONTINUOUS
 62
4
 10
6.0147687E+001
 20
5.9033457E+001
 40
3.0
  1
... 4 mm  eindraehtig
 41
7.5334285E-001
  0
DIMENSION
  8
1
  6
CONTINUOUS
 62
4
  2
*D1253
  3
DSTYLE1
 10
8.614989E+001
 20
1.638596E+002
 11
8.9045067E+001
 21
1.668606E+002
 70
128
 13
9.214989E+001
 23
1.7000082E+002
 14
8.614989E+001
 24
1.5280102E+002
 40
1.25E-001
 50
0.0
  0
TEXT
  8
1
  6
CONTINUOUS
 62
4
 10
5.3576241E+001
 20
2.2620052E+002
 40
3.0
  1
52,5
 41
8.0E-001
  0
DIMENSION
  8
1
  6
CONTINUOUS
 62
4
  1
       
  2
*D1255
  3
DSTYLE1
 10
3.364988E+001
 20
2.2491672E+002
 11
5.972594E+001
 21
2.2791772E+002
 70
128
 13
8.614991E+001
 23
1.9120102E+002
 14
3.364988E+001
 24
1.4700102E+002
 40
1.25E-001
 50
0.0
  0
POLYLINE
  8
1
  6
CONTINUOUS
 62
3
 66
1
 40
5.0E-001
 41
5.0E-001
 70
0
  0
VERTEX
  8
1
 42
0.0
 10
1.7995874E+002
 20
1.8650092E+002
 70
0
  0
VERTEX
  8
1
 42
0.0
 10
1.7995874E+002
 20
1.7480092E+002
 70
0
  0
SEQEND
  0
TEXT
  8
1
  6
CONTINUOUS
 62
4
 10
2.2253319E+001
 20
4.2003255E+001
 40
3.0
  1
Gewicht : ca. 180g
 41
8.0111221E-001
  0
LINE
  8
1
  6
CONTINUOUS
 62
4
 10
8.904235E+001
 20
1.7296042E+002
 11
1.1108334E+002
 21
2.3908332E+002
  0
LINE
  8
1
  6
CONTINUOUS
 62
4
 10
1.2937124E+002
 20
1.6211052E+002
 11
1.1381284E+002
 21
1.1523078E+002
  0
LINE
  8
1
  6
CONTINUOUS
 62
4
 10
7.1311284E+001
 20
2.3908332E+002
 11
1.1108334E+002
 21
2.3908332E+002
  0
LINE
  8
1
  6
PHANTOM
 62
4
 10
1.3075874E+002
 20
1.8550092E+002
 11
1.3495874E+002
 21
1.8550092E+002
  0
LINE
  8
1
  6
PHANTOM
 62
4
 10
1.3045874E+002
 20
1.5950092E+002
 11
1.3465874E+002
 21
1.5950092E+002
  0
LINE
  8
1
  6
PHANTOM
 62
4
 10
1.3045874E+002
 20
1.8450092E+002
 11
1.3465874E+002
 21
1.8450092E+002
  0
POLYLINE
  8
1
  6
CONTINUOUS
 62
3
 66
1
 40
5.0E-001
 41
5.0E-001
 70
0
  0
VERTEX
  8
1
 42
0.0
 10
1.7015874E+002
 20
1.7440092E+002
 70
0
  0
VERTEX
  8
1
 42
0.0
 10
1.7685874E+002
 20
1.7440092E+002
 70
0
  0
SEQEND
  0
LINE
  8
1
  6
PHANTOM
 62
4
 10
1.3075874E+002
 20
1.5850092E+002
 11
1.3495874E+002
 21
1.5850092E+002
  0
POLYLINE
  8
1
  6
CONTINUOUS
 62
3
 66
1
 40
5.0E-001
 41
5.0E-001
 70
0
  0
VERTEX
  8
1
 42
0.0
 10
1.7795874E+002
 20
1.5190092E+002
 70
0
  0
VERTEX
  8
1
 42
0.0
 10
1.7695874E+002
 20
1.5090092E+002
 70
0
  0
SEQEND
  0
POLYLINE
  8
1
  6
CONTINUOUS
 62
3
 66
1
 40
5.0E-001
 41
5.0E-001
 70
0
  0
VERTEX
  8
1
 42
0.0
 10
1.5495874E+002
 20
1.9195092E+002
 70
0
  0
VERTEX
  8
1
 42
0.0
 10
1.4495874E+002
 20
1.9195092E+002
 70
0
  0
SEQEND
  0
POLYLINE
  8
1
  6
CONTINUOUS
 62
3
 66
1
 40
5.0E-001
 41
5.0E-001
 70
0
  0
VERTEX
  8
1
 42
0.0
 10
1.5495874E+002
 20
1.9310092E+002
 70
0
  0
VERTEX
  8
1
 42
0.0
 10
1.5495874E+002
 20
1.9195092E+002
 70
0
  0
SEQEND
  0
POLYLINE
  8
1
  6
CONTINUOUS
 62
3
 66
1
 40
5.0E-001
 41
5.0E-001
 70
0
  0
VERTEX
  8
1
 42
0.0
 10
1.5495874E+002
 20
1.5205092E+002
 70
0
  0
VERTEX
  8
1
 42
0.0
 10
1.5495874E+002
 20
1.5090092E+002
 70
0
  0
SEQEND
  0
POLYLINE
  8
1
  6
CONTINUOUS
 62
3
 66
1
 40
5.0E-001
 41
5.0E-001
 70
0
  0
VERTEX
  8
1
 42
0.0
 10
1.4645874E+002
 20
1.6945092E+002
 70
0
  0
VERTEX
  8
1
 42
0.0
 10
1.4695874E+002
 20
1.6995092E+002
 70
0
  0
SEQEND
  0
POLYLINE
  8
1
  6
CONTINUOUS
 62
3
 66
1
 40
5.0E-001
 41
5.0E-001
 70
0
  0
VERTEX
  8
1
 42
0.0
 10
1.4645874E+002
 20
1.7455092E+002
 70
0
  0
VERTEX
  8
1
 42
0.0
 10
1.4695874E+002
 20
1.7405092E+002
 70
0
  0
SEQEND
  0
POLYLINE
  8
1
  6
CONTINUOUS
 62
3
 66
1
 40
5.0E-001
 41
5.0E-001
 70
0
  0
VERTEX
  8
1
 42
0.0
 10
1.4495874E+002
 20
1.9195092E+002
 70
0
  0
VERTEX
  8
1
 42
0.0
 10
1.4445874E+002
 20
1.9145092E+002
 70
0
  0
SEQEND
  0
POLYLINE
  8
1
  6
CONTINUOUS
 62
3
 66
1
 40
5.0E-001
 41
5.0E-001
 70
0
  0
VERTEX
  8
1
 42
0.0
 10
1.5205874E+002
 20
1.9460092E+002
 70
0
  0
VERTEX
  8
1
 42
0.0
 10
1.5205874E+002
 20
1.9310092E+002
 70
0
  0
SEQEND
  0
POLYLINE
  8
1
  6
CONTINUOUS
 62
3
 66
1
 40
5.0E-001
 41
5.0E-001
 70
0
  0
VERTEX
  8
1
 42
0.0
 10
1.6055874E+002
 20
1.9460092E+002
 70
0
  0
VERTEX
  8
1
 42
0.0
 10
1.5205874E+002
 20
1.9460092E+002
 70
0
  0
SEQEND
  0
POLYLINE
  8
1
  6
CONTINUOUS
 62
3
 66
1
 40
5.0E-001
 41
5.0E-001
 70
0
  0
VERTEX
  8
1
 42
0.0
 10
1.6075864E+002
 20
1.9440092E+002
 70
0
  0
VERTEX
  8
1
 42
0.0
 10
1.5205874E+002
 20
1.9440092E+002
 70
0
  0
SEQEND
  0
POLYLINE
  8
1
  6
CONTINUOUS
 62
3
 66
1
 40
5.0E-001
 41
5.0E-001
 70
0
  0
VERTEX
  8
1
 42
0.0
 10
1.6185874E+002
 20
1.9330092E+002
 70
0
  0
VERTEX
  8
1
 42
0.0
 10
1.5205874E+002
 20
1.9330092E+002
 70
0
  0
SEQEND
  0
POLYLINE
  8
1
  6
CONTINUOUS
 62
3
 66
1
 40
5.0E-001
 41
5.0E-001
 70
0
  0
VERTEX
  8
1
 42
0.0
 10
1.6995874E+002
 20
1.7455092E+002
 70
0
  0
VERTEX
  8
1
 42
0.0
 10
1.6995874E+002
 20
1.7200092E+002
 70
0
  0
SEQEND
  0
POLYLINE
  8
1
  6
CONTINUOUS
 62
3
 66
1
 40
5.0E-001
 41
5.0E-001
 70
0
  0
VERTEX
  8
1
 42
0.0
 10
1.7795874E+002
 20
1.7455092E+002
 70
0
  0
VERTEX
  8
1
 42
0.0
 10
1.6995874E+002
 20
1.7455092E+002
 70
0
  0
SEQEND
  0
DIMENSION
  8
1
  6
CONTINUOUS
 62
4
  2
*D1280
  3
DSTYLE3
 10
2.872694E+001
 20
1.4940092E+002
 11
2.572594E+001
 21
1.7191772E+002
 70
128
 13
6.439979E+001
 23
1.9460092E+002
 14
6.039979E+001
 24
1.4940092E+002
 40
1.25E-001
 50
9.0E+001
  0
POLYLINE
  8
1
  6
CONTINUOUS
 62
3
 66
1
 40
5.0E-001
 41
5.0E-001
 70
0
  0
VERTEX
  8
1
 42
0.0
 10
1.5495874E+002
 20
1.5205092E+002
 70
0
  0
VERTEX
  8
1
 42
0.0
 10
1.4495874E+002
 20
1.5205092E+002
 70
0
  0
SEQEND
  0
POLYLINE
  8
1
  6
CONTINUOUS
 62
3
 66
1
 40
5.0E-001
 41
5.0E-001
 70
0
  0
VERTEX
  8
1
 42
0.0
 10
1.4445874E+002
 20
1.6945092E+002
 70
0
  0
VERTEX
  8
1
 42
0.0
 10
1.4445874E+002
 20
1.5240092E+002
 70
0
  0
SEQEND
  0
LINE
  8
1
  6
PHANTOM
 62
4
 10
1.3545874E+002
 20
1.5800092E+002
 11
1.3545874E+002
 21
1.5450092E+002
  0
POLYLINE
  8
1
  6
CONTINUOUS
 62
3
 66
1
 40
5.0E-001
 41
5.0E-001
 70
0
  0
VERTEX
  8
1
 42
0.0
 10
1.7795874E+002
 20
1.9210092E+002
 70
0
  0
VERTEX
  8
1
 42
0.0
 10
1.7695874E+002
 20
1.9310092E+002
 70
0
  0
SEQEND
  0
POLYLINE
  8
1
  6
CONTINUOUS
 62
3
 66
1
 40
5.0E-001
 41
5.0E-001
 70
0
  0
VERTEX
  8
1
 42
0.0
 10
1.6205874E+002
 20
1.9310092E+002
 70
0
  0
VERTEX
  8
1
 42
0.0
 10
1.6055874E+002
 20
1.9460092E+002
 70
0
  0
SEQEND
  0
POLYLINE
  8
1
  6
CONTINUOUS
 62
3
 66
1
 40
5.0E-001
 41
5.0E-001
 70
0
  0
VERTEX
  8
1
 42
0.0
 10
1.4645874E+002
 20
1.6945092E+002
 70
0
  0
VERTEX
  8
1
 42
0.0
 10
1.4445874E+002
 20
1.6945092E+002
 70
0
  0
SEQEND
  0
POLYLINE
  8
1
  6
CONTINUOUS
 62
3
 66
1
 40
5.0E-001
 41
5.0E-001
 70
0
  0
VERTEX
  8
1
 42
0.0
 10
1.4695874E+002
 20
1.7405092E+002
 70
0
  0
VERTEX
  8
1
 42
0.0
 10
1.4695874E+002
 20
1.6995092E+002
 70
0
  0
SEQEND
  0
POLYLINE
  8
1
  6
CONTINUOUS
 62
3
 66
1
 40
5.0E-001
 41
5.0E-001
 70
0
  0
VERTEX
  8
1
 42
0.0
 10
1.4645874E+002
 20
1.7455092E+002
 70
0
  0
VERTEX
  8
1
 42
0.0
 10
1.4445874E+002
 20
1.7455092E+002
 70
0
  0
SEQEND
  0
POLYLINE
  8
1
  6
CONTINUOUS
 62
3
 66
1
 40
5.0E-001
 41
5.0E-001
 70
0
  0
VERTEX
  8
1
 42
0.0
 10
1.4445874E+002
 20
1.9160082E+002
 70
0
  0
VERTEX
  8
1
 42
0.0
 10
1.4445874E+002
 20
1.7455092E+002
 70
0
  0
SEQEND
  0
POLYLINE
  8
1
  6
CONTINUOUS
 62
3
 66
1
 40
5.0E-001
 41
5.0E-001
 70
0
  0
VERTEX
  8
1
 42
0.0
 10
1.7695874E+002
 20
1.9310092E+002
 70
0
  0
VERTEX
  8
1
 42
0.0
 10
1.5205874E+002
 20
1.9310092E+002
 70
0
  0
SEQEND
  0
POLYLINE
  8
1
  6
CONTINUOUS
 62
3
 66
1
 40
5.0E-001
 41
5.0E-001
 70
0
  0
VERTEX
  8
1
 42
0.0
 10
1.7695874E+002
 20
1.5090092E+002
 70
0
  0
VERTEX
  8
1
 42
0.0
 10
1.5205874E+002
 20
1.5090092E+002
 70
0
  0
SEQEND
  0
POLYLINE
  8
1
  6
CONTINUOUS
 62
3
 66
1
 40
5.0E-001
 41
5.0E-001
 70
0
  0
VERTEX
  8
1
 42
0.0
 10
1.4495874E+002
 20
1.5205092E+002
 70
0
  0
VERTEX
  8
1
 42
0.0
 10
1.4445874E+002
 20
1.5255092E+002
 70
0
  0
SEQEND
  0
POLYLINE
  8
1
  6
CONTINUOUS
 62
3
 66
1
 40
5.0E-001
 41
5.0E-001
 70
0
  0
VERTEX
  8
1
 42
4.1421356E-001
 10
1.7735874E+002
 20
1.7265092E+002
 70
0
  0
VERTEX
  8
1
 42
0.0
 10
1.7685874E+002
 20
1.7315092E+002
 70
0
  0
SEQEND
  0
POLYLINE
  8
1
  6
CONTINUOUS
 62
3
 66
1
 40
5.0E-001
 41
5.0E-001
 70
0
  0
VERTEX
  8
1
 42
0.0
 10
1.7015874E+002
 20
1.7455092E+002
 70
0
  0
VERTEX
  8
1
 42
0.0
 10
1.7015874E+002
 20
1.6945082E+002
 70
0
  0
SEQEND
  0
POLYLINE
  8
1
  6
LONG_DASH
 62
3
 66
1
 40
5.0E-001
 41
5.0E-001
 70
0
  0
VERTEX
  8
1
 42
0.0
 10
9.214989E+001
 20
1.7000092E+002
 70
0
  0
VERTEX
  8
1
 42
0.0
 10
9.214989E+001
 20
1.7400092E+002
 70
0
  0
SEQEND
  0
TEXT
  8
1
  6
CONTINUOUS
 62
4
 10
3.0820558E+001
 20
9.9978833E+001
 40
3.0
  1
Schaltstellungsanzeige
 41
8.0672693E-001
  0
TEXT
  8
1
  6
CONTINUOUS
 62
4
 10
1.2580622E+002
 20
7.0595253E+001
 40
3.0
  1
Massaenderungen vorbehalten !
 41
8.3323629E-001
  0
TEXT
  8
1
  6
CONTINUOUS
 62
4
 10
9.1970733E+001
 20
2.0364378E+002
 40
3.0
  1
4,5
 41
8.0E-001
 50
9.0E+001
  0
DIMENSION
  8
1
  6
CONTINUOUS
 62
4
  1
      
  2
*D1299
  3
DSTYLE1
 10
9.3550551E+001
 20
1.9925092E+002
 11
9.0549551E+001
 21
2.0181654E+002
 70
128
 13
8.24E+001
 23
1.9475092E+002
 14
8.24E+001
 24
1.9925092E+002
 40
1.25E-001
 50
9.0E+001
  0
TEXT
  8
1
  6
CONTINUOUS
 62
4
 10
1.4519529E+002
 20
2.1018707E+002
 40
3.0
  1
33,5
 41
8.0E-001
  0
DIMENSION
  8
1
  6
CONTINUOUS
 62
4
  1
       
  2
*D1301
  3
DSTYLE1
 10
1.7005874E+002
 20
2.0891672E+002
 11
1.5172594E+002
 21
2.1191772E+002
 70
128
 13
1.3645874E+002
 23
1.8950102E+002
 14
1.7005874E+002
 24
1.8970102E+002
 40
1.25E-001
 50
0.0
  0
POLYLINE
  8
1
  6
CONTINUOUS
 62
3
 66
1
 40
5.0E-001
 41
5.0E-001
 70
0
  0
VERTEX
  8
1
 42
4.1421356E-001
 10
1.7735874E+002
 20
1.7390092E+002
 70
0
  0
VERTEX
  8
1
 42
0.0
 10
1.7685874E+002
 20
1.7440092E+002
 70
0
  0
SEQEND
  0
POLYLINE
  8
1
  6
CONTINUOUS
 62
3
 66
1
 40
5.0E-001
 41
5.0E-001
 70
0
  0
VERTEX
  8
1
 42
4.1421356E-001
 10
1.7685874E+002
 20
1.7085092E+002
 70
0
  0
VERTEX
  8
1
 42
0.0
 10
1.7735874E+002
 20
1.7135092E+002
 70
0
  0
SEQEND
  0
TEXT
  8
1
  6
CONTINUOUS
 62
4
 10
1.4205507E+002
 20
1.3358146E+002
 40
3.0
  1
4,5
 41
8.0E-001
  0
DIMENSION
  8
1
  6
CONTINUOUS
 62
4
  1
      
  2
*D1305
  3
DSTYLE1
 10
1.3345874E+002
 20
1.3230536E+002
 11
1.4688711E+002
 21
1.3530636E+002
 70
128
 13
1.3795874E+002
 23
1.4375082E+002
 14
1.3345874E+002
 24
1.4325082E+002
 40
1.25E-001
 50
0.0
  0
TEXT
  8
1
  6
CONTINUOUS
 62
4
 10
1.5114086E+002
 20
2.1818514E+002
 40
3.0
  1
43,5
 41
8.0E-001
  0
DIMENSION
  8
1
  6
CONTINUOUS
 62
4
  1
       
  2
*D1307
  3
DSTYLE1
 10
1.7995874E+002
 20
2.1691672E+002
 11
1.5772594E+002
 21
2.1991772E+002
 70
128
 13
1.3645874E+002
 23
1.8950102E+002
 14
1.7995874E+002
 24
1.9120102E+002
 40
1.25E-001
 50
0.0
  0
TEXT
  8
1
  6
CONTINUOUS
 62
4
 10
1.1744602E+002
 20
1.6768639E+002
 40
3.0
  1
57,5
 41
8.0E-001
 50
9.0E+001
  0
DIMENSION
  8
1
  6
CONTINUOUS
 62
4
  1
       
  2
*D1309
  3
DSTYLE1
 10
1.1872694E+002
 20
2.0075092E+002
 11
1.1572594E+002
 21
1.7391772E+002
 70
128
 13
4.668937E+001
 23
1.4331882E+002
 14
8.24E+001
 24
2.0075092E+002
 40
1.25E-001
 50
9.0E+001
  0
POLYLINE
  8
1
  6
CONTINUOUS
 62
3
 66
1
 40
5.0E-001
 41
5.0E-001
 70
0
  0
VERTEX
  8
1
 42
4.1421356E-001
 10
1.7685874E+002
 20
1.6960092E+002
 70
0
  0
VERTEX
  8
1
 42
0.0
 10
1.7735874E+002
 20
1.7010092E+002
 70
0
  0
SEQEND
  0
TEXT
  8
1
  6
CONTINUOUS
 62
4
 10
5.4401144E+001
 20
2.1030543E+002
 40
3.0
  1
9,1
 41
8.0586135E-001
  0
DIMENSION
  8
1
  6
CONTINUOUS
 62
4
  1
     
  2
*D1312
  3
DSTYLE1
 10
6.239991E+001
 20
2.0891672E+002
 11
5.772594E+001
 21
2.1191772E+002
 70
128
 13
5.32999E+001
 23
1.8782102E+002
 14
6.239991E+001
 24
1.8782102E+002
 40
1.25E-001
 50
0.0
  0
LINE
  8
1
  6
CONTINUOUS
 62
4
 10
1.1381284E+002
 20
1.1523078E+002
 11
1.7271688E+002
 21
1.1523078E+002
  0
DIMENSION
  8
1
  6
CONTINUOUS
 62
4
  2
*D1315
  3
DSTYLE1
 10
4.739987E+001
 20
1.3091672E+002
 11
6.372594E+001
 21
1.3391772E+002
 70
128
 13
8.239991E+001
 23
1.9207762E+002
 14
4.739987E+001
 24
1.4240962E+002
 40
1.25E-001
 50
0.0
  0
TEXT
  8
1
  6
CONTINUOUS
 62
4
 10
1.4599231E+002
 20
1.0484265E+001
 40
2.2
  1
B6/K6/BC6/KC6/B7/BC7
 41
8.0E-001
 72
1
 11
1.2839231E+002
 21
1.0484265E+001
  0
TEXT
  8
1
  6
CONTINUOUS
 62
4
 10
1.0914874E+002
 20
2.7535655E+001
 40
2.4
  1
14.2.85  Dietzel
 41
6.0E-001
  0
TEXT
  8
1
  6
CONTINUOUS
 62
4
 10
1.4915115E+002
 20
7.338986
 40
5.0
  1
GJL 120 0401
 41
8.0E-001
  0
TEXT
  8
1
  6
CONTINUOUS
 62
4
 10
1.7119066E+002
 20
2.3133701E+001
 40
2.5
  1
X
 41
1.066667
  0
TEXT
  8
1
  6
CONTINUOUS
 62
4
 10
7.5642463E+001
 20
1.4769493E+001
 40
2.5
  1
STO/CLD
 41
1.083333
  0
TEXT
  8
1
  6
CONTINUOUS
 62
4
 10
4.5399179E+001
 20
2.1042388E+002
 40
3.0
  1
9,1
 41
8.0586135E-001
  0
DIMENSION
  8
1
  6
CONTINUOUS
 62
4
  1
     
  2
*D1322
  3
DSTYLE1
 10
5.32999E+001
 20
2.0891672E+002
 11
4.772594E+001
 21
2.1191772E+002
 70
128
 13
4.419989E+001
 23
1.8782102E+002
 14
5.32999E+001
 24
1.8782102E+002
 40
1.25E-001
 50
0.0
  0
POLYLINE
  8
1
  6
LONG_DASH
 62
3
 66
1
 40
5.0E-001
 41
5.0E-001
 70
0
  0
VERTEX
  8
1
 42
0.0
 10
9.214989E+001
 20
1.7400092E+002
 70
0
  0
VERTEX
  8
1
 42
0.0
 10
8.614989E+001
 20
1.7400092E+002
 70
0
  0
SEQEND
  0
POLYLINE
  8
1
  6
LONG_DASH
 62
3
 66
1
 40
5.0E-001
 41
5.0E-001
 70
0
  0
VERTEX
  8
1
 42
0.0
 10
9.214989E+001
 20
1.7000092E+002
 70
0
  0
VERTEX
  8
1
 42
0.0
 10
8.614989E+001
 20
1.7000092E+002
 70
0
  0
SEQEND
  0
TEXT
  8
1
  6
CONTINUOUS
 62
4
 10
1.5127488E+002
 20
2.2678873E+002
 40
3.0
  1
46,5
 41
8.0E-001
  0
DIMENSION
  8
1
  6
CONTINUOUS
 62
4
  1
       
  2
*D1326
  3
DSTYLE1
 10
1.3345874E+002
 20
2.2491672E+002
 11
1.5572594E+002
 21
2.2791772E+002
 70
128
 13
1.7995874E+002
 23
1.9120102E+002
 14
1.3345874E+002
 24
2.0075102E+002
 40
1.25E-001
 50
0.0
  0
TEXT
  8
1
  6
CONTINUOUS
 62
4
 10
1.0998069E+002
 20
2.3237293E+001
 40
2.4
  1
2.8.04 SteFei
 41
6.0E-001
  0
DIMENSION
  8
1
  6
CONTINUOUS
 62
4
  2
*D1328
  3
DSTYLE1
 10
1.1072694E+002
 20
1.4700092E+002
 11
1.0772594E+002
 21
1.7191772E+002
 70
128
 13
8.713002E+001
 23
1.9700092E+002
 14
5.25316E+001
 24
1.4700092E+002
 40
1.25E-001
 50
9.0E+001
  0
POLYLINE
  8
1
  6
CONTINUOUS
 62
3
 66
1
 40
5.0E-001
 41
5.0E-001
 70
0
  0
VERTEX
  8
1
 42
0.0
 10
1.7995874E+002
 20
1.8650092E+002
 70
0
  0
VERTEX
  8
1
 42
0.0
 10
1.7995874E+002
 20
1.7275092E+002
 70
0
  0
SEQEND
  0
TEXT
  8
1
  6
CONTINUOUS
 62
4
 10
1.1011934E+002
 20
1.4917883E+001
 40
2.4
  1
2.8.04 GuNi
 41
6.0E-001
  0
POLYLINE
  8
1
  6
CONTINUOUS
 62
3
 66
1
 40
5.0E-001
 41
5.0E-001
 70
0
  0
VERTEX
  8
1
 42
0.0
 10
1.7915874E+002
 20
1.9200092E+002
 70
0
  0
VERTEX
  8
1
 42
0.0
 10
1.7795874E+002
 20
1.9200092E+002
 70
0
  0
SEQEND
  0
POLYLINE
  8
1
  6
CONTINUOUS
 62
3
 66
1
 40
5.0E-001
 41
5.0E-001
 70
0
  0
VERTEX
  8
1
 42
4.1421356E-001
 10
1.7995874E+002
 20
1.9120092E+002
 70
0
  0
VERTEX
  8
1
 42
0.0
 10
1.7915874E+002
 20
1.9200092E+002
 70
0
  0
SEQEND
  0
POLYLINE
  8
1
  6
CONTINUOUS
 62
3
 66
1
 40
5.0E-001
 41
5.0E-001
 70
0
  0
VERTEX
  8
1
 42
0.0
 10
1.7845874E+002
 20
1.7460092E+002
 70
0
  0
VERTEX
  8
1
 42
0.0
 10
1.7795874E+002
 20
1.7460092E+002
 70
0
  0
SEQEND
  0
POLYLINE
  8
1
  6
CONTINUOUS
 62
3
 66
1
 40
5.0E-001
 41
5.0E-001
 70
0
  0
VERTEX
  8
1
 42
0.0
 10
1.7905874E+002
 20
1.7520092E+002
 70
0
  0
VERTEX
  8
1
 42
0.0
 10
1.7795874E+002
 20
1.7520092E+002
 70
0
  0
SEQEND
  0
POLYLINE
  8
1
  6
CONTINUOUS
 62
3
 66
1
 40
5.0E-001
 41
5.0E-001
 70
0
  0
VERTEX
  8
1
 42
0.0
 10
1.7905874E+002
 20
1.6880092E+002
 70
0
  0
VERTEX
  8
1
 42
0.0
 10
1.7795874E+002
 20
1.6880092E+002
 70
0
  0
SEQEND
  0
POLYLINE
  8
1
  6
CONTINUOUS
 62
3
 66
1
 40
5.0E-001
 41
5.0E-001
 70
0
  0
VERTEX
  8
1
 42
0.0
 10
1.7845874E+002
 20
1.7460092E+002
 70
0
  0
VERTEX
  8
1
 42
0.0
 10
1.7995874E+002
 20
1.7610092E+002
 70
0
  0
SEQEND
  0
POLYLINE
  8
1
  6
CONTINUOUS
 62
3
 66
1
 40
5.0E-001
 41
5.0E-001
 70
0
  0
VERTEX
  8
1
 42
0.0
 10
1.7915874E+002
 20
1.5200092E+002
 70
0
  0
VERTEX
  8
1
 42
0.0
 10
1.7795874E+002
 20
1.5200092E+002
 70
0
  0
SEQEND
  0
INSERT
  2
*E1338
  8
1
 10
1.7915874E+002
 20
1.5280092E+002
 41
1.0
 42
1.0
 43
1.0
 50
2.7E+002
 62
3
  0
POLYLINE
  8
1
  6
CONTINUOUS
 62
3
 66
1
 40
5.0E-001
 41
5.0E-001
 70
0
  0
VERTEX
  8
1
 42
0.0
 10
1.7015874E+002
 20
1.6960092E+002
 70
0
  0
VERTEX
  8
1
 42
0.0
 10
1.7685874E+002
 20
1.6960092E+002
 70
0
  0
SEQEND
  0
LINE
  8
1
  6
CENTERLINE
 62
1
 10
1.8191064E+002
 20
1.8470092E+002
 11
1.6184814E+002
 21
1.8470092E+002
  0
LINE
  8
1
  6
CENTERLINE
 62
1
 10
1.8191064E+002
 20
1.5930092E+002
 11
1.6204714E+002
 21
1.5930092E+002
  0
POLYLINE
  8
1
  6
CONTINUOUS
 62
3
 66
1
 40
5.0E-001
 41
5.0E-001
 70
0
  0
VERTEX
  8
1
 42
0.0
 10
1.7995874E+002
 20
1.9120092E+002
 70
0
  0
VERTEX
  8
1
 42
0.0
 10
1.7995874E+002
 20
1.7400092E+002
 70
0
  0
SEQEND
  0
POLYLINE
  8
1
  6
CONTINUOUS
 62
3
 66
1
 40
5.0E-001
 41
5.0E-001
 70
0
  0
VERTEX
  8
1
 42
0.0
 10
1.7795874E+002
 20
1.9210092E+002
 70
0
  0
VERTEX
  8
1
 42
0.0
 10
1.7795874E+002
 20
1.7400092E+002
 70
0
  0
SEQEND
  0
POLYLINE
  8
1
  6
CONTINUOUS
 62
3
 66
1
 40
5.0E-001
 41
5.0E-001
 70
0
  0
VERTEX
  8
1
 42
0.0
 10
1.7845874E+002
 20
1.7460092E+002
 70
0
  0
VERTEX
  8
1
 42
0.0
 10
1.7845874E+002
 20
1.7400092E+002
 70
0
  0
SEQEND
  0
POLYLINE
  8
1
  6
CONTINUOUS
 62
3
 66
1
 40
5.0E-001
 41
5.0E-001
 70
0
  0
VERTEX
  8
1
 42
0.0
 10
1.7845874E+002
 20
1.6940092E+002
 70
0
  0
VERTEX
  8
1
 42
0.0
 10
1.7995874E+002
 20
1.6790092E+002
 70
0
  0
SEQEND
  0
POLYLINE
  8
1
  6
CONTINUOUS
 62
3
 66
1
 40
5.0E-001
 41
5.0E-001
 70
0
  0
VERTEX
  8
1
 42
0.0
 10
1.7845874E+002
 20
1.6940092E+002
 70
0
  0
VERTEX
  8
1
 42
0.0
 10
1.7795874E+002
 20
1.6940092E+002
 70
0
  0
SEQEND
  0
POLYLINE
  8
1
  6
CONTINUOUS
 62
3
 66
1
 40
5.0E-001
 41
5.0E-001
 70
0
  0
VERTEX
  8
1
 42
4.1421356E-001
 10
1.3545874E+002
 20
1.4990092E+002
 70
0
  0
VERTEX
  8
1
 42
0.0
 10
1.3645874E+002
 20
1.5090092E+002
 70
0
  0
SEQEND
  0
POLYLINE
  8
1
  6
CONTINUOUS
 62
3
 66
1
 40
5.0E-001
 41
5.0E-001
 70
0
  0
VERTEX
  8
1
 42
0.0
 10
1.3795874E+002
 20
1.4990092E+002
 70
0
  0
VERTEX
  8
1
 42
0.0
 10
1.3345874E+002
 20
1.4990092E+002
 70
0
  0
SEQEND
  0
POLYLINE
  8
1
  6
CONTINUOUS
 62
3
 66
1
 40
5.0E-001
 41
5.0E-001
 70
0
  0
VERTEX
  8
1
 42
0.0
 10
1.3345874E+002
 20
1.4325092E+002
 70
0
  0
VERTEX
  8
1
 42
0.0
 10
1.3345874E+002
 20
1.4990092E+002
 70
0
  0
SEQEND
  0
POLYLINE
  8
1
  6
CONTINUOUS
 62
3
 66
1
 40
5.0E-001
 41
5.0E-001
 70
0
  0
VERTEX
  8
1
 42
0.0
 10
1.3745874E+002
 20
1.4325092E+002
 70
0
  0
VERTEX
  8
1
 42
0.0
 10
1.3345874E+002
 20
1.4325092E+002
 70
0
  0
SEQEND
  0
INSERT
  2
*E1351
  8
1
 10
1.3745874E+002
 20
1.4375092E+002
 41
1.0
 42
1.0
 43
1.0
 50
2.7E+002
 62
3
  0
POLYLINE
  8
1
  6
CONTINUOUS
 62
3
 66
1
 40
5.0E-001
 41
5.0E-001
 70
0
  0
VERTEX
  8
1
 42
0.0
 10
1.3795874E+002
 20
1.4375092E+002
 70
0
  0
VERTEX
  8
1
 42
0.0
 10
1.3795874E+002
 20
1.5090092E+002
 70
0
  0
SEQEND
  0
LINE
  8
1
  6
CENTERLINE
 62
1
 10
1.3911924E+002
 20
1.4700092E+002
 11
1.3265094E+002
 21
1.4700092E+002
  0
POLYLINE
  8
1
  6
CONTINUOUS
 62
3
 66
1
 40
5.0E-001
 41
5.0E-001
 70
0
  0
VERTEX
  8
1
 42
0.0
 10
1.6185874E+002
 20
1.5070082E+002
 70
0
  0
VERTEX
  8
1
 42
0.0
 10
1.5205874E+002
 20
1.5070082E+002
 70
0
  0
SEQEND
  0
POLYLINE
  8
1
  6
CONTINUOUS
 62
3
 66
1
 40
5.0E-001
 41
5.0E-001
 70
0
  0
VERTEX
  8
1
 42
0.0
 10
1.6075864E+002
 20
1.4960092E+002
 70
0
  0
VERTEX
  8
1
 42
0.0
 10
1.5205874E+002
 20
1.4960092E+002
 70
0
  0
SEQEND
  0
POLYLINE
  8
1
  6
CONTINUOUS
 62
3
 66
1
 40
5.0E-001
 41
5.0E-001
 70
0
  0
VERTEX
  8
1
 42
0.0
 10
1.6055874E+002
 20
1.4940092E+002
 70
0
  0
VERTEX
  8
1
 42
0.0
 10
1.5205874E+002
 20
1.4940092E+002
 70
0
  0
SEQEND
  0
POLYLINE
  8
1
  6
CONTINUOUS
 62
3
 66
1
 40
5.0E-001
 41
5.0E-001
 70
0
  0
VERTEX
  8
1
 42
0.0
 10
1.6205874E+002
 20
1.5090092E+002
 70
0
  0
VERTEX
  8
1
 42
0.0
 10
1.6055874E+002
 20
1.4940092E+002
 70
0
  0
SEQEND
  0
POLYLINE
  8
1
  6
CONTINUOUS
 62
3
 66
1
 40
5.0E-001
 41
5.0E-001
 70
0
  0
VERTEX
  8
1
 42
0.0
 10
1.5205874E+002
 20
1.4940092E+002
 70
0
  0
VERTEX
  8
1
 42
0.0
 10
1.5205874E+002
 20
1.5090092E+002
 70
0
  0
SEQEND
  0
POLYLINE
  8
1
  6
CONTINUOUS
 62
3
 66
1
 40
5.0E-001
 41
5.0E-001
 70
0
  0
VERTEX
  8
1
 42
0.0
 10
1.7795874E+002
 20
1.6945082E+002
 70
0
  0
VERTEX
  8
1
 42
0.0
 10
1.6995874E+002
 20
1.6945082E+002
 70
0
  0
SEQEND
  0
POLYLINE
  8
1
  6
CONTINUOUS
 62
3
 66
1
 40
5.0E-001
 41
5.0E-001
 70
0
  0
VERTEX
  8
1
 42
0.0
 10
1.6995874E+002
 20
1.6945082E+002
 70
0
  0
VERTEX
  8
1
 42
0.0
 10
1.6995874E+002
 20
1.7200092E+002
 70
0
  0
SEQEND
  0
DIMENSION
  8
1
  6
CONTINUOUS
 62
4
  2
*D1361
  3
DSTYLE1
 10
3.739988E+001
 20
1.1491672E+002
 11
5.972594E+001
 21
1.1791772E+002
 70
128
 13
8.239991E+001
 23
1.9207762E+002
 14
3.739988E+001
 24
1.4258692E+002
 40
1.25E-001
 50
0.0
  0
TEXT
  8
1
  6
CONTINUOUS
 62
4
 10
7.3234201E+001
 20
2.1018699E+002
 40
3.0
  1
9,1
 41
8.0586135E-001
  0
DIMENSION
  8
1
  6
CONTINUOUS
 62
4
  1
     
  2
*D1363
  3
DSTYLE1
 10
8.05999E+001
 20
2.0891672E+002
 11
7.572594E+001
 21
2.1191772E+002
 70
128
 13
7.14999E+001
 23
1.8782102E+002
 14
8.05999E+001
 24
1.8782102E+002
 40
1.25E-001
 50
0.0
  0
DIMENSION
  8
1
  6
CONTINUOUS
 62
4
  2
*D1364
  3
DSTYLE1
 10
8.239991E+001
 20
1.2291672E+002
 11
6.172594E+001
 21
1.2591772E+002
 70
128
 13
4.239987E+001
 23
1.4258692E+002
 14
8.239991E+001
 24
1.9207762E+002
 40
1.25E-001
 50
0.0
  0
TEXT
  8
1
  6
CONTINUOUS
 62
4
 10
2.6052262E+001
 20
2.3238107E+001
 40
2.5
  1
a
 41
8.666667E-001
  0
TEXT
  8
1
  6
CONTINUOUS
 62
4
 10
2.624576E+001
 20
1.889318E+001
 40
2.5
  1
b
 41
8.666667E-001
  0
TEXT
  8
1
  6
CONTINUOUS
 62
4
 10
1.3049215E+002
 20
4.9126354E+001
 40
3.0
  1
Befestigungsaugen abbrechbar
 41
8.307072E-001
  0
POLYLINE
  8
1
  6
CONTINUOUS
 62
3
 66
1
 40
5.0E-001
 41
5.0E-001
 70
0
  0
VERTEX
  8
1
 42
0.0
 10
1.7685874E+002
 20
1.7315092E+002
 70
0
  0
VERTEX
  8
1
 42
0.0
 10
1.7015874E+002
 20
1.7315092E+002
 70
0
  0
SEQEND
  0
POLYLINE
  8
1
  6
CONTINUOUS
 62
3
 66
1
 40
5.0E-001
 41
5.0E-001
 70
0
  0
VERTEX
  8
1
 42
0.0
 10
1.7015874E+002
 20
1.7085092E+002
 70
0
  0
VERTEX
  8
1
 42
0.0
 10
1.7685874E+002
 20
1.7085092E+002
 70
0
  0
SEQEND
  0
POLYLINE
  8
1
  6
CONTINUOUS
 62
3
 66
1
 40
5.0E-001
 41
5.0E-001
 70
0
  0
VERTEX
  8
1
 42
0.0
 10
1.7735874E+002
 20
1.7010092E+002
 70
0
  0
VERTEX
  8
1
 42
0.0
 10
1.7735874E+002
 20
1.7390092E+002
 70
0
  0
SEQEND
  0
ARC
  8
1
  6
PHANTOM
 62
4
 10
1.3045874E+002
 20
1.8400092E+002
 40
5.0E-001
 50
9.0E+001
 51
1.8E+002
  0
POLYLINE
  8
1
  6
HIDDEN
 62
3
 66
1
 40
5.0E-001
 41
5.0E-001
 70
0
  0
VERTEX
  8
1
 42
0.0
 10
1.7005874E+002
 20
1.5430092E+002
 70
0
  0
VERTEX
  8
1
 42
0.0
 10
1.7005874E+002
 20
1.6430092E+002
 70
0
  0
SEQEND
  0
POLYLINE
  8
1
  6
CONTINUOUS
 62
3
 66
1
 40
5.0E-001
 41
5.0E-001
 70
0
  0
VERTEX
  8
1
 42
0.0
 10
1.7735874E+002
 20
1.7000092E+002
 70
0
  0
VERTEX
  8
1
 42
0.0
 10
1.7948364E+002
 20
1.7000092E+002
 70
0
  0
SEQEND
  0
POLYLINE
  8
1
  6
CONTINUOUS
 62
3
 66
1
 40
5.0E-001
 41
5.0E-001
 70
0
  0
VERTEX
  8
1
 42
0.0
 10
1.7995874E+002
 20
1.6920082E+002
 70
0
  0
VERTEX
  8
1
 42
0.0
 10
1.7995874E+002
 20
1.5750082E+002
 70
0
  0
SEQEND
  0
POLYLINE
  8
1
  6
CONTINUOUS
 62
3
 66
1
 40
5.0E-001
 41
5.0E-001
 70
0
  0
VERTEX
  8
1
 42
0.0
 10
1.7995874E+002
 20
1.7000092E+002
 70
0
  0
VERTEX
  8
1
 42
0.0
 10
1.7995874E+002
 20
1.5280092E+002
 70
0
  0
SEQEND
  0
TEXT
  8
1
  6
CONTINUOUS
 62
4
 10
3.3306961E+001
 20
2.3383828E+001
 40
2.2
  1
JL 121 010
 41
6.8592279E-001
  0
TEXT
  8
1
  6
CONTINUOUS
 62
4
 10
7.1886375E+001
 20
2.4208633E+002
 40
3.0
  1
Handbetaetigung
 41
8.0E-001
  0
LINE
  8
1
  6
PHANTOM
 62
3
 10
1.3545874E+002
 20
1.5450092E+002
 11
1.3645874E+002
 21
1.5450092E+002
  0
ARC
  8
1
  6
PHANTOM
 62
4
 10
1.3465874E+002
 20
1.8630092E+002
 40
1.8
 50
2.7E+002
 51
3.6E+002
  0
POLYLINE
  8
1
  6
PHANTOM
 62
4
 66
1
 40
5.0E-001
 41
5.0E-001
 70
0
  0
VERTEX
  8
1
 42
0.0
 10
1.3645874E+002
 20
1.8950092E+002
 70
0
  0
VERTEX
  8
1
 42
0.0
 10
1.3545874E+002
 20
1.8950092E+002
 70
0
  0
SEQEND
  0
POLYLINE
  8
1
  6
HIDDEN
 62
3
 66
1
 40
5.0E-001
 41
5.0E-001
 70
0
  0
VERTEX
  8
1
 42
0.0
 10
1.7005874E+002
 20
1.6300092E+002
 70
0
  0
VERTEX
  8
1
 42
0.0
 10
1.7285874E+002
 20
1.6300092E+002
 70
0
  0
SEQEND
  0
POLYLINE
  8
1
  6
HIDDEN
 62
3
 66
1
 40
5.0E-001
 41
5.0E-001
 70
0
  0
VERTEX
  8
1
 42
0.0
 10
1.7285874E+002
 20
1.5560092E+002
 70
0
  0
VERTEX
  8
1
 42
0.0
 10
1.7005874E+002
 20
1.5560092E+002
 70
0
  0
SEQEND
  0
POLYLINE
  8
1
  6
HIDDEN
 62
3
 66
1
 40
5.0E-001
 41
5.0E-001
 70
0
  0
VERTEX
  8
1
 42
0.0
 10
1.7285874E+002
 20
1.5560092E+002
 70
0
  0
VERTEX
  8
1
 42
0.0
 10
1.7285874E+002
 20
1.6300092E+002
 70
0
  0
SEQEND
  0
POLYLINE
  8
1
  6
HIDDEN
 62
3
 66
1
 40
5.0E-001
 41
5.0E-001
 70
0
  0
VERTEX
  8
1
 42
0.0
 10
1.7125874E+002
 20
1.5560092E+002
 70
0
  0
VERTEX
  8
1
 42
0.0
 10
1.7125874E+002
 20
1.6300092E+002
 70
0
  0
SEQEND
  0
POLYLINE
  8
1
  6
HIDDEN
 62
3
 66
1
 40
5.0E-001
 41
5.0E-001
 70
0
  0
VERTEX
  8
1
 42
0.0
 10
1.7525874E+002
 20
1.5655092E+002
 70
0
  0
VERTEX
  8
1
 42
0.0
 10
1.7525874E+002
 20
1.6205092E+002
 70
0
  0
SEQEND
  0
POLYLINE
  8
1
  6
HIDDEN
 62
3
 66
1
 40
5.0E-001
 41
5.0E-001
 70
0
  0
VERTEX
  8
1
 42
0.0
 10
1.7525874E+002
 20
1.6205092E+002
 70
0
  0
VERTEX
  8
1
 42
0.0
 10
1.7285874E+002
 20
1.6205092E+002
 70
0
  0
SEQEND
  0
POLYLINE
  8
1
  6
CONTINUOUS
 62
3
 66
1
 40
5.0E-001
 41
5.0E-001
 70
0
  0
VERTEX
  8
1
 42
0.0
 10
1.7795874E+002
 20
1.7000092E+002
 70
0
  0
VERTEX
  8
1
 42
0.0
 10
1.7795874E+002
 20
1.5190092E+002
 70
0
  0
SEQEND
  0
POLYLINE
  8
1
  6
CONTINUOUS
 62
3
 66
1
 40
5.0E-001
 41
5.0E-001
 70
0
  0
VERTEX
  8
1
 42
0.0
 10
1.7735874E+002
 20
1.7400092E+002
 70
0
  0
VERTEX
  8
1
 42
0.0
 10
1.7948364E+002
 20
1.7400092E+002
 70
0
  0
SEQEND
  0
POLYLINE
  8
1
  6
CONTINUOUS
 62
3
 66
1
 40
5.0E-001
 41
5.0E-001
 70
0
  0
VERTEX
  8
1
 42
0.0
 10
1.7995874E+002
 20
1.7125092E+002
 70
0
  0
VERTEX
  8
1
 42
0.0
 10
1.7995874E+002
 20
1.5750082E+002
 70
0
  0
SEQEND
  0
POLYLINE
  8
1
  6
CONTINUOUS
 62
3
 66
1
 40
5.0E-001
 41
5.0E-001
 70
0
  0
VERTEX
  8
1
 42
0.0
 10
1.7745874E+002
 20
1.7125092E+002
 70
0
  0
VERTEX
  8
1
 42
0.0
 10
1.7745874E+002
 20
1.7275092E+002
 70
0
  0
SEQEND
  0
POLYLINE
  8
1
  6
CONTINUOUS
 62
3
 66
1
 40
5.0E-001
 41
5.0E-001
 70
0
  0
VERTEX
  8
1
 42
0.0
 10
1.7845874E+002
 20
1.7000092E+002
 70
0
  0
VERTEX
  8
1
 42
0.0
 10
1.7845874E+002
 20
1.6940092E+002
 70
0
  0
SEQEND
  0
POLYLINE
  8
1
  6
HIDDEN
 62
3
 66
1
 40
5.0E-001
 41
5.0E-001
 70
0
  0
VERTEX
  8
1
 42
0.0
 10
1.6905874E+002
 20
1.5430092E+002
 70
0
  0
VERTEX
  8
1
 42
0.0
 10
1.6905874E+002
 20
1.6430092E+002
 70
0
  0
SEQEND
  0
POLYLINE
  8
1
  6
CONTINUOUS
 62
3
 66
1
 40
5.0E-001
 41
5.0E-001
 70
0
  0
VERTEX
  8
1
 42
0.0
 10
1.7981764E+002
 20
1.7000092E+002
 70
0
  0
VERTEX
  8
1
 42
0.0
 10
1.7933374E+002
 20
1.7000092E+002
 70
0
  0
SEQEND
  0
POLYLINE
  8
1
  6
CONTINUOUS
 62
3
 66
1
 40
5.0E-001
 41
5.0E-001
 70
0
  0
VERTEX
  8
1
 42
0.0
 10
1.7845874E+002
 20
1.7275092E+002
 70
0
  0
VERTEX
  8
1
 42
0.0
 10
1.7845874E+002
 20
1.7125092E+002
 70
0
  0
SEQEND
  0
TEXT
  8
1
  6
CONTINUOUS
 62
4
 10
3.3181662E+001
 20
1.8997167E+001
 40
2.2
  1
JL 121 013
 41
6.8621326E-001
  0
POLYLINE
  8
1
  6
CONTINUOUS
 62
3
 66
1
 40
5.0E-001
 41
5.0E-001
 70
0
  0
VERTEX
  8
1
 42
0.0
 10
1.7995874E+002
 20
1.7000092E+002
 70
0
  0
VERTEX
  8
1
 42
0.0
 10
1.7981764E+002
 20
1.7000092E+002
 70
0
  0
SEQEND
  0
POLYLINE
  8
1
  6
CONTINUOUS
 62
3
 66
1
 40
5.0E-001
 41
5.0E-001
 70
0
  0
VERTEX
  8
1
 42
0.0
 10
1.7995874E+002
 20
1.7400092E+002
 70
0
  0
VERTEX
  8
1
 42
0.0
 10
1.7885164E+002
 20
1.7400092E+002
 70
0
  0
SEQEND
  0
LINE
  8
1
  6
PHANTOM
 62
4
 10
1.2995874E+002
 20
1.6000092E+002
 11
1.2995874E+002
 21
1.8400092E+002
  0
LINE
  8
1
  6
PHANTOM
 62
4
 10
1.2895874E+002
 20
1.6030092E+002
 11
1.2895874E+002
 21
1.8370092E+002
  0
TEXT
  8
1
  6
CONTINUOUS
 62
4
 10
1.914489E+002
 20
1.6560475E+002
 40
3.0
  1
25,4
 41
8.0E-001
 50
9.0E+001
  0
DIMENSION
  8
1
  6
CONTINUOUS
 62
4
  1
       
  2
*D1401
  3
DSTYLE1
 10
1.9272694E+002
 20
1.5930092E+002
 11
1.8972594E+002
 21
1.7191772E+002
 70
128
 13
1.8191074E+002
 23
1.8470092E+002
 14
1.8191074E+002
 24
1.5930092E+002
 40
1.25E-001
 50
9.0E+001
  0
TEXT
  8
1
  6
CONTINUOUS
 62
4
 10
1.2065505E+002
 20
1.1714821E+002
 40
3.0
  1
Hutschiene 35 EN50022
 41
8.0E-001
  0
POLYLINE
  8
1
  6
HIDDEN
 62
3
 66
1
 40
5.0E-001
 41
5.0E-001
 70
0
  0
VERTEX
  8
1
 42
0.0
 10
1.7005874E+002
 20
1.7970092E+002
 70
0
  0
VERTEX
  8
1
 42
0.0
 10
1.7005874E+002
 20
1.8970092E+002
 70
0
  0
SEQEND
  0
POLYLINE
  8
1
  6
HIDDEN
 62
3
 66
1
 40
5.0E-001
 41
5.0E-001
 70
0
  0
VERTEX
  8
1
 42
0.0
 10
1.6905874E+002
 20
1.7970092E+002
 70
0
  0
VERTEX
  8
1
 42
0.0
 10
1.6905874E+002
 20
1.8970092E+002
 70
0
  0
SEQEND
  0
POLYLINE
  8
1
  6
CONTINUOUS
 62
3
 66
1
 40
5.0E-001
 41
5.0E-001
 70
0
  0
VERTEX
  8
1
 42
0.0
 10
1.7745874E+002
 20
1.7275092E+002
 70
0
  0
VERTEX
  8
1
 42
0.0
 10
1.7995874E+002
 20
1.7275092E+002
 70
0
  0
SEQEND
  0
POLYLINE
  8
1
  6
CONTINUOUS
 62
3
 66
1
 40
5.0E-001
 41
5.0E-001
 70
0
  0
VERTEX
  8
1
 42
0.0
 10
1.7745874E+002
 20
1.7125092E+002
 70
0
  0
VERTEX
  8
1
 42
0.0
 10
1.7995874E+002
 20
1.7125092E+002
 70
0
  0
SEQEND
  0
TEXT
  8
1
  6
CONTINUOUS
 62
4
 10
7.2091121E+001
 20
7.373395
 40
4.5
  1
Massbild
 41
8.0E-001
 72
1
 11
5.7691121E+001
 21
7.373395
  0
POLYLINE
  8
1
  6
HIDDEN
 62
3
 66
1
 40
5.0E-001
 41
5.0E-001
 70
0
  0
VERTEX
  8
1
 42
0.0
 10
1.7525874E+002
 20
1.5655092E+002
 70
0
  0
VERTEX
  8
1
 42
0.0
 10
1.7285874E+002
 20
1.5655092E+002
 70
0
  0
SEQEND
  0
POLYLINE
  8
1
  6
HIDDEN
 62
3
 66
1
 40
5.0E-001
 41
5.0E-001
 70
0
  0
VERTEX
  8
1
 42
0.0
 10
1.7005874E+002
 20
1.8840092E+002
 70
0
  0
VERTEX
  8
1
 42
0.0
 10
1.7285874E+002
 20
1.8840092E+002
 70
0
  0
SEQEND
  0
POLYLINE
  8
1
  6
HIDDEN
 62
3
 66
1
 40
5.0E-001
 41
5.0E-001
 70
0
  0
VERTEX
  8
1
 42
0.0
 10
1.7285874E+002
 20
1.8100092E+002
 70
0
  0
VERTEX
  8
1
 42
0.0
 10
1.7005874E+002
 20
1.8100092E+002
 70
0
  0
SEQEND
  0
POLYLINE
  8
1
  6
HIDDEN
 62
3
 66
1
 40
5.0E-001
 41
5.0E-001
 70
0
  0
VERTEX
  8
1
 42
0.0
 10
1.7285874E+002
 20
1.8100092E+002
 70
0
  0
VERTEX
  8
1
 42
0.0
 10
1.7285874E+002
 20
1.8840092E+002
 70
0
  0
SEQEND
  0
POLYLINE
  8
1
  6
HIDDEN
 62
3
 66
1
 40
5.0E-001
 41
5.0E-001
 70
0
  0
VERTEX
  8
1
 42
0.0
 10
1.7125874E+002
 20
1.8100092E+002
 70
0
  0
VERTEX
  8
1
 42
0.0
 10
1.7125874E+002
 20
1.8840092E+002
 70
0
  0
SEQEND
  0
POLYLINE
  8
1
  6
HIDDEN
 62
3
 66
1
 40
5.0E-001
 41
5.0E-001
 70
0
  0
VERTEX
  8
1
 42
0.0
 10
1.7525874E+002
 20
1.8195092E+002
 70
0
  0
VERTEX
  8
1
 42
0.0
 10
1.7525874E+002
 20
1.8745092E+002
 70
0
  0
SEQEND
  0
POLYLINE
  8
1
  6
HIDDEN
 62
3
 66
1
 40
5.0E-001
 41
5.0E-001
 70
0
  0
VERTEX
  8
1
 42
0.0
 10
1.7525874E+002
 20
1.8745092E+002
 70
0
  0
VERTEX
  8
1
 42
0.0
 10
1.7285874E+002
 20
1.8745092E+002
 70
0
  0
SEQEND
  0
POLYLINE
  8
1
  6
HIDDEN
 62
3
 66
1
 40
5.0E-001
 41
5.0E-001
 70
0
  0
VERTEX
  8
1
 42
0.0
 10
1.7525874E+002
 20
1.8195092E+002
 70
0
  0
VERTEX
  8
1
 42
0.0
 10
1.7285874E+002
 20
1.8195092E+002
 70
0
  0
SEQEND
  0
ARC
  8
1
  6
PHANTOM
 62
4
 10
1.3075874E+002
 20
1.8370092E+002
 40
1.8
 50
9.0E+001
 51
1.8E+002
  0
POLYLINE
  8
1
  6
CONTINUOUS
 62
3
 66
1
 40
5.0E-001
 41
5.0E-001
 70
0
  0
VERTEX
  8
1
 42
0.0
 10
8.614989E+001
 20
1.5170092E+002
 70
0
  0
VERTEX
  8
1
 42
0.0
 10
8.614989E+001
 20
1.7200092E+002
 70
0
  0
SEQEND
  0
POLYLINE
  8
1
  6
CONTINUOUS
 62
3
 66
1
 40
5.0E-001
 41
5.0E-001
 70
0
  0
VERTEX
  8
1
 42
0.0
 10
3.864988E+001
 20
1.5190092E+002
 70
0
  0
VERTEX
  8
1
 42
0.0
 10
3.864989E+001
 20
1.7200092E+002
 70
0
  0
SEQEND
  0
POLYLINE
  8
1
  6
CONTINUOUS
 62
3
 66
1
 40
5.0E-001
 41
5.0E-001
 70
0
  0
VERTEX
  8
1
 42
0.0
 10
3.959989E+001
 20
1.6945092E+002
 70
0
  0
VERTEX
  8
1
 42
0.0
 10
3.959989E+001
 20
1.7200092E+002
 70
0
  0
SEQEND
  0
POLYLINE
  8
1
  6
CONTINUOUS
 62
3
 66
1
 40
5.0E-001
 41
5.0E-001
 70
0
  0
VERTEX
  8
1
 42
0.0
 10
4.934989E+001
 20
1.6945092E+002
 70
0
  0
VERTEX
  8
1
 42
0.0
 10
3.864989E+001
 20
1.6945092E+002
 70
0
  0
SEQEND
  0
POLYLINE
  8
1
  6
CONTINUOUS
 62
3
 66
1
 40
5.0E-001
 41
5.0E-001
 70
0
  0
VERTEX
  8
1
 42
0.0
 10
4.984989E+001
 20
1.6995092E+002
 70
0
  0
VERTEX
  8
1
 42
0.0
 10
4.984989E+001
 20
1.7200092E+002
 70
0
  0
SEQEND
  0
POLYLINE
  8
1
  6
CONTINUOUS
 62
3
 66
1
 40
5.0E-001
 41
5.0E-001
 70
0
  0
VERTEX
  8
1
 42
0.0
 10
8.614989E+001
 20
1.5190092E+002
 70
0
  0
VERTEX
  8
1
 42
0.0
 10
8.479988E+001
 20
1.5190092E+002
 70
0
  0
SEQEND
  0
POLYLINE
  8
1
  6
CONTINUOUS
 62
3
 66
1
 40
5.0E-001
 41
5.0E-001
 70
0
  0
VERTEX
  8
1
 42
0.0
 10
8.534989E+001
 20
1.5090092E+002
 70
0
  0
VERTEX
  8
1
 42
0.0
 10
8.529988E+001
 20
1.5090092E+002
 70
0
  0
SEQEND
  0
POLYLINE
  8
1
  6
CONTINUOUS
 62
3
 66
1
 40
5.0E-001
 41
5.0E-001
 70
0
  0
VERTEX
  8
1
 42
0.0
 10
6.389989E+001
 20
1.5070092E+002
 70
0
  0
VERTEX
  8
1
 42
0.0
 10
6.389989E+001
 20
1.5090092E+002
 70
0
  0
SEQEND
  0
POLYLINE
  8
1
  6
CONTINUOUS
 62
3
 66
1
 40
5.0E-001
 41
5.0E-001
 70
0
  0
VERTEX
  8
1
 42
0.0
 10
6.489989E+001
 20
1.5090092E+002
 70
0
  0
VERTEX
  8
1
 42
0.0
 10
5.989989E+001
 20
1.5090092E+002
 70
0
  0
SEQEND
  0
POLYLINE
  8
1
  6
CONTINUOUS
 62
3
 66
1
 40
5.0E-001
 41
5.0E-001
 70
0
  0
VERTEX
  8
1
 42
0.0
 10
6.439989E+001
 20
1.4940092E+002
 70
0
  0
VERTEX
  8
1
 42
0.0
 10
6.039989E+001
 20
1.4940092E+002
 70
0
  0
SEQEND
  0
POLYLINE
  8
1
  6
CONTINUOUS
 62
3
 66
1
 40
5.0E-001
 41
5.0E-001
 70
0
  0
VERTEX
  8
1
 42
0.0
 10
6.439989E+001
 20
1.4940092E+002
 70
0
  0
VERTEX
  8
1
 42
0.0
 10
6.439989E+001
 20
1.4960092E+002
 70
0
  0
SEQEND
  0
POLYLINE
  8
1
  6
CONTINUOUS
 62
3
 66
1
 40
5.0E-001
 41
5.0E-001
 70
0
  0
VERTEX
  8
1
 42
0.0
 10
6.039989E+001
 20
1.4940092E+002
 70
0
  0
VERTEX
  8
1
 42
0.0
 10
6.039989E+001
 20
1.4960092E+002
 70
0
  0
SEQEND
  0
POLYLINE
  8
1
  6
CONTINUOUS
 62
3
 66
1
 40
5.0E-001
 41
5.0E-001
 70
0
  0
VERTEX
  8
1
 42
0.0
 10
6.389989E+001
 20
1.5070092E+002
 70
0
  0
VERTEX
  8
1
 42
0.0
 10
6.439989E+001
 20
1.4960092E+002
 70
0
  0
SEQEND
  0
POLYLINE
  8
1
  6
CONTINUOUS
 62
3
 66
1
 40
5.0E-001
 41
5.0E-001
 70
0
  0
VERTEX
  8
1
 42
0.0
 10
6.089989E+001
 20
1.5070092E+002
 70
0
  0
VERTEX
  8
1
 42
0.0
 10
6.039989E+001
 20
1.4960092E+002
 70
0
  0
SEQEND
  0
POLYLINE
  8
1
  6
CONTINUOUS
 62
3
 66
1
 40
5.0E-001
 41
5.0E-001
 70
0
  0
VERTEX
  8
1
 42
0.0
 10
7.639989E+001
 20
1.5130942E+002
 70
0
  0
VERTEX
  8
1
 42
0.0
 10
7.639989E+001
 20
1.5200092E+002
 70
0
  0
SEQEND
  0
POLYLINE
  8
1
  6
CONTINUOUS
 62
3
 66
1
 40
5.0E-001
 41
5.0E-001
 70
0
  0
VERTEX
  8
1
 42
0.0
 10
7.569989E+001
 20
1.5125102E+002
 70
0
  0
VERTEX
  8
1
 42
0.0
 10
7.569989E+001
 20
1.5200092E+002
 70
0
  0
SEQEND
  0
POLYLINE
  8
1
  6
CONTINUOUS
 62
3
 66
1
 40
5.0E-001
 41
5.0E-001
 70
0
  0
VERTEX
  8
1
 42
0.0
 10
8.479988E+001
 20
1.5140092E+002
 70
0
  0
VERTEX
  8
1
 42
0.0
 10
8.479988E+001
 20
1.5200092E+002
 70
0
  0
SEQEND
  0
POLYLINE
  8
1
  6
CONTINUOUS
 62
3
 66
1
 40
5.0E-001
 41
5.0E-001
 70
0
  0
VERTEX
  8
1
 42
0.0
 10
8.219989E+001
 20
1.5085092E+002
 70
0
  0
VERTEX
  8
1
 42
0.0
 10
8.219989E+001
 20
1.5200092E+002
 70
0
  0
SEQEND
  0
POLYLINE
  8
1
  6
CONTINUOUS
 62
3
 66
1
 40
5.0E-001
 41
5.0E-001
 70
0
  0
VERTEX
  8
1
 42
0.0
 10
8.479988E+001
 20
1.5130092E+002
 70
0
  0
VERTEX
  8
1
 42
0.0
 10
8.219989E+001
 20
1.5130092E+002
 70
0
  0
SEQEND
  0
POLYLINE
  8
1
  6
CONTINUOUS
 62
3
 66
1
 40
5.0E-001
 41
5.0E-001
 70
0
  0
VERTEX
  8
1
 42
0.0
 10
6.729988E+001
 20
1.5130942E+002
 70
0
  0
VERTEX
  8
1
 42
0.0
 10
6.729988E+001
 20
1.5200092E+002
 70
0
  0
SEQEND
  0
POLYLINE
  8
1
  6
CONTINUOUS
 62
3
 66
1
 40
5.0E-001
 41
5.0E-001
 70
0
  0
VERTEX
  8
1
 42
0.0
 10
6.659989E+001
 20
1.5125102E+002
 70
0
  0
VERTEX
  8
1
 42
0.0
 10
6.659989E+001
 20
1.5200092E+002
 70
0
  0
SEQEND
  0
POLYLINE
  8
1
  6
CONTINUOUS
 62
3
 66
1
 40
5.0E-001
 41
5.0E-001
 70
0
  0
VERTEX
  8
1
 42
0.0
 10
5.819989E+001
 20
1.5130942E+002
 70
0
  0
VERTEX
  8
1
 42
0.0
 10
5.819989E+001
 20
1.5200092E+002
 70
0
  0
SEQEND
  0
POLYLINE
  8
1
  6
CONTINUOUS
 62
3
 66
1
 40
5.0E-001
 41
5.0E-001
 70
0
  0
VERTEX
  8
1
 42
0.0
 10
5.74999E+001
 20
1.5125102E+002
 70
0
  0
VERTEX
  8
1
 42
0.0
 10
5.74999E+001
 20
1.5200092E+002
 70
0
  0
SEQEND
  0
POLYLINE
  8
1
  6
CONTINUOUS
 62
3
 66
1
 40
5.0E-001
 41
5.0E-001
 70
0
  0
VERTEX
  8
1
 42
0.0
 10
4.909989E+001
 20
1.5130942E+002
 70
0
  0
VERTEX
  8
1
 42
0.0
 10
4.909989E+001
 20
1.5200092E+002
 70
0
  0
SEQEND
  0
POLYLINE
  8
1
  6
CONTINUOUS
 62
3
 66
1
 40
5.0E-001
 41
5.0E-001
 70
0
  0
VERTEX
  8
1
 42
0.0
 10
4.839989E+001
 20
1.5125102E+002
 70
0
  0
VERTEX
  8
1
 42
0.0
 10
4.839989E+001
 20
1.5200092E+002
 70
0
  0
SEQEND
  0
POLYLINE
  8
1
  6
CONTINUOUS
 62
3
 66
1
 40
5.0E-001
 41
5.0E-001
 70
0
  0
VERTEX
  8
1
 42
0.0
 10
4.809989E+001
 20
1.5200092E+002
 70
0
  0
VERTEX
  8
1
 42
0.0
 10
4.809989E+001
 20
1.5085092E+002
 70
0
  0
SEQEND
  0
POLYLINE
  8
1
  6
CONTINUOUS
 62
3
 66
1
 40
5.0E-001
 41
5.0E-001
 70
0
  0
VERTEX
  8
1
 42
0.0
 10
3.999988E+001
 20
1.5140092E+002
 70
0
  0
VERTEX
  8
1
 42
0.0
 10
3.999988E+001
 20
1.5200092E+002
 70
0
  0
SEQEND
  0
POLYLINE
  8
1
  6
CONTINUOUS
 62
3
 66
1
 40
5.0E-001
 41
5.0E-001
 70
0
  0
VERTEX
  8
1
 42
0.0
 10
3.949988E+001
 20
1.5090092E+002
 70
0
  0
VERTEX
  8
1
 42
0.0
 10
3.94499E+001
 20
1.5090092E+002
 70
0
  0
SEQEND
  0
POLYLINE
  8
1
  6
CONTINUOUS
 62
3
 66
1
 40
5.0E-001
 41
5.0E-001
 70
0
  0
VERTEX
  8
1
 42
0.0
 10
4.259989E+001
 20
1.5085092E+002
 70
0
  0
VERTEX
  8
1
 42
0.0
 10
4.259989E+001
 20
1.5200092E+002
 70
0
  0
SEQEND
  0
POLYLINE
  8
1
  6
CONTINUOUS
 62
3
 66
1
 40
5.0E-001
 41
5.0E-001
 70
0
  0
VERTEX
  8
1
 42
0.0
 10
4.259989E+001
 20
1.5130092E+002
 70
0
  0
VERTEX
  8
1
 42
0.0
 10
3.999988E+001
 20
1.5130092E+002
 70
0
  0
SEQEND
  0
POLYLINE
  8
1
  6
CONTINUOUS
 62
3
 66
1
 40
5.0E-001
 41
5.0E-001
 70
0
  0
VERTEX
  8
1
 42
0.0
 10
7.669989E+001
 20
1.5200092E+002
 70
0
  0
VERTEX
  8
1
 42
0.0
 10
7.669989E+001
 20
1.5085092E+002
 70
0
  0
SEQEND
  0
POLYLINE
  8
1
  6
CONTINUOUS
 62
3
 66
1
 40
5.0E-001
 41
5.0E-001
 70
0
  0
VERTEX
  8
1
 42
0.0
 10
7.664986E+001
 20
1.5200092E+002
 70
0
  0
VERTEX
  8
1
 42
0.0
 10
7.639989E+001
 20
1.5175092E+002
 70
0
  0
SEQEND
  0
POLYLINE
  8
1
  6
CONTINUOUS
 62
3
 66
1
 40
5.0E-001
 41
5.0E-001
 70
0
  0
VERTEX
  8
1
 42
0.0
 10
7.544991E+001
 20
1.5200092E+002
 70
0
  0
VERTEX
  8
1
 42
0.0
 10
7.569989E+001
 20
1.5175092E+002
 70
0
  0
SEQEND
  0
POLYLINE
  8
1
  6
CONTINUOUS
 62
3
 66
1
 40
5.0E-001
 41
5.0E-001
 70
0
  0
VERTEX
  8
1
 42
0.0
 10
6.754987E+001
 20
1.5200092E+002
 70
0
  0
VERTEX
  8
1
 42
0.0
 10
6.729988E+001
 20
1.5175092E+002
 70
0
  0
SEQEND
  0
POLYLINE
  8
1
  6
CONTINUOUS
 62
3
 66
1
 40
5.0E-001
 41
5.0E-001
 70
0
  0
VERTEX
  8
1
 42
0.0
 10
6.63499E+001
 20
1.5200092E+002
 70
0
  0
VERTEX
  8
1
 42
0.0
 10
6.659989E+001
 20
1.5175092E+002
 70
0
  0
SEQEND
  0
POLYLINE
  8
1
  6
CONTINUOUS
 62
3
 66
1
 40
5.0E-001
 41
5.0E-001
 70
0
  0
VERTEX
  8
1
 42
0.0
 10
5.844988E+001
 20
1.5200092E+002
 70
0
  0
VERTEX
  8
1
 42
0.0
 10
5.819989E+001
 20
1.5175092E+002
 70
0
  0
SEQEND
  0
POLYLINE
  8
1
  6
CONTINUOUS
 62
3
 66
1
 40
5.0E-001
 41
5.0E-001
 70
0
  0
VERTEX
  8
1
 42
0.0
 10
5.724991E+001
 20
1.5200092E+002
 70
0
  0
VERTEX
  8
1
 42
0.0
 10
5.74999E+001
 20
1.5175092E+002
 70
0
  0
SEQEND
  0
POLYLINE
  8
1
  6
CONTINUOUS
 62
3
 66
1
 40
5.0E-001
 41
5.0E-001
 70
0
  0
VERTEX
  8
1
 42
0.0
 10
4.934987E+001
 20
1.5200092E+002
 70
0
  0
VERTEX
  8
1
 42
0.0
 10
4.909989E+001
 20
1.5175092E+002
 70
0
  0
SEQEND
  0
POLYLINE
  8
1
  6
CONTINUOUS
 62
3
 66
1
 40
5.0E-001
 41
5.0E-001
 70
0
  0
VERTEX
  8
1
 42
0.0
 10
4.839989E+001
 20
1.5175092E+002
 70
0
  0
VERTEX
  8
1
 42
0.0
 10
4.814991E+001
 20
1.5200092E+002
 70
0
  0
SEQEND
  0
POLYLINE
  8
1
  6
CONTINUOUS
 62
3
 66
1
 40
5.0E-001
 41
5.0E-001
 70
0
  0
VERTEX
  8
1
 42
0.0
 10
8.219989E+001
 20
1.5085092E+002
 70
0
  0
VERTEX
  8
1
 42
0.0
 10
7.669989E+001
 20
1.5085092E+002
 70
0
  0
SEQEND
  0
POLYLINE
  8
1
  6
CONTINUOUS
 62
3
 66
1
 40
5.0E-001
 41
5.0E-001
 70
0
  0
VERTEX
  8
1
 42
0.0
 10
4.809989E+001
 20
1.5085092E+002
 70
0
  0
VERTEX
  8
1
 42
0.0
 10
4.259989E+001
 20
1.5085092E+002
 70
0
  0
SEQEND
  0
POLYLINE
  8
1
  6
CONTINUOUS
 62
3
 66
1
 40
5.0E-001
 41
5.0E-001
 70
0
  0
VERTEX
  8
1
 42
0.0
 10
8.479988E+001
 20
1.5090092E+002
 70
0
  0
VERTEX
  8
1
 42
0.0
 10
8.534989E+001
 20
1.5090092E+002
 70
0
  0
SEQEND
  0
POLYLINE
  8
1
  6
CONTINUOUS
 62
3
 66
1
 40
5.0E-001
 41
5.0E-001
 70
0
  0
VERTEX
  8
1
 42
0.0
 10
8.449988E+001
 20
1.5130092E+002
 70
0
  0
VERTEX
  8
1
 42
0.0
 10
8.479988E+001
 20
1.5090092E+002
 70
0
  0
SEQEND
  0
POLYLINE
  8
1
  6
CONTINUOUS
 62
3
 66
1
 40
5.0E-001
 41
5.0E-001
 70
0
  0
VERTEX
  8
1
 42
0.0
 10
3.949525E+001
 20
1.5090092E+002
 70
0
  0
VERTEX
  8
1
 42
0.0
 10
3.999988E+001
 20
1.5090092E+002
 70
0
  0
SEQEND
  0
POLYLINE
  8
1
  6
CONTINUOUS
 62
3
 66
1
 40
5.0E-001
 41
5.0E-001
 70
0
  0
VERTEX
  8
1
 42
0.0
 10
4.029989E+001
 20
1.5130092E+002
 70
0
  0
VERTEX
  8
1
 42
0.0
 10
3.999988E+001
 20
1.5090092E+002
 70
0
  0
SEQEND
  0
POLYLINE
  8
1
  6
CONTINUOUS
 62
3
 66
1
 40
5.0E-001
 41
5.0E-001
 70
0
  0
VERTEX
  8
1
 42
0.0
 10
6.489989E+001
 20
1.5090092E+002
 70
0
  0
VERTEX
  8
1
 42
0.0
 10
6.489989E+001
 20
1.5200092E+002
 70
0
  0
SEQEND
  0
POLYLINE
  8
1
  6
CONTINUOUS
 62
3
 66
1
 40
5.0E-001
 41
5.0E-001
 70
0
  0
VERTEX
  8
1
 42
0.0
 10
5.989989E+001
 20
1.5090092E+002
 70
0
  0
VERTEX
  8
1
 42
0.0
 10
5.989989E+001
 20
1.5200092E+002
 70
0
  0
SEQEND
  0
POLYLINE
  8
1
  6
CONTINUOUS
 62
3
 66
1
 40
5.0E-001
 41
5.0E-001
 70
0
  0
VERTEX
  8
1
 42
0.0
 10
3.964989E+001
 20
1.6890092E+002
 70
0
  0
VERTEX
  8
1
 42
0.0
 10
3.864989E+001
 20
1.6890092E+002
 70
0
  0
SEQEND
  0
POLYLINE
  8
1
  6
CONTINUOUS
 62
3
 66
1
 40
5.0E-001
 41
5.0E-001
 70
0
  0
VERTEX
  8
1
 42
0.0
 10
8.614991E+001
 20
1.9230092E+002
 70
0
  0
VERTEX
  8
1
 42
0.0
 10
8.614989E+001
 20
1.7200092E+002
 70
0
  0
SEQEND
  0
POLYLINE
  8
1
  6
CONTINUOUS
 62
3
 66
1
 40
5.0E-001
 41
5.0E-001
 70
0
  0
VERTEX
  8
1
 42
0.0
 10
3.864991E+001
 20
1.9230092E+002
 70
0
  0
VERTEX
  8
1
 42
0.0
 10
3.864989E+001
 20
1.7200092E+002
 70
0
  0
SEQEND
  0
POLYLINE
  8
1
  6
CONTINUOUS
 62
3
 66
1
 40
5.0E-001
 41
5.0E-001
 70
0
  0
VERTEX
  8
1
 42
0.0
 10
3.959989E+001
 20
1.7455092E+002
 70
0
  0
VERTEX
  8
1
 42
0.0
 10
3.959989E+001
 20
1.7200092E+002
 70
0
  0
SEQEND
  0
POLYLINE
  8
1
  6
CONTINUOUS
 62
3
 66
1
 40
5.0E-001
 41
5.0E-001
 70
0
  0
VERTEX
  8
1
 42
0.0
 10
4.934989E+001
 20
1.7455092E+002
 70
0
  0
VERTEX
  8
1
 42
0.0
 10
3.864989E+001
 20
1.7455092E+002
 70
0
  0
SEQEND
  0
POLYLINE
  8
1
  6
CONTINUOUS
 62
3
 66
1
 40
5.0E-001
 41
5.0E-001
 70
0
  0
VERTEX
  8
1
 42
0.0
 10
4.984989E+001
 20
1.7405092E+002
 70
0
  0
VERTEX
  8
1
 42
0.0
 10
4.984989E+001
 20
1.7200092E+002
 70
0
  0
SEQEND
  0
POLYLINE
  8
1
  6
CONTINUOUS
 62
3
 66
1
 40
5.0E-001
 41
5.0E-001
 70
0
  0
VERTEX
  8
1
 42
0.0
 10
8.614991E+001
 20
1.9210092E+002
 70
0
  0
VERTEX
  8
1
 42
0.0
 10
8.47999E+001
 20
1.9210092E+002
 70
0
  0
SEQEND
  0
POLYLINE
  8
1
  6
CONTINUOUS
 62
3
 66
1
 40
5.0E-001
 41
5.0E-001
 70
0
  0
VERTEX
  8
1
 42
0.0
 10
8.53499E+001
 20
1.9310092E+002
 70
0
  0
VERTEX
  8
1
 42
0.0
 10
8.52999E+001
 20
1.9310092E+002
 70
0
  0
SEQEND
  0
POLYLINE
  8
1
  6
CONTINUOUS
 62
3
 66
1
 40
5.0E-001
 41
5.0E-001
 70
0
  0
VERTEX
  8
1
 42
0.0
 10
6.389989E+001
 20
1.9330092E+002
 70
0
  0
VERTEX
  8
1
 42
0.0
 10
6.389989E+001
 20
1.9310092E+002
 70
0
  0
SEQEND
  0
POLYLINE
  8
1
  6
CONTINUOUS
 62
3
 66
1
 40
5.0E-001
 41
5.0E-001
 70
0
  0
VERTEX
  8
1
 42
0.0
 10
6.089989E+001
 20
1.9330092E+002
 70
0
  0
VERTEX
  8
1
 42
0.0
 10
6.089989E+001
 20
1.9310092E+002
 70
0
  0
SEQEND
  0
POLYLINE
  8
1
  6
CONTINUOUS
 62
3
 66
1
 40
5.0E-001
 41
5.0E-001
 70
0
  0
VERTEX
  8
1
 42
0.0
 10
6.489989E+001
 20
1.9310092E+002
 70
0
  0
VERTEX
  8
1
 42
0.0
 10
5.989989E+001
 20
1.9310092E+002
 70
0
  0
SEQEND
  0
POLYLINE
  8
1
  6
CONTINUOUS
 62
3
 66
1
 40
5.0E-001
 41
5.0E-001
 70
0
  0
VERTEX
  8
1
 42
0.0
 10
7.639989E+001
 20
1.9269242E+002
 70
0
  0
VERTEX
  8
1
 42
0.0
 10
7.639989E+001
 20
1.9200092E+002
 70
0
  0
SEQEND
  0
POLYLINE
  8
1
  6
CONTINUOUS
 62
3
 66
1
 40
5.0E-001
 41
5.0E-001
 70
0
  0
VERTEX
  8
1
 42
0.0
 10
7.569989E+001
 20
1.9275082E+002
 70
0
  0
VERTEX
  8
1
 42
0.0
 10
7.569989E+001
 20
1.9200092E+002
 70
0
  0
SEQEND
  0
POLYLINE
  8
1
  6
CONTINUOUS
 62
3
 66
1
 40
5.0E-001
 41
5.0E-001
 70
0
  0
VERTEX
  8
1
 42
0.0
 10
7.639989E+001
 20
1.9210092E+002
 70
0
  0
VERTEX
  8
1
 42
0.0
 10
7.569989E+001
 20
1.9210092E+002
 70
0
  0
SEQEND
  0
POLYLINE
  8
1
  6
CONTINUOUS
 62
3
 66
1
 40
5.0E-001
 41
5.0E-001
 70
0
  0
VERTEX
  8
1
 42
0.0
 10
8.47999E+001
 20
1.9260092E+002
 70
0
  0
VERTEX
  8
1
 42
0.0
 10
8.47999E+001
 20
1.9200092E+002
 70
0
  0
SEQEND
  0
POLYLINE
  8
1
  6
CONTINUOUS
 62
3
 66
1
 40
5.0E-001
 41
5.0E-001
 70
0
  0
VERTEX
  8
1
 42
0.0
 10
8.219989E+001
 20
1.9315092E+002
 70
0
  0
VERTEX
  8
1
 42
0.0
 10
8.219989E+001
 20
1.9200092E+002
 70
0
  0
SEQEND
  0
POLYLINE
  8
1
  6
CONTINUOUS
 62
3
 66
1
 40
5.0E-001
 41
5.0E-001
 70
0
  0
VERTEX
  8
1
 42
0.0
 10
8.47999E+001
 20
1.9270092E+002
 70
0
  0
VERTEX
  8
1
 42
0.0
 10
8.219989E+001
 20
1.9270092E+002
 70
0
  0
SEQEND
  0
POLYLINE
  8
1
  6
CONTINUOUS
 62
3
 66
1
 40
5.0E-001
 41
5.0E-001
 70
0
  0
VERTEX
  8
1
 42
0.0
 10
6.72999E+001
 20
1.9210092E+002
 70
0
  0
VERTEX
  8
1
 42
0.0
 10
6.65999E+001
 20
1.9210092E+002
 70
0
  0
SEQEND
  0
POLYLINE
  8
1
  6
CONTINUOUS
 62
3
 66
1
 40
5.0E-001
 41
5.0E-001
 70
0
  0
VERTEX
  8
1
 42
0.0
 10
6.72999E+001
 20
1.9269242E+002
 70
0
  0
VERTEX
  8
1
 42
0.0
 10
6.72999E+001
 20
1.9200092E+002
 70
0
  0
SEQEND
  0
POLYLINE
  8
1
  6
CONTINUOUS
 62
3
 66
1
 40
5.0E-001
 41
5.0E-001
 70
0
  0
VERTEX
  8
1
 42
0.0
 10
6.65999E+001
 20
1.9275082E+002
 70
0
  0
VERTEX
  8
1
 42
0.0
 10
6.65999E+001
 20
1.9200092E+002
 70
0
  0
SEQEND
  0
POLYLINE
  8
1
  6
CONTINUOUS
 62
3
 66
1
 40
5.0E-001
 41
5.0E-001
 70
0
  0
VERTEX
  8
1
 42
0.0
 10
5.819989E+001
 20
1.9210092E+002
 70
0
  0
VERTEX
  8
1
 42
0.0
 10
5.74999E+001
 20
1.9210092E+002
 70
0
  0
SEQEND
  0
POLYLINE
  8
1
  6
CONTINUOUS
 62
3
 66
1
 40
5.0E-001
 41
5.0E-001
 70
0
  0
VERTEX
  8
1
 42
0.0
 10
5.819989E+001
 20
1.9269242E+002
 70
0
  0
VERTEX
  8
1
 42
0.0
 10
5.819989E+001
 20
1.9200092E+002
 70
0
  0
SEQEND
  0
POLYLINE
  8
1
  6
CONTINUOUS
 62
3
 66
1
 40
5.0E-001
 41
5.0E-001
 70
0
  0
VERTEX
  8
1
 42
0.0
 10
5.74999E+001
 20
1.9275082E+002
 70
0
  0
VERTEX
  8
1
 42
0.0
 10
5.74999E+001
 20
1.9200092E+002
 70
0
  0
SEQEND
  0
POLYLINE
  8
1
  6
CONTINUOUS
 62
3
 66
1
 40
5.0E-001
 41
5.0E-001
 70
0
  0
VERTEX
  8
1
 42
0.0
 10
4.90999E+001
 20
1.9210092E+002
 70
0
  0
VERTEX
  8
1
 42
0.0
 10
4.839991E+001
 20
1.9210092E+002
 70
0
  0
SEQEND
  0
POLYLINE
  8
1
  6
CONTINUOUS
 62
3
 66
1
 40
5.0E-001
 41
5.0E-001
 70
0
  0
VERTEX
  8
1
 42
0.0
 10
4.90999E+001
 20
1.9269242E+002
 70
0
  0
VERTEX
  8
1
 42
0.0
 10
4.90999E+001
 20
1.9200092E+002
 70
0
  0
SEQEND
  0
POLYLINE
  8
1
  6
CONTINUOUS
 62
3
 66
1
 40
5.0E-001
 41
5.0E-001
 70
0
  0
VERTEX
  8
1
 42
0.0
 10
4.839991E+001
 20
1.9275082E+002
 70
0
  0
VERTEX
  8
1
 42
0.0
 10
4.839991E+001
 20
1.9200092E+002
 70
0
  0
SEQEND
  0
POLYLINE
  8
1
  6
CONTINUOUS
 62
3
 66
1
 40
5.0E-001
 41
5.0E-001
 70
0
  0
VERTEX
  8
1
 42
0.0
 10
4.80999E+001
 20
1.9200092E+002
 70
0
  0
VERTEX
  8
1
 42
0.0
 10
4.80999E+001
 20
1.9315092E+002
 70
0
  0
SEQEND
  0
POLYLINE
  8
1
  6
CONTINUOUS
 62
3
 66
1
 40
5.0E-001
 41
5.0E-001
 70
0
  0
VERTEX
  8
1
 42
0.0
 10
3.99999E+001
 20
1.9260092E+002
 70
0
  0
VERTEX
  8
1
 42
0.0
 10
3.99999E+001
 20
1.9200092E+002
 70
0
  0
SEQEND
  0
INSERT
  2
*E1492
  8
1
 10
3.94499E+001
 20
1.9230092E+002
 41
1.0
 42
1.0
 43
1.0
 50
2.7E+002
 62
3
  0
POLYLINE
  8
1
  6
CONTINUOUS
 62
3
 66
1
 40
5.0E-001
 41
5.0E-001
 70
0
  0
VERTEX
  8
1
 42
0.0
 10
3.94999E+001
 20
1.9310092E+002
 70
0
  0
VERTEX
  8
1
 42
0.0
 10
3.94499E+001
 20
1.9310092E+002
 70
0
  0
SEQEND
  0
POLYLINE
  8
1
  6
CONTINUOUS
 62
3
 66
1
 40
5.0E-001
 41
5.0E-001
 70
0
  0
VERTEX
  8
1
 42
4.1421356E-001
 10
3.99999E+001
 20
1.9260092E+002
 70
0
  0
VERTEX
  8
1
 42
0.0
 10
3.94999E+001
 20
1.9310092E+002
 70
0
  0
SEQEND
  0
POLYLINE
  8
1
  6
CONTINUOUS
 62
3
 66
1
 40
5.0E-001
 41
5.0E-001
 70
0
  0
VERTEX
  8
1
 42
0.0
 10
3.86753E+001
 20
1.9210092E+002
 70
0
  0
VERTEX
  8
1
 42
0.0
 10
3.99999E+001
 20
1.9210092E+002
 70
0
  0
SEQEND
  0
POLYLINE
  8
1
  6
CONTINUOUS
 62
3
 66
1
 40
5.0E-001
 41
5.0E-001
 70
0
  0
VERTEX
  8
1
 42
0.0
 10
4.259989E+001
 20
1.9315092E+002
 70
0
  0
VERTEX
  8
1
 42
0.0
 10
4.259989E+001
 20
1.9200092E+002
 70
0
  0
SEQEND
  0
POLYLINE
  8
1
  6
CONTINUOUS
 62
3
 66
1
 40
5.0E-001
 41
5.0E-001
 70
0
  0
VERTEX
  8
1
 42
0.0
 10
4.259989E+001
 20
1.9270092E+002
 70
0
  0
VERTEX
  8
1
 42
0.0
 10
3.99999E+001
 20
1.9270092E+002
 70
0
  0
SEQEND
  0
POLYLINE
  8
1
  6
CONTINUOUS
 62
3
 66
1
 40
5.0E-001
 41
5.0E-001
 70
0
  0
VERTEX
  8
1
 42
0.0
 10
7.664991E+001
 20
1.9200092E+002
 70
0
  0
VERTEX
  8
1
 42
0.0
 10
7.639989E+001
 20
1.9225092E+002
 70
0
  0
SEQEND
  0
POLYLINE
  8
1
  6
CONTINUOUS
 62
3
 66
1
 40
5.0E-001
 41
5.0E-001
 70
0
  0
VERTEX
  8
1
 42
0.0
 10
7.544988E+001
 20
1.9200092E+002
 70
0
  0
VERTEX
  8
1
 42
0.0
 10
7.569989E+001
 20
1.9225092E+002
 70
0
  0
SEQEND
  0
POLYLINE
  8
1
  6
CONTINUOUS
 62
3
 66
1
 40
5.0E-001
 41
5.0E-001
 70
0
  0
VERTEX
  8
1
 42
0.0
 10
6.75499E+001
 20
1.9200092E+002
 70
0
  0
VERTEX
  8
1
 42
0.0
 10
6.72999E+001
 20
1.9225092E+002
 70
0
  0
SEQEND
  0
POLYLINE
  8
1
  6
CONTINUOUS
 62
3
 66
1
 40
5.0E-001
 41
5.0E-001
 70
0
  0
VERTEX
  8
1
 42
0.0
 10
6.65999E+001
 20
1.9225092E+002
 70
0
  0
VERTEX
  8
1
 42
0.0
 10
6.634989E+001
 20
1.9200092E+002
 70
0
  0
SEQEND
  0
POLYLINE
  8
1
  6
CONTINUOUS
 62
3
 66
1
 40
5.0E-001
 41
5.0E-001
 70
0
  0
VERTEX
  8
1
 42
0.0
 10
5.844991E+001
 20
1.9200092E+002
 70
0
  0
VERTEX
  8
1
 42
0.0
 10
5.819989E+001
 20
1.9225092E+002
 70
0
  0
SEQEND
  0
POLYLINE
  8
1
  6
CONTINUOUS
 62
3
 66
1
 40
5.0E-001
 41
5.0E-001
 70
0
  0
VERTEX
  8
1
 42
0.0
 10
5.72499E+001
 20
1.9200092E+002
 70
0
  0
VERTEX
  8
1
 42
0.0
 10
5.74999E+001
 20
1.9225092E+002
 70
0
  0
SEQEND
  0
POLYLINE
  8
1
  6
CONTINUOUS
 62
3
 66
1
 40
5.0E-001
 41
5.0E-001
 70
0
  0
VERTEX
  8
1
 42
0.0
 10
4.93499E+001
 20
1.9200092E+002
 70
0
  0
VERTEX
  8
1
 42
0.0
 10
4.90999E+001
 20
1.9225092E+002
 70
0
  0
SEQEND
  0
POLYLINE
  8
1
  6
CONTINUOUS
 62
3
 66
1
 40
5.0E-001
 41
5.0E-001
 70
0
  0
VERTEX
  8
1
 42
0.0
 10
4.814989E+001
 20
1.9200092E+002
 70
0
  0
VERTEX
  8
1
 42
0.0
 10
4.839991E+001
 20
1.9225092E+002
 70
0
  0
SEQEND
  0
POLYLINE
  8
1
  6
CONTINUOUS
 62
3
 66
1
 40
5.0E-001
 41
5.0E-001
 70
0
  0
VERTEX
  8
1
 42
0.0
 10
8.219989E+001
 20
1.9315092E+002
 70
0
  0
VERTEX
  8
1
 42
0.0
 10
7.669989E+001
 20
1.9315092E+002
 70
0
  0
SEQEND
  0
POLYLINE
  8
1
  6
CONTINUOUS
 62
3
 66
1
 40
5.0E-001
 41
5.0E-001
 70
0
  0
VERTEX
  8
1
 42
0.0
 10
4.80999E+001
 20
1.9315092E+002
 70
0
  0
VERTEX
  8
1
 42
0.0
 10
4.259989E+001
 20
1.9315092E+002
 70
0
  0
SEQEND
  0
POLYLINE
  8
1
  6
CONTINUOUS
 62
3
 66
1
 40
5.0E-001
 41
5.0E-001
 70
0
  0
VERTEX
  8
1
 42
0.0
 10
8.47999E+001
 20
1.9310092E+002
 70
0
  0
VERTEX
  8
1
 42
0.0
 10
8.53499E+001
 20
1.9310092E+002
 70
0
  0
SEQEND
  0
POLYLINE
  8
1
  6
CONTINUOUS
 62
3
 66
1
 40
5.0E-001
 41
5.0E-001
 70
0
  0
VERTEX
  8
1
 42
0.0
 10
8.44999E+001
 20
1.9270092E+002
 70
0
  0
VERTEX
  8
1
 42
0.0
 10
8.47999E+001
 20
1.9310092E+002
 70
0
  0
SEQEND
  0
POLYLINE
  8
1
  6
CONTINUOUS
 62
3
 66
1
 40
5.0E-001
 41
5.0E-001
 70
0
  0
VERTEX
  8
1
 42
0.0
 10
3.949528E+001
 20
1.9310092E+002
 70
0
  0
VERTEX
  8
1
 42
0.0
 10
3.99999E+001
 20
1.9310092E+002
 70
0
  0
SEQEND
  0
POLYLINE
  8
1
  6
CONTINUOUS
 62
3
 66
1
 40
5.0E-001
 41
5.0E-001
 70
0
  0
VERTEX
  8
1
 42
0.0
 10
4.02999E+001
 20
1.9270092E+002
 70
0
  0
VERTEX
  8
1
 42
0.0
 10
3.99999E+001
 20
1.9310092E+002
 70
0
  0
SEQEND
  0
POLYLINE
  8
1
  6
CONTINUOUS
 62
3
 66
1
 40
5.0E-001
 41
5.0E-001
 70
0
  0
VERTEX
  8
1
 42
0.0
 10
3.964989E+001
 20
1.7510092E+002
 70
0
  0
VERTEX
  8
1
 42
0.0
 10
3.964989E+001
 20
1.7455092E+002
 70
0
  0
SEQEND
  0
POLYLINE
  8
1
  6
CONTINUOUS
 62
3
 66
1
 40
5.0E-001
 41
5.0E-001
 70
0
  0
VERTEX
  8
1
 42
0.0
 10
3.964989E+001
 20
1.7510092E+002
 70
0
  0
VERTEX
  8
1
 42
0.0
 10
3.864989E+001
 20
1.7510092E+002
 70
0
  0
SEQEND
  0
POLYLINE
  8
1
  6
CONTINUOUS
 62
3
 66
1
 40
5.0E-001
 41
5.0E-001
 70
0
  0
VERTEX
  8
1
 42
0.0
 10
6.089989E+001
 20
1.9330092E+002
 70
0
  0
VERTEX
  8
1
 42
0.0
 10
6.039989E+001
 20
1.9440092E+002
 70
0
  0
SEQEND
  0
POLYLINE
  8
1
  6
CONTINUOUS
 62
3
 66
1
 40
5.0E-001
 41
5.0E-001
 70
0
  0
VERTEX
  8
1
 42
0.0
 10
6.439989E+001
 20
1.9460092E+002
 70
0
  0
VERTEX
  8
1
 42
0.0
 10
6.039989E+001
 20
1.9460092E+002
 70
0
  0
SEQEND
  0
POLYLINE
  8
1
  6
CONTINUOUS
 62
3
 66
1
 40
5.0E-001
 41
5.0E-001
 70
0
  0
VERTEX
  8
1
 42
0.0
 10
6.439989E+001
 20
1.9460092E+002
 70
0
  0
VERTEX
  8
1
 42
0.0
 10
6.439989E+001
 20
1.9440092E+002
 70
0
  0
SEQEND
  0
POLYLINE
  8
1
  6
CONTINUOUS
 62
3
 66
1
 40
5.0E-001
 41
5.0E-001
 70
0
  0
VERTEX
  8
1
 42
0.0
 10
6.039989E+001
 20
1.9460092E+002
 70
0
  0
VERTEX
  8
1
 42
0.0
 10
6.039989E+001
 20
1.9440092E+002
 70
0
  0
SEQEND
  0
POLYLINE
  8
1
  6
CONTINUOUS
 62
3
 66
1
 40
5.0E-001
 41
5.0E-001
 70
0
  0
VERTEX
  8
1
 42
0.0
 10
6.389989E+001
 20
1.9330092E+002
 70
0
  0
VERTEX
  8
1
 42
0.0
 10
6.439989E+001
 20
1.9440092E+002
 70
0
  0
SEQEND
  0
INSERT
  2
*E1519
  8
1
 10
4.934989E+001
 20
1.6995092E+002
 41
1.0
 42
1.0
 43
1.0
 50
2.7E+002
 62
3
  0
INSERT
  2
*E1520
  8
1
 10
8.534989E+001
 20
1.5170092E+002
 41
1.0
 42
1.0
 43
1.0
 50
2.7E+002
 62
3
  0
INSERT
  2
*E1521
  8
1
 10
7.605216E+001
 20
1.5125312E+002
 41
1.0
 42
1.0
 43
1.0
 50
2.7E+002
 62
3
  0
POLYLINE
  8
1
  6
CONTINUOUS
 62
3
 66
1
 40
5.0E-001
 41
5.0E-001
 70
0
  0
VERTEX
  8
1
 42
4.1421356E-001
 10
8.479988E+001
 20
1.5140092E+002
 70
0
  0
VERTEX
  8
1
 42
0.0
 10
8.529988E+001
 20
1.5090092E+002
 70
0
  0
SEQEND
  0
INSERT
  2
*E1523
  8
1
 10
6.695215E+001
 20
1.5125312E+002
 41
1.0
 42
1.0
 43
1.0
 50
2.7E+002
 62
3
  0
INSERT
  2
*E1524
  8
1
 10
5.785216E+001
 20
1.5125312E+002
 41
1.0
 42
1.0
 43
1.0
 50
2.7E+002
 62
3
  0
INSERT
  2
*E1525
  8
1
 10
4.875215E+001
 20
1.5125312E+002
 41
1.0
 42
1.0
 43
1.0
 50
2.7E+002
 62
3
  0
POLYLINE
  8
1
  6
CONTINUOUS
 62
3
 66
1
 40
5.0E-001
 41
5.0E-001
 70
0
  0
VERTEX
  8
1
 42
4.1421356E-001
 10
3.86499E+001
 20
1.5170092E+002
 70
0
  0
VERTEX
  8
1
 42
0.0
 10
3.94499E+001
 20
1.5090092E+002
 70
0
  0
SEQEND
  0
INSERT
  2
*E1527
  8
1
 10
3.949988E+001
 20
1.5140092E+002
 41
1.0
 42
1.0
 43
1.0
 50
2.7E+002
 62
3
  0
POLYLINE
  8
1
  6
CONTINUOUS
 62
3
 66
1
 40
5.0E-001
 41
5.0E-001
 70
0
  0
VERTEX
  8
1
 42
4.1421356E-001
 10
4.984989E+001
 20
1.7405092E+002
 70
0
  0
VERTEX
  8
1
 42
0.0
 10
4.934989E+001
 20
1.7455092E+002
 70
0
  0
SEQEND
  0
POLYLINE
  8
1
  6
CONTINUOUS
 62
3
 66
1
 40
5.0E-001
 41
5.0E-001
 70
0
  0
VERTEX
  8
1
 42
4.1421356E-001
 10
8.61499E+001
 20
1.9230092E+002
 70
0
  0
VERTEX
  8
1
 42
0.0
 10
8.53499E+001
 20
1.9310092E+002
 70
0
  0
SEQEND
  0
POLYLINE
  8
1
  6
CONTINUOUS
 62
3
 66
1
 40
5.0E-001
 41
5.0E-001
 70
0
  0
VERTEX
  8
1
 42
1.0804113
 10
7.6399893E+001
 20
1.9269243E+002
 70
0
  0
VERTEX
  8
1
 42
0.0
 10
7.5699907E+001
 20
1.9275082E+002
 70
0
  0
SEQEND
  0
INSERT
  2
*E1531
  8
1
 10
8.52999E+001
 20
1.9260092E+002
 41
1.0
 42
1.0
 43
1.0
 50
2.7E+002
 62
3
  0
POLYLINE
  8
1
  6
CONTINUOUS
 62
3
 66
1
 40
5.0E-001
 41
5.0E-001
 70
0
  0
VERTEX
  8
1
 42
1.0804113
 10
6.7299903E+001
 20
1.9269243E+002
 70
0
  0
VERTEX
  8
1
 42
0.0
 10
6.6599917E+001
 20
1.9275082E+002
 70
0
  0
SEQEND
  0
POLYLINE
  8
1
  6
CONTINUOUS
 62
3
 66
1
 40
5.0E-001
 41
5.0E-001
 70
0
  0
VERTEX
  8
1
 42
1.0804113
 10
5.8199893E+001
 20
1.9269243E+002
 70
0
  0
VERTEX
  8
1
 42
0.0
 10
5.7499907E+001
 20
1.9275082E+002
 70
0
  0
SEQEND
  0
POLYLINE
  8
1
  6
CONTINUOUS
 62
3
 66
1
 40
5.0E-001
 41
5.0E-001
 70
0
  0
VERTEX
  8
1
 42
1.0804113
 10
4.9099903E+001
 20
1.9269243E+002
 70
0
  0
VERTEX
  8
1
 42
0.0
 10
4.8399917E+001
 20
1.9275082E+002
 70
0
  0
SEQEND
  0
INSERT
  2
*E1535
  8
1
 10
8.534989E+001
 20
1.5170092E+002
 41
1.0
 42
1.0
 43
1.0
 50
2.7E+002
 62
3
  0
INSERT
  2
*E1536
  8
1
 10
3.94499E+001
 20
1.5170092E+002
 41
1.0
 42
1.0
 43
1.0
 50
2.7E+002
 62
3
  0
POLYLINE
  8
1
  6
CONTINUOUS
 62
3
 66
1
 40
5.0E-001
 41
5.0E-001
 70
0
  0
VERTEX
  8
1
 42
4.1421351E-001
 10
3.94499E+001
 20
1.9310092E+002
 70
0
  0
VERTEX
  8
1
 42
0.0
 10
3.86499E+001
 20
1.9230092E+002
 70
0
  0
SEQEND
  0
INSERT
  2
*E1538
  8
1
 10
8.53499E+001
 20
1.9230092E+002
 41
1.0
 42
1.0
 43
1.0
 50
2.7E+002
 62
3
  0
INSERT
  2
*E1539
  8
1
 10
8.239991E+001
 20
1.9700092E+002
 41
2.25
 42
2.25
 43
2.25
 50
2.7E+002
 62
3
  0
INSERT
  2
*E1540
  8
1
 10
3.739988E+001
 20
1.4700092E+002
 41
1.0
 42
1.0
 43
1.0
 50
2.7E+002
 62
3
  0
INSERT
  2
*E1541
  8
1
 10
8.239991E+001
 20
1.9700092E+002
 41
1.0
 42
1.0
 43
1.0
 50
2.7E+002
 62
3
  0
INSERT
  2
*E1542
  8
1
 10
4.739987E+001
 20
1.4700092E+002
 41
1.0
 42
1.0
 43
1.0
 50
2.7E+002
 62
3
  0
INSERT
  2
*E1543
  8
1
 10
3.739988E+001
 20
1.4700092E+002
 41
1.0
 42
1.0
 43
1.0
 50
2.7E+002
 62
3
  0
INSERT
  2
*E1544
  8
1
 10
4.239987E+001
 20
1.4700092E+002
 41
1.0
 42
1.0
 43
1.0
 50
2.7E+002
 62
3
  0
INSERT
  2
*E1545
  8
1
 10
4.739987E+001
 20
1.4700092E+002
 41
1.0
 42
1.0
 43
1.0
 50
2.7E+002
 62
3
  0
POLYLINE
  8
1
  6
CONTINUOUS
 62
3
 66
1
 40
5.0E-001
 41
5.0E-001
 70
0
  0
VERTEX
  8
1
 42
0.0
 10
8.614989E+001
 20
1.5170092E+002
 70
0
  0
VERTEX
  8
1
 42
0.0
 10
8.614991E+001
 20
1.9700092E+002
 70
0
  0
SEQEND
  0
POLYLINE
  8
1
  6
CONTINUOUS
 62
3
 66
1
 40
5.0E-001
 41
5.0E-001
 70
0
  0
VERTEX
  8
1
 42
0.0
 10
4.259989E+001
 20
1.5090092E+002
 70
0
  0
VERTEX
  8
1
 42
0.0
 10
3.94499E+001
 20
1.5090092E+002
 70
0
  0
SEQEND
  0
POLYLINE
  8
1
  6
CONTINUOUS
 62
3
 66
1
 40
5.0E-001
 41
5.0E-001
 70
0
  0
VERTEX
  8
1
 42
0.0
 10
4.259989E+001
 20
1.9310092E+002
 70
0
  0
VERTEX
  8
1
 42
0.0
 10
3.94499E+001
 20
1.9310092E+002
 70
0
  0
SEQEND
  0
POLYLINE
  8
1
  6
CONTINUOUS
 62
3
 66
1
 40
5.0E-001
 41
5.0E-001
 70
0
  0
VERTEX
  8
1
 42
0.0
 10
3.864989E+001
 20
1.4990092E+002
 70
0
  0
VERTEX
  8
1
 42
0.0
 10
3.502238E+001
 20
1.4990092E+002
 70
0
  0
SEQEND
  0
POLYLINE
  8
1
  6
CONTINUOUS
 62
3
 66
1
 40
5.0E-001
 41
5.0E-001
 70
0
  0
VERTEX
  8
1
 42
0.0
 10
7.864991E+001
 20
1.9700092E+002
 70
0
  0
VERTEX
  8
1
 42
0.0
 10
7.864991E+001
 20
1.9315092E+002
 70
0
  0
SEQEND
  0
POLYLINE
  8
1
  6
CONTINUOUS
 62
3
 66
1
 40
5.0E-001
 41
5.0E-001
 70
0
  0
VERTEX
  8
1
 42
0.0
 10
5.114987E+001
 20
1.4700092E+002
 70
0
  0
VERTEX
  8
1
 42
0.0
 10
5.114987E+001
 20
1.4990092E+002
 70
0
  0
SEQEND
  0
POLYLINE
  8
1
  6
CONTINUOUS
 62
3
 66
1
 40
5.0E-001
 41
5.0E-001
 70
0
  0
VERTEX
  8
1
 42
0.0
 10
4.668927E+001
 20
1.4331882E+002
 70
0
  0
VERTEX
  8
1
 42
0.0
 10
3.739988E+001
 20
1.4331882E+002
 70
0
  0
SEQEND
  0
POLYLINE
  8
1
  6
CONTINUOUS
 62
3
 66
1
 40
5.0E-001
 41
5.0E-001
 70
0
  0
VERTEX
  8
1
 42
0.0
 10
3.864989E+001
 20
1.5170092E+002
 70
0
  0
VERTEX
  8
1
 42
0.0
 10
3.864989E+001
 20
1.4990092E+002
 70
0
  0
SEQEND
  0
POLYLINE
  8
1
  6
CONTINUOUS
 62
3
 66
1
 40
5.0E-001
 41
5.0E-001
 70
0
  0
VERTEX
  8
1
 42
0.0
 10
4.136911E+001
 20
1.4500092E+002
 70
0
  0
VERTEX
  8
1
 42
0.0
 10
3.843067E+001
 20
1.4500092E+002
 70
0
  0
SEQEND
  0
POLYLINE
  8
1
  6
CONTINUOUS
 62
3
 66
1
 40
5.0E-001
 41
5.0E-001
 70
0
  0
VERTEX
  8
1
 42
0.0
 10
4.343067E+001
 20
1.4900092E+002
 70
0
  0
VERTEX
  8
1
 42
0.0
 10
3.636912E+001
 20
1.4900092E+002
 70
0
  0
SEQEND
  0
POLYLINE
  8
1
  6
CONTINUOUS
 62
3
 66
1
 40
5.0E-001
 41
5.0E-001
 70
0
  0
VERTEX
  8
1
 42
0.0
 10
4.843067E+001
 20
1.4900092E+002
 70
0
  0
VERTEX
  8
1
 42
0.0
 10
4.636911E+001
 20
1.4900092E+002
 70
0
  0
SEQEND
  0
POLYLINE
  8
1
  6
CONTINUOUS
 62
3
 66
1
 40
5.0E-001
 41
5.0E-001
 70
0
  0
VERTEX
  8
1
 42
0.0
 10
5.114987E+001
 20
1.4990092E+002
 70
0
  0
VERTEX
  8
1
 42
0.0
 10
4.614987E+001
 20
1.4990092E+002
 70
0
  0
SEQEND
  0
POLYLINE
  8
1
  6
CONTINUOUS
 62
3
 66
1
 40
5.0E-001
 41
5.0E-001
 70
0
  0
VERTEX
  8
1
 42
0.0
 10
6.444991E+001
 20
1.9310092E+002
 70
0
  0
VERTEX
  8
1
 42
0.0
 10
6.444991E+001
 20
1.9200092E+002
 70
0
  0
SEQEND
  0
POLYLINE
  8
1
  6
CONTINUOUS
 62
3
 66
1
 40
5.0E-001
 41
5.0E-001
 70
0
  0
VERTEX
  8
1
 42
0.0
 10
6.03499E+001
 20
1.9310092E+002
 70
0
  0
VERTEX
  8
1
 42
0.0
 10
6.03499E+001
 20
1.9200092E+002
 70
0
  0
SEQEND
  0
POLYLINE
  8
1
  6
CONTINUOUS
 62
3
 66
1
 40
5.0E-001
 41
5.0E-001
 70
0
  0
VERTEX
  8
1
 42
0.0
 10
6.544989E+001
 20
1.5200092E+002
 70
0
  0
VERTEX
  8
1
 42
0.0
 10
6.544989E+001
 20
1.5090092E+002
 70
0
  0
SEQEND
  0
POLYLINE
  8
1
  6
CONTINUOUS
 62
3
 66
1
 40
5.0E-001
 41
5.0E-001
 70
0
  0
VERTEX
  8
1
 42
0.0
 10
5.934989E+001
 20
1.5200092E+002
 70
0
  0
VERTEX
  8
1
 42
0.0
 10
5.934989E+001
 20
1.5090092E+002
 70
0
  0
SEQEND
  0
POLYLINE
  8
1
  6
CONTINUOUS
 62
3
 66
1
 40
5.0E-001
 41
5.0E-001
 70
0
  0
VERTEX
  8
1
 42
0.0
 10
5.98499E+001
 20
1.9310092E+002
 70
0
  0
VERTEX
  8
1
 42
0.0
 10
5.98499E+001
 20
1.9200092E+002
 70
0
  0
SEQEND
  0
POLYLINE
  8
1
  6
CONTINUOUS
 62
3
 66
1
 40
5.0E-001
 41
5.0E-001
 70
0
  0
VERTEX
  8
1
 42
0.0
 10
6.494991E+001
 20
1.9310092E+002
 70
0
  0
VERTEX
  8
1
 42
0.0
 10
6.494991E+001
 20
1.9200092E+002
 70
0
  0
SEQEND
  0
POLYLINE
  8
1
  6
CONTINUOUS
 62
3
 66
1
 40
5.0E-001
 41
5.0E-001
 70
0
  0
VERTEX
  8
1
 42
0.0
 10
4.614987E+001
 20
1.4990092E+002
 70
0
  0
VERTEX
  8
1
 42
0.0
 10
4.614987E+001
 20
1.5085092E+002
 70
0
  0
SEQEND
  0
POLYLINE
  8
1
  6
CONTINUOUS
 62
3
 66
1
 40
5.0E-001
 41
5.0E-001
 70
0
  0
VERTEX
  8
1
 42
0.0
 10
3.864989E+001
 20
1.9230092E+002
 70
0
  0
VERTEX
  8
1
 42
0.0
 10
3.864989E+001
 20
1.5170092E+002
 70
0
  0
SEQEND
  0
POLYLINE
  8
1
  6
CONTINUOUS
 62
3
 66
1
 40
5.0E-001
 41
5.0E-001
 70
0
  0
VERTEX
  8
1
 42
0.0
 10
7.669989E+001
 20
1.5090092E+002
 70
0
  0
VERTEX
  8
1
 42
0.0
 10
6.494989E+001
 20
1.5090092E+002
 70
0
  0
SEQEND
  0
POLYLINE
  8
1
  6
CONTINUOUS
 62
3
 66
1
 40
5.0E-001
 41
5.0E-001
 70
0
  0
VERTEX
  8
1
 42
0.0
 10
6.089989E+001
 20
1.5070092E+002
 70
0
  0
VERTEX
  8
1
 42
0.0
 10
6.089989E+001
 20
1.5090092E+002
 70
0
  0
SEQEND
  0
POLYLINE
  8
1
  6
CONTINUOUS
 62
3
 66
1
 40
5.0E-001
 41
5.0E-001
 70
0
  0
VERTEX
  8
1
 42
0.0
 10
5.984989E+001
 20
1.5090092E+002
 70
0
  0
VERTEX
  8
1
 42
0.0
 10
4.809989E+001
 20
1.5090092E+002
 70
0
  0
SEQEND
  0
POLYLINE
  8
1
  6
CONTINUOUS
 62
3
 66
1
 40
5.0E-001
 41
5.0E-001
 70
0
  0
VERTEX
  8
1
 42
0.0
 10
8.534989E+001
 20
1.5090092E+002
 70
0
  0
VERTEX
  8
1
 42
0.0
 10
8.219989E+001
 20
1.5090092E+002
 70
0
  0
SEQEND
  0
POLYLINE
  8
1
  6
CONTINUOUS
 62
3
 66
1
 40
5.0E-001
 41
5.0E-001
 70
0
  0
VERTEX
  8
1
 42
0.0
 10
7.669989E+001
 20
1.9310092E+002
 70
0
  0
VERTEX
  8
1
 42
0.0
 10
4.80999E+001
 20
1.9310092E+002
 70
0
  0
SEQEND
  0
POLYLINE
  8
1
  6
CONTINUOUS
 62
3
 66
1
 40
5.0E-001
 41
5.0E-001
 70
0
  0
VERTEX
  8
1
 42
0.0
 10
8.53499E+001
 20
1.9310092E+002
 70
0
  0
VERTEX
  8
1
 42
0.0
 10
8.219989E+001
 20
1.9310092E+002
 70
0
  0
SEQEND
  0
POLYLINE
  8
1
  6
CONTINUOUS
 62
3
 66
1
 40
5.0E-001
 41
5.0E-001
 70
0
  0
VERTEX
  8
1
 42
0.0
 10
4.222657E+001
 20
1.7455092E+002
 70
0
  0
VERTEX
  8
1
 42
0.0
 10
4.222657E+001
 20
1.7313372E+002
 70
0
  0
SEQEND
  0
POLYLINE
  8
1
  6
CONTINUOUS
 62
3
 66
1
 40
5.0E-001
 41
5.0E-001
 70
0
  0
VERTEX
  8
1
 42
0.0
 10
4.222657E+001
 20
1.7313372E+002
 70
0
  0
VERTEX
  8
1
 42
0.0
 10
4.517392E+001
 20
1.7313372E+002
 70
0
  0
SEQEND
  0
POLYLINE
  8
1
  6
CONTINUOUS
 62
3
 66
1
 40
5.0E-001
 41
5.0E-001
 70
0
  0
VERTEX
  8
1
 42
0.0
 10
4.172657E+001
 20
1.7263372E+002
 70
0
  0
VERTEX
  8
1
 42
0.0
 10
4.172657E+001
 20
1.7137122E+002
 70
0
  0
SEQEND
  0
POLYLINE
  8
1
  6
CONTINUOUS
 62
3
 66
1
 40
5.0E-001
 41
5.0E-001
 70
0
  0
VERTEX
  8
1
 42
4.1421351E-001
 10
4.222657E+001
 20
1.7313372E+002
 70
0
  0
VERTEX
  8
1
 42
0.0
 10
4.172657E+001
 20
1.7263372E+002
 70
0
  0
SEQEND
  0
POLYLINE
  8
1
  6
CONTINUOUS
 62
3
 66
1
 40
5.0E-001
 41
5.0E-001
 70
0
  0
VERTEX
  8
1
 42
0.0
 10
4.672657E+001
 20
1.7438372E+002
 70
0
  0
VERTEX
  8
1
 42
0.0
 10
4.672657E+001
 20
1.7198372E+002
 70
0
  0
SEQEND
  0
POLYLINE
  8
1
  6
CONTINUOUS
 62
3
 66
1
 40
5.0E-001
 41
5.0E-001
 70
0
  0
VERTEX
  8
1
 42
0.0
 10
4.392655E+001
 20
1.7313372E+002
 70
0
  0
VERTEX
  8
1
 42
0.0
 10
4.392655E+001
 20
1.7198372E+002
 70
0
  0
SEQEND
  0
INSERT
  2
*E1578
  8
1
 10
4.198453E+001
 20
1.7299412E+002
 41
1.0
 42
1.0
 43
1.0
 50
2.7E+002
 62
3
  0
POLYLINE
  8
1
  6
CONTINUOUS
 62
3
 66
1
 40
5.0E-001
 41
5.0E-001
 70
0
  0
VERTEX
  8
1
 42
0.0
 10
4.199124E+001
 20
1.7293032E+002
 70
0
  0
VERTEX
  8
1
 42
0.0
 10
4.392655E+001
 20
1.7313372E+002
 70
0
  0
SEQEND
  0
POLYLINE
  8
1
  6
CONTINUOUS
 62
3
 66
1
 40
5.0E-001
 41
5.0E-001
 70
0
  0
VERTEX
  8
1
 42
0.0
 10
4.487393E+001
 20
1.7313372E+002
 70
0
  0
VERTEX
  8
1
 42
0.0
 10
4.487393E+001
 20
1.7198372E+002
 70
0
  0
SEQEND
  0
POLYLINE
  8
1
  6
CONTINUOUS
 62
3
 66
1
 40
5.0E-001
 41
5.0E-001
 70
0
  0
VERTEX
  8
1
 42
0.0
 10
4.392655E+001
 20
1.7258372E+002
 70
0
  0
VERTEX
  8
1
 42
0.0
 10
4.487393E+001
 20
1.7258372E+002
 70
0
  0
SEQEND
  0
POLYLINE
  8
1
  6
CONTINUOUS
 62
3
 66
1
 40
5.0E-001
 41
5.0E-001
 70
0
  0
VERTEX
  8
1
 42
0.0
 10
4.517392E+001
 20
1.7388372E+002
 70
0
  0
VERTEX
  8
1
 42
0.0
 10
4.517392E+001
 20
1.7198372E+002
 70
0
  0
SEQEND
  0
INSERT
  2
*E1583
  8
1
 10
4.567392E+001
 20
1.7388372E+002
 41
1.0
 42
1.0
 43
1.0
 50
2.7E+002
 62
3
  0
POLYLINE
  8
1
  6
CONTINUOUS
 62
3
 66
1
 40
5.0E-001
 41
5.0E-001
 70
0
  0
VERTEX
  8
1
 42
0.0
 10
4.222431E+001
 20
1.6945092E+002
 70
0
  0
VERTEX
  8
1
 42
0.0
 10
4.222556E+001
 20
1.7087122E+002
 70
0
  0
SEQEND
  0
POLYLINE
  8
1
  6
CONTINUOUS
 62
3
 66
1
 40
5.0E-001
 41
5.0E-001
 70
0
  0
VERTEX
  8
1
 42
0.0
 10
4.222611E+001
 20
1.7087122E+002
 70
0
  0
VERTEX
  8
1
 42
0.0
 10
4.517295E+001
 20
1.7086862E+002
 70
0
  0
SEQEND
  0
POLYLINE
  8
1
  6
CONTINUOUS
 62
3
 66
1
 40
5.0E-001
 41
5.0E-001
 70
0
  0
VERTEX
  8
1
 42
0.0
 10
4.672446E+001
 20
1.6961722E+002
 70
0
  0
VERTEX
  8
1
 42
0.0
 10
4.672657E+001
 20
1.7201722E+002
 70
0
  0
SEQEND
  0
POLYLINE
  8
1
  6
CONTINUOUS
 62
3
 66
1
 40
5.0E-001
 41
5.0E-001
 70
0
  0
VERTEX
  8
1
 42
0.0
 10
4.392557E+001
 20
1.7086972E+002
 70
0
  0
VERTEX
  8
1
 42
0.0
 10
4.392658E+001
 20
1.7201972E+002
 70
0
  0
SEQEND
  0
POLYLINE
  8
1
  6
CONTINUOUS
 62
3
 66
1
 40
5.0E-001
 41
5.0E-001
 70
0
  0
VERTEX
  8
1
 42
9.3915998E-001
 10
4.200544E+001
 20
1.7107141E+002
 70
0
  0
VERTEX
  8
1
 42
0.0
 10
4.1954535E+001
 20
1.7095383E+002
 70
0
  0
SEQEND
  0
POLYLINE
  8
1
  6
CONTINUOUS
 62
3
 66
1
 40
5.0E-001
 41
5.0E-001
 70
0
  0
VERTEX
  8
1
 42
0.0
 10
4.199042E+001
 20
1.7107482E+002
 70
0
  0
VERTEX
  8
1
 42
0.0
 10
4.392557E+001
 20
1.7086972E+002
 70
0
  0
SEQEND
  0
POLYLINE
  8
1
  6
CONTINUOUS
 62
3
 66
1
 40
5.0E-001
 41
5.0E-001
 70
0
  0
VERTEX
  8
1
 42
0.0
 10
4.487293E+001
 20
1.7086882E+002
 70
0
  0
VERTEX
  8
1
 42
0.0
 10
4.487393E+001
 20
1.7201882E+002
 70
0
  0
SEQEND
  0
POLYLINE
  8
1
  6
CONTINUOUS
 62
3
 66
1
 40
5.0E-001
 41
5.0E-001
 70
0
  0
VERTEX
  8
1
 42
0.0
 10
4.392606E+001
 20
1.7141972E+002
 70
0
  0
VERTEX
  8
1
 42
0.0
 10
4.487342E+001
 20
1.7141882E+002
 70
0
  0
SEQEND
  0
POLYLINE
  8
1
  6
CONTINUOUS
 62
3
 66
1
 40
5.0E-001
 41
5.0E-001
 70
0
  0
VERTEX
  8
1
 42
0.0
 10
4.517227E+001
 20
1.7011862E+002
 70
0
  0
VERTEX
  8
1
 42
0.0
 10
4.517395E+001
 20
1.7201862E+002
 70
0
  0
SEQEND
  0
POLYLINE
  8
1
  6
CONTINUOUS
 62
3
 66
1
 40
5.0E-001
 41
5.0E-001
 70
0
  0
VERTEX
  8
1
 42
4.1421407E-001
 10
4.517227E+001
 20
1.7011856E+002
 70
0
  0
VERTEX
  8
1
 42
0.0
 10
4.567183E+001
 20
1.6961812E+002
 70
0
  0
SEQEND
  0
POLYLINE
  8
1
  6
CONTINUOUS
 62
3
 66
1
 40
5.0E-001
 41
5.0E-001
 70
0
  0
VERTEX
  8
1
 42
4.1395441E-001
 10
4.172657E+001
 20
1.7137122E+002
 70
0
  0
VERTEX
  8
1
 42
0.0
 10
4.2226128E+001
 20
1.7087122E+002
 70
0
  0
SEQEND
  0
POLYLINE
  8
1
  6
CONTINUOUS
 62
3
 66
1
 40
5.0E-001
 41
5.0E-001
 70
0
  0
VERTEX
  8
1
 42
0.0
 10
4.567392E+001
 20
1.7438372E+002
 70
0
  0
VERTEX
  8
1
 42
0.0
 10
4.972304E+001
 20
1.7438372E+002
 70
0
  0
SEQEND
  0
POLYLINE
  8
1
  6
CONTINUOUS
 62
3
 66
1
 40
5.0E-001
 41
5.0E-001
 70
0
  0
VERTEX
  8
1
 42
0.0
 10
4.567183E+001
 20
1.6961812E+002
 70
0
  0
VERTEX
  8
1
 42
0.0
 10
4.972307E+001
 20
1.6961812E+002
 70
0
  0
SEQEND
  0
POLYLINE
  8
1
  6
CONTINUOUS
 62
3
 66
1
 40
5.0E-001
 41
5.0E-001
 70
0
  0
VERTEX
  8
1
 42
0.0
 10
8.614991E+001
 20
1.9120092E+002
 70
0
  0
VERTEX
  8
1
 42
0.0
 10
8.614989E+001
 20
1.5280092E+002
 70
0
  0
SEQEND
  0
POLYLINE
  8
1
  6
CONTINUOUS
 62
3
 66
1
 40
5.0E-001
 41
5.0E-001
 70
0
  0
VERTEX
  8
1
 42
0.0
 10
3.864989E+001
 20
1.6880092E+002
 70
0
  0
VERTEX
  8
1
 42
0.0
 10
3.864989E+001
 20
1.5280092E+002
 70
0
  0
SEQEND
  0
POLYLINE
  8
1
  6
CONTINUOUS
 62
3
 66
1
 40
5.0E-001
 41
5.0E-001
 70
0
  0
VERTEX
  8
1
 42
0.0
 10
8.53499E+001
 20
1.9200092E+002
 70
0
  0
VERTEX
  8
1
 42
0.0
 10
3.94499E+001
 20
1.9200092E+002
 70
0
  0
SEQEND
  0
POLYLINE
  8
1
  6
CONTINUOUS
 62
3
 66
1
 40
5.0E-001
 41
5.0E-001
 70
0
  0
VERTEX
  8
1
 42
0.0
 10
8.534989E+001
 20
1.5200092E+002
 70
0
  0
VERTEX
  8
1
 42
0.0
 10
3.94499E+001
 20
1.5200092E+002
 70
0
  0
SEQEND
  0
POLYLINE
  8
1
  6
CONTINUOUS
 62
3
 66
1
 40
5.0E-001
 41
5.0E-001
 70
0
  0
VERTEX
  8
1
 42
4.1421356E-001
 10
8.61499E+001
 20
1.9120092E+002
 70
0
  0
VERTEX
  8
1
 42
0.0
 10
8.53499E+001
 20
1.9200092E+002
 70
0
  0
SEQEND
  0
POLYLINE
  8
1
  6
CONTINUOUS
 62
3
 66
1
 40
5.0E-001
 41
5.0E-001
 70
0
  0
VERTEX
  8
1
 42
4.1421402E-001
 10
3.94499E+001
 20
1.9200092E+002
 70
0
  0
VERTEX
  8
1
 42
0.0
 10
3.86499E+001
 20
1.9120092E+002
 70
0
  0
SEQEND
  0
POLYLINE
  8
1
  6
CONTINUOUS
 62
3
 66
1
 40
5.0E-001
 41
5.0E-001
 70
0
  0
VERTEX
  8
1
 42
4.1421356E-001
 10
3.86499E+001
 20
1.5280092E+002
 70
0
  0
VERTEX
  8
1
 42
0.0
 10
3.94499E+001
 20
1.5200092E+002
 70
0
  0
SEQEND
  0
POLYLINE
  8
1
  6
CONTINUOUS
 62
3
 66
1
 40
5.0E-001
 41
5.0E-001
 70
0
  0
VERTEX
  8
1
 42
4.1421356E-001
 10
8.534989E+001
 20
1.5200092E+002
 70
0
  0
VERTEX
  8
1
 42
0.0
 10
8.614989E+001
 20
1.5280092E+002
 70
0
  0
SEQEND
  0
POLYLINE
  8
1
  6
CONTINUOUS
 62
3
 66
1
 40
5.0E-001
 41
5.0E-001
 70
0
  0
VERTEX
  8
1
 42
1.0
 10
8.319989E+001
 20
1.8470092E+002
 70
0
  0
VERTEX
  8
1
 42
1.0
 10
7.799989E+001
 20
1.8470092E+002
 70
0
  0
VERTEX
  8
1
 42
0.0
 10
8.319989E+001
 20
1.8470092E+002
 70
0
  0
SEQEND
  0
POLYLINE
  8
1
  6
CONTINUOUS
 62
3
 66
1
 40
5.0E-001
 41
5.0E-001
 70
0
  0
VERTEX
  8
1
 42
1.0
 10
7.40999E+001
 20
1.8470092E+002
 70
0
  0
VERTEX
  8
1
 42
1.0
 10
6.88999E+001
 20
1.8470092E+002
 70
0
  0
VERTEX
  8
1
 42
0.0
 10
7.40999E+001
 20
1.8470092E+002
 70
0
  0
SEQEND
  0
POLYLINE
  8
1
  6
CONTINUOUS
 62
3
 66
1
 40
5.0E-001
 41
5.0E-001
 70
0
  0
VERTEX
  8
1
 42
1.0
 10
6.499989E+001
 20
1.8470092E+002
 70
0
  0
VERTEX
  8
1
 42
1.0
 10
5.979989E+001
 20
1.8470092E+002
 70
0
  0
VERTEX
  8
1
 42
0.0
 10
6.499989E+001
 20
1.8470092E+002
 70
0
  0
SEQEND
  0
POLYLINE
  8
1
  6
CONTINUOUS
 62
3
 66
1
 40
5.0E-001
 41
5.0E-001
 70
0
  0
VERTEX
  8
1
 42
1.0
 10
5.58999E+001
 20
1.8470092E+002
 70
0
  0
VERTEX
  8
1
 42
1.0
 10
5.06999E+001
 20
1.8470092E+002
 70
0
  0
VERTEX
  8
1
 42
0.0
 10
5.58999E+001
 20
1.8470092E+002
 70
0
  0
SEQEND
  0
POLYLINE
  8
1
  6
CONTINUOUS
 62
3
 66
1
 40
5.0E-001
 41
5.0E-001
 70
0
  0
VERTEX
  8
1
 42
1.0
 10
4.679989E+001
 20
1.8470092E+002
 70
0
  0
VERTEX
  8
1
 42
1.0
 10
4.159989E+001
 20
1.8470092E+002
 70
0
  0
VERTEX
  8
1
 42
0.0
 10
4.679989E+001
 20
1.8470092E+002
 70
0
  0
SEQEND
  0
POLYLINE
  8
1
  6
CONTINUOUS
 62
3
 66
1
 40
5.0E-001
 41
5.0E-001
 70
0
  0
VERTEX
  8
1
 42
1.0
 10
8.319989E+001
 20
1.5930092E+002
 70
0
  0
VERTEX
  8
1
 42
1.0
 10
7.799989E+001
 20
1.5930092E+002
 70
0
  0
VERTEX
  8
1
 42
0.0
 10
8.319989E+001
 20
1.5930092E+002
 70
0
  0
SEQEND
  0
POLYLINE
  8
1
  6
CONTINUOUS
 62
3
 66
1
 40
5.0E-001
 41
5.0E-001
 70
0
  0
VERTEX
  8
1
 42
1.0
 10
7.40999E+001
 20
1.5930092E+002
 70
0
  0
VERTEX
  8
1
 42
1.0
 10
6.88999E+001
 20
1.5930092E+002
 70
0
  0
VERTEX
  8
1
 42
0.0
 10
7.40999E+001
 20
1.5930092E+002
 70
0
  0
SEQEND
  0
POLYLINE
  8
1
  6
CONTINUOUS
 62
3
 66
1
 40
5.0E-001
 41
5.0E-001
 70
0
  0
VERTEX
  8
1
 42
1.0
 10
6.499989E+001
 20
1.5930092E+002
 70
0
  0
VERTEX
  8
1
 42
1.0
 10
5.979989E+001
 20
1.5930092E+002
 70
0
  0
VERTEX
  8
1
 42
0.0
 10
6.499989E+001
 20
1.5930092E+002
 70
0
  0
SEQEND
  0
POLYLINE
  8
1
  6
CONTINUOUS
 62
3
 66
1
 40
5.0E-001
 41
5.0E-001
 70
0
  0
VERTEX
  8
1
 42
1.0
 10
5.589988E+001
 20
1.5930092E+002
 70
0
  0
VERTEX
  8
1
 42
1.0
 10
5.069988E+001
 20
1.5930092E+002
 70
0
  0
VERTEX
  8
1
 42
0.0
 10
5.589988E+001
 20
1.5930092E+002
 70
0
  0
SEQEND
  0
POLYLINE
  8
1
  6
CONTINUOUS
 62
3
 66
1
 40
5.0E-001
 41
5.0E-001
 70
0
  0
VERTEX
  8
1
 42
1.0
 10
4.679989E+001
 20
1.5930092E+002
 70
0
  0
VERTEX
  8
1
 42
1.0
 10
4.159989E+001
 20
1.5930092E+002
 70
0
  0
VERTEX
  8
1
 42
0.0
 10
4.679989E+001
 20
1.5930092E+002
 70
0
  0
SEQEND
  0
POLYLINE
  8
1
  6
CONTINUOUS
 62
3
 66
1
 40
5.0E-001
 41
5.0E-001
 70
0
  0
VERTEX
  8
1
 42
0.0
 10
4.984989E+001
 20
1.7410092E+002
 70
0
  0
VERTEX
  8
1
 42
0.0
 10
4.984989E+001
 20
1.6990092E+002
 70
0
  0
SEQEND
  0
POLYLINE
  8
1
  6
CONTINUOUS
 62
3
 66
1
 40
5.0E-001
 41
5.0E-001
 70
0
  0
VERTEX
  8
1
 42
0.0
 10
4.934989E+001
 20
1.7460092E+002
 70
0
  0
VERTEX
  8
1
 42
0.0
 10
4.01999E+001
 20
1.7460092E+002
 70
0
  0
SEQEND
  0
POLYLINE
  8
1
  6
CONTINUOUS
 62
3
 66
1
 40
5.0E-001
 41
5.0E-001
 70
0
  0
VERTEX
  8
1
 42
0.0
 10
4.934989E+001
 20
1.6940092E+002
 70
0
  0
VERTEX
  8
1
 42
0.0
 10
4.01999E+001
 20
1.6940092E+002
 70
0
  0
SEQEND
  0
POLYLINE
  8
1
  6
CONTINUOUS
 62
3
 66
1
 40
5.0E-001
 41
5.0E-001
 70
0
  0
VERTEX
  8
1
 42
0.0
 10
4.01999E+001
 20
1.7520092E+002
 70
0
  0
VERTEX
  8
1
 42
0.0
 10
3.864989E+001
 20
1.7520092E+002
 70
0
  0
SEQEND
  0
POLYLINE
  8
1
  6
CONTINUOUS
 62
3
 66
1
 40
5.0E-001
 41
5.0E-001
 70
0
  0
VERTEX
  8
1
 42
0.0
 10
4.01999E+001
 20
1.6880092E+002
 70
0
  0
VERTEX
  8
1
 42
0.0
 10
3.864989E+001
 20
1.6880092E+002
 70
0
  0
SEQEND
  0
POLYLINE
  8
1
  6
CONTINUOUS
 62
3
 66
1
 40
5.0E-001
 41
5.0E-001
 70
0
  0
VERTEX
  8
1
 42
0.0
 10
4.01999E+001
 20
1.6940092E+002
 70
0
  0
VERTEX
  8
1
 42
0.0
 10
4.01999E+001
 20
1.6880092E+002
 70
0
  0
SEQEND
  0
POLYLINE
  8
1
  6
CONTINUOUS
 62
3
 66
1
 40
5.0E-001
 41
5.0E-001
 70
0
  0
VERTEX
  8
1
 42
0.0
 10
4.01999E+001
 20
1.7520092E+002
 70
0
  0
VERTEX
  8
1
 42
0.0
 10
4.01999E+001
 20
1.7460092E+002
 70
0
  0
SEQEND
  0
LINE
  8
1
  6
CENTERLINE
 62
1
 10
8.37199E+001
 20
1.8470092E+002
 11
7.747989E+001
 21
1.8470092E+002
  0
LINE
  8
1
  6
CENTERLINE
 62
1
 10
8.05999E+001
 20
1.8158092E+002
 11
8.05999E+001
 21
1.8782092E+002
  0
LINE
  8
1
  6
CENTERLINE
 62
1
 10
7.461989E+001
 20
1.8470092E+002
 11
6.83799E+001
 21
1.8470092E+002
  0
LINE
  8
1
  6
CENTERLINE
 62
1
 10
7.14999E+001
 20
1.8158092E+002
 11
7.14999E+001
 21
1.8782092E+002
  0
LINE
  8
1
  6
CENTERLINE
 62
1
 10
6.55199E+001
 20
1.8470092E+002
 11
5.92799E+001
 21
1.8470092E+002
  0
LINE
  8
1
  6
CENTERLINE
 62
1
 10
6.239991E+001
 20
1.8158092E+002
 11
6.239991E+001
 21
1.8782092E+002
  0
LINE
  8
1
  6
CENTERLINE
 62
1
 10
5.641989E+001
 20
1.8470092E+002
 11
5.01799E+001
 21
1.8470092E+002
  0
LINE
  8
1
  6
CENTERLINE
 62
1
 10
5.32999E+001
 20
1.8158092E+002
 11
5.32999E+001
 21
1.8782092E+002
  0
LINE
  8
1
  6
CENTERLINE
 62
1
 10
4.73199E+001
 20
1.8470092E+002
 11
4.10799E+001
 21
1.8470092E+002
  0
LINE
  8
1
  6
CENTERLINE
 62
1
 10
4.419989E+001
 20
1.8158092E+002
 11
4.419989E+001
 21
1.8782092E+002
  0
LINE
  8
1
  6
CENTERLINE
 62
1
 10
8.37199E+001
 20
1.5930092E+002
 11
7.747989E+001
 21
1.5930092E+002
  0
LINE
  8
1
  6
CENTERLINE
 62
1
 10
8.05999E+001
 20
1.5618092E+002
 11
8.05999E+001
 21
1.6242092E+002
  0
LINE
  8
1
  6
CENTERLINE
 62
1
 10
7.461989E+001
 20
1.5930092E+002
 11
6.83799E+001
 21
1.5930092E+002
  0
LINE
  8
1
  6
CENTERLINE
 62
1
 10
7.14999E+001
 20
1.5618092E+002
 11
7.14999E+001
 21
1.6242092E+002
  0
LINE
  8
1
  6
CENTERLINE
 62
1
 10
6.55199E+001
 20
1.5930092E+002
 11
5.92799E+001
 21
1.5930092E+002
  0
LINE
  8
1
  6
CENTERLINE
 62
1
 10
6.239991E+001
 20
1.5618092E+002
 11
6.239991E+001
 21
1.6242092E+002
  0
LINE
  8
1
  6
CENTERLINE
 62
1
 10
5.641989E+001
 20
1.5930092E+002
 11
5.017989E+001
 21
1.5930092E+002
  0
LINE
  8
1
  6
CENTERLINE
 62
1
 10
5.329988E+001
 20
1.5618092E+002
 11
5.329988E+001
 21
1.6242092E+002
  0
LINE
  8
1
  6
CENTERLINE
 62
1
 10
4.731989E+001
 20
1.5930092E+002
 11
4.10799E+001
 21
1.5930092E+002
  0
LINE
  8
1
  6
CENTERLINE
 62
1
 10
4.419989E+001
 20
1.5618092E+002
 11
4.419989E+001
 21
1.6242092E+002
  0
POLYLINE
  8
1
  6
CONTINUOUS
 62
3
 66
1
 40
5.0E-001
 41
5.0E-001
 70
0
  0
VERTEX
  8
1
 42
4.1421356E-001
 10
4.984989E+001
 20
1.7410092E+002
 70
0
  0
VERTEX
  8
1
 42
0.0
 10
4.934989E+001
 20
1.7460092E+002
 70
0
  0
SEQEND
  0
POLYLINE
  8
1
  6
CONTINUOUS
 62
3
 66
1
 40
5.0E-001
 41
5.0E-001
 70
0
  0
VERTEX
  8
1
 42
4.1421356E-001
 10
4.934989E+001
 20
1.6940092E+002
 70
0
  0
VERTEX
  8
1
 42
0.0
 10
4.984989E+001
 20
1.6990092E+002
 70
0
  0
SEQEND
  0
POLYLINE
  8
1
  6
CONTINUOUS
 62
3
 66
1
 40
5.0E-001
 41
5.0E-001
 70
0
  0
VERTEX
  8
1
 42
0.0
 10
3.864989E+001
 20
1.9120092E+002
 70
0
  0
VERTEX
  8
1
 42
0.0
 10
3.864989E+001
 20
1.7520092E+002
 70
0
  0
SEQEND
  0
POLYLINE
  8
1
  6
CONTINUOUS
 62
3
 66
1
 40
5.0E-001
 41
5.0E-001
 70
0
  0
VERTEX
  8
1
 42
0.0
 10
7.114989E+001
 20
1.7305092E+002
 70
0
  0
VERTEX
  8
1
 42
0.0
 10
7.114989E+001
 20
1.7095092E+002
 70
0
  0
SEQEND
  0
POLYLINE
  8
1
  6
CONTINUOUS
 62
3
 66
1
 40
5.0E-001
 41
5.0E-001
 70
0
  0
VERTEX
  8
1
 42
0.0
 10
6.864989E+001
 20
1.7305092E+002
 70
0
  0
VERTEX
  8
1
 42
0.0
 10
6.864989E+001
 20
1.7095092E+002
 70
0
  0
SEQEND
  0
POLYLINE
  8
1
  6
CONTINUOUS
 62
3
 66
1
 40
5.0E-001
 41
5.0E-001
 70
0
  0
VERTEX
  8
1
 42
0.0
 10
5.70499E+001
 20
1.7305092E+002
 70
0
  0
VERTEX
  8
1
 42
0.0
 10
5.70499E+001
 20
1.7095092E+002
 70
0
  0
SEQEND
  0
POLYLINE
  8
1
  6
CONTINUOUS
 62
3
 66
1
 40
5.0E-001
 41
5.0E-001
 70
0
  0
VERTEX
  8
1
 42
0.0
 10
5.95499E+001
 20
1.7305092E+002
 70
0
  0
VERTEX
  8
1
 42
0.0
 10
5.95499E+001
 20
1.7095092E+002
 70
0
  0
SEQEND
  0
POLYLINE
  8
1
  6
CONTINUOUS
 62
3
 66
1
 40
5.0E-001
 41
5.0E-001
 70
0
  0
VERTEX
  8
1
 42
0.0
 10
7.114989E+001
 20
1.7305092E+002
 70
0
  0
VERTEX
  8
1
 42
0.0
 10
6.864989E+001
 20
1.7305092E+002
 70
0
  0
SEQEND
  0
POLYLINE
  8
1
  6
CONTINUOUS
 62
3
 66
1
 40
5.0E-001
 41
5.0E-001
 70
0
  0
VERTEX
  8
1
 42
0.0
 10
7.114989E+001
 20
1.7095092E+002
 70
0
  0
VERTEX
  8
1
 42
0.0
 10
6.864989E+001
 20
1.7095092E+002
 70
0
  0
SEQEND
  0
POLYLINE
  8
1
  6
CONTINUOUS
 62
3
 66
1
 40
5.0E-001
 41
5.0E-001
 70
0
  0
VERTEX
  8
1
 42
0.0
 10
5.95499E+001
 20
1.7305092E+002
 70
0
  0
VERTEX
  8
1
 42
0.0
 10
5.70499E+001
 20
1.7305092E+002
 70
0
  0
SEQEND
  0
POLYLINE
  8
1
  6
CONTINUOUS
 62
3
 66
1
 40
5.0E-001
 41
5.0E-001
 70
0
  0
VERTEX
  8
1
 42
0.0
 10
5.95499E+001
 20
1.7095092E+002
 70
0
  0
VERTEX
  8
1
 42
0.0
 10
5.70499E+001
 20
1.7095092E+002
 70
0
  0
SEQEND
  0
POLYLINE
  8
1
  6
CONTINUOUS
 62
3
 66
1
 40
5.0E-001
 41
5.0E-001
 70
0
  0
VERTEX
  8
1
 42
0.0
 10
7.164989E+001
 20
1.7355092E+002
 70
0
  0
VERTEX
  8
1
 42
0.0
 10
6.814989E+001
 20
1.7355092E+002
 70
0
  0
SEQEND
  0
POLYLINE
  8
1
  6
CONTINUOUS
 62
3
 66
1
 40
5.0E-001
 41
5.0E-001
 70
0
  0
VERTEX
  8
1
 42
0.0
 10
7.164989E+001
 20
1.7045092E+002
 70
0
  0
VERTEX
  8
1
 42
0.0
 10
6.814989E+001
 20
1.7045092E+002
 70
0
  0
SEQEND
  0
POLYLINE
  8
1
  6
CONTINUOUS
 62
3
 66
1
 40
5.0E-001
 41
5.0E-001
 70
0
  0
VERTEX
  8
1
 42
0.0
 10
7.164989E+001
 20
1.7355092E+002
 70
0
  0
VERTEX
  8
1
 42
0.0
 10
7.164989E+001
 20
1.7045092E+002
 70
0
  0
SEQEND
  0
POLYLINE
  8
1
  6
CONTINUOUS
 62
3
 66
1
 40
5.0E-001
 41
5.0E-001
 70
0
  0
VERTEX
  8
1
 42
0.0
 10
6.814989E+001
 20
1.7355092E+002
 70
0
  0
VERTEX
  8
1
 42
0.0
 10
6.814989E+001
 20
1.7045092E+002
 70
0
  0
SEQEND
  0
POLYLINE
  8
1
  6
CONTINUOUS
 62
3
 66
1
 40
5.0E-001
 41
5.0E-001
 70
0
  0
VERTEX
  8
1
 42
0.0
 10
6.00499E+001
 20
1.7355092E+002
 70
0
  0
VERTEX
  8
1
 42
0.0
 10
6.00499E+001
 20
1.7045092E+002
 70
0
  0
SEQEND
  0
POLYLINE
  8
1
  6
CONTINUOUS
 62
3
 66
1
 40
5.0E-001
 41
5.0E-001
 70
0
  0
VERTEX
  8
1
 42
0.0
 10
6.00499E+001
 20
1.7045092E+002
 70
0
  0
VERTEX
  8
1
 42
0.0
 10
5.65499E+001
 20
1.7045092E+002
 70
0
  0
SEQEND
  0
POLYLINE
  8
1
  6
CONTINUOUS
 62
3
 66
1
 40
5.0E-001
 41
5.0E-001
 70
0
  0
VERTEX
  8
1
 42
0.0
 10
5.65499E+001
 20
1.7355092E+002
 70
0
  0
VERTEX
  8
1
 42
0.0
 10
5.65499E+001
 20
1.7045092E+002
 70
0
  0
SEQEND
  0
POLYLINE
  8
1
  6
CONTINUOUS
 62
3
 66
1
 40
5.0E-001
 41
5.0E-001
 70
0
  0
VERTEX
  8
1
 42
0.0
 10
6.00499E+001
 20
1.7355092E+002
 70
0
  0
VERTEX
  8
1
 42
0.0
 10
5.65499E+001
 20
1.7355092E+002
 70
0
  0
SEQEND
  0
POLYLINE
  8
1
  6
CONTINUOUS
 62
3
 66
1
 40
5.0E-001
 41
5.0E-001
 70
0
  0
VERTEX
  8
1
 42
0.0
 10
7.164989E+001
 20
1.7045092E+002
 70
0
  0
VERTEX
  8
1
 42
0.0
 10
7.114989E+001
 20
1.7095092E+002
 70
0
  0
SEQEND
  0
POLYLINE
  8
1
  6
CONTINUOUS
 62
3
 66
1
 40
5.0E-001
 41
5.0E-001
 70
0
  0
VERTEX
  8
1
 42
0.0
 10
6.814989E+001
 20
1.7045092E+002
 70
0
  0
VERTEX
  8
1
 42
0.0
 10
6.864989E+001
 20
1.7095092E+002
 70
0
  0
SEQEND
  0
POLYLINE
  8
1
  6
CONTINUOUS
 62
3
 66
1
 40
5.0E-001
 41
5.0E-001
 70
0
  0
VERTEX
  8
1
 42
0.0
 10
6.814989E+001
 20
1.7355092E+002
 70
0
  0
VERTEX
  8
1
 42
0.0
 10
6.864989E+001
 20
1.7305092E+002
 70
0
  0
SEQEND
  0
POLYLINE
  8
1
  6
CONTINUOUS
 62
3
 66
1
 40
5.0E-001
 41
5.0E-001
 70
0
  0
VERTEX
  8
1
 42
0.0
 10
7.164989E+001
 20
1.7355092E+002
 70
0
  0
VERTEX
  8
1
 42
0.0
 10
7.114989E+001
 20
1.7305092E+002
 70
0
  0
SEQEND
  0
POLYLINE
  8
1
  6
CONTINUOUS
 62
3
 66
1
 40
5.0E-001
 41
5.0E-001
 70
0
  0
VERTEX
  8
1
 42
0.0
 10
5.65499E+001
 20
1.7045092E+002
 70
0
  0
VERTEX
  8
1
 42
0.0
 10
5.70499E+001
 20
1.7095092E+002
 70
0
  0
SEQEND
  0
POLYLINE
  8
1
  6
CONTINUOUS
 62
3
 66
1
 40
5.0E-001
 41
5.0E-001
 70
0
  0
VERTEX
  8
1
 42
0.0
 10
5.70499E+001
 20
1.7305092E+002
 70
0
  0
VERTEX
  8
1
 42
0.0
 10
5.65499E+001
 20
1.7355092E+002
 70
0
  0
SEQEND
  0
POLYLINE
  8
1
  6
CONTINUOUS
 62
3
 66
1
 40
5.0E-001
 41
5.0E-001
 70
0
  0
VERTEX
  8
1
 42
0.0
 10
6.00499E+001
 20
1.7045092E+002
 70
0
  0
VERTEX
  8
1
 42
0.0
 10
5.95499E+001
 20
1.7095092E+002
 70
0
  0
SEQEND
  0
POLYLINE
  8
1
  6
CONTINUOUS
 62
3
 66
1
 40
5.0E-001
 41
5.0E-001
 70
0
  0
VERTEX
  8
1
 42
0.0
 10
5.95499E+001
 20
1.7305092E+002
 70
0
  0
VERTEX
  8
1
 42
0.0
 10
6.00499E+001
 20
1.7355092E+002
 70
0
  0
SEQEND
  0
POLYLINE
  8
1
  6
CONTINUOUS
 62
3
 66
1
 40
5.0E-001
 41
5.0E-001
 70
0
  0
VERTEX
  8
1
 42
0.0
 10
4.934989E+001
 20
1.7610092E+002
 70
0
  0
VERTEX
  8
1
 42
0.0
 10
3.864989E+001
 20
1.7610092E+002
 70
0
  0
SEQEND
  0
POLYLINE
  8
1
  6
CONTINUOUS
 62
3
 66
1
 40
5.0E-001
 41
5.0E-001
 70
0
  0
VERTEX
  8
1
 42
0.0
 10
4.934989E+001
 20
1.6790092E+002
 70
0
  0
VERTEX
  8
1
 42
0.0
 10
3.864989E+001
 20
1.6790092E+002
 70
0
  0
SEQEND
  0
POLYLINE
  8
1
  6
CONTINUOUS
 62
3
 66
1
 40
5.0E-001
 41
5.0E-001
 70
0
  0
VERTEX
  8
1
 42
0.0
 10
5.134989E+001
 20
1.7410092E+002
 70
0
  0
VERTEX
  8
1
 42
0.0
 10
5.134989E+001
 20
1.6990092E+002
 70
0
  0
SEQEND
  0
POLYLINE
  8
1
  6
CONTINUOUS
 62
3
 66
1
 40
5.0E-001
 41
5.0E-001
 70
0
  0
VERTEX
  8
1
 42
4.1421356E-001
 10
5.134989E+001
 20
1.7410092E+002
 70
0
  0
VERTEX
  8
1
 42
0.0
 10
4.934989E+001
 20
1.7610092E+002
 70
0
  0
SEQEND
  0
POLYLINE
  8
1
  6
CONTINUOUS
 62
3
 66
1
 40
5.0E-001
 41
5.0E-001
 70
0
  0
VERTEX
  8
1
 42
4.1421356E-001
 10
4.934989E+001
 20
1.6790092E+002
 70
0
  0
VERTEX
  8
1
 42
0.0
 10
5.134989E+001
 20
1.6990092E+002
 70
0
  0
SEQEND
  0
POLYLINE
  8
1
  6
CONTINUOUS
 62
3
 66
1
 40
5.0E-001
 41
5.0E-001
 70
0
  0
VERTEX
  8
1
 42
0.0
 10
7.669989E+001
 20
1.9315092E+002
 70
0
  0
VERTEX
  8
1
 42
0.0
 10
7.669989E+001
 20
1.9200092E+002
 70
0
  0
SEQEND
  0
POLYLINE
  8
1
  6
CONTINUOUS
 62
3
 66
1
 40
5.0E-001
 41
5.0E-001
 70
0
  0
VERTEX
  8
1
 42
0.0
 10
3.999988E+001
 20
1.5190092E+002
 70
0
  0
VERTEX
  8
1
 42
0.0
 10
3.864989E+001
 20
1.5190092E+002
 70
0
  0
SEQEND
  0
POLYLINE
  8
1
  6
CONTINUOUS
 62
3
 66
1
 40
5.0E-001
 41
5.0E-001
 70
0
  0
VERTEX
  8
1
 42
0.0
 10
8.019989E+001
 20
1.8406652E+002
 70
0
  0
VERTEX
  8
1
 42
0.0
 10
8.019989E+001
 20
1.8213182E+002
 70
0
  0
SEQEND
  0
POLYLINE
  8
1
  6
CONTINUOUS
 62
3
 66
1
 40
5.0E-001
 41
5.0E-001
 70
0
  0
VERTEX
  8
1
 42
0.0
 10
8.09999E+001
 20
1.8406652E+002
 70
0
  0
VERTEX
  8
1
 42
0.0
 10
8.09999E+001
 20
1.8213182E+002
 70
0
  0
SEQEND
  0
POLYLINE
  8
1
  6
CONTINUOUS
 62
3
 66
1
 40
5.0E-001
 41
5.0E-001
 70
0
  0
VERTEX
  8
1
 42
0.0
 10
8.123433E+001
 20
1.8430092E+002
 70
0
  0
VERTEX
  8
1
 42
0.0
 10
8.20999E+001
 20
1.8430092E+002
 70
0
  0
SEQEND
  0
POLYLINE
  8
1
  6
CONTINUOUS
 62
3
 66
1
 40
5.0E-001
 41
5.0E-001
 70
0
  0
VERTEX
  8
1
 42
0.0
 10
8.123433E+001
 20
1.8510092E+002
 70
0
  0
VERTEX
  8
1
 42
0.0
 10
8.20999E+001
 20
1.8510092E+002
 70
0
  0
SEQEND
  0
POLYLINE
  8
1
  6
CONTINUOUS
 62
3
 66
1
 40
5.0E-001
 41
5.0E-001
 70
0
  0
VERTEX
  8
1
 42
0.0
 10
7.90999E+001
 20
1.8510092E+002
 70
0
  0
VERTEX
  8
1
 42
0.0
 10
7.90999E+001
 20
1.8430092E+002
 70
0
  0
SEQEND
  0
POLYLINE
  8
1
  6
CONTINUOUS
 62
3
 66
1
 40
5.0E-001
 41
5.0E-001
 70
0
  0
VERTEX
  8
1
 42
0.0
 10
8.20999E+001
 20
1.8510092E+002
 70
0
  0
VERTEX
  8
1
 42
0.0
 10
8.20999E+001
 20
1.8430092E+002
 70
0
  0
SEQEND
  0
POLYLINE
  8
1
  6
CONTINUOUS
 62
3
 66
1
 40
5.0E-001
 41
5.0E-001
 70
0
  0
VERTEX
  8
1
 42
0.0
 10
7.90999E+001
 20
1.8510092E+002
 70
0
  0
VERTEX
  8
1
 42
0.0
 10
7.996547E+001
 20
1.8510092E+002
 70
0
  0
SEQEND
  0
POLYLINE
  8
1
  6
CONTINUOUS
 62
3
 66
1
 40
5.0E-001
 41
5.0E-001
 70
0
  0
VERTEX
  8
1
 42
0.0
 10
7.90999E+001
 20
1.8430092E+002
 70
0
  0
VERTEX
  8
1
 42
0.0
 10
7.996547E+001
 20
1.8430092E+002
 70
0
  0
SEQEND
  0
POLYLINE
  8
1
  6
CONTINUOUS
 62
3
 66
1
 40
5.0E-001
 41
5.0E-001
 70
0
  0
VERTEX
  8
1
 42
0.0
 10
8.019989E+001
 20
1.8726992E+002
 70
0
  0
VERTEX
  8
1
 42
0.0
 10
8.019989E+001
 20
1.8533532E+002
 70
0
  0
SEQEND
  0
POLYLINE
  8
1
  6
CONTINUOUS
 62
3
 66
1
 40
5.0E-001
 41
5.0E-001
 70
0
  0
VERTEX
  8
1
 42
0.0
 10
8.09999E+001
 20
1.8726992E+002
 70
0
  0
VERTEX
  8
1
 42
0.0
 10
8.09999E+001
 20
1.8533532E+002
 70
0
  0
SEQEND
  0
POLYLINE
  8
1
  6
CONTINUOUS
 62
3
 66
1
 40
5.0E-001
 41
5.0E-001
 70
0
  0
VERTEX
  8
1
 42
0.0
 10
8.006957E+001
 20
1.8523122E+002
 70
0
  0
VERTEX
  8
1
 42
0.0
 10
7.968067E+001
 20
1.8562012E+002
 70
0
  0
SEQEND
  0
POLYLINE
  8
1
  6
CONTINUOUS
 62
3
 66
1
 40
5.0E-001
 41
5.0E-001
 70
0
  0
VERTEX
  8
1
 42
0.0
 10
8.113022E+001
 20
1.8523122E+002
 70
0
  0
VERTEX
  8
1
 42
0.0
 10
8.151914E+001
 20
1.8562012E+002
 70
0
  0
SEQEND
  0
POLYLINE
  8
1
  6
CONTINUOUS
 62
3
 66
1
 40
5.0E-001
 41
5.0E-001
 70
0
  0
VERTEX
  8
1
 42
0.0
 10
8.006957E+001
 20
1.8417062E+002
 70
0
  0
VERTEX
  8
1
 42
0.0
 10
7.968067E+001
 20
1.8378172E+002
 70
0
  0
SEQEND
  0
POLYLINE
  8
1
  6
CONTINUOUS
 62
3
 66
1
 40
5.0E-001
 41
5.0E-001
 70
0
  0
VERTEX
  8
1
 42
0.0
 10
8.113022E+001
 20
1.8417062E+002
 70
0
  0
VERTEX
  8
1
 42
0.0
 10
8.151914E+001
 20
1.8378172E+002
 70
0
  0
SEQEND
  0
POLYLINE
  8
1
  6
CONTINUOUS
 62
3
 66
1
 40
5.0E-001
 41
5.0E-001
 70
0
  0
VERTEX
  8
1
 42
0.0
 10
8.019989E+001
 20
1.8620092E+002
 70
0
  0
VERTEX
  8
1
 42
0.0
 10
8.09999E+001
 20
1.8620092E+002
 70
0
  0
SEQEND
  0
POLYLINE
  8
1
  6
CONTINUOUS
 62
3
 66
1
 40
5.0E-001
 41
5.0E-001
 70
0
  0
VERTEX
  8
1
 42
0.0
 10
8.019989E+001
 20
1.8320092E+002
 70
0
  0
VERTEX
  8
1
 42
0.0
 10
8.09999E+001
 20
1.8320092E+002
 70
0
  0
SEQEND
  0
POLYLINE
  8
1
  6
CONTINUOUS
 62
3
 66
1
 40
5.0E-001
 41
5.0E-001
 70
0
  0
VERTEX
  8
1
 42
1.1189405E-001
 10
7.9965471E+001
 20
1.8430092E+002
 70
0
  0
VERTEX
  8
1
 42
0.0
 10
8.0199899E+001
 20
1.8406649E+002
 70
0
  0
SEQEND
  0
POLYLINE
  8
1
  6
CONTINUOUS
 62
3
 66
1
 40
5.0E-001
 41
5.0E-001
 70
0
  0
VERTEX
  8
1
 42
1.1189405E-001
 10
8.0199899E+001
 20
1.8533535E+002
 70
0
  0
VERTEX
  8
1
 42
0.0
 10
7.9965471E+001
 20
1.8510092E+002
 70
0
  0
SEQEND
  0
INSERT
  2
*E1694
  8
1
 10
8.05999E+001
 20
1.8470092E+002
 41
1.0
 42
1.0
 43
1.0
 50
2.7E+002
 62
3
  0
INSERT
  2
*E1695
  8
1
 10
8.05999E+001
 20
1.8470092E+002
 41
1.0
 42
1.0
 43
1.0
 50
2.7E+002
 62
3
  0
POLYLINE
  8
1
  6
CONTINUOUS
 62
3
 66
1
 40
5.0E-001
 41
5.0E-001
 70
0
  0
VERTEX
  8
1
 42
0.0
 10
7.10999E+001
 20
1.8406652E+002
 70
0
  0
VERTEX
  8
1
 42
0.0
 10
7.10999E+001
 20
1.8213182E+002
 70
0
  0
SEQEND
  0
POLYLINE
  8
1
  6
CONTINUOUS
 62
3
 66
1
 40
5.0E-001
 41
5.0E-001
 70
0
  0
VERTEX
  8
1
 42
0.0
 10
7.189991E+001
 20
1.8406652E+002
 70
0
  0
VERTEX
  8
1
 42
0.0
 10
7.189991E+001
 20
1.8213182E+002
 70
0
  0
SEQEND
  0
POLYLINE
  8
1
  6
CONTINUOUS
 62
3
 66
1
 40
5.0E-001
 41
5.0E-001
 70
0
  0
VERTEX
  8
1
 42
0.0
 10
7.213433E+001
 20
1.8430092E+002
 70
0
  0
VERTEX
  8
1
 42
0.0
 10
7.29999E+001
 20
1.8430092E+002
 70
0
  0
SEQEND
  0
POLYLINE
  8
1
  6
CONTINUOUS
 62
3
 66
1
 40
5.0E-001
 41
5.0E-001
 70
0
  0
VERTEX
  8
1
 42
0.0
 10
7.213433E+001
 20
1.8510092E+002
 70
0
  0
VERTEX
  8
1
 42
0.0
 10
7.29999E+001
 20
1.8510092E+002
 70
0
  0
SEQEND
  0
POLYLINE
  8
1
  6
CONTINUOUS
 62
3
 66
1
 40
5.0E-001
 41
5.0E-001
 70
0
  0
VERTEX
  8
1
 42
0.0
 10
6.99999E+001
 20
1.8510092E+002
 70
0
  0
VERTEX
  8
1
 42
0.0
 10
6.99999E+001
 20
1.8430092E+002
 70
0
  0
SEQEND
  0
POLYLINE
  8
1
  6
CONTINUOUS
 62
3
 66
1
 40
5.0E-001
 41
5.0E-001
 70
0
  0
VERTEX
  8
1
 42
0.0
 10
7.29999E+001
 20
1.8510092E+002
 70
0
  0
VERTEX
  8
1
 42
0.0
 10
7.29999E+001
 20
1.8430092E+002
 70
0
  0
SEQEND
  0
POLYLINE
  8
1
  6
CONTINUOUS
 62
3
 66
1
 40
5.0E-001
 41
5.0E-001
 70
0
  0
VERTEX
  8
1
 42
0.0
 10
6.99999E+001
 20
1.8510092E+002
 70
0
  0
VERTEX
  8
1
 42
0.0
 10
7.086547E+001
 20
1.8510092E+002
 70
0
  0
SEQEND
  0
POLYLINE
  8
1
  6
CONTINUOUS
 62
3
 66
1
 40
5.0E-001
 41
5.0E-001
 70
0
  0
VERTEX
  8
1
 42
0.0
 10
6.99999E+001
 20
1.8430092E+002
 70
0
  0
VERTEX
  8
1
 42
0.0
 10
7.086547E+001
 20
1.8430092E+002
 70
0
  0
SEQEND
  0
POLYLINE
  8
1
  6
CONTINUOUS
 62
3
 66
1
 40
5.0E-001
 41
5.0E-001
 70
0
  0
VERTEX
  8
1
 42
0.0
 10
7.10999E+001
 20
1.8726992E+002
 70
0
  0
VERTEX
  8
1
 42
0.0
 10
7.10999E+001
 20
1.8533532E+002
 70
0
  0
SEQEND
  0
POLYLINE
  8
1
  6
CONTINUOUS
 62
3
 66
1
 40
5.0E-001
 41
5.0E-001
 70
0
  0
VERTEX
  8
1
 42
0.0
 10
7.189991E+001
 20
1.8726992E+002
 70
0
  0
VERTEX
  8
1
 42
0.0
 10
7.189991E+001
 20
1.8533532E+002
 70
0
  0
SEQEND
  0
POLYLINE
  8
1
  6
CONTINUOUS
 62
3
 66
1
 40
5.0E-001
 41
5.0E-001
 70
0
  0
VERTEX
  8
1
 42
0.0
 10
7.096958E+001
 20
1.8523122E+002
 70
0
  0
VERTEX
  8
1
 42
0.0
 10
7.058066E+001
 20
1.8562012E+002
 70
0
  0
SEQEND
  0
POLYLINE
  8
1
  6
CONTINUOUS
 62
3
 66
1
 40
5.0E-001
 41
5.0E-001
 70
0
  0
VERTEX
  8
1
 42
0.0
 10
7.203023E+001
 20
1.8523122E+002
 70
0
  0
VERTEX
  8
1
 42
0.0
 10
7.241913E+001
 20
1.8562012E+002
 70
0
  0
SEQEND
  0
POLYLINE
  8
1
  6
CONTINUOUS
 62
3
 66
1
 40
5.0E-001
 41
5.0E-001
 70
0
  0
VERTEX
  8
1
 42
0.0
 10
7.096958E+001
 20
1.8417062E+002
 70
0
  0
VERTEX
  8
1
 42
0.0
 10
7.058066E+001
 20
1.8378172E+002
 70
0
  0
SEQEND
  0
POLYLINE
  8
1
  6
CONTINUOUS
 62
3
 66
1
 40
5.0E-001
 41
5.0E-001
 70
0
  0
VERTEX
  8
1
 42
0.0
 10
7.203023E+001
 20
1.8417062E+002
 70
0
  0
VERTEX
  8
1
 42
0.0
 10
7.241913E+001
 20
1.8378172E+002
 70
0
  0
SEQEND
  0
POLYLINE
  8
1
  6
CONTINUOUS
 62
3
 66
1
 40
5.0E-001
 41
5.0E-001
 70
0
  0
VERTEX
  8
1
 42
1.1189405E-001
 10
7.0865471E+001
 20
1.8430092E+002
 70
0
  0
VERTEX
  8
1
 42
0.0
 10
7.1099899E+001
 20
1.8406649E+002
 70
0
  0
SEQEND
  0
POLYLINE
  8
1
  6
CONTINUOUS
 62
3
 66
1
 40
5.0E-001
 41
5.0E-001
 70
0
  0
VERTEX
  8
1
 42
1.1189405E-001
 10
7.1099899E+001
 20
1.8533535E+002
 70
0
  0
VERTEX
  8
1
 42
0.0
 10
7.0865471E+001
 20
1.8510092E+002
 70
0
  0
SEQEND
  0
INSERT
  2
*E1712
  8
1
 10
7.14999E+001
 20
1.8470092E+002
 41
1.0
 42
1.0
 43
1.0
 50
2.7E+002
 62
3
  0
INSERT
  2
*E1713
  8
1
 10
7.14999E+001
 20
1.8470092E+002
 41
1.0
 42
1.0
 43
1.0
 50
2.7E+002
 62
3
  0
POLYLINE
  8
1
  6
CONTINUOUS
 62
3
 66
1
 40
5.0E-001
 41
5.0E-001
 70
0
  0
VERTEX
  8
1
 42
0.0
 10
7.10999E+001
 20
1.8620092E+002
 70
0
  0
VERTEX
  8
1
 42
0.0
 10
7.189991E+001
 20
1.8620092E+002
 70
0
  0
SEQEND
  0
POLYLINE
  8
1
  6
CONTINUOUS
 62
3
 66
1
 40
5.0E-001
 41
5.0E-001
 70
0
  0
VERTEX
  8
1
 42
0.0
 10
7.10999E+001
 20
1.8320092E+002
 70
0
  0
VERTEX
  8
1
 42
0.0
 10
7.189991E+001
 20
1.8320092E+002
 70
0
  0
SEQEND
  0
POLYLINE
  8
1
  6
CONTINUOUS
 62
3
 66
1
 40
5.0E-001
 41
5.0E-001
 70
0
  0
VERTEX
  8
1
 42
0.0
 10
6.19999E+001
 20
1.8406652E+002
 70
0
  0
VERTEX
  8
1
 42
0.0
 10
6.19999E+001
 20
1.8213182E+002
 70
0
  0
SEQEND
  0
POLYLINE
  8
1
  6
CONTINUOUS
 62
3
 66
1
 40
5.0E-001
 41
5.0E-001
 70
0
  0
VERTEX
  8
1
 42
0.0
 10
6.27999E+001
 20
1.8406652E+002
 70
0
  0
VERTEX
  8
1
 42
0.0
 10
6.27999E+001
 20
1.8213182E+002
 70
0
  0
SEQEND
  0
POLYLINE
  8
1
  6
CONTINUOUS
 62
3
 66
1
 40
5.0E-001
 41
5.0E-001
 70
0
  0
VERTEX
  8
1
 42
0.0
 10
6.303434E+001
 20
1.8430092E+002
 70
0
  0
VERTEX
  8
1
 42
0.0
 10
6.389991E+001
 20
1.8430092E+002
 70
0
  0
SEQEND
  0
POLYLINE
  8
1
  6
CONTINUOUS
 62
3
 66
1
 40
5.0E-001
 41
5.0E-001
 70
0
  0
VERTEX
  8
1
 42
0.0
 10
6.303434E+001
 20
1.8510092E+002
 70
0
  0
VERTEX
  8
1
 42
0.0
 10
6.389991E+001
 20
1.8510092E+002
 70
0
  0
SEQEND
  0
POLYLINE
  8
1
  6
CONTINUOUS
 62
3
 66
1
 40
5.0E-001
 41
5.0E-001
 70
0
  0
VERTEX
  8
1
 42
0.0
 10
6.089991E+001
 20
1.8510092E+002
 70
0
  0
VERTEX
  8
1
 42
0.0
 10
6.089991E+001
 20
1.8430092E+002
 70
0
  0
SEQEND
  0
POLYLINE
  8
1
  6
CONTINUOUS
 62
3
 66
1
 40
5.0E-001
 41
5.0E-001
 70
0
  0
VERTEX
  8
1
 42
0.0
 10
6.389991E+001
 20
1.8510092E+002
 70
0
  0
VERTEX
  8
1
 42
0.0
 10
6.389991E+001
 20
1.8430092E+002
 70
0
  0
SEQEND
  0
POLYLINE
  8
1
  6
CONTINUOUS
 62
3
 66
1
 40
5.0E-001
 41
5.0E-001
 70
0
  0
VERTEX
  8
1
 42
0.0
 10
6.089991E+001
 20
1.8510092E+002
 70
0
  0
VERTEX
  8
1
 42
0.0
 10
6.176548E+001
 20
1.8510092E+002
 70
0
  0
SEQEND
  0
POLYLINE
  8
1
  6
CONTINUOUS
 62
3
 66
1
 40
5.0E-001
 41
5.0E-001
 70
0
  0
VERTEX
  8
1
 42
0.0
 10
6.089991E+001
 20
1.8430092E+002
 70
0
  0
VERTEX
  8
1
 42
0.0
 10
6.176548E+001
 20
1.8430092E+002
 70
0
  0
SEQEND
  0
POLYLINE
  8
1
  6
CONTINUOUS
 62
3
 66
1
 40
5.0E-001
 41
5.0E-001
 70
0
  0
VERTEX
  8
1
 42
0.0
 10
6.19999E+001
 20
1.8726992E+002
 70
0
  0
VERTEX
  8
1
 42
0.0
 10
6.19999E+001
 20
1.8533532E+002
 70
0
  0
SEQEND
  0
POLYLINE
  8
1
  6
CONTINUOUS
 62
3
 66
1
 40
5.0E-001
 41
5.0E-001
 70
0
  0
VERTEX
  8
1
 42
0.0
 10
6.27999E+001
 20
1.8726992E+002
 70
0
  0
VERTEX
  8
1
 42
0.0
 10
6.27999E+001
 20
1.8533532E+002
 70
0
  0
SEQEND
  0
POLYLINE
  8
1
  6
CONTINUOUS
 62
3
 66
1
 40
5.0E-001
 41
5.0E-001
 70
0
  0
VERTEX
  8
1
 42
0.0
 10
6.186957E+001
 20
1.8523122E+002
 70
0
  0
VERTEX
  8
1
 42
0.0
 10
6.148067E+001
 20
1.8562012E+002
 70
0
  0
SEQEND
  0
POLYLINE
  8
1
  6
CONTINUOUS
 62
3
 66
1
 40
5.0E-001
 41
5.0E-001
 70
0
  0
VERTEX
  8
1
 42
0.0
 10
6.293022E+001
 20
1.8523122E+002
 70
0
  0
VERTEX
  8
1
 42
0.0
 10
6.331914E+001
 20
1.8562012E+002
 70
0
  0
SEQEND
  0
POLYLINE
  8
1
  6
CONTINUOUS
 62
3
 66
1
 40
5.0E-001
 41
5.0E-001
 70
0
  0
VERTEX
  8
1
 42
0.0
 10
6.186957E+001
 20
1.8417062E+002
 70
0
  0
VERTEX
  8
1
 42
0.0
 10
6.148067E+001
 20
1.8378172E+002
 70
0
  0
SEQEND
  0
POLYLINE
  8
1
  6
CONTINUOUS
 62
3
 66
1
 40
5.0E-001
 41
5.0E-001
 70
0
  0
VERTEX
  8
1
 42
0.0
 10
6.293022E+001
 20
1.8417062E+002
 70
0
  0
VERTEX
  8
1
 42
0.0
 10
6.331914E+001
 20
1.8378172E+002
 70
0
  0
SEQEND
  0
POLYLINE
  8
1
  6
CONTINUOUS
 62
3
 66
1
 40
5.0E-001
 41
5.0E-001
 70
0
  0
VERTEX
  8
1
 42
1.1189405E-001
 10
6.1765481E+001
 20
1.8430092E+002
 70
0
  0
VERTEX
  8
1
 42
0.0
 10
6.1999909E+001
 20
1.8406649E+002
 70
0
  0
SEQEND
  0
POLYLINE
  8
1
  6
CONTINUOUS
 62
3
 66
1
 40
5.0E-001
 41
5.0E-001
 70
0
  0
VERTEX
  8
1
 42
1.1189405E-001
 10
6.1999909E+001
 20
1.8533535E+002
 70
0
  0
VERTEX
  8
1
 42
0.0
 10
6.1765481E+001
 20
1.8510092E+002
 70
0
  0
SEQEND
  0
INSERT
  2
*E1732
  8
1
 10
6.239991E+001
 20
1.8470092E+002
 41
1.0
 42
1.0
 43
1.0
 50
2.7E+002
 62
3
  0
INSERT
  2
*E1733
  8
1
 10
6.239991E+001
 20
1.8470092E+002
 41
1.0
 42
1.0
 43
1.0
 50
2.7E+002
 62
3
  0
POLYLINE
  8
1
  6
CONTINUOUS
 62
3
 66
1
 40
5.0E-001
 41
5.0E-001
 70
0
  0
VERTEX
  8
1
 42
0.0
 10
6.19999E+001
 20
1.8620092E+002
 70
0
  0
VERTEX
  8
1
 42
0.0
 10
6.27999E+001
 20
1.8620092E+002
 70
0
  0
SEQEND
  0
POLYLINE
  8
1
  6
CONTINUOUS
 62
3
 66
1
 40
5.0E-001
 41
5.0E-001
 70
0
  0
VERTEX
  8
1
 42
0.0
 10
6.19999E+001
 20
1.8320092E+002
 70
0
  0
VERTEX
  8
1
 42
0.0
 10
6.27999E+001
 20
1.8320092E+002
 70
0
  0
SEQEND
  0
POLYLINE
  8
1
  6
CONTINUOUS
 62
3
 66
1
 40
5.0E-001
 41
5.0E-001
 70
0
  0
VERTEX
  8
1
 42
0.0
 10
5.289991E+001
 20
1.8406652E+002
 70
0
  0
VERTEX
  8
1
 42
0.0
 10
5.289991E+001
 20
1.8213182E+002
 70
0
  0
SEQEND
  0
POLYLINE
  8
1
  6
CONTINUOUS
 62
3
 66
1
 40
5.0E-001
 41
5.0E-001
 70
0
  0
VERTEX
  8
1
 42
0.0
 10
5.369991E+001
 20
1.8406652E+002
 70
0
  0
VERTEX
  8
1
 42
0.0
 10
5.369991E+001
 20
1.8213182E+002
 70
0
  0
SEQEND
  0
POLYLINE
  8
1
  6
CONTINUOUS
 62
3
 66
1
 40
5.0E-001
 41
5.0E-001
 70
0
  0
VERTEX
  8
1
 42
0.0
 10
5.393433E+001
 20
1.8430092E+002
 70
0
  0
VERTEX
  8
1
 42
0.0
 10
5.47999E+001
 20
1.8430092E+002
 70
0
  0
SEQEND
  0
POLYLINE
  8
1
  6
CONTINUOUS
 62
3
 66
1
 40
5.0E-001
 41
5.0E-001
 70
0
  0
VERTEX
  8
1
 42
0.0
 10
5.393433E+001
 20
1.8510092E+002
 70
0
  0
VERTEX
  8
1
 42
0.0
 10
5.47999E+001
 20
1.8510092E+002
 70
0
  0
SEQEND
  0
POLYLINE
  8
1
  6
CONTINUOUS
 62
3
 66
1
 40
5.0E-001
 41
5.0E-001
 70
0
  0
VERTEX
  8
1
 42
0.0
 10
5.17999E+001
 20
1.8510092E+002
 70
0
  0
VERTEX
  8
1
 42
0.0
 10
5.17999E+001
 20
1.8430092E+002
 70
0
  0
SEQEND
  0
POLYLINE
  8
1
  6
CONTINUOUS
 62
3
 66
1
 40
5.0E-001
 41
5.0E-001
 70
0
  0
VERTEX
  8
1
 42
0.0
 10
5.47999E+001
 20
1.8510092E+002
 70
0
  0
VERTEX
  8
1
 42
0.0
 10
5.47999E+001
 20
1.8430092E+002
 70
0
  0
SEQEND
  0
POLYLINE
  8
1
  6
CONTINUOUS
 62
3
 66
1
 40
5.0E-001
 41
5.0E-001
 70
0
  0
VERTEX
  8
1
 42
0.0
 10
5.17999E+001
 20
1.8510092E+002
 70
0
  0
VERTEX
  8
1
 42
0.0
 10
5.266547E+001
 20
1.8510092E+002
 70
0
  0
SEQEND
  0
POLYLINE
  8
1
  6
CONTINUOUS
 62
3
 66
1
 40
5.0E-001
 41
5.0E-001
 70
0
  0
VERTEX
  8
1
 42
0.0
 10
5.17999E+001
 20
1.8430092E+002
 70
0
  0
VERTEX
  8
1
 42
0.0
 10
5.266547E+001
 20
1.8430092E+002
 70
0
  0
SEQEND
  0
POLYLINE
  8
1
  6
CONTINUOUS
 62
3
 66
1
 40
5.0E-001
 41
5.0E-001
 70
0
  0
VERTEX
  8
1
 42
0.0
 10
5.289991E+001
 20
1.8726992E+002
 70
0
  0
VERTEX
  8
1
 42
0.0
 10
5.289991E+001
 20
1.8533532E+002
 70
0
  0
SEQEND
  0
POLYLINE
  8
1
  6
CONTINUOUS
 62
3
 66
1
 40
5.0E-001
 41
5.0E-001
 70
0
  0
VERTEX
  8
1
 42
0.0
 10
5.369991E+001
 20
1.8726992E+002
 70
0
  0
VERTEX
  8
1
 42
0.0
 10
5.369991E+001
 20
1.8533532E+002
 70
0
  0
SEQEND
  0
POLYLINE
  8
1
  6
CONTINUOUS
 62
3
 66
1
 40
5.0E-001
 41
5.0E-001
 70
0
  0
VERTEX
  8
1
 42
0.0
 10
5.276956E+001
 20
1.8523122E+002
 70
0
  0
VERTEX
  8
1
 42
0.0
 10
5.238066E+001
 20
1.8562012E+002
 70
0
  0
SEQEND
  0
POLYLINE
  8
1
  6
CONTINUOUS
 62
3
 66
1
 40
5.0E-001
 41
5.0E-001
 70
0
  0
VERTEX
  8
1
 42
0.0
 10
5.383023E+001
 20
1.8523122E+002
 70
0
  0
VERTEX
  8
1
 42
0.0
 10
5.421913E+001
 20
1.8562012E+002
 70
0
  0
SEQEND
  0
POLYLINE
  8
1
  6
CONTINUOUS
 62
3
 66
1
 40
5.0E-001
 41
5.0E-001
 70
0
  0
VERTEX
  8
1
 42
0.0
 10
5.276956E+001
 20
1.8417062E+002
 70
0
  0
VERTEX
  8
1
 42
0.0
 10
5.238066E+001
 20
1.8378172E+002
 70
0
  0
SEQEND
  0
POLYLINE
  8
1
  6
CONTINUOUS
 62
3
 66
1
 40
5.0E-001
 41
5.0E-001
 70
0
  0
VERTEX
  8
1
 42
0.0
 10
5.383023E+001
 20
1.8417062E+002
 70
0
  0
VERTEX
  8
1
 42
0.0
 10
5.421913E+001
 20
1.8378172E+002
 70
0
  0
SEQEND
  0
POLYLINE
  8
1
  6
CONTINUOUS
 62
3
 66
1
 40
5.0E-001
 41
5.0E-001
 70
0
  0
VERTEX
  8
1
 42
1.1189405E-001
 10
5.2665471E+001
 20
1.8430092E+002
 70
0
  0
VERTEX
  8
1
 42
0.0
 10
5.2899899E+001
 20
1.8406649E+002
 70
0
  0
SEQEND
  0
POLYLINE
  8
1
  6
CONTINUOUS
 62
3
 66
1
 40
5.0E-001
 41
5.0E-001
 70
0
  0
VERTEX
  8
1
 42
1.1189405E-001
 10
5.2899899E+001
 20
1.8533535E+002
 70
0
  0
VERTEX
  8
1
 42
0.0
 10
5.2665471E+001
 20
1.8510092E+002
 70
0
  0
SEQEND
  0
INSERT
  2
*E1752
  8
1
 10
5.32999E+001
 20
1.8470092E+002
 41
1.0
 42
1.0
 43
1.0
 50
2.7E+002
 62
3
  0
INSERT
  2
*E1753
  8
1
 10
5.32999E+001
 20
1.8470092E+002
 41
1.0
 42
1.0
 43
1.0
 50
2.7E+002
 62
3
  0
POLYLINE
  8
1
  6
CONTINUOUS
 62
3
 66
1
 40
5.0E-001
 41
5.0E-001
 70
0
  0
VERTEX
  8
1
 42
0.0
 10
5.289991E+001
 20
1.8620092E+002
 70
0
  0
VERTEX
  8
1
 42
0.0
 10
5.369991E+001
 20
1.8620092E+002
 70
0
  0
SEQEND
  0
POLYLINE
  8
1
  6
CONTINUOUS
 62
3
 66
1
 40
5.0E-001
 41
5.0E-001
 70
0
  0
VERTEX
  8
1
 42
0.0
 10
5.289991E+001
 20
1.8320092E+002
 70
0
  0
VERTEX
  8
1
 42
0.0
 10
5.369991E+001
 20
1.8320092E+002
 70
0
  0
SEQEND
  0
POLYLINE
  8
1
  6
CONTINUOUS
 62
3
 66
1
 40
5.0E-001
 41
5.0E-001
 70
0
  0
VERTEX
  8
1
 42
0.0
 10
4.37999E+001
 20
1.8406652E+002
 70
0
  0
VERTEX
  8
1
 42
0.0
 10
4.37999E+001
 20
1.8213182E+002
 70
0
  0
SEQEND
  0
POLYLINE
  8
1
  6
CONTINUOUS
 62
3
 66
1
 40
5.0E-001
 41
5.0E-001
 70
0
  0
VERTEX
  8
1
 42
0.0
 10
4.45999E+001
 20
1.8406652E+002
 70
0
  0
VERTEX
  8
1
 42
0.0
 10
4.45999E+001
 20
1.8213182E+002
 70
0
  0
SEQEND
  0
POLYLINE
  8
1
  6
CONTINUOUS
 62
3
 66
1
 40
5.0E-001
 41
5.0E-001
 70
0
  0
VERTEX
  8
1
 42
0.0
 10
4.483432E+001
 20
1.8430092E+002
 70
0
  0
VERTEX
  8
1
 42
0.0
 10
4.569989E+001
 20
1.8430092E+002
 70
0
  0
SEQEND
  0
POLYLINE
  8
1
  6
CONTINUOUS
 62
3
 66
1
 40
5.0E-001
 41
5.0E-001
 70
0
  0
VERTEX
  8
1
 42
0.0
 10
4.483432E+001
 20
1.8510092E+002
 70
0
  0
VERTEX
  8
1
 42
0.0
 10
4.569989E+001
 20
1.8510092E+002
 70
0
  0
SEQEND
  0
POLYLINE
  8
1
  6
CONTINUOUS
 62
3
 66
1
 40
5.0E-001
 41
5.0E-001
 70
0
  0
VERTEX
  8
1
 42
0.0
 10
4.269989E+001
 20
1.8510092E+002
 70
0
  0
VERTEX
  8
1
 42
0.0
 10
4.269989E+001
 20
1.8430092E+002
 70
0
  0
SEQEND
  0
POLYLINE
  8
1
  6
CONTINUOUS
 62
3
 66
1
 40
5.0E-001
 41
5.0E-001
 70
0
  0
VERTEX
  8
1
 42
0.0
 10
4.569989E+001
 20
1.8510092E+002
 70
0
  0
VERTEX
  8
1
 42
0.0
 10
4.569989E+001
 20
1.8430092E+002
 70
0
  0
SEQEND
  0
POLYLINE
  8
1
  6
CONTINUOUS
 62
3
 66
1
 40
5.0E-001
 41
5.0E-001
 70
0
  0
VERTEX
  8
1
 42
0.0
 10
4.269989E+001
 20
1.8510092E+002
 70
0
  0
VERTEX
  8
1
 42
0.0
 10
4.356546E+001
 20
1.8510092E+002
 70
0
  0
SEQEND
  0
POLYLINE
  8
1
  6
CONTINUOUS
 62
3
 66
1
 40
5.0E-001
 41
5.0E-001
 70
0
  0
VERTEX
  8
1
 42
0.0
 10
4.269989E+001
 20
1.8430092E+002
 70
0
  0
VERTEX
  8
1
 42
0.0
 10
4.356546E+001
 20
1.8430092E+002
 70
0
  0
SEQEND
  0
POLYLINE
  8
1
  6
CONTINUOUS
 62
3
 66
1
 40
5.0E-001
 41
5.0E-001
 70
0
  0
VERTEX
  8
1
 42
0.0
 10
4.37999E+001
 20
1.8726992E+002
 70
0
  0
VERTEX
  8
1
 42
0.0
 10
4.37999E+001
 20
1.8533532E+002
 70
0
  0
SEQEND
  0
POLYLINE
  8
1
  6
CONTINUOUS
 62
3
 66
1
 40
5.0E-001
 41
5.0E-001
 70
0
  0
VERTEX
  8
1
 42
0.0
 10
4.45999E+001
 20
1.8726992E+002
 70
0
  0
VERTEX
  8
1
 42
0.0
 10
4.45999E+001
 20
1.8533532E+002
 70
0
  0
SEQEND
  0
POLYLINE
  8
1
  6
CONTINUOUS
 62
3
 66
1
 40
5.0E-001
 41
5.0E-001
 70
0
  0
VERTEX
  8
1
 42
0.0
 10
4.366957E+001
 20
1.8523122E+002
 70
0
  0
VERTEX
  8
1
 42
0.0
 10
4.328067E+001
 20
1.8562012E+002
 70
0
  0
SEQEND
  0
POLYLINE
  8
1
  6
CONTINUOUS
 62
3
 66
1
 40
5.0E-001
 41
5.0E-001
 70
0
  0
VERTEX
  8
1
 42
0.0
 10
4.473023E+001
 20
1.8523122E+002
 70
0
  0
VERTEX
  8
1
 42
0.0
 10
4.511914E+001
 20
1.8562012E+002
 70
0
  0
SEQEND
  0
POLYLINE
  8
1
  6
CONTINUOUS
 62
3
 66
1
 40
5.0E-001
 41
5.0E-001
 70
0
  0
VERTEX
  8
1
 42
0.0
 10
4.366957E+001
 20
1.8417062E+002
 70
0
  0
VERTEX
  8
1
 42
0.0
 10
4.328067E+001
 20
1.8378172E+002
 70
0
  0
SEQEND
  0
POLYLINE
  8
1
  6
CONTINUOUS
 62
3
 66
1
 40
5.0E-001
 41
5.0E-001
 70
0
  0
VERTEX
  8
1
 42
0.0
 10
4.473023E+001
 20
1.8417062E+002
 70
0
  0
VERTEX
  8
1
 42
0.0
 10
4.511914E+001
 20
1.8378172E+002
 70
0
  0
SEQEND
  0
POLYLINE
  8
1
  6
CONTINUOUS
 62
3
 66
1
 40
5.0E-001
 41
5.0E-001
 70
0
  0
VERTEX
  8
1
 42
1.1189405E-001
 10
4.3565461E+001
 20
1.8430092E+002
 70
0
  0
VERTEX
  8
1
 42
0.0
 10
4.3799889E+001
 20
1.8406649E+002
 70
0
  0
SEQEND
  0
POLYLINE
  8
1
  6
CONTINUOUS
 62
3
 66
1
 40
5.0E-001
 41
5.0E-001
 70
0
  0
VERTEX
  8
1
 42
1.1189405E-001
 10
4.3799889E+001
 20
1.8533535E+002
 70
0
  0
VERTEX
  8
1
 42
0.0
 10
4.3565461E+001
 20
1.8510092E+002
 70
0
  0
SEQEND
  0
INSERT
  2
*E1772
  8
1
 10
4.419989E+001
 20
1.8470092E+002
 41
1.0
 42
1.0
 43
1.0
 50
2.7E+002
 62
3
  0
INSERT
  2
*E1773
  8
1
 10
4.419989E+001
 20
1.8470092E+002
 41
1.0
 42
1.0
 43
1.0
 50
2.7E+002
 62
3
  0
POLYLINE
  8
1
  6
CONTINUOUS
 62
3
 66
1
 40
5.0E-001
 41
5.0E-001
 70
0
  0
VERTEX
  8
1
 42
0.0
 10
4.37999E+001
 20
1.8620092E+002
 70
0
  0
VERTEX
  8
1
 42
0.0
 10
4.45999E+001
 20
1.8620092E+002
 70
0
  0
SEQEND
  0
POLYLINE
  8
1
  6
CONTINUOUS
 62
3
 66
1
 40
5.0E-001
 41
5.0E-001
 70
0
  0
VERTEX
  8
1
 42
0.0
 10
4.37999E+001
 20
1.8320092E+002
 70
0
  0
VERTEX
  8
1
 42
0.0
 10
4.45999E+001
 20
1.8320092E+002
 70
0
  0
SEQEND
  0
POLYLINE
  8
1
  6
CONTINUOUS
 62
3
 66
1
 40
5.0E-001
 41
5.0E-001
 70
0
  0
VERTEX
  8
1
 42
0.0
 10
8.019989E+001
 20
1.5993532E+002
 70
0
  0
VERTEX
  8
1
 42
0.0
 10
8.019989E+001
 20
1.6186992E+002
 70
0
  0
SEQEND
  0
POLYLINE
  8
1
  6
CONTINUOUS
 62
3
 66
1
 40
5.0E-001
 41
5.0E-001
 70
0
  0
VERTEX
  8
1
 42
0.0
 10
8.09999E+001
 20
1.5993532E+002
 70
0
  0
VERTEX
  8
1
 42
0.0
 10
8.09999E+001
 20
1.6186992E+002
 70
0
  0
SEQEND
  0
POLYLINE
  8
1
  6
CONTINUOUS
 62
3
 66
1
 40
5.0E-001
 41
5.0E-001
 70
0
  0
VERTEX
  8
1
 42
0.0
 10
8.123432E+001
 20
1.5970092E+002
 70
0
  0
VERTEX
  8
1
 42
0.0
 10
8.209989E+001
 20
1.5970092E+002
 70
0
  0
SEQEND
  0
POLYLINE
  8
1
  6
CONTINUOUS
 62
3
 66
1
 40
5.0E-001
 41
5.0E-001
 70
0
  0
VERTEX
  8
1
 42
0.0
 10
8.123432E+001
 20
1.5890092E+002
 70
0
  0
VERTEX
  8
1
 42
0.0
 10
8.209989E+001
 20
1.5890092E+002
 70
0
  0
SEQEND
  0
POLYLINE
  8
1
  6
CONTINUOUS
 62
3
 66
1
 40
5.0E-001
 41
5.0E-001
 70
0
  0
VERTEX
  8
1
 42
0.0
 10
7.909989E+001
 20
1.5890092E+002
 70
0
  0
VERTEX
  8
1
 42
0.0
 10
7.909989E+001
 20
1.5970092E+002
 70
0
  0
SEQEND
  0
POLYLINE
  8
1
  6
CONTINUOUS
 62
3
 66
1
 40
5.0E-001
 41
5.0E-001
 70
0
  0
VERTEX
  8
1
 42
0.0
 10
8.209989E+001
 20
1.5890092E+002
 70
0
  0
VERTEX
  8
1
 42
0.0
 10
8.209989E+001
 20
1.5970092E+002
 70
0
  0
SEQEND
  0
POLYLINE
  8
1
  6
CONTINUOUS
 62
3
 66
1
 40
5.0E-001
 41
5.0E-001
 70
0
  0
VERTEX
  8
1
 42
0.0
 10
7.909989E+001
 20
1.5890092E+002
 70
0
  0
VERTEX
  8
1
 42
0.0
 10
7.996546E+001
 20
1.5890092E+002
 70
0
  0
SEQEND
  0
POLYLINE
  8
1
  6
CONTINUOUS
 62
3
 66
1
 40
5.0E-001
 41
5.0E-001
 70
0
  0
VERTEX
  8
1
 42
0.0
 10
7.909989E+001
 20
1.5970092E+002
 70
0
  0
VERTEX
  8
1
 42
0.0
 10
7.996546E+001
 20
1.5970092E+002
 70
0
  0
SEQEND
  0
POLYLINE
  8
1
  6
CONTINUOUS
 62
3
 66
1
 40
5.0E-001
 41
5.0E-001
 70
0
  0
VERTEX
  8
1
 42
0.0
 10
8.019989E+001
 20
1.5673182E+002
 70
0
  0
VERTEX
  8
1
 42
0.0
 10
8.019989E+001
 20
1.5866642E+002
 70
0
  0
SEQEND
  0
POLYLINE
  8
1
  6
CONTINUOUS
 62
3
 66
1
 40
5.0E-001
 41
5.0E-001
 70
0
  0
VERTEX
  8
1
 42
0.0
 10
8.09999E+001
 20
1.5673182E+002
 70
0
  0
VERTEX
  8
1
 42
0.0
 10
8.09999E+001
 20
1.5866642E+002
 70
0
  0
SEQEND
  0
POLYLINE
  8
1
  6
CONTINUOUS
 62
3
 66
1
 40
5.0E-001
 41
5.0E-001
 70
0
  0
VERTEX
  8
1
 42
0.0
 10
8.006957E+001
 20
1.5877062E+002
 70
0
  0
VERTEX
  8
1
 42
0.0
 10
7.968065E+001
 20
1.5838162E+002
 70
0
  0
SEQEND
  0
POLYLINE
  8
1
  6
CONTINUOUS
 62
3
 66
1
 40
5.0E-001
 41
5.0E-001
 70
0
  0
VERTEX
  8
1
 42
0.0
 10
8.113022E+001
 20
1.5877062E+002
 70
0
  0
VERTEX
  8
1
 42
0.0
 10
8.151912E+001
 20
1.5838162E+002
 70
0
  0
SEQEND
  0
POLYLINE
  8
1
  6
CONTINUOUS
 62
3
 66
1
 40
5.0E-001
 41
5.0E-001
 70
0
  0
VERTEX
  8
1
 42
0.0
 10
8.006957E+001
 20
1.5983122E+002
 70
0
  0
VERTEX
  8
1
 42
0.0
 10
7.968065E+001
 20
1.6022012E+002
 70
0
  0
SEQEND
  0
POLYLINE
  8
1
  6
CONTINUOUS
 62
3
 66
1
 40
5.0E-001
 41
5.0E-001
 70
0
  0
VERTEX
  8
1
 42
0.0
 10
8.113022E+001
 20
1.5983122E+002
 70
0
  0
VERTEX
  8
1
 42
0.0
 10
8.151912E+001
 20
1.6022012E+002
 70
0
  0
SEQEND
  0
POLYLINE
  8
1
  6
CONTINUOUS
 62
3
 66
1
 40
5.0E-001
 41
5.0E-001
 70
0
  0
VERTEX
  8
1
 42
0.0
 10
8.019989E+001
 20
1.5780092E+002
 70
0
  0
VERTEX
  8
1
 42
0.0
 10
8.09999E+001
 20
1.5780092E+002
 70
0
  0
SEQEND
  0
POLYLINE
  8
1
  6
CONTINUOUS
 62
3
 66
1
 40
5.0E-001
 41
5.0E-001
 70
0
  0
VERTEX
  8
1
 42
0.0
 10
8.019989E+001
 20
1.6080092E+002
 70
0
  0
VERTEX
  8
1
 42
0.0
 10
8.09999E+001
 20
1.6080092E+002
 70
0
  0
SEQEND
  0
INSERT
  2
*E1792
  8
1
 10
8.059989E+001
 20
1.5930092E+002
 41
1.0
 42
1.0
 43
1.0
 50
2.7E+002
 62
3
  0
INSERT
  2
*E1793
  8
1
 10
8.059989E+001
 20
1.5930092E+002
 41
1.0
 42
1.0
 43
1.0
 50
2.7E+002
 62
3
  0
POLYLINE
  8
1
  6
CONTINUOUS
 62
3
 66
1
 40
5.0E-001
 41
5.0E-001
 70
0
  0
VERTEX
  8
1
 42
1.1189405E-001
 10
8.0999891E+001
 20
1.5866649E+002
 70
0
  0
VERTEX
  8
1
 42
0.0
 10
8.1234319E+001
 20
1.5890092E+002
 70
0
  0
SEQEND
  0
POLYLINE
  8
1
  6
CONTINUOUS
 62
3
 66
1
 40
5.0E-001
 41
5.0E-001
 70
0
  0
VERTEX
  8
1
 42
1.1189401E-001
 10
8.1234319E+001
 20
1.5970092E+002
 70
0
  0
VERTEX
  8
1
 42
0.0
 10
8.0999891E+001
 20
1.5993535E+002
 70
0
  0
SEQEND
  0
POLYLINE
  8
1
  6
CONTINUOUS
 62
3
 66
1
 40
5.0E-001
 41
5.0E-001
 70
0
  0
VERTEX
  8
1
 42
0.0
 10
7.109989E+001
 20
1.5993532E+002
 70
0
  0
VERTEX
  8
1
 42
0.0
 10
7.109989E+001
 20
1.6186992E+002
 70
0
  0
SEQEND
  0
POLYLINE
  8
1
  6
CONTINUOUS
 62
3
 66
1
 40
5.0E-001
 41
5.0E-001
 70
0
  0
VERTEX
  8
1
 42
0.0
 10
7.189989E+001
 20
1.5993532E+002
 70
0
  0
VERTEX
  8
1
 42
0.0
 10
7.189989E+001
 20
1.6186992E+002
 70
0
  0
SEQEND
  0
POLYLINE
  8
1
  6
CONTINUOUS
 62
3
 66
1
 40
5.0E-001
 41
5.0E-001
 70
0
  0
VERTEX
  8
1
 42
0.0
 10
7.213433E+001
 20
1.5970092E+002
 70
0
  0
VERTEX
  8
1
 42
0.0
 10
7.29999E+001
 20
1.5970092E+002
 70
0
  0
SEQEND
  0
POLYLINE
  8
1
  6
CONTINUOUS
 62
3
 66
1
 40
5.0E-001
 41
5.0E-001
 70
0
  0
VERTEX
  8
1
 42
0.0
 10
7.213433E+001
 20
1.5890092E+002
 70
0
  0
VERTEX
  8
1
 42
0.0
 10
7.29999E+001
 20
1.5890092E+002
 70
0
  0
SEQEND
  0
POLYLINE
  8
1
  6
CONTINUOUS
 62
3
 66
1
 40
5.0E-001
 41
5.0E-001
 70
0
  0
VERTEX
  8
1
 42
0.0
 10
6.99999E+001
 20
1.5890092E+002
 70
0
  0
VERTEX
  8
1
 42
0.0
 10
6.99999E+001
 20
1.5970092E+002
 70
0
  0
SEQEND
  0
POLYLINE
  8
1
  6
CONTINUOUS
 62
3
 66
1
 40
5.0E-001
 41
5.0E-001
 70
0
  0
VERTEX
  8
1
 42
0.0
 10
7.29999E+001
 20
1.5890092E+002
 70
0
  0
VERTEX
  8
1
 42
0.0
 10
7.29999E+001
 20
1.5970092E+002
 70
0
  0
SEQEND
  0
POLYLINE
  8
1
  6
CONTINUOUS
 62
3
 66
1
 40
5.0E-001
 41
5.0E-001
 70
0
  0
VERTEX
  8
1
 42
0.0
 10
6.99999E+001
 20
1.5890092E+002
 70
0
  0
VERTEX
  8
1
 42
0.0
 10
7.086547E+001
 20
1.5890092E+002
 70
0
  0
SEQEND
  0
POLYLINE
  8
1
  6
CONTINUOUS
 62
3
 66
1
 40
5.0E-001
 41
5.0E-001
 70
0
  0
VERTEX
  8
1
 42
0.0
 10
6.99999E+001
 20
1.5970092E+002
 70
0
  0
VERTEX
  8
1
 42
0.0
 10
7.086547E+001
 20
1.5970092E+002
 70
0
  0
SEQEND
  0
POLYLINE
  8
1
  6
CONTINUOUS
 62
3
 66
1
 40
5.0E-001
 41
5.0E-001
 70
0
  0
VERTEX
  8
1
 42
0.0
 10
7.109989E+001
 20
1.5673182E+002
 70
0
  0
VERTEX
  8
1
 42
0.0
 10
7.109989E+001
 20
1.5866652E+002
 70
0
  0
SEQEND
  0
POLYLINE
  8
1
  6
CONTINUOUS
 62
3
 66
1
 40
5.0E-001
 41
5.0E-001
 70
0
  0
VERTEX
  8
1
 42
0.0
 10
7.189989E+001
 20
1.5673182E+002
 70
0
  0
VERTEX
  8
1
 42
0.0
 10
7.189989E+001
 20
1.5866652E+002
 70
0
  0
SEQEND
  0
POLYLINE
  8
1
  6
CONTINUOUS
 62
3
 66
1
 40
5.0E-001
 41
5.0E-001
 70
0
  0
VERTEX
  8
1
 42
0.0
 10
7.096956E+001
 20
1.5877062E+002
 70
0
  0
VERTEX
  8
1
 42
0.0
 10
7.058066E+001
 20
1.5838172E+002
 70
0
  0
SEQEND
  0
POLYLINE
  8
1
  6
CONTINUOUS
 62
3
 66
1
 40
5.0E-001
 41
5.0E-001
 70
0
  0
VERTEX
  8
1
 42
0.0
 10
7.203022E+001
 20
1.5877062E+002
 70
0
  0
VERTEX
  8
1
 42
0.0
 10
7.241913E+001
 20
1.5838172E+002
 70
0
  0
SEQEND
  0
POLYLINE
  8
1
  6
CONTINUOUS
 62
3
 66
1
 40
5.0E-001
 41
5.0E-001
 70
0
  0
VERTEX
  8
1
 42
0.0
 10
7.096956E+001
 20
1.5983122E+002
 70
0
  0
VERTEX
  8
1
 42
0.0
 10
7.058066E+001
 20
1.6022012E+002
 70
0
  0
SEQEND
  0
POLYLINE
  8
1
  6
CONTINUOUS
 62
3
 66
1
 40
5.0E-001
 41
5.0E-001
 70
0
  0
VERTEX
  8
1
 42
0.0
 10
7.203022E+001
 20
1.5983122E+002
 70
0
  0
VERTEX
  8
1
 42
0.0
 10
7.241913E+001
 20
1.6022012E+002
 70
0
  0
SEQEND
  0
INSERT
  2
*E1810
  8
1
 10
7.14999E+001
 20
1.5930092E+002
 41
1.0
 42
1.0
 43
1.0
 50
2.7E+002
 62
3
  0
INSERT
  2
*E1811
  8
1
 10
7.14999E+001
 20
1.5930092E+002
 41
1.0
 42
1.0
 43
1.0
 50
2.7E+002
 62
3
  0
POLYLINE
  8
1
  6
CONTINUOUS
 62
3
 66
1
 40
5.0E-001
 41
5.0E-001
 70
0
  0
VERTEX
  8
1
 42
1.1189405E-001
 10
7.1899901E+001
 20
1.5866649E+002
 70
0
  0
VERTEX
  8
1
 42
0.0
 10
7.2134329E+001
 20
1.5890092E+002
 70
0
  0
SEQEND
  0
POLYLINE
  8
1
  6
CONTINUOUS
 62
3
 66
1
 40
5.0E-001
 41
5.0E-001
 70
0
  0
VERTEX
  8
1
 42
1.1189401E-001
 10
7.2134329E+001
 20
1.5970092E+002
 70
0
  0
VERTEX
  8
1
 42
0.0
 10
7.1899901E+001
 20
1.5993535E+002
 70
0
  0
SEQEND
  0
POLYLINE
  8
1
  6
CONTINUOUS
 62
3
 66
1
 40
5.0E-001
 41
5.0E-001
 70
0
  0
VERTEX
  8
1
 42
0.0
 10
7.109989E+001
 20
1.5780092E+002
 70
0
  0
VERTEX
  8
1
 42
0.0
 10
7.189989E+001
 20
1.5780092E+002
 70
0
  0
SEQEND
  0
POLYLINE
  8
1
  6
CONTINUOUS
 62
3
 66
1
 40
5.0E-001
 41
5.0E-001
 70
0
  0
VERTEX
  8
1
 42
0.0
 10
7.109989E+001
 20
1.6080092E+002
 70
0
  0
VERTEX
  8
1
 42
0.0
 10
7.189989E+001
 20
1.6080092E+002
 70
0
  0
SEQEND
  0
POLYLINE
  8
1
  6
CONTINUOUS
 62
3
 66
1
 40
5.0E-001
 41
5.0E-001
 70
0
  0
VERTEX
  8
1
 42
0.0
 10
6.19999E+001
 20
1.5993532E+002
 70
0
  0
VERTEX
  8
1
 42
0.0
 10
6.19999E+001
 20
1.6186992E+002
 70
0
  0
SEQEND
  0
POLYLINE
  8
1
  6
CONTINUOUS
 62
3
 66
1
 40
5.0E-001
 41
5.0E-001
 70
0
  0
VERTEX
  8
1
 42
0.0
 10
6.27999E+001
 20
1.5993532E+002
 70
0
  0
VERTEX
  8
1
 42
0.0
 10
6.27999E+001
 20
1.6186992E+002
 70
0
  0
SEQEND
  0
POLYLINE
  8
1
  6
CONTINUOUS
 62
3
 66
1
 40
5.0E-001
 41
5.0E-001
 70
0
  0
VERTEX
  8
1
 42
0.0
 10
6.303432E+001
 20
1.5970092E+002
 70
0
  0
VERTEX
  8
1
 42
0.0
 10
6.389989E+001
 20
1.5970092E+002
 70
0
  0
SEQEND
  0
POLYLINE
  8
1
  6
CONTINUOUS
 62
3
 66
1
 40
5.0E-001
 41
5.0E-001
 70
0
  0
VERTEX
  8
1
 42
0.0
 10
6.303432E+001
 20
1.5890092E+002
 70
0
  0
VERTEX
  8
1
 42
0.0
 10
6.389989E+001
 20
1.5890092E+002
 70
0
  0
SEQEND
  0
POLYLINE
  8
1
  6
CONTINUOUS
 62
3
 66
1
 40
5.0E-001
 41
5.0E-001
 70
0
  0
VERTEX
  8
1
 42
0.0
 10
6.089989E+001
 20
1.5890092E+002
 70
0
  0
VERTEX
  8
1
 42
0.0
 10
6.089989E+001
 20
1.5970092E+002
 70
0
  0
SEQEND
  0
POLYLINE
  8
1
  6
CONTINUOUS
 62
3
 66
1
 40
5.0E-001
 41
5.0E-001
 70
0
  0
VERTEX
  8
1
 42
0.0
 10
6.389989E+001
 20
1.5890092E+002
 70
0
  0
VERTEX
  8
1
 42
0.0
 10
6.389989E+001
 20
1.5970092E+002
 70
0
  0
SEQEND
  0
POLYLINE
  8
1
  6
CONTINUOUS
 62
3
 66
1
 40
5.0E-001
 41
5.0E-001
 70
0
  0
VERTEX
  8
1
 42
0.0
 10
6.089989E+001
 20
1.5890092E+002
 70
0
  0
VERTEX
  8
1
 42
0.0
 10
6.176546E+001
 20
1.5890092E+002
 70
0
  0
SEQEND
  0
POLYLINE
  8
1
  6
CONTINUOUS
 62
3
 66
1
 40
5.0E-001
 41
5.0E-001
 70
0
  0
VERTEX
  8
1
 42
0.0
 10
6.089989E+001
 20
1.5970092E+002
 70
0
  0
VERTEX
  8
1
 42
0.0
 10
6.176546E+001
 20
1.5970092E+002
 70
0
  0
SEQEND
  0
POLYLINE
  8
1
  6
CONTINUOUS
 62
3
 66
1
 40
5.0E-001
 41
5.0E-001
 70
0
  0
VERTEX
  8
1
 42
0.0
 10
6.199988E+001
 20
1.5673182E+002
 70
0
  0
VERTEX
  8
1
 42
0.0
 10
6.19999E+001
 20
1.5866652E+002
 70
0
  0
SEQEND
  0
POLYLINE
  8
1
  6
CONTINUOUS
 62
3
 66
1
 40
5.0E-001
 41
5.0E-001
 70
0
  0
VERTEX
  8
1
 42
0.0
 10
6.279988E+001
 20
1.5673182E+002
 70
0
  0
VERTEX
  8
1
 42
0.0
 10
6.27999E+001
 20
1.5866652E+002
 70
0
  0
SEQEND
  0
POLYLINE
  8
1
  6
CONTINUOUS
 62
3
 66
1
 40
5.0E-001
 41
5.0E-001
 70
0
  0
VERTEX
  8
1
 42
0.0
 10
6.186957E+001
 20
1.5877062E+002
 70
0
  0
VERTEX
  8
1
 42
0.0
 10
6.148065E+001
 20
1.5838172E+002
 70
0
  0
SEQEND
  0
POLYLINE
  8
1
  6
CONTINUOUS
 62
3
 66
1
 40
5.0E-001
 41
5.0E-001
 70
0
  0
VERTEX
  8
1
 42
0.0
 10
6.293022E+001
 20
1.5877062E+002
 70
0
  0
VERTEX
  8
1
 42
0.0
 10
6.331913E+001
 20
1.5838162E+002
 70
0
  0
SEQEND
  0
POLYLINE
  8
1
  6
CONTINUOUS
 62
3
 66
1
 40
5.0E-001
 41
5.0E-001
 70
0
  0
VERTEX
  8
1
 42
0.0
 10
6.186957E+001
 20
1.5983122E+002
 70
0
  0
VERTEX
  8
1
 42
0.0
 10
6.148065E+001
 20
1.6022012E+002
 70
0
  0
SEQEND
  0
POLYLINE
  8
1
  6
CONTINUOUS
 62
3
 66
1
 40
5.0E-001
 41
5.0E-001
 70
0
  0
VERTEX
  8
1
 42
0.0
 10
6.293022E+001
 20
1.5983122E+002
 70
0
  0
VERTEX
  8
1
 42
0.0
 10
6.331913E+001
 20
1.6022012E+002
 70
0
  0
SEQEND
  0
INSERT
  2
*E1830
  8
1
 10
6.239989E+001
 20
1.5930092E+002
 41
1.0
 42
1.0
 43
1.0
 50
2.7E+002
 62
3
  0
INSERT
  2
*E1831
  8
1
 10
6.239989E+001
 20
1.5930092E+002
 41
1.0
 42
1.0
 43
1.0
 50
2.7E+002
 62
3
  0
POLYLINE
  8
1
  6
CONTINUOUS
 62
3
 66
1
 40
5.0E-001
 41
5.0E-001
 70
0
  0
VERTEX
  8
1
 42
1.1189405E-001
 10
6.2799891E+001
 20
1.5866649E+002
 70
0
  0
VERTEX
  8
1
 42
0.0
 10
6.3034319E+001
 20
1.5890092E+002
 70
0
  0
SEQEND
  0
POLYLINE
  8
1
  6
CONTINUOUS
 62
3
 66
1
 40
5.0E-001
 41
5.0E-001
 70
0
  0
VERTEX
  8
1
 42
1.1189401E-001
 10
6.3034319E+001
 20
1.5970092E+002
 70
0
  0
VERTEX
  8
1
 42
0.0
 10
6.2799891E+001
 20
1.5993535E+002
 70
0
  0
SEQEND
  0
POLYLINE
  8
1
  6
CONTINUOUS
 62
3
 66
1
 40
5.0E-001
 41
5.0E-001
 70
0
  0
VERTEX
  8
1
 42
0.0
 10
6.199988E+001
 20
1.5780092E+002
 70
0
  0
VERTEX
  8
1
 42
0.0
 10
6.279988E+001
 20
1.5780092E+002
 70
0
  0
SEQEND
  0
POLYLINE
  8
1
  6
CONTINUOUS
 62
3
 66
1
 40
5.0E-001
 41
5.0E-001
 70
0
  0
VERTEX
  8
1
 42
0.0
 10
6.19999E+001
 20
1.6080092E+002
 70
0
  0
VERTEX
  8
1
 42
0.0
 10
6.27999E+001
 20
1.6080092E+002
 70
0
  0
SEQEND
  0
POLYLINE
  8
1
  6
CONTINUOUS
 62
3
 66
1
 40
5.0E-001
 41
5.0E-001
 70
0
  0
VERTEX
  8
1
 42
0.0
 10
5.289989E+001
 20
1.5993532E+002
 70
0
  0
VERTEX
  8
1
 42
0.0
 10
5.289989E+001
 20
1.6186992E+002
 70
0
  0
SEQEND
  0
POLYLINE
  8
1
  6
CONTINUOUS
 62
3
 66
1
 40
5.0E-001
 41
5.0E-001
 70
0
  0
VERTEX
  8
1
 42
0.0
 10
5.369989E+001
 20
1.5993532E+002
 70
0
  0
VERTEX
  8
1
 42
0.0
 10
5.369989E+001
 20
1.6186992E+002
 70
0
  0
SEQEND
  0
POLYLINE
  8
1
  6
CONTINUOUS
 62
3
 66
1
 40
5.0E-001
 41
5.0E-001
 70
0
  0
VERTEX
  8
1
 42
0.0
 10
5.393433E+001
 20
1.5970092E+002
 70
0
  0
VERTEX
  8
1
 42
0.0
 10
5.47999E+001
 20
1.5970092E+002
 70
0
  0
SEQEND
  0
POLYLINE
  8
1
  6
CONTINUOUS
 62
3
 66
1
 40
5.0E-001
 41
5.0E-001
 70
0
  0
VERTEX
  8
1
 42
0.0
 10
5.393433E+001
 20
1.5890092E+002
 70
0
  0
VERTEX
  8
1
 42
0.0
 10
5.47999E+001
 20
1.5890092E+002
 70
0
  0
SEQEND
  0
POLYLINE
  8
1
  6
CONTINUOUS
 62
3
 66
1
 40
5.0E-001
 41
5.0E-001
 70
0
  0
VERTEX
  8
1
 42
0.0
 10
5.17999E+001
 20
1.5890092E+002
 70
0
  0
VERTEX
  8
1
 42
0.0
 10
5.17999E+001
 20
1.5970092E+002
 70
0
  0
SEQEND
  0
POLYLINE
  8
1
  6
CONTINUOUS
 62
3
 66
1
 40
5.0E-001
 41
5.0E-001
 70
0
  0
VERTEX
  8
1
 42
0.0
 10
5.47999E+001
 20
1.5890092E+002
 70
0
  0
VERTEX
  8
1
 42
0.0
 10
5.47999E+001
 20
1.5970092E+002
 70
0
  0
SEQEND
  0
POLYLINE
  8
1
  6
CONTINUOUS
 62
3
 66
1
 40
5.0E-001
 41
5.0E-001
 70
0
  0
VERTEX
  8
1
 42
0.0
 10
5.17999E+001
 20
1.5890092E+002
 70
0
  0
VERTEX
  8
1
 42
0.0
 10
5.266547E+001
 20
1.5890092E+002
 70
0
  0
SEQEND
  0
POLYLINE
  8
1
  6
CONTINUOUS
 62
3
 66
1
 40
5.0E-001
 41
5.0E-001
 70
0
  0
VERTEX
  8
1
 42
0.0
 10
5.17999E+001
 20
1.5970092E+002
 70
0
  0
VERTEX
  8
1
 42
0.0
 10
5.266547E+001
 20
1.5970092E+002
 70
0
  0
SEQEND
  0
POLYLINE
  8
1
  6
CONTINUOUS
 62
3
 66
1
 40
5.0E-001
 41
5.0E-001
 70
0
  0
VERTEX
  8
1
 42
0.0
 10
5.289989E+001
 20
1.5673182E+002
 70
0
  0
VERTEX
  8
1
 42
0.0
 10
5.289989E+001
 20
1.5866652E+002
 70
0
  0
SEQEND
  0
POLYLINE
  8
1
  6
CONTINUOUS
 62
3
 66
1
 40
5.0E-001
 41
5.0E-001
 70
0
  0
VERTEX
  8
1
 42
0.0
 10
5.369989E+001
 20
1.5673182E+002
 70
0
  0
VERTEX
  8
1
 42
0.0
 10
5.369989E+001
 20
1.5866652E+002
 70
0
  0
SEQEND
  0
POLYLINE
  8
1
  6
CONTINUOUS
 62
3
 66
1
 40
5.0E-001
 41
5.0E-001
 70
0
  0
VERTEX
  8
1
 42
0.0
 10
5.276956E+001
 20
1.5877062E+002
 70
0
  0
VERTEX
  8
1
 42
0.0
 10
5.238065E+001
 20
1.5838172E+002
 70
0
  0
SEQEND
  0
POLYLINE
  8
1
  6
CONTINUOUS
 62
3
 66
1
 40
5.0E-001
 41
5.0E-001
 70
0
  0
VERTEX
  8
1
 42
0.0
 10
5.383022E+001
 20
1.5877062E+002
 70
0
  0
VERTEX
  8
1
 42
0.0
 10
5.421913E+001
 20
1.5838172E+002
 70
0
  0
SEQEND
  0
POLYLINE
  8
1
  6
CONTINUOUS
 62
3
 66
1
 40
5.0E-001
 41
5.0E-001
 70
0
  0
VERTEX
  8
1
 42
0.0
 10
5.276956E+001
 20
1.5983122E+002
 70
0
  0
VERTEX
  8
1
 42
0.0
 10
5.238065E+001
 20
1.6022012E+002
 70
0
  0
SEQEND
  0
POLYLINE
  8
1
  6
CONTINUOUS
 62
3
 66
1
 40
5.0E-001
 41
5.0E-001
 70
0
  0
VERTEX
  8
1
 42
0.0
 10
5.383022E+001
 20
1.5983122E+002
 70
0
  0
VERTEX
  8
1
 42
0.0
 10
5.421913E+001
 20
1.6022012E+002
 70
0
  0
SEQEND
  0
INSERT
  2
*E1850
  8
1
 10
5.32999E+001
 20
1.5930092E+002
 41
1.0
 42
1.0
 43
1.0
 50
2.7E+002
 62
3
  0
INSERT
  2
*E1851
  8
1
 10
5.32999E+001
 20
1.5930092E+002
 41
1.0
 42
1.0
 43
1.0
 50
2.7E+002
 62
3
  0
POLYLINE
  8
1
  6
CONTINUOUS
 62
3
 66
1
 40
5.0E-001
 41
5.0E-001
 70
0
  0
VERTEX
  8
1
 42
1.1189405E-001
 10
5.3699901E+001
 20
1.5866649E+002
 70
0
  0
VERTEX
  8
1
 42
0.0
 10
5.3934329E+001
 20
1.5890092E+002
 70
0
  0
SEQEND
  0
POLYLINE
  8
1
  6
CONTINUOUS
 62
3
 66
1
 40
5.0E-001
 41
5.0E-001
 70
0
  0
VERTEX
  8
1
 42
1.1189401E-001
 10
5.3934329E+001
 20
1.5970092E+002
 70
0
  0
VERTEX
  8
1
 42
0.0
 10
5.3699901E+001
 20
1.5993535E+002
 70
0
  0
SEQEND
  0
POLYLINE
  8
1
  6
CONTINUOUS
 62
3
 66
1
 40
5.0E-001
 41
5.0E-001
 70
0
  0
VERTEX
  8
1
 42
0.0
 10
5.289989E+001
 20
1.5780092E+002
 70
0
  0
VERTEX
  8
1
 42
0.0
 10
5.369989E+001
 20
1.5780092E+002
 70
0
  0
SEQEND
  0
POLYLINE
  8
1
  6
CONTINUOUS
 62
3
 66
1
 40
5.0E-001
 41
5.0E-001
 70
0
  0
VERTEX
  8
1
 42
0.0
 10
5.289989E+001
 20
1.6080092E+002
 70
0
  0
VERTEX
  8
1
 42
0.0
 10
5.369989E+001
 20
1.6080092E+002
 70
0
  0
SEQEND
  0
POLYLINE
  8
1
  6
CONTINUOUS
 62
3
 66
1
 40
5.0E-001
 41
5.0E-001
 70
0
  0
VERTEX
  8
1
 42
0.0
 10
4.37999E+001
 20
1.5993532E+002
 70
0
  0
VERTEX
  8
1
 42
0.0
 10
4.37999E+001
 20
1.6186992E+002
 70
0
  0
SEQEND
  0
POLYLINE
  8
1
  6
CONTINUOUS
 62
3
 66
1
 40
5.0E-001
 41
5.0E-001
 70
0
  0
VERTEX
  8
1
 42
0.0
 10
4.459989E+001
 20
1.5993532E+002
 70
0
  0
VERTEX
  8
1
 42
0.0
 10
4.459989E+001
 20
1.6187002E+002
 70
0
  0
SEQEND
  0
POLYLINE
  8
1
  6
CONTINUOUS
 62
3
 66
1
 40
5.0E-001
 41
5.0E-001
 70
0
  0
VERTEX
  8
1
 42
0.0
 10
4.483432E+001
 20
1.5970092E+002
 70
0
  0
VERTEX
  8
1
 42
0.0
 10
4.569989E+001
 20
1.5970092E+002
 70
0
  0
SEQEND
  0
POLYLINE
  8
1
  6
CONTINUOUS
 62
3
 66
1
 40
5.0E-001
 41
5.0E-001
 70
0
  0
VERTEX
  8
1
 42
0.0
 10
4.483432E+001
 20
1.5890092E+002
 70
0
  0
VERTEX
  8
1
 42
0.0
 10
4.569989E+001
 20
1.5890092E+002
 70
0
  0
SEQEND
  0
POLYLINE
  8
1
  6
CONTINUOUS
 62
3
 66
1
 40
5.0E-001
 41
5.0E-001
 70
0
  0
VERTEX
  8
1
 42
0.0
 10
4.269989E+001
 20
1.5890092E+002
 70
0
  0
VERTEX
  8
1
 42
0.0
 10
4.269989E+001
 20
1.5970092E+002
 70
0
  0
SEQEND
  0
POLYLINE
  8
1
  6
CONTINUOUS
 62
3
 66
1
 40
5.0E-001
 41
5.0E-001
 70
0
  0
VERTEX
  8
1
 42
0.0
 10
4.569989E+001
 20
1.5890092E+002
 70
0
  0
VERTEX
  8
1
 42
0.0
 10
4.569989E+001
 20
1.5970092E+002
 70
0
  0
SEQEND
  0
POLYLINE
  8
1
  6
CONTINUOUS
 62
3
 66
1
 40
5.0E-001
 41
5.0E-001
 70
0
  0
VERTEX
  8
1
 42
0.0
 10
4.269989E+001
 20
1.5890092E+002
 70
0
  0
VERTEX
  8
1
 42
0.0
 10
4.356546E+001
 20
1.5890092E+002
 70
0
  0
SEQEND
  0
POLYLINE
  8
1
  6
CONTINUOUS
 62
3
 66
1
 40
5.0E-001
 41
5.0E-001
 70
0
  0
VERTEX
  8
1
 42
0.0
 10
4.269989E+001
 20
1.5970092E+002
 70
0
  0
VERTEX
  8
1
 42
0.0
 10
4.356546E+001
 20
1.5970092E+002
 70
0
  0
SEQEND
  0
POLYLINE
  8
1
  6
CONTINUOUS
 62
3
 66
1
 40
5.0E-001
 41
5.0E-001
 70
0
  0
VERTEX
  8
1
 42
0.0
 10
4.379988E+001
 20
1.5673182E+002
 70
0
  0
VERTEX
  8
1
 42
0.0
 10
4.37999E+001
 20
1.5866652E+002
 70
0
  0
SEQEND
  0
POLYLINE
  8
1
  6
CONTINUOUS
 62
3
 66
1
 40
5.0E-001
 41
5.0E-001
 70
0
  0
VERTEX
  8
1
 42
0.0
 10
4.459989E+001
 20
1.5673192E+002
 70
0
  0
VERTEX
  8
1
 42
0.0
 10
4.459989E+001
 20
1.5866652E+002
 70
0
  0
SEQEND
  0
POLYLINE
  8
1
  6
CONTINUOUS
 62
3
 66
1
 40
5.0E-001
 41
5.0E-001
 70
0
  0
VERTEX
  8
1
 42
0.0
 10
4.366956E+001
 20
1.5877062E+002
 70
0
  0
VERTEX
  8
1
 42
0.0
 10
4.328066E+001
 20
1.5838172E+002
 70
0
  0
SEQEND
  0
POLYLINE
  8
1
  6
CONTINUOUS
 62
3
 66
1
 40
5.0E-001
 41
5.0E-001
 70
0
  0
VERTEX
  8
1
 42
0.0
 10
4.473023E+001
 20
1.5877062E+002
 70
0
  0
VERTEX
  8
1
 42
0.0
 10
4.511913E+001
 20
1.5838172E+002
 70
0
  0
SEQEND
  0
POLYLINE
  8
1
  6
CONTINUOUS
 62
3
 66
1
 40
5.0E-001
 41
5.0E-001
 70
0
  0
VERTEX
  8
1
 42
0.0
 10
4.366956E+001
 20
1.5983122E+002
 70
0
  0
VERTEX
  8
1
 42
0.0
 10
4.328066E+001
 20
1.6022012E+002
 70
0
  0
SEQEND
  0
POLYLINE
  8
1
  6
CONTINUOUS
 62
3
 66
1
 40
5.0E-001
 41
5.0E-001
 70
0
  0
VERTEX
  8
1
 42
0.0
 10
4.473023E+001
 20
1.5983122E+002
 70
0
  0
VERTEX
  8
1
 42
0.0
 10
4.511913E+001
 20
1.6022012E+002
 70
0
  0
SEQEND
  0
INSERT
  2
*E1870
  8
1
 10
4.419989E+001
 20
1.5930092E+002
 41
1.0
 42
1.0
 43
1.0
 50
2.7E+002
 62
3
  0
INSERT
  2
*E1871
  8
1
 10
4.419989E+001
 20
1.5930092E+002
 41
1.0
 42
1.0
 43
1.0
 50
2.7E+002
 62
3
  0
POLYLINE
  8
1
  6
CONTINUOUS
 62
3
 66
1
 40
5.0E-001
 41
5.0E-001
 70
0
  0
VERTEX
  8
1
 42
1.1189405E-001
 10
4.4599891E+001
 20
1.5866649E+002
 70
0
  0
VERTEX
  8
1
 42
0.0
 10
4.4834319E+001
 20
1.5890092E+002
 70
0
  0
SEQEND
  0
POLYLINE
  8
1
  6
CONTINUOUS
 62
3
 66
1
 40
5.0E-001
 41
5.0E-001
 70
0
  0
VERTEX
  8
1
 42
1.1189401E-001
 10
4.4834319E+001
 20
1.5970092E+002
 70
0
  0
VERTEX
  8
1
 42
0.0
 10
4.4599891E+001
 20
1.5993535E+002
 70
0
  0
SEQEND
  0
POLYLINE
  8
1
  6
CONTINUOUS
 62
3
 66
1
 40
5.0E-001
 41
5.0E-001
 70
0
  0
VERTEX
  8
1
 42
0.0
 10
4.379988E+001
 20
1.5780092E+002
 70
0
  0
VERTEX
  8
1
 42
0.0
 10
4.459989E+001
 20
1.5780092E+002
 70
0
  0
SEQEND
  0
POLYLINE
  8
1
  6
CONTINUOUS
 62
3
 66
1
 40
5.0E-001
 41
5.0E-001
 70
0
  0
VERTEX
  8
1
 42
0.0
 10
4.37999E+001
 20
1.6080092E+002
 70
0
  0
VERTEX
  8
1
 42
0.0
 10
4.459989E+001
 20
1.6080092E+002
 70
0
  0
SEQEND
  0
LINE
  8
1
  6
CENTERLINE
 62
1
 10
8.239991E+001
 20
1.9207772E+002
 11
8.239991E+001
 21
2.0140432E+002
  0
LINE
  8
1
  6
CENTERLINE
 62
1
 10
8.712992E+001
 20
1.9700092E+002
 11
7.780339E+001
 21
1.9700092E+002
  0
DIMENSION
  8
1
  6
CONTINUOUS
 62
4
  2
*D1878
  3
DSTYLE3
 10
1.0272694E+002
 20
1.5090092E+002
 11
9.972594E+001
 21
1.7191772E+002
 70
128
 13
7.669999E+001
 23
1.9310092E+002
 14
7.669999E+001
 24
1.5090092E+002
 40
1.25E-001
 50
9.0E+001
  0
LINE
  8
1
  6
CENTERLINE
 62
1
 10
5.25315E+001
 20
1.4700092E+002
 11
3.252458E+001
 21
1.4700092E+002
  0
LINE
  8
1
  6
CENTERLINE
 62
1
 10
4.739987E+001
 20
1.4240972E+002
 11
4.739987E+001
 21
1.5064842E+002
  0
LINE
  8
1
  6
CENTERLINE
 62
1
 10
4.239987E+001
 20
1.4258702E+002
 11
4.239989E+001
 21
1.5131182E+002
  0
LINE
  8
1
  6
CENTERLINE
 62
1
 10
3.739989E+001
 20
1.5086052E+002
 11
3.739988E+001
 21
1.4258702E+002
  0
POLYLINE
  8
1
  6
CONTINUOUS
 62
3
 66
1
 40
5.0E-001
 41
5.0E-001
 70
0
  0
VERTEX
  8
1
 42
0.0
 10
3.964989E+001
 20
1.6945092E+002
 70
0
  0
VERTEX
  8
1
 42
0.0
 10
3.964989E+001
 20
1.6890092E+002
 70
0
  0
SEQEND
  0
POLYLINE
  8
1
  6
CONTINUOUS
 62
3
 66
1
 40
5.0E-001
 41
5.0E-001
 70
0
  0
VERTEX
  8
1
 42
1.0
 10
4.93749E+001
 20
1.7800092E+002
 70
0
  0
VERTEX
  8
1
 42
1.0
 10
4.77249E+001
 20
1.7800092E+002
 70
0
  0
VERTEX
  8
1
 42
0.0
 10
4.93749E+001
 20
1.7800092E+002
 70
0
  0
SEQEND
  0
POLYLINE
  8
1
  6
CONTINUOUS
 62
3
 66
1
 40
5.0E-001
 41
5.0E-001
 70
0
  0
VERTEX
  8
1
 42
1.0
 10
7.789991E+001
 20
1.7200092E+002
 70
0
  0
VERTEX
  8
1
 42
1.0
 10
7.439991E+001
 20
1.7200092E+002
 70
0
  0
VERTEX
  8
1
 42
0.0
 10
7.789991E+001
 20
1.7200092E+002
 70
0
  0
SEQEND
  0
TEXT
  8
1
  6
CONTINUOUS
 62
4
 10
8.1807942E+001
 20
7.2473508E+001
 40
2.0
  1
2
  0
TEXT
  8
1
  6
CONTINUOUS
 62
4
 10
7.2191637E+001
 20
2.4708945E+002
 40
3.0
  1
manual operation
 41
8.0E-001
  0
TEXT
  8
1
  6
CONTINUOUS
 62
4
 10
1.2055776E+002
 20
1.2203783E+002
 40
3.0
  1
DIN rail 35 EN50022
 41
8.0E-001
  0
LINE
  8
1
  6
CONTINUOUS
 62
4
 10
4.318619E+001
 20
1.7193682E+002
 11
2.4704866E+001
 21
9.8013576E+001
  0
LINE
  8
1
  6
CONTINUOUS
 62
4
 10
2.4704866E+001
 20
9.8013576E+001
 11
1.0235074E+002
 21
9.8013576E+001
  0
TEXT
  8
1
  6
CONTINUOUS
 62
4
 10
3.0727915E+001
 20
1.0520652E+002
 40
3.0
  1
switching position indication
 41
8.0E-001
  0
TEXT
  8
1
  6
CONTINUOUS
 62
4
 10
1.2574141E+002
 20
7.5758384E+001
 40
3.0
  1
Changes of dimensions reserved !
 41
8.0E-001
  0
TEXT
  8
1
  6
CONTINUOUS
 62
4
 10
1.3069291E+002
 20
5.4546797E+001
 40
3.0
  1
attachment eyes breakable
 41
8.0E-001
  0
TEXT
  8
1
  6
CONTINUOUS
 62
4
 10
2.1954623E+001
 20
7.6326063E+001
 40
3.0
  1
terminals :   1 ... 2,5mm  multiple-wire
 41
8.0E-001
  0
TEXT
  8
1
  6
CONTINUOUS
 62
4
 10
6.0147687E+001
 20
6.44539E+001
 40
3.0
  1
... 4 mm  single-wire
 41
7.5334285E-001
  0
TEXT
  8
1
  6
CONTINUOUS
 62
4
 10
7.9161981E+001
 20
6.6192323E+001
 40
2.0
  1
2
  0
TEXT
  8
1
  6
CONTINUOUS
 62
4
 10
8.2743454E+001
 20
7.8524218E+001
 40
2.0
  1
2
  0
TEXT
  8
1
  6
CONTINUOUS
 62
4
 10
2.2163838E+001
 20
4.7497542E+001
 40
3.0
  1
weight : ca. 180g
 41
8.0E-001
  0
TEXT
  8
1
  6
CONTINUOUS
 62
4
 10
7.5825852E+001
 20
7.305514
 40
2.8
  1
dimension drawing
 41
8.0E-001
  0
TEXT
  8
1
  6
CONTINUOUS
 62
4
 10
2.6105279E+001
 20
1.4538269E+001
 40
2.5
  1
c
 41
8.666667E-001
  0
TEXT
  8
1
  6
CONTINUOUS
 62
4
 10
3.3181662E+001
 20
1.4747167E+001
 40
2.2
  1
L12 185  2.8.04 
 41
6.8621326E-001
  0
VIEWPORT
 67
1
  8
0
  6
CONTINUOUS
 62
3
100
AcDbViewport
 10
1.05E+002
 20
1.485E+002
 30
0.0
 40
2.97E+002
 41
2.97E+002
 68
1
 69
1
1001
ACAD
1000
MVIEW
1002
{
1070
16
1010
0.0
1020
0.0
1030
0.0
1010
0.0
1020
0.0
1030
1.0
1040
0.0
1040
2.97E+002
1040
4.2E+001
1040
1.485E+002
1040
5.0E+001
1040
0.0
1040
0.0
1070
0
1070
100
1070
1
1070
0
1070
0
1070
0
1070
0
1070
0
1040
0.0
1040
0.0
1040
0.0
1040
5.0E-001
1040
5.0E-001
1040
5.0E-001
1040
5.0E-001
1070
0
1002
{
1002
}
1002
}
  0
VIEWPORT
 67
1
  8
0
  6
CONTINUOUS
 62
3
100
AcDbViewport
 10
1.05E+002
 20
1.485E+002
 30
0.0
 40
2.1E+002
 41
2.97E+002
 68
2
 69
2
1001
ACAD
1000
MVIEW
1002
{
1070
16
1010
0.0
1020
0.0
1030
0.0
1010
0.0
1020
0.0
1030
1.0
1040
0.0
1040
2.97E+002
1040
1.05E+002
1040
1.485E+002
1040
5.0E+001
1040
0.0
1040
0.0
1070
0
1070
100
1070
1
1070
0
1070
0
1070
0
1070
0
1070
0
1040
0.0
1040
0.0
1040
0.0
1040
5.0E-001
1040
5.0E-001
1040
5.0E-001
1040
5.0E-001
1070
0
1002
{
1002
}
1002
}
  0
ENDSEC
  0
EOF
