  0
SECTION
  2
HEADER
  9
$ACADVER
  1
AC1015
  9
$ACADMAINTVER
 70
     6
  9
$DWGCODEPAGE
  3
ANSI_1252
  9
$INSBASE
 10
0.0
 20
0.0
 30
0.0
  9
$EXTMIN
 10
0.0
 20
0.0
 30
0.0
  9
$EXTMAX
 10
205.26001
 20
292.708588
 30
2.0
  9
$LIMMIN
 10
0.0
 20
0.0
  9
$LIMMAX
 10
420.0
 20
297.0
  9
$ORTHOMODE
 70
     0
  9
$REGENMODE
 70
     1
  9
$FILLMODE
 70
     1
  9
$QTEXTMODE
 70
     0
  9
$MIRRTEXT
 70
     1
  9
$LTSCALE
 40
1.0
  9
$ATTMODE
 70
     1
  9
$TEXTSIZE
 40
2.5
  9
$TRACEWID
 40
1.0
  9
$TEXTSTYLE
  7
STANDARD
  9
$CLAYER
  8
0
  9
$CELTYPE
  6
ByLayer
  9
$CECOLOR
 62
   256
  9
$CELTSCALE
 40
1.0
  9
$DISPSILH
 70
     0
  9
$DIMSCALE
 40
1.0
  9
$DIMASZ
 40
2.5
  9
$DIMEXO
 40
0.625
  9
$DIMDLI
 40
3.75
  9
$DIMRND
 40
0.0
  9
$DIMDLE
 40
0.0
  9
$DIMEXE
 40
1.25
  9
$DIMTP
 40
0.0
  9
$DIMTM
 40
0.0
  9
$DIMTXT
 40
2.5
  9
$DIMCEN
 40
2.5
  9
$DIMTSZ
 40
0.0
  9
$DIMTOL
 70
     0
  9
$DIMLIM
 70
     0
  9
$DIMTIH
 70
     0
  9
$DIMTOH
 70
     0
  9
$DIMSE1
 70
     0
  9
$DIMSE2
 70
     0
  9
$DIMTAD
 70
     1
  9
$DIMZIN
 70
     8
  9
$DIMBLK
  1

  9
$DIMASO
 70
     1
  9
$DIMSHO
 70
     1
  9
$DIMPOST
  1

  9
$DIMAPOST
  1

  9
$DIMALT
 70
     0
  9
$DIMALTD
 70
     3
  9
$DIMALTF
 40
0.03937
  9
$DIMLFAC
 40
1.0
  9
$DIMTOFL
 70
     1
  9
$DIMTVP
 40
0.0
  9
$DIMTIX
 70
     0
  9
$DIMSOXD
 70
     0
  9
$DIMSAH
 70
     0
  9
$DIMBLK1
  1

  9
$DIMBLK2
  1

  9
$DIMSTYLE
  2
STANDARD
  9
$DIMCLRD
 70
     0
  9
$DIMCLRE
 70
     0
  9
$DIMCLRT
 70
     0
  9
$DIMTFAC
 40
1.0
  9
$DIMGAP
 40
0.625
  9
$DIMJUST
 70
     0
  9
$DIMSD1
 70
     0
  9
$DIMSD2
 70
     0
  9
$DIMTOLJ
 70
     0
  9
$DIMTZIN
 70
     8
  9
$DIMALTZ
 70
     0
  9
$DIMALTTZ
 70
     0
  9
$DIMUPT
 70
     0
  9
$DIMDEC
 70
     2
  9
$DIMTDEC
 70
     2
  9
$DIMALTU
 70
     2
  9
$DIMALTTD
 70
     3
  9
$DIMTXSTY
  7
STANDARD
  9
$DIMAUNIT
 70
     0
  9
$DIMADEC
 70
     0
  9
$DIMALTRND
 40
0.0
  9
$DIMAZIN
 70
     0
  9
$DIMDSEP
 70
    44
  9
$DIMATFIT
 70
     0
  9
$DIMFRAC
 70
     0
  9
$DIMLDRBLK
  1

  9
$DIMLUNIT
 70
     2
  9
$DIMLWD
 70
    -2
  9
$DIMLWE
 70
    -2
  9
$DIMTMOVE
 70
     0
  9
$LUNITS
 70
     2
  9
$LUPREC
 70
     4
  9
$SKETCHINC
 40
1.0
  9
$FILLETRAD
 40
2.5
  9
$AUNITS
 70
     0
  9
$AUPREC
 70
     0
  9
$MENU
  1
.
  9
$ELEVATION
 40
0.0
  9
$PELEVATION
 40
0.0
  9
$THICKNESS
 40
0.0
  9
$LIMCHECK
 70
     0
  9
$CHAMFERA
 40
2.5
  9
$CHAMFERB
 40
2.5
  9
$CHAMFERC
 40
0.0
  9
$CHAMFERD
 40
0.0
  9
$SKPOLY
 70
     0
  9
$TDCREATE
 40
0.000000000
  9
$TDUCREATE
 40
0.000000000
  9
$TDUPDATE
 40
0.000000000
  9
$TDUUPDATE
 40
0.000000000
  9
$TDINDWG
 40
0.0000000000
  9
$TDUSRTIMER
 40
0.0000000000
  9
$USRTIMER
 70
     1
  9
$ANGBASE
 50
0.0
  9
$ANGDIR
 70
     0
  9
$PDMODE
 70
     0
  9
$PDSIZE
 40
0.0
  9
$PLINEWID
 40
0.0
  9
$SPLFRAME
 70
     0
  9
$SPLINETYPE
 70
     6
  9
$SPLINESEGS
 70
     8
  9
$HANDSEED
  5
557
  9
$SURFTAB1
 70
     6
  9
$SURFTAB2
 70
     6
  9
$SURFTYPE
 70
     6
  9
$SURFU
 70
     6
  9
$SURFV
 70
     6
  9
$UCSBASE
  2

  9
$UCSNAME
  2

  9
$UCSORG
 10
0.0
 20
0.0
 30
0.0
  9
$UCSXDIR
 10
1.0
 20
0.0
 30
0.0
  9
$UCSYDIR
 10
0.0
 20
1.0
 30
0.0
  9
$UCSORTHOREF
  2

  9
$UCSORTHOVIEW
 70
     1
  9
$UCSORGTOP
 10
0.0
 20
0.0
 30
0.0
  9
$UCSORGBOTTOM
 10
0.0
 20
0.0
 30
0.0
  9
$UCSORGLEFT
 10
0.0
 20
0.0
 30
0.0
  9
$UCSORGRIGHT
 10
0.0
 20
0.0
 30
0.0
  9
$UCSORGFRONT
 10
0.0
 20
0.0
 30
0.0
  9
$UCSORGBACK
 10
0.0
 20
0.0
 30
0.0
  9
$PUCSBASE
  2

  9
$PUCSNAME
  2

  9
$PUCSORG
 10
0.0
 20
0.0
 30
0.0
  9
$PUCSXDIR
 10
1.0
 20
0.0
 30
0.0
  9
$PUCSYDIR
 10
0.0
 20
1.0
 30
0.0
  9
$PUCSORTHOREF
  2

  9
$PUCSORTHOVIEW
 70
     0
  9
$PUCSORGTOP
 10
0.0
 20
0.0
 30
0.0
  9
$PUCSORGBOTTOM
 10
0.0
 20
0.0
 30
0.0
  9
$PUCSORGLEFT
 10
0.0
 20
0.0
 30
0.0
  9
$PUCSORGRIGHT
 10
0.0
 20
0.0
 30
0.0
  9
$PUCSORGFRONT
 10
0.0
 20
0.0
 30
0.0
  9
$PUCSORGBACK
 10
0.0
 20
0.0
 30
0.0
  9
$USERI1
 70
     0
  9
$USERI2
 70
     0
  9
$USERI3
 70
     0
  9
$USERI4
 70
     0
  9
$USERI5
 70
     0
  9
$USERR1
 40
0.0
  9
$USERR2
 40
0.0
  9
$USERR3
 40
0.0
  9
$USERR4
 40
0.0
  9
$USERR5
 40
0.0
  9
$WORLDVIEW
 70
     1
  9
$SHADEDGE
 70
     3
  9
$SHADEDIF
 70
    70
  9
$TILEMODE
 70
     1
  9
$MAXACTVP
 70
    48
  9
$PINSBASE
 10
0.0
 20
0.0
 30
0.0
  9
$PLIMCHECK
 70
     0
  9
$PEXTMIN
 10
0.0
 20
0.0
 30
0.0
  9
$PEXTMAX
 10
205.26001
 20
292.708588
 30
2.0
  9
$PLIMMIN
 10
0.0
 20
0.0
  9
$PLIMMAX
 10
420.0
 20
297.0
  9
$UNITMODE
 70
     0
  9
$VISRETAIN
 70
     0
  9
$PLINEGEN
 70
     0
  9
$PSLTSCALE
 70
     1
  9
$TREEDEPTH
 70
  3020
  9
$CMLSTYLE
  2
Standard
  9
$CMLJUST
 70
     0
  9
$CMLSCALE
 40
20.0
  9
$PROXYGRAPHICS
 70
     1
  9
$MEASUREMENT
 70
     1
  9
$CELWEIGHT
370
    -1
  9
$ENDCAPS
280
     0
  9
$JOINSTYLE
280
     0
  9
$LWDISPLAY
290
     0
  9
$INSUNITS
 70
     0
  9
$HYPERLINKBASE
  1

  9
$STYLESHEET
  1

  9
$XEDIT
290
     1
  9
$CEPSNTYPE
380
     0
  9
$PSTYLEMODE
290
     0
  9
$FINGERPRINTGUID
  2

  9
$VERSIONGUID
  2

  9
$EXTNAMES
290
     0
  9
$PSVPSCALE
 40
0.0
  0
ENDSEC
  0
SECTION
  2
CLASSES
  0
CLASS
  1
LWPOLYLINE
  2
AcDbPolyline
  3
AutoCAD 2000
 90
        0
280
     0
281
     1
  0
CLASS
  1
IMAGE
  2
AcDbRasterImage
  3
ISM
 90
      127
280
     0
281
     1
  0
CLASS
  1
OLE2FRAME
  2
AcDbOle2Frame
  3
AutoCAD 2000
 90
        0
280
     0
281
     1
  0
CLASS
  1
HATCH
  2
AcDbHatch
  3
AutoCAD 2000
 90
        0
280
     0
281
     1
  0
CLASS
  1
DICTIONARYVAR
  2
AcDbDictionaryVar
  3
AutoCAD 2000
 90
        0
280
     0
281
     0
  0
CLASS
  1
RASTERVARIABLES
  2
AcDbRasterVariables
  3
ISM
 90
        0
280
     0
281
     0
  0
CLASS
  1
IMAGEDEF
  2
AcDbRasterImageDef
  3
ISM
 90
        0
280
     0
281
     0
  0
CLASS
  1
IMAGEDEF_REACTOR
  2
AcDbRasterImageDefReactor
  3
ISM
 90
        1
280
     0
281
     0
  0
CLASS
  1
IDBUFFER
  2
AcDbIdBuffer
  3
AutoCAD 2000
 90
        0
280
     0
281
     0
  0
CLASS
  1
SPATIAL_FILTER
  2
AcDbSpatialFilter
  3
AutoCAD 2000
 90
        0
280
     0
281
     0
  0
CLASS
  1
XRECORD
  2
AcDbXrecord
  3
AutoCAD 2000
 90
        0
280
     0
281
     0
  0
CLASS
  1
SORTENTSTABLE
  2
AcDbSortentsTable
  3
AutoCAD 2000
 90
        0
280
     0
281
     0
  0
CLASS
  1
LAYER_INDEX
  2
AcDbLayerIndex
  3
AutoCAD 2000
 90
        0
280
     0
281
     0
  0
CLASS
  1
SPATIAL_INDEX
  2
AcDbSpatialIndex
  3
AutoCAD 2000
 90
        0
280
     0
281
     0
  0
CLASS
  1
OBJECT_PTR
  2
CAseDLPNTableRecord
  3
"ASE-LPNTableRecord"
 90
        1
280
     0
281
     0
  0
CLASS
  1
LAYOUT
  2
AcDbLayout
  3
AutoCAD 2000
 90
        0
280
     0
281
     0
  0
CLASS
  1
PLOTSETTINGS
  2
AcDbPlotSettings
  3
AutoCAD 2000
 90
        0
280
     0
281
     0
  0
CLASS
  1
ACDBDICTIONARYWDFLT
  2
AcDbDictionaryWithDefault
  3
AutoCAD 2000
 90
        0
280
     0
281
     0
  0
CLASS
  1
ACDBPLACEHOLDER
  2
AcDbPlaceHolder
  3
AutoCAD 2000
 90
        0
280
     0
281
     0
  0
CLASS
  1
VBA_PROJECT
  2
AcDbVbaProject
  3
acadvba
 90
        0
280
     0
281
     0
  0
CLASS
  1
WIPEOUT
  2
AcDbWipeout
  3
WipeOut|AutoCAD Express Tool|expresstools@autodesk.com
 90
      127
280
     0
281
     1
  0
CLASS
  1
WIPEOUTVARIABLES
  2
AcDbWipeoutVariables
  3
WipeOut|AutoCAD Express Tool|expresstools@autodesk.com
 90
        0
280
     0
281
     0
  0
CLASS
  1
RTEXT
  2
RText
  3
RText|AutoCAD Express Tool|expresstools@autodesk.com
 90
        0
280
     0
281
     1
  0
CLASS
  1
ARCALIGNEDTEXT
  2
AcDbArcAlignedText
  3
ATEXT|AutoCAD Express Tool|expresstools@autodesk.com
 90
        0
280
     0
281
     1
  0
ENDSEC
  0
SECTION
  2
TABLES
  0
TABLE
  2
VPORT
  5
7
100
AcDbSymbolTable
 70
     1
  0
VPORT
  5
15
100
AcDbSymbolTableRecord
100
AcDbViewportTableRecord
  2
*ACTIVE
 70
     0
 10
0.0
 20
0.0
 11
1.0
 21
1.0
 12
6.591288
 22
4.579184
 13
0.0
 23
0.0
 14
1.0
 24
1.0
 15
0.0
 25
0.0
 16
0.0
 26
0.0
 36
1.0
 17
0.0
 27
0.0
 37
0.0
 40
9.158369
 41
0.688564
 42
50.0
 43
0.0
 44
0.0
 50
0.0
 51
0.0
 71
     0
 72
   100
 73
     1
 74
     1
 75
     0
 76
     0
 77
     0
 78
     0
281
     0
 65
     0
110
0.0
120
0.0
130
0.0
111
1.0
121
0.0
131
0.0
112
0.0
122
1.0
132
0.0
345
0
346
0
 79
     0
146
0.0
  0
ENDTAB
  0
TABLE
  2
LTYPE
  5
4
100
AcDbSymbolTable
 70
     5
  0
LTYPE
  5
11
100
AcDbSymbolTableRecord
100
AcDbLinetypeTableRecord
  2
ByBlock
 70
    64
  3

 72
    65
 73
     0
 40
0.0
  0
LTYPE
  5
12
100
AcDbSymbolTableRecord
100
AcDbLinetypeTableRecord
  2
ByLayer
 70
    64
  3

 72
    65
 73
     0
 40
0.0
  0
LTYPE
  5
13
100
AcDbSymbolTableRecord
100
AcDbLinetypeTableRecord
  2
Continuous
 70
    64
  3
Solid line
 72
    65
 73
     0
 40
0.0
  0
LTYPE
  5
24
100
AcDbSymbolTableRecord
100
AcDbLinetypeTableRecord
  2
DASHDOT
 70
     0
  3
 __ . __ . __ . __ . __ . __ . __ . 
 72
    65
 73
     4
 40
18.5
 49
12.0
 74
     0
 49
-3.0
 74
     0
 49
0.5
 74
     0
 49
-3.0
 74
     0
  0
LTYPE
  5
25
100
AcDbSymbolTableRecord
100
AcDbLinetypeTableRecord
  2
DASHSPACE
 70
     0
  3
__    __    __    __    __   
 72
    65
 73
     2
 40
30.0
 49
12.0
 74
     0
 49
-18.0
 74
     0
  0
ENDTAB
  0
TABLE
  2
LAYER
  5
2
100
AcDbSymbolTable
 70
     2
  0
LAYER
  5
14
100
AcDbSymbolTableRecord
100
AcDbLayerTableRecord
  2
0
 70
     0
 62
     7
  6
Continuous
290
     1
370
    13
390
1D
  0
LAYER
  5
26
100
AcDbSymbolTableRecord
100
AcDbLayerTableRecord
  2
General
 70
     0
 62
     7
  6
Continuous
290
     1
370
    13
390
1D
  0
ENDTAB
  0
TABLE
  2
STYLE
  5
3
100
AcDbSymbolTable
 70
     2
  0
STYLE
  5
17
100
AcDbSymbolTableRecord
100
AcDbTextStyleTableRecord
  2
STANDARD
 70
     0
 40
0.0
 41
1.0
 50
0.0
 71
     0
 42
0.0
  3
isocp.shx
  4

  0
STYLE
  5
27
100
AcDbSymbolTableRecord
100
AcDbTextStyleTableRecord
  2
GDT
 70
     0
 40
0.0
 41
1.0
 50
0.0
 71
     0
 42
0.0
  3
gdt.shx
  4

  0
ENDTAB
  0
TABLE
  2
VIEW
  5
5
100
AcDbSymbolTable
 70
     0
  0
ENDTAB
  0
TABLE
  2
UCS
  5
6
100
AcDbSymbolTable
 70
     0
  0
ENDTAB
  0
TABLE
  2
APPID
  5
8
100
AcDbSymbolTable
 70
     1
  0
APPID
  5
16
100
AcDbSymbolTableRecord
100
AcDbRegAppTableRecord
  2
ACAD
 70
     0
  0
ENDTAB
  0
TABLE
  2
DIMSTYLE
  5
9
100
AcDbSymbolTable
 70
     1
100
AcDbDimStyleTable
 71
     0
  0
DIMSTYLE
105
18
100
AcDbSymbolTableRecord
100
AcDbDimStyleTableRecord
  2
STANDARD
 70
     0
  3

  4

 40
1.0
 41
2.5
 42
0.625
 43
3.75
 44
1.25
 45
0.0
 46
0.0
 47
0.0
 48
0.0
 71
     0
 72
     0
 73
     0
 74
     0
 75
     0
 76
     0
 77
     1
 78
     8
 79
     0
140
2.5
141
2.5
142
0.0
143
0.03937
144
1.0
145
0.0
146
1.0
147
0.625
148
0.0
170
     0
171
     3
172
     1
173
     0
174
     0
175
     0
176
     0
177
     0
178
     0
179
     0
271
     2
272
     2
273
     2
274
     3
275
     0
276
     0
277
     2
278
    44
279
     0
280
     0
281
     0
282
     0
283
     0
284
     8
285
     0
286
     0
288
     0
289
     0
340
0
341
0
342
0
343
0
344
0
371
    -2
372
    -2
  0
ENDTAB
  0
TABLE
  2
BLOCK_RECORD
  5
1
100
AcDbSymbolTable
 70
    18
  0
BLOCK_RECORD
  5
A
100
AcDbSymbolTableRecord
100
AcDbBlockTableRecord
  2
*MODEL_SPACE
340
20
  0
BLOCK_RECORD
  5
B
100
AcDbSymbolTableRecord
100
AcDbBlockTableRecord
  2
*PAPER_SPACE
340
21
  0
BLOCK_RECORD
  5
EC
100
AcDbSymbolTableRecord
100
AcDbBlockTableRecord
  2
BLOCK1
340
0
102
{BLKREFS
331
54C
102
}
  0
BLOCK_RECORD
  5
ED
100
AcDbSymbolTableRecord
100
AcDbBlockTableRecord
  2
BLOCK2
340
0
102
{BLKREFS
331
54D
102
}
  0
BLOCK_RECORD
  5
EE
100
AcDbSymbolTableRecord
100
AcDbBlockTableRecord
  2
BLOCK3
340
0
102
{BLKREFS
331
54E
102
}
  0
BLOCK_RECORD
  5
EF
100
AcDbSymbolTableRecord
100
AcDbBlockTableRecord
  2
BLOCK4
340
0
102
{BLKREFS
331
54F
102
}
  0
BLOCK_RECORD
  5
F0
100
AcDbSymbolTableRecord
100
AcDbBlockTableRecord
  2
BLOCK5
340
0
102
{BLKREFS
331
550
102
}
  0
BLOCK_RECORD
  5
F1
100
AcDbSymbolTableRecord
100
AcDbBlockTableRecord
  2
BLOCK6
340
0
102
{BLKREFS
331
551
102
}
  0
BLOCK_RECORD
  5
F2
100
AcDbSymbolTableRecord
100
AcDbBlockTableRecord
  2
BLOCK7
340
0
102
{BLKREFS
331
552
102
}
  0
BLOCK_RECORD
  5
F3
100
AcDbSymbolTableRecord
100
AcDbBlockTableRecord
  2
BLOCK8
340
0
102
{BLKREFS
331
553
102
}
  0
BLOCK_RECORD
  5
F4
100
AcDbSymbolTableRecord
100
AcDbBlockTableRecord
  2
BLOCK9
340
0
102
{BLKREFS
331
554
102
}
  0
BLOCK_RECORD
  5
A4
100
AcDbSymbolTableRecord
100
AcDbBlockTableRecord
  2
*D9
340
0
  0
BLOCK_RECORD
  5
A6
100
AcDbSymbolTableRecord
100
AcDbBlockTableRecord
  2
*D10
340
0
  0
BLOCK_RECORD
  5
F5
100
AcDbSymbolTableRecord
100
AcDbBlockTableRecord
  2
BLOCK10
340
0
102
{BLKREFS
331
555
102
}
  0
BLOCK_RECORD
  5
B4
100
AcDbSymbolTableRecord
100
AcDbBlockTableRecord
  2
*D12
340
0
  0
BLOCK_RECORD
  5
B6
100
AcDbSymbolTableRecord
100
AcDbBlockTableRecord
  2
*D13
340
0
  0
BLOCK_RECORD
  5
B8
100
AcDbSymbolTableRecord
100
AcDbBlockTableRecord
  2
*D14
340
0
  0
BLOCK_RECORD
  5
BA
100
AcDbSymbolTableRecord
100
AcDbBlockTableRecord
  2
*D15
340
0
  0
BLOCK_RECORD
  5
BC
100
AcDbSymbolTableRecord
100
AcDbBlockTableRecord
  2
*D16
340
0
  0
BLOCK_RECORD
  5
F6
100
AcDbSymbolTableRecord
100
AcDbBlockTableRecord
  2
BLOCK11
340
0
102
{BLKREFS
331
556
102
}
  0
ENDTAB
  0
ENDSEC
  0
SECTION
  2
BLOCKS
  0
BLOCK
  5
D
100
AcDbEntity
  8
0
390
0
100
AcDbBlockBegin
  2
*MODEL_SPACE
 70
     0
 10
0.0
 20
0.0
 30
0.0
  3
*MODEL_SPACE
  1

  0
ENDBLK
  5
E
100
AcDbEntity
  8
0
390
0
100
AcDbBlockEnd
  0
BLOCK
  5
F
100
AcDbEntity
 67
     1
  8
0
390
0
100
AcDbBlockBegin
  2
*PAPER_SPACE
 70
     0
 10
0.0
 20
0.0
 30
0.0
  3
*PAPER_SPACE
  1

  0
ENDBLK
  5
10
100
AcDbEntity
 67
     1
  8
0
390
0
100
AcDbBlockEnd
  0
BLOCK
  5
F7
100
AcDbEntity
  8
0
370
     0
390
0
100
AcDbBlockBegin
  2
BLOCK1
 70
     0
 10
0.0
 20
0.0
 30
0.0
  3
BLOCK1
  1

  0
TEXT
  5
F8
100
AcDbEntity
  8
0
370
    13
390
0
 62
     7
100
AcDbText
 10
20.967499
 20
50.917461
 30
0.0
 40
1.7
  1
MATERIALE / 
 72
     5
 11
37.705963
 21
50.917461
 31
0.0
100
AcDbText
  0
TEXT
  5
F9
100
AcDbEntity
  8
0
370
    13
390
0
 62
     7
100
AcDbText
 10
37.705963
 20
50.917461
 30
0.0
 40
1.7
  1
material
 72
     5
 11
46.868301
 21
50.917461
 31
0.0
100
AcDbText
  0
ENDBLK
  5
FA
100
AcDbEntity
  8
0
390
0
100
AcDbBlockEnd
  0
BLOCK
  5
FB
100
AcDbEntity
  8
0
370
     0
390
0
100
AcDbBlockBegin
  2
BLOCK2
 70
     0
 10
0.0
 20
0.0
 30
0.0
  3
BLOCK2
  1

  0
TEXT
  5
FC
100
AcDbEntity
  8
0
370
    13
390
0
 62
     7
100
AcDbText
 10
87.784012
 20
38.984882
 30
0.0
 40
1.7
  1
TRATT. TERMICO / 
 72
     5
 11
111.518631
 21
38.984882
 31
0.0
100
AcDbText
  0
TEXT
  5
FD
100
AcDbEntity
  8
0
370
    13
390
0
 62
     7
100
AcDbText
 10
111.518631
 20
38.984882
 30
0.0
 40
1.7
  1
t. treatment
 72
     5
 11
124.677071
 21
38.984882
 31
0.0
100
AcDbText
  0
ENDBLK
  5
FE
100
AcDbEntity
  8
0
390
0
100
AcDbBlockEnd
  0
BLOCK
  5
FF
100
AcDbEntity
  8
0
370
     0
390
0
100
AcDbBlockBegin
  2
BLOCK3
 70
     0
 10
0.0
 20
0.0
 30
0.0
  3
BLOCK3
  1

  0
TEXT
  5
100
100
AcDbEntity
  8
0
370
    13
390
0
 62
     7
100
AcDbText
 10
87.980957
 20
45.030422
 30
0.0
 40
1.7
  1
SOSTITUISCE / 
 72
     5
 11
107.313011
 21
45.030422
 31
0.0
100
AcDbText
  0
TEXT
  5
101
100
AcDbEntity
  8
0
370
    13
390
0
 62
     7
100
AcDbText
 10
107.313011
 20
45.030422
 30
0.0
 40
1.7
  1
substitute
 72
     5
 11
118.440277
 21
45.030422
 31
0.0
100
AcDbText
  0
ENDBLK
  5
102
100
AcDbEntity
  8
0
390
0
100
AcDbBlockEnd
  0
BLOCK
  5
103
100
AcDbEntity
  8
0
370
     0
390
0
100
AcDbBlockBegin
  2
BLOCK4
 70
     0
 10
0.0
 20
0.0
 30
0.0
  3
BLOCK4
  1

  0
TEXT
  5
104
100
AcDbEntity
  8
0
370
    13
390
0
 62
     7
100
AcDbText
 10
88.144012
 20
51.067928
 30
0.0
 40
1.7
  1
IMPIEGO / 
 72
     5
 11
101.308113
 21
51.067928
 31
0.0
100
AcDbText
  0
TEXT
  5
105
100
AcDbEntity
  8
0
370
    13
390
0
 62
     7
100
AcDbText
 10
101.308113
 20
51.067928
 30
0.0
 40
1.7
  1
using
 72
     5
 11
107.512009
 21
51.067928
 31
0.0
100
AcDbText
  0
ENDBLK
  5
106
100
AcDbEntity
  8
0
390
0
100
AcDbBlockEnd
  0
BLOCK
  5
107
100
AcDbEntity
  8
0
370
     0
390
0
100
AcDbBlockBegin
  2
BLOCK5
 70
     0
 10
0.0
 20
0.0
 30
0.0
  3
BLOCK5
  1

  0
TEXT
  5
108
100
AcDbEntity
  8
0
370
    13
390
0
 62
     7
100
AcDbText
 10
121.428818
 20
54.647747
 30
0.0
 40
1.7
  1
DESCRIZIONE MODIFICA / 
 72
     5
 11
154.273682
 21
54.647747
 31
0.0
100
AcDbText
  0
TEXT
  5
109
100
AcDbEntity
  8
0
370
    13
390
0
 62
     7
100
AcDbText
 10
154.273682
 20
54.647747
 30
0.0
 40
1.7
  1
Modification
 72
     5
 11
168.094467
 21
54.647747
 31
0.0
100
AcDbText
  0
ENDBLK
  5
10A
100
AcDbEntity
  8
0
390
0
100
AcDbBlockEnd
  0
BLOCK
  5
10B
100
AcDbEntity
  8
0
370
     0
390
0
100
AcDbBlockBegin
  2
BLOCK6
 70
     0
 10
0.0
 20
0.0
 30
0.0
  3
BLOCK6
  1

  0
TEXT
  5
10C
100
AcDbEntity
  8
0
370
    13
390
0
 62
     7
100
AcDbText
 10
81.02536
 20
30.513258
 30
0.0
 40
1.7
  1
DENOMINAZIONE / 
 72
     5
 11
104.781769
 21
30.513258
 31
0.0
100
AcDbText
  0
TEXT
  5
10D
100
AcDbEntity
  8
0
370
    13
390
0
 62
     7
100
AcDbText
 10
104.781769
 20
30.513258
 30
0.0
 40
1.7
  1
description
 72
     5
 11
117.29995
 21
30.513258
 31
0.0
100
AcDbText
  0
ENDBLK
  5
10E
100
AcDbEntity
  8
0
390
0
100
AcDbBlockEnd
  0
BLOCK
  5
10F
100
AcDbEntity
  8
0
370
     0
390
0
100
AcDbBlockBegin
  2
BLOCK7
 70
     0
 10
0.0
 20
0.0
 30
0.0
  3
BLOCK7
  1

  0
TEXT
  5
110
100
AcDbEntity
  8
0
370
    13
390
0
 62
     7
100
AcDbText
 10
168.189209
 20
30.660192
 30
0.0
 40
1.7
  1
N.DISEGNO / 
 72
     5
 11
184.731522
 21
30.660192
 31
0.0
100
AcDbText
  0
TEXT
  5
111
100
AcDbEntity
  8
0
370
    13
390
0
 62
     7
100
AcDbText
 10
184.731522
 20
30.660192
 30
0.0
 40
1.7
  1
drawing n.
 72
     5
 11
196.763977
 21
30.660192
 31
0.0
100
AcDbText
  0
ENDBLK
  5
112
100
AcDbEntity
  8
0
390
0
100
AcDbBlockEnd
  0
BLOCK
  5
113
100
AcDbEntity
  8
0
370
     0
390
0
100
AcDbBlockBegin
  2
BLOCK8
 70
     0
 10
0.0
 20
0.0
 30
0.0
  3
BLOCK8
  1

  0
TEXT
  5
114
100
AcDbEntity
  8
0
370
    13
390
0
 62
     7
100
AcDbText
 10
21.520935
 20
38.872486
 30
0.0
 40
1.7
  1
FINITURA / 
 72
     5
 11
35.469654
 21
38.872486
 31
0.0
100
AcDbText
  0
TEXT
  5
115
100
AcDbEntity
  8
0
370
    13
390
0
 62
     7
100
AcDbText
 10
35.469654
 20
38.872486
 30
0.0
 40
1.7
  1
finishing
 72
     5
 11
44.963158
 21
38.872486
 31
0.0
100
AcDbText
  0
ENDBLK
  5
116
100
AcDbEntity
  8
0
390
0
100
AcDbBlockEnd
  0
BLOCK
  5
117
100
AcDbEntity
  8
0
370
     0
390
0
100
AcDbBlockBegin
  2
BLOCK9
 70
     0
 10
0.0
 20
0.0
 30
0.0
  3
BLOCK9
  1

  0
TEXT
  5
118
100
AcDbEntity
  8
0
370
    13
390
0
 62
     1
100
AcDbText
 10
34.613766
 20
28.024742
 30
0.0
 40
3.5
  1
ABB  
 72
     5
 11
46.583763
 21
28.024742
 31
0.0
100
AcDbText
  0
TEXT
  5
119
100
AcDbEntity
  8
0
370
    13
390
0
 62
     1
100
AcDbText
 10
48.511299
 20
28.024742
 30
0.0
 40
3.0
  1
S.p.A.
 72
     5
 11
64.554779
 21
28.024742
 31
0.0
100
AcDbText
  0
ENDBLK
  5
11A
100
AcDbEntity
  8
0
390
0
100
AcDbBlockEnd
  0
BLOCK
  5
11B
100
AcDbEntity
  8
0
370
     0
390
0
100
AcDbBlockBegin
  2
*D9
 70
    65
 10
0.0
 20
0.0
 30
0.0
  3
*D9
  1

  0
TEXT
  5
11C
100
AcDbEntity
  8
0
370
    13
390
0
 62
     5
100
AcDbText
 10
34.203068
 20
172.03058
 30
0.0
 40
2.5
  1
100
 50
89.999996
 72
     5
 11
34.203068
 21
178.857661
 31
0.0
100
AcDbText
  0
LINE
  5
11D
100
AcDbEntity
  8
0
370
    13
390
0
 62
     5
 48
0.365316
100
AcDbLine
 10
48.815716
 20
125.444122
 30
0.0
 11
34.203061
 21
125.444122
 31
0.0
210
0.0
220
0.0
230
1.0
  0
LINE
  5
11E
100
AcDbEntity
  8
0
370
    13
390
0
 62
     5
 48
0.481566
100
AcDbLine
 10
53.465718
 20
225.444122
 30
0.0
 11
34.203068
 21
225.444122
 31
0.0
210
0.0
220
0.0
230
1.0
  0
POLYLINE
  5
11F
100
AcDbEntity
  8
0
370
    13
390
0
 62
     5
100
AcDb2dPolyline
 66
     1
 10
0.0
 20
0.0
 30
0.0
 71
     3
  0
VERTEX
  5
120
100
AcDbEntity
  8
0
370
     0
390
0
100
AcDbVertex
100
AcDb2dVertex
 10
35.220707
 20
223.512268
 30
0.0
  0
VERTEX
  5
121
100
AcDbEntity
  8
0
370
     0
390
0
100
AcDbVertex
100
AcDb2dVertex
 10
34.703068
 20
225.444122
 30
0.0
  0
VERTEX
  5
122
100
AcDbEntity
  8
0
370
     0
390
0
100
AcDbVertex
100
AcDb2dVertex
 10
34.185429
 20
223.512268
 30
0.0
  0
SEQEND
  5
123
100
AcDbEntity
  8
0
370
     0
390
0
  0
POLYLINE
  5
124
100
AcDbEntity
  8
0
370
    13
390
0
 62
     5
100
AcDb2dPolyline
 66
     1
 10
0.0
 20
0.0
 30
0.0
 71
     3
  0
VERTEX
  5
125
100
AcDbEntity
  8
0
370
     0
390
0
100
AcDbVertex
100
AcDb2dVertex
 10
34.185429
 20
127.375973
 30
0.0
  0
VERTEX
  5
126
100
AcDbEntity
  8
0
370
     0
390
0
100
AcDbVertex
100
AcDb2dVertex
 10
34.703061
 20
125.444122
 30
0.0
  0
VERTEX
  5
127
100
AcDbEntity
  8
0
370
     0
390
0
100
AcDbVertex
100
AcDb2dVertex
 10
35.2207
 20
127.375973
 30
0.0
  0
SEQEND
  5
128
100
AcDbEntity
  8
0
370
     0
390
0
  0
LINE
  5
129
100
AcDbEntity
  8
0
370
    13
390
0
 62
     5
100
AcDbLine
 10
34.703061
 20
125.444122
 30
0.0
 11
34.703068
 21
225.444122
 31
0.0
210
0.0
220
0.0
230
1.0
  0
ENDBLK
  5
12A
100
AcDbEntity
  8
0
390
0
100
AcDbBlockEnd
  0
BLOCK
  5
12B
100
AcDbEntity
  8
0
370
     0
390
0
100
AcDbBlockBegin
  2
*D10
 70
    65
 10
0.0
 20
0.0
 30
0.0
  3
*D10
  1

  0
TEXT
  5
12C
100
AcDbEntity
  8
0
370
    13
390
0
 62
     5
100
AcDbText
 10
53.966992
 20
233.471588
 30
0.0
 40
2.5
  1
17.6
 72
     5
 11
62.264401
 21
233.471588
 31
0.0
100
AcDbText
  0
LINE
  5
12D
100
AcDbEntity
  8
0
370
    13
390
0
 62
     5
 48
0.238187
100
AcDbLine
 10
49.315701
 20
223.944122
 30
0.0
 11
49.315701
 21
233.471588
 31
0.0
210
0.0
220
0.0
230
1.0
  0
LINE
  5
12E
100
AcDbEntity
  8
0
370
    13
390
0
 62
     5
 48
0.238187
100
AcDbLine
 10
66.915699
 20
223.944122
 30
0.0
 11
66.915699
 21
233.471588
 31
0.0
210
0.0
220
0.0
230
1.0
  0
POLYLINE
  5
12F
100
AcDbEntity
  8
0
370
    13
390
0
 62
     5
100
AcDb2dPolyline
 66
     1
 10
0.0
 20
0.0
 30
0.0
 71
     3
  0
VERTEX
  5
130
100
AcDbEntity
  8
0
370
     0
390
0
100
AcDbVertex
100
AcDb2dVertex
 10
51.247548
 20
233.489227
 30
0.0
  0
VERTEX
  5
131
100
AcDbEntity
  8
0
370
     0
390
0
100
AcDbVertex
100
AcDb2dVertex
 10
49.315701
 20
232.971588
 30
0.0
  0
VERTEX
  5
132
100
AcDbEntity
  8
0
370
     0
390
0
100
AcDbVertex
100
AcDb2dVertex
 10
51.247548
 20
232.453949
 30
0.0
  0
SEQEND
  5
133
100
AcDbEntity
  8
0
370
     0
390
0
  0
POLYLINE
  5
134
100
AcDbEntity
  8
0
370
    13
390
0
 62
     5
100
AcDb2dPolyline
 66
     1
 10
0.0
 20
0.0
 30
0.0
 71
     3
  0
VERTEX
  5
135
100
AcDbEntity
  8
0
370
     0
390
0
100
AcDbVertex
100
AcDb2dVertex
 10
64.983845
 20
232.453949
 30
0.0
  0
VERTEX
  5
136
100
AcDbEntity
  8
0
370
     0
390
0
100
AcDbVertex
100
AcDb2dVertex
 10
66.915699
 20
232.971588
 30
0.0
  0
VERTEX
  5
137
100
AcDbEntity
  8
0
370
     0
390
0
100
AcDbVertex
100
AcDb2dVertex
 10
64.983845
 20
233.489227
 30
0.0
  0
SEQEND
  5
138
100
AcDbEntity
  8
0
370
     0
390
0
  0
LINE
  5
139
100
AcDbEntity
  8
0
370
    13
390
0
 62
     5
 48
0.44
100
AcDbLine
 10
49.315701
 20
232.971588
 30
0.0
 11
66.915699
 21
232.971588
 31
0.0
210
0.0
220
0.0
230
1.0
  0
ENDBLK
  5
13A
100
AcDbEntity
  8
0
390
0
100
AcDbBlockEnd
  0
BLOCK
  5
13B
100
AcDbEntity
  8
0
370
     0
390
0
100
AcDbBlockBegin
  2
BLOCK10
 70
     0
 10
0.0
 20
0.0
 30
0.0
  3
BLOCK10
  1

  0
LINE
  5
13C
100
AcDbEntity
  8
0
370
    30
390
0
 62
     7
 48
0.0125
100
AcDbLine
 10
-95.849841
 20
49.000014
 30
0.0
 11
-95.849841
 21
48.500014
 31
0.0
210
0.0
220
0.0
230
1.0
  0
LINE
  5
13D
100
AcDbEntity
  8
0
370
    13
390
0
 62
     7
 48
0.0125
100
AcDbLine
 10
-97.152016
 20
49.000014
 30
0.0
 11
-97.152016
 21
48.500014
 31
0.0
210
0.0
220
0.0
230
1.0
  0
LINE
  5
13E
100
AcDbEntity
  8
0
370
    30
390
0
 62
     7
 48
0.032554
100
AcDbLine
 10
-97.152016
 20
48.500014
 30
0.0
 11
-95.849841
 21
48.500014
 31
0.0
210
0.0
220
0.0
230
1.0
  0
LINE
  5
13F
100
AcDbEntity
  8
0
370
    30
390
0
 62
     7
 48
0.00764
100
AcDbLine
 10
-95.84945
 20
48.500014
 30
0.0
 11
-95.543861
 21
48.500014
 31
0.0
210
0.0
220
0.0
230
1.0
  0
LINE
  5
140
100
AcDbEntity
  8
0
370
    30
390
0
 62
     7
 48
0.077507
100
AcDbLine
 10
-94.102175
 20
49.000014
 30
0.0
 11
-97.202442
 21
49.000014
 31
0.0
210
0.0
220
0.0
230
1.0
  0
LINE
  5
141
100
AcDbEntity
  8
0
370
    30
390
0
 62
     7
 48
0.0125
100
AcDbLine
 10
-95.543861
 20
49.00001
 30
0.0
 11
-95.543861
 21
48.500014
 31
0.0
210
0.0
220
0.0
230
1.0
  0
LINE
  5
142
100
AcDbEntity
  8
0
370
    30
390
0
 62
     7
 48
0.11625
100
AcDbLine
 10
-94.1024
 20
57.500014
 30
0.0
 11
-98.7524
 21
57.500014
 31
0.0
210
0.0
220
0.0
230
1.0
  0
LINE
  5
143
100
AcDbEntity
  8
0
370
    30
390
0
 62
     7
 48
0.10125
100
AcDbLine
 10
-94.102342
 20
57.500014
 30
0.0
 11
-90.05234
 21
57.500013
 31
0.0
210
0.0
220
0.0
230
1.0
  0
LINE
  5
144
100
AcDbEntity
  8
0
370
    30
390
0
 62
     7
 48
0.1225
100
AcDbLine
 10
-85.052567
 20
7.750013
 30
0.0
 11
-89.952567
 21
7.750013
 31
0.0
210
0.0
220
0.0
230
1.0
  0
LINE
  5
145
100
AcDbEntity
  8
0
370
    30
390
0
 62
     7
 48
0.13125
100
AcDbLine
 10
-89.952585
 20
5.40591
 30
0.0
 11
-95.202585
 21
5.40591
 31
0.0
210
0.0
220
0.0
230
1.0
  0
LINE
  5
146
100
AcDbEntity
  8
0
370
    30
390
0
 62
     7
 48
0.025134
100
AcDbLine
 10
-98.752406
 20
-41.494626
 30
0.0
 11
-98.752406
 21
-42.499986
 31
0.0
210
0.0
220
0.0
230
1.0
  0
LINE
  5
147
100
AcDbEntity
  8
0
370
    30
390
0
 62
     7
 48
0.021378
100
AcDbLine
 10
-98.752406
 20
-40.639499
 30
0.0
 11
-98.752406
 21
-41.494624
 31
0.0
210
0.0
220
0.0
230
1.0
  0
LINE
  5
148
100
AcDbEntity
  8
0
370
    30
390
0
 62
     7
 48
0.390988
100
AcDbLine
 10
-98.752437
 20
-24.999986
 30
0.0
 11
-98.752427
 21
-40.639499
 31
0.0
210
0.0
220
0.0
230
1.0
  0
LINE
  5
149
100
AcDbEntity
  8
0
370
    30
390
0
 62
     7
 48
0.0625
100
AcDbLine
 10
-98.752437
 20
-22.499986
 30
0.0
 11
-98.752437
 21
-24.999986
 31
0.0
210
0.0
220
0.0
230
1.0
  0
LINE
  5
14A
100
AcDbEntity
  8
0
370
    30
390
0
 62
     7
 48
0.04481
100
AcDbLine
 10
-98.752547
 20
-20.707581
 30
0.0
 11
-98.752548
 21
-22.499986
 31
0.0
210
0.0
220
0.0
230
1.0
  0
LINE
  5
14B
100
AcDbEntity
  8
0
370
    30
390
0
 62
     7
 48
0.13019
100
AcDbLine
 10
-98.752568
 20
-20.707581
 30
0.0
 11
-98.752572
 21
-15.499986
 31
0.0
210
0.0
220
0.0
230
1.0
  0
LINE
  5
14C
100
AcDbEntity
  8
0
370
    30
390
0
 62
     7
 48
0.176326
100
AcDbLine
 10
-98.752577
 20
-15.499986
 30
0.0
 11
-98.752581
 21
-8.44693
 31
0.0
210
0.0
220
0.0
230
1.0
  0
LINE
  5
14D
100
AcDbEntity
  8
0
370
    30
390
0
 62
     7
 48
0.422384
100
AcDbLine
 10
-98.752581
 20
-8.44693
 30
0.0
 11
-98.75258
 21
8.448438
 31
0.0
210
0.0
220
0.0
230
1.0
  0
LINE
  5
14E
100
AcDbEntity
  8
0
370
    30
390
0
 62
     7
 48
0.007539
100
AcDbLine
 10
-98.75258
 20
8.448438
 30
0.0
 11
-98.75258
 21
8.750014
 31
0.0
210
0.0
220
0.0
230
1.0
  0
LINE
  5
14F
100
AcDbEntity
  8
0
370
    30
390
0
 62
     7
 48
0.132546
100
AcDbLine
 10
-98.752559
 20
13.426507
 30
0.0
 11
-98.752554
 21
18.728361
 31
0.0
210
0.0
220
0.0
230
1.0
  0
LINE
  5
150
100
AcDbEntity
  8
0
370
    30
390
0
 62
     7
 48
0.006791
100
AcDbLine
 10
-98.752551
 20
19.000014
 30
0.0
 11
-98.752551
 21
18.728361
 31
0.0
210
0.0
220
0.0
230
1.0
  0
LINE
  5
151
100
AcDbEntity
  8
0
370
    30
390
0
 62
     7
 48
0.008525
100
AcDbLine
 10
-98.752544
 20
19.341011
 30
0.0
 11
-98.752544
 21
19.000014
 31
0.0
210
0.0
220
0.0
230
1.0
  0
LINE
  5
152
100
AcDbEntity
  8
0
370
    30
390
0
 62
     7
 48
0.0625
100
AcDbLine
 10
-98.752434
 20
25.000014
 30
0.0
 11
-98.752434
 21
22.500014
 31
0.0
210
0.0
220
0.0
230
1.0
  0
LINE
  5
153
100
AcDbEntity
  8
0
370
    30
390
0
 62
     7
 48
0.4375
100
AcDbLine
 10
-98.752421
 20
42.500021
 30
0.0
 11
-98.752434
 21
25.000014
 31
0.0
210
0.0
220
0.0
230
1.0
  0
LINE
  5
154
100
AcDbEntity
  8
0
370
    30
390
0
 62
     7
 48
0.325
100
AcDbLine
 10
-98.752421
 20
42.500021
 30
0.0
 11
-98.75242
 21
55.500014
 31
0.0
210
0.0
220
0.0
230
1.0
  0
LINE
  5
155
100
AcDbEntity
  8
0
370
    30
390
0
 62
     7
 48
0.05
100
AcDbLine
 10
-98.7524
 20
57.500014
 30
0.0
 11
-98.7524
 21
55.500014
 31
0.0
210
0.0
220
0.0
230
1.0
  0
LINE
  5
156
100
AcDbEntity
  8
0
370
    30
390
0
 62
     7
 48
0.05
100
AcDbLine
 10
-94.1024
 20
55.500014
 30
0.0
 11
-94.1024
 21
57.500014
 31
0.0
210
0.0
220
0.0
230
1.0
  0
LINE
  5
157
100
AcDbEntity
  8
0
370
    13
390
0
 62
     7
 48
0.11625
100
AcDbLine
 10
-94.10242
 20
55.500014
 30
0.0
 11
-98.75242
 21
55.500014
 31
0.0
210
0.0
220
0.0
230
1.0
  0
LINE
  5
158
100
AcDbEntity
  8
0
370
    30
390
0
 62
     7
 48
0.0775
100
AcDbLine
 10
-94.10242
 20
52.400014
 30
0.0
 11
-94.10242
 21
55.500014
 31
0.0
210
0.0
220
0.0
230
1.0
  0
LINE
  5
159
100
AcDbEntity
  8
0
370
    30
390
0
 62
     7
 48
0.0075
100
AcDbLine
 10
-94.10242
 20
52.400014
 30
0.0
 11
-94.102417
 21
52.100014
 31
0.0
210
0.0
220
0.0
230
1.0
  0
LINE
  5
15A
100
AcDbEntity
  8
0
370
    30
390
0
 62
     7
 48
0.0075
100
AcDbLine
 10
-94.102421
 20
45.600014
 30
0.0
 11
-94.102418
 21
45.900014
 31
0.0
210
0.0
220
0.0
230
1.0
  0
LINE
  5
15B
100
AcDbEntity
  8
0
370
    30
390
0
 62
     7
 48
0.0775
100
AcDbLine
 10
-94.102421
 20
42.500021
 30
0.0
 11
-94.102421
 21
45.600014
 31
0.0
210
0.0
220
0.0
230
1.0
  0
LINE
  5
15C
100
AcDbEntity
  8
0
370
    30
390
0
 62
     7
 48
0.4375
100
AcDbLine
 10
-94.102421
 20
42.500021
 30
0.0
 11
-94.102434
 21
25.000014
 31
0.0
210
0.0
220
0.0
230
1.0
  0
LINE
  5
15D
100
AcDbEntity
  8
0
370
    30
390
0
 62
     7
 48
0.0625
100
AcDbLine
 10
-94.102434
 20
25.000014
 30
0.0
 11
-94.102434
 21
22.500014
 31
0.0
210
0.0
220
0.0
230
1.0
  0
LINE
  5
15E
100
AcDbEntity
  8
0
370
    30
390
0
 62
     7
 48
0.063293
100
AcDbLine
 10
-88.902564
 20
17.465918
 30
0.0
 11
-88.902566
 21
14.934188
 31
0.0
210
0.0
220
0.0
230
1.0
  0
LINE
  5
15F
100
AcDbEntity
  8
0
370
    30
390
0
 62
     7
 48
0.007539
100
AcDbLine
 10
-89.95258
 20
8.750013
 30
0.0
 11
-89.95258
 21
8.448438
 31
0.0
210
0.0
220
0.0
230
1.0
  0
LINE
  5
160
100
AcDbEntity
  8
0
370
    30
390
0
 62
     7
 48
0.041423
100
AcDbLine
 10
-89.952601
 20
6.791512
 30
0.0
 11
-89.9526
 21
8.448438
 31
0.0
210
0.0
220
0.0
230
1.0
  0
LINE
  5
161
100
AcDbEntity
  8
0
370
    30
390
0
 62
     7
 48
0.008426
100
AcDbLine
 10
-89.952552
 20
6.454482
 30
0.0
 11
-89.952552
 21
6.791512
 31
0.0
210
0.0
220
0.0
230
1.0
  0
LINE
  5
162
100
AcDbEntity
  8
0
370
    30
390
0
 62
     7
 48
0.026214
100
AcDbLine
 10
-89.952585
 20
5.40591
 30
0.0
 11
-89.952596
 21
6.454482
 31
0.0
210
0.0
220
0.0
230
1.0
  0
LINE
  5
163
100
AcDbEntity
  8
0
370
    30
390
0
 62
     7
 48
0.00125
100
AcDbLine
 10
-89.95257
 20
8.800014
 30
0.0
 11
-89.95257
 21
8.750013
 31
0.0
210
0.0
220
0.0
230
1.0
  0
LINE
  5
164
100
AcDbEntity
  8
0
370
    30
390
0
 62
     7
 48
0.252504
100
AcDbLine
 10
-95.202552
 20
-3.645675
 30
0.0
 11
-95.202552
 21
6.454482
 31
0.0
210
0.0
220
0.0
230
1.0
  0
LINE
  5
165
100
AcDbEntity
  8
0
370
    30
390
0
 62
     7
 48
0.13125
100
AcDbLine
 10
-89.952596
 20
6.454482
 30
0.0
 11
-95.202596
 21
6.454482
 31
0.0
210
0.0
220
0.0
230
1.0
  0
LINE
  5
166
100
AcDbEntity
  8
0
370
    30
390
0
 62
     7
 48
0.00125
100
AcDbLine
 10
-90.602422
 20
-22.549994
 30
0.0
 11
-90.602422
 21
-22.499987
 31
0.0
210
0.0
220
0.0
230
1.0
  0
LINE
  5
167
100
AcDbEntity
  8
0
370
    30
390
0
 62
     7
 48
0.0625
100
AcDbLine
 10
-94.102437
 20
-22.499986
 30
0.0
 11
-94.102437
 21
-24.999986
 31
0.0
210
0.0
220
0.0
230
1.0
  0
LINE
  5
168
100
AcDbEntity
  8
0
370
    30
390
0
 62
     7
 48
0.13125
100
AcDbLine
 10
-94.102437
 20
-24.999986
 30
0.0
 11
-94.102433
 21
-30.249987
 31
0.0
210
0.0
220
0.0
230
1.0
  0
LINE
  5
169
100
AcDbEntity
  8
0
370
    30
390
0
 62
     7
 48
0.177499
100
AcDbLine
 10
-89.952113
 20
-32.15001
 30
0.0
 11
-89.952113
 21
-39.249987
 31
0.0
210
0.0
220
0.0
230
1.0
  0
LINE
  5
16A
100
AcDbEntity
  8
0
370
    30
390
0
 62
     7
 48
0.002501
100
AcDbLine
 10
-89.952088
 20
-39.350009
 30
0.0
 11
-89.952088
 21
-39.249987
 31
0.0
210
0.0
220
0.0
230
1.0
  0
LINE
  5
16B
100
AcDbEntity
  8
0
370
    30
390
0
 62
     7
 48
0.22
100
AcDbLine
 10
-89.952406
 20
-42.499987
 30
0.0
 11
-98.752406
 21
-42.499986
 31
0.0
210
0.0
220
0.0
230
1.0
  0
LINE
  5
16C
100
AcDbEntity
  8
0
370
    30
390
0
 62
     7
 48
0.025134
100
AcDbLine
 10
-89.952406
 20
-42.499987
 30
0.0
 11
-89.952406
 21
-41.494627
 31
0.0
210
0.0
220
0.0
230
1.0
  0
LINE
  5
16D
100
AcDbEntity
  8
0
370
    13
390
0
 62
     7
 48
0.11625
100
AcDbLine
 10
-94.102427
 20
-40.639499
 30
0.0
 11
-98.752427
 21
-40.639499
 31
0.0
210
0.0
220
0.0
230
1.0
  0
ARC
  5
16E
100
AcDbEntity
  8
0
370
    30
390
0
 62
     7
100
AcDbCircle
 10
-89.952275
 20
-35.749987
 30
0.0
 40
3.6
210
0.0
220
0.0
230
1.0
100
AcDbArc
 50
90.002504
 51
269.997571
  0
LINE
  5
16F
100
AcDbEntity
  8
0
370
    30
390
0
 62
     7
 48
0.0475
100
AcDbLine
 10
-89.952432
 20
-32.149987
 30
0.0
 11
-89.952433
 21
-30.249987
 31
0.0
210
0.0
220
0.0
230
1.0
  0
LINE
  5
170
100
AcDbEntity
  8
0
370
    30
390
0
 62
     7
 48
0.10375
100
AcDbLine
 10
-94.102433
 20
-30.249987
 30
0.0
 11
-89.952433
 21
-30.249987
 31
0.0
210
0.0
220
0.0
230
1.0
  0
LINE
  5
171
100
AcDbEntity
  8
0
370
    30
390
0
 62
     7
 48
0.11625
100
AcDbLine
 10
-94.102437
 20
-24.999986
 30
0.0
 11
-98.752437
 21
-24.999986
 31
0.0
210
0.0
220
0.0
230
1.0
  0
LINE
  5
172
100
AcDbEntity
  8
0
370
    13
390
0
 62
     7
 48
0.10375
100
AcDbLine
 10
-94.102427
 20
-40.639451
 30
0.0
 11
-89.952427
 21
-40.639452
 31
0.0
210
0.0
220
0.0
230
1.0
  0
LINE
  5
173
100
AcDbEntity
  8
0
370
    30
390
0
 62
     7
 48
0.032237
100
AcDbLine
 10
-89.952427
 20
-40.639452
 30
0.0
 11
-89.952427
 21
-39.349987
 31
0.0
210
0.0
220
0.0
230
1.0
  0
LINE
  5
174
100
AcDbEntity
  8
0
370
    30
390
0
 62
     7
 48
0.11625
100
AcDbLine
 10
-94.102548
 20
-22.499986
 30
0.0
 11
-98.752548
 21
-22.499986
 31
0.0
210
0.0
220
0.0
230
1.0
  0
LINE
  5
175
100
AcDbEntity
  8
0
370
    30
390
0
 62
     7
 48
0.22625
100
AcDbLine
 10
-85.052548
 20
-22.499987
 30
0.0
 11
-94.102548
 21
-22.499986
 31
0.0
210
0.0
220
0.0
230
1.0
  0
LINE
  5
176
100
AcDbEntity
  8
0
370
    30
390
0
 62
     7
 48
0.04481
100
AcDbLine
 10
-85.052548
 20
-22.499987
 30
0.0
 11
-85.052547
 21
-20.707582
 31
0.0
210
0.0
220
0.0
230
1.0
  0
LINE
  5
177
100
AcDbEntity
  8
0
370
    13
390
0
 62
     7
 48
0.3425
100
AcDbLine
 10
-85.052568
 20
-20.707582
 30
0.0
 11
-98.752568
 21
-20.707581
 31
0.0
210
0.0
220
0.0
230
1.0
  0
LINE
  5
178
100
AcDbEntity
  8
0
370
    30
390
0
 62
     7
 48
0.13019
100
AcDbLine
 10
-85.052572
 20
-15.499987
 30
0.0
 11
-85.052568
 21
-20.707582
 31
0.0
210
0.0
220
0.0
230
1.0
  0
LINE
  5
179
100
AcDbEntity
  8
0
370
    30
390
0
 62
     7
 48
0.3425
100
AcDbLine
 10
-85.052577
 20
-15.499987
 30
0.0
 11
-98.752577
 21
-15.499986
 31
0.0
210
0.0
220
0.0
230
1.0
  0
LINE
  5
17A
100
AcDbEntity
  8
0
370
    30
390
0
 62
     7
 48
0.134889
100
AcDbLine
 10
-85.05258
 20
-10.104446
 30
0.0
 11
-85.052577
 21
-15.499987
 31
0.0
210
0.0
220
0.0
230
1.0
  0
LINE
  5
17B
100
AcDbEntity
  8
0
370
    13
390
0
 62
     7
 48
0.024999
100
AcDbLine
 10
-98.752581
 20
-8.44693
 30
0.0
 11
-97.752638
 21
-8.44693
 31
0.0
210
0.0
220
0.0
230
1.0
  0
SPLINE
  5
17C
100
AcDbEntity
  8
0
370
    30
390
0
 62
     7
100
AcDbSpline
210
0.0
220
0.0
230
1.0
 70
     8
 71
     5
 72
    15
 73
     9
 74
     0
 42
0.0
 43
0.0
 40
0.0
 40
0.0
 40
0.0
 40
0.0
 40
0.0
 40
0.0
 40
1.7646559592484963
 40
1.7646559592484963
 40
1.7646559592484963
 40
3.389920399328981
 40
3.389920399328981
 40
3.389920399328981
 40
3.389920399328981
 40
3.389920399328981
 40
3.389920399328981
 10
-98.752580942107997
 20
-8.4469301174158034
 30
0.0
 10
-98.752493387186917
 20
-8.243799086900216
 30
0.0
 10
-98.737384648476606
 20
-8.0414174708495132
 30
0.0
 10
-98.707163109525041
 20
-7.8446373710191066
 30
0.0
 10
-98.628539808204593
 20
-7.4830481574710435
 30
0.0
 10
-98.529148790554459
 20
-7.163716790705843
 30
0.0
 10
-98.480721731357406
 20
-7.0226713085212289
 30
0.0
 10
-98.436428939296562
 20
-6.8966547245700989
 30
0.0
 10
-98.402702945837717
 20
-6.7916343090451736
 30
0.0
  0
ARC
  5
17D
100
AcDbEntity
  8
0
370
    30
390
0
 62
     7
100
AcDbCircle
 10
-99.482621
 20
-6.460281
 30
0.0
 40
1.129859
210
0.0
220
0.0
230
1.0
100
AcDbArc
 50
342.942292
 51
0.781123
  0
ARC
  5
17E
100
AcDbEntity
  8
0
370
    30
390
0
 62
     7
100
AcDbCircle
 10
-99.482738
 20
6.460296
 30
0.0
 40
1.129976
210
0.0
220
0.0
230
1.0
100
AcDbArc
 50
359.219578
 51
17.048613
  0
SPLINE
  5
17F
100
AcDbEntity
  8
0
370
    30
390
0
 62
     7
100
AcDbSpline
210
0.0
220
0.0
230
1.0
 70
     8
 71
     5
 72
    15
 73
     9
 74
     0
 42
0.0
 43
0.0
 40
0.0
 40
0.0
 40
0.0
 40
0.0
 40
0.0
 40
0.0
 40
1.7653531857613032
 40
1.7653531857613032
 40
1.7653531857613032
 40
3.3912401993825445
 40
3.3912401993825445
 40
3.3912401993825445
 40
3.3912401993825445
 40
3.3912401993825445
 40
3.3912401993825445
 10
-98.752580235146652
 20
8.4474492986590697
 30
0.0
 10
-98.752521758935615
 20
8.2442365654518497
 30
0.0
 10
-98.737430366864714
 20
8.0417674922631921
 30
0.0
 10
-98.707209629556715
 20
7.8448978069367605
 30
0.0
 10
-98.628566445832888
 20
7.4831533757541164
 30
0.0
 10
-98.529134261351487
 20
7.1636958923302716
 30
0.0
 10
-98.48068852827987
 20
7.0226037647404551
 30
0.0
 10
-98.436381264852997
 20
6.8965496015786298
 30
0.0
 10
-98.402654373211021
 20
6.7915128099722359
 30
0.0
  0
LINE
  5
180
100
AcDbEntity
  8
0
370
    30
390
0
 62
     7
 48
0.0275
100
AcDbLine
 10
-97.65258
 20
8.750014
 30
0.0
 11
-98.75258
 21
8.750014
 31
0.0
210
0.0
220
0.0
230
1.0
  0
LINE
  5
181
100
AcDbEntity
  8
0
370
    30
390
0
 62
     7
 48
0.08875
100
AcDbLine
 10
-94.10258
 20
8.750014
 30
0.0
 11
-97.65258
 21
8.750014
 31
0.0
210
0.0
220
0.0
230
1.0
  0
LINE
  5
182
100
AcDbEntity
  8
0
370
    30
390
0
 62
     7
 48
0.10375
100
AcDbLine
 10
-89.95258
 20
8.750013
 30
0.0
 11
-94.10258
 21
8.750014
 31
0.0
210
0.0
220
0.0
230
1.0
  0
LINE
  5
183
100
AcDbEntity
  8
0
370
    13
390
0
 62
     7
 48
0.22
100
AcDbLine
 10
-89.95258
 20
8.448438
 30
0.0
 11
-98.75258
 21
8.448438
 31
0.0
210
0.0
220
0.0
230
1.0
  0
LINE
  5
184
100
AcDbEntity
  8
0
370
    30
390
0
 62
     7
 48
0.0025
100
AcDbLine
 10
-97.85257
 20
8.750014
 30
0.0
 11
-97.752562
 21
8.750014
 31
0.0
210
0.0
220
0.0
230
1.0
  0
LINE
  5
185
100
AcDbEntity
  8
0
370
    30
390
0
 62
     7
 48
0.11625
100
AcDbLine
 10
-94.102434
 20
25.000014
 30
0.0
 11
-98.752434
 21
25.000014
 31
0.0
210
0.0
220
0.0
230
1.0
  0
LINE
  5
186
100
AcDbEntity
  8
0
370
    30
390
0
 62
     7
 48
0.11625
100
AcDbLine
 10
-94.102421
 20
42.500021
 30
0.0
 11
-98.752421
 21
42.500021
 31
0.0
210
0.0
220
0.0
230
1.0
  0
ARC
  5
187
100
AcDbEntity
  8
0
370
    13
390
0
 62
     7
100
AcDbCircle
 10
-94.102421
 20
49.000014
 30
0.0
 40
3.4
210
0.0
220
0.0
230
1.0
100
AcDbArc
 50
89.999997
 51
269.999997
  0
ARC
  5
188
100
AcDbEntity
  8
0
370
    30
390
0
 62
     7
100
AcDbCircle
 10
-94.102418
 20
49.000014
 30
0.0
 40
3.1
210
0.0
220
0.0
230
1.0
100
AcDbArc
 50
89.999997
 51
269.999997
  0
LINE
  5
189
100
AcDbEntity
  8
0
370
    30
390
0
 62
     7
 48
0.001252
100
AcDbLine
 10
-97.75257
 20
8.800104
 30
0.0
 11
-97.75257
 21
8.750014
 31
0.0
210
0.0
220
0.0
230
1.0
  0
LINE
  5
18A
100
AcDbEntity
  8
0
370
    13
390
0
 62
     7
 48
0.211252
100
AcDbLine
 10
-89.952591
 20
6.791512
 30
0.0
 11
-98.402654
 21
6.791513
 31
0.0
210
0.0
220
0.0
230
1.0
  0
LINE
  5
18B
100
AcDbEntity
  8
0
370
    13
390
0
 62
     7
 48
0.016251
100
AcDbLine
 10
-97.752659
 20
-6.791634
 30
0.0
 11
-98.402703
 21
-6.791634
 31
0.0
210
0.0
220
0.0
230
1.0
  0
LINE
  5
18C
100
AcDbEntity
  8
0
370
    30
390
0
 62
     7
 48
0.322244
100
AcDbLine
 10
-98.352552
 20
6.444901
 30
0.0
 11
-98.352552
 21
-6.444874
 31
0.0
210
0.0
220
0.0
230
1.0
  0
LINE
  5
18D
100
AcDbEntity
  8
0
370
    30
390
0
 62
     7
 48
0.00125
100
AcDbLine
 10
-89.9524
 20
-30.249987
 30
0.0
 11
-89.9524
 21
-30.19998
 31
0.0
210
0.0
220
0.0
230
1.0
  0
LINE
  5
18E
100
AcDbEntity
  8
0
370
    30
390
0
 62
     7
 48
0.021076
100
AcDbLine
 10
-89.952113
 20
-39.249987
 30
0.0
 11
-90.795149
 21
-39.249987
 31
0.0
210
0.0
220
0.0
230
1.0
  0
LINE
  5
18F
100
AcDbEntity
  8
0
370
    30
390
0
 62
     7
 48
0.001248
100
AcDbLine
 10
-95.202157
 20
-43.999986
 30
0.0
 11
-95.152247
 21
-43.999986
 31
0.0
210
0.0
220
0.0
230
1.0
  0
LINE
  5
190
100
AcDbEntity
  8
0
370
    30
390
0
 62
     7
 48
0.021379
100
AcDbLine
 10
-89.952406
 20
-41.494624
 30
0.0
 11
-89.952406
 21
-40.639452
 31
0.0
210
0.0
220
0.0
230
1.0
  0
LINE
  5
191
100
AcDbEntity
  8
0
370
    30
390
0
 62
     7
 48
0.0375
100
AcDbLine
 10
-89.952294
 20
-42.499987
 30
0.0
 11
-89.952294
 21
-43.999987
 31
0.0
210
0.0
220
0.0
230
1.0
  0
LINE
  5
192
100
AcDbEntity
  8
0
370
    30
390
0
 62
     7
 48
0.0375
100
AcDbLine
 10
-95.152242
 20
-42.499986
 30
0.0
 11
-95.152242
 21
-43.999986
 31
0.0
210
0.0
220
0.0
230
1.0
  0
LINE
  5
193
100
AcDbEntity
  8
0
370
    30
390
0
 62
     7
 48
0.129999
100
AcDbLine
 10
-95.152242
 20
-43.999986
 30
0.0
 11
-89.952294
 21
-43.999987
 31
0.0
210
0.0
220
0.0
230
1.0
  0
LINE
  5
194
100
AcDbEntity
  8
0
370
    30
390
0
 62
     7
 48
0.001248
100
AcDbLine
 10
-95.202162
 20
-43.499986
 30
0.0
 11
-95.152247
 21
-43.499986
 31
0.0
210
0.0
220
0.0
230
1.0
  0
LINE
  5
195
100
AcDbEntity
  8
0
370
    30
390
0
 62
     7
 48
0.025
100
AcDbLine
 10
-95.202162
 20
-42.499986
 30
0.0
 11
-95.202162
 21
-43.499986
 31
0.0
210
0.0
220
0.0
230
1.0
  0
LINE
  5
196
100
AcDbEntity
  8
0
370
    30
390
0
 62
     7
 48
0.0125
100
AcDbLine
 10
-95.202162
 20
-43.499986
 30
0.0
 11
-95.202157
 21
-43.999986
 31
0.0
210
0.0
220
0.0
230
1.0
  0
LINE
  5
197
100
AcDbEntity
  8
0
370
    30
390
0
 62
     7
 48
0.0175
100
AcDbLine
 10
-81.152506
 20
-22.499987
 30
0.0
 11
-81.152506
 21
-21.799979
 31
0.0
210
0.0
220
0.0
230
1.0
  0
LINE
  5
198
100
AcDbEntity
  8
0
370
    30
390
0
 62
     7
 48
0.0625
100
AcDbLine
 10
-85.802434
 20
25.000015
 30
0.0
 11
-85.802434
 21
22.500015
 31
0.0
210
0.0
220
0.0
230
1.0
  0
LINE
  5
199
100
AcDbEntity
  8
0
370
    30
390
0
 62
     7
 48
0.035752
100
AcDbLine
 10
-85.802433
 20
26.430082
 30
0.0
 11
-85.802434
 21
25.000015
 31
0.0
210
0.0
220
0.0
230
1.0
  0
LINE
  5
19A
100
AcDbEntity
  8
0
370
    30
390
0
 62
     7
 48
0.049248
100
AcDbLine
 10
-85.802432
 20
28.400015
 30
0.0
 11
-85.802433
 21
26.430082
 31
0.0
210
0.0
220
0.0
230
1.0
  0
LINE
  5
19B
100
AcDbEntity
  8
0
370
    30
390
0
 62
     7
 48
0.05
100
AcDbLine
 10
-85.80243
 20
30.400015
 30
0.0
 11
-85.802432
 21
28.400015
 31
0.0
210
0.0
220
0.0
230
1.0
  0
LINE
  5
19C
100
AcDbEntity
  8
0
370
    30
390
0
 62
     7
 48
0.115262
100
AcDbLine
 10
-85.802427
 20
35.010482
 30
0.0
 11
-85.80243
 21
30.400015
 31
0.0
210
0.0
220
0.0
230
1.0
  0
LINE
  5
19D
100
AcDbEntity
  8
0
370
    30
390
0
 62
     7
 48
0.187238
100
AcDbLine
 10
-85.802427
 20
35.010482
 30
0.0
 11
-85.802421
 21
42.500015
 31
0.0
210
0.0
220
0.0
230
1.0
  0
LINE
  5
19E
100
AcDbEntity
  8
0
370
    30
390
0
 62
     7
 48
0.05125
100
AcDbLine
 10
-85.802421
 20
42.500015
 30
0.0
 11
-85.802421
 21
44.550015
 31
0.0
210
0.0
220
0.0
230
1.0
  0
LINE
  5
19F
100
AcDbEntity
  8
0
370
    30
390
0
 62
     7
 48
0.0075
100
AcDbLine
 10
-85.802421
 20
44.550015
 30
0.0
 11
-85.802418
 21
44.850015
 31
0.0
210
0.0
220
0.0
230
1.0
  0
LINE
  5
1A0
100
AcDbEntity
  8
0
370
    30
390
0
 62
     7
 48
0.0075
100
AcDbLine
 10
-85.802371
 20
44.850015
 30
0.0
 11
-85.802368
 21
45.150015
 31
0.0
210
0.0
220
0.0
230
1.0
  0
LINE
  5
1A1
100
AcDbEntity
  8
0
370
    30
390
0
 62
     7
 48
0.01125
100
AcDbLine
 10
-85.802368
 20
45.600015
 30
0.0
 11
-85.802368
 21
45.150015
 31
0.0
210
0.0
220
0.0
230
1.0
  0
LINE
  5
1A2
100
AcDbEntity
  8
0
370
    30
390
0
 62
     7
 48
0.0075
100
AcDbLine
 10
-85.802368
 20
45.600015
 30
0.0
 11
-85.802365
 21
45.900015
 31
0.0
210
0.0
220
0.0
230
1.0
  0
ARC
  5
1A3
100
AcDbEntity
  8
0
370
    30
390
0
 62
     7
100
AcDbCircle
 10
-85.802365
 20
49.000015
 30
0.0
 40
3.1
210
0.0
220
0.0
230
1.0
100
AcDbArc
 50
269.999997
 51
449.999997
  0
ARC
  5
1A4
100
AcDbEntity
  8
0
370
    13
390
0
 62
     7
100
AcDbCircle
 10
-85.802368
 20
49.000015
 30
0.0
 40
3.4
210
0.0
220
0.0
230
1.0
100
AcDbArc
 50
269.999997
 51
449.999997
  0
LINE
  5
1A5
100
AcDbEntity
  8
0
370
    30
390
0
 62
     7
 48
0.0075
100
AcDbLine
 10
-85.802368
 20
52.400015
 30
0.0
 11
-85.802365
 21
52.100015
 31
0.0
210
0.0
220
0.0
230
1.0
  0
ARC
  5
1A6
100
AcDbEntity
  8
0
370
    13
390
0
 62
     7
100
AcDbCircle
 10
-85.802368
 20
49.000015
 30
0.0
 40
3.85
210
0.0
220
0.0
230
1.0
100
AcDbArc
 50
269.999997
 51
449.999997
  0
LINE
  5
1A7
100
AcDbEntity
  8
0
370
    30
390
0
 62
     7
 48
0.01125
100
AcDbLine
 10
-85.802368
 20
52.400015
 30
0.0
 11
-85.802368
 21
52.850015
 31
0.0
210
0.0
220
0.0
230
1.0
  0
ARC
  5
1A8
100
AcDbEntity
  8
0
370
    30
390
0
 62
     7
100
AcDbCircle
 10
-85.802418
 20
49.000015
 30
0.0
 40
4.15
210
0.0
220
0.0
230
1.0
100
AcDbArc
 50
269.999997
 51
449.999997
  0
ARC
  5
1A9
100
AcDbEntity
  8
0
370
    13
390
0
 62
     7
100
AcDbCircle
 10
-85.802421
 20
49.000015
 30
0.0
 40
4.45
210
0.0
220
0.0
230
1.0
100
AcDbArc
 50
269.999997
 51
449.999997
  0
LINE
  5
1AA
100
AcDbEntity
  8
0
370
    30
390
0
 62
     7
 48
0.05125
100
AcDbLine
 10
-85.80242
 20
53.450015
 30
0.0
 11
-85.80242
 21
55.500015
 31
0.0
210
0.0
220
0.0
230
1.0
  0
LINE
  5
1AB
100
AcDbEntity
  8
0
370
    13
390
0
 62
     7
 48
0.11625
100
AcDbLine
 10
-81.15242
 20
55.500015
 30
0.0
 11
-85.80242
 21
55.500015
 31
0.0
210
0.0
220
0.0
230
1.0
  0
LINE
  5
1AC
100
AcDbEntity
  8
0
370
    30
390
0
 62
     7
 48
0.325
100
AcDbLine
 10
-81.152421
 20
42.500015
 30
0.0
 11
-81.15242
 21
55.500015
 31
0.0
210
0.0
220
0.0
230
1.0
  0
LINE
  5
1AD
100
AcDbEntity
  8
0
370
    30
390
0
 62
     7
 48
0.11625
100
AcDbLine
 10
-81.152421
 20
42.500015
 30
0.0
 11
-85.802421
 21
42.500015
 31
0.0
210
0.0
220
0.0
230
1.0
  0
LINE
  5
1AE
100
AcDbEntity
  8
0
370
    30
390
0
 62
     7
 48
0.11625
100
AcDbLine
 10
-81.152434
 20
25.000015
 30
0.0
 11
-85.802434
 21
25.000015
 31
0.0
210
0.0
220
0.0
230
1.0
  0
LINE
  5
1AF
100
AcDbEntity
  8
0
370
    30
390
0
 62
     7
 48
0.4375
100
AcDbLine
 10
-81.152421
 20
42.500015
 30
0.0
 11
-81.152434
 21
25.000015
 31
0.0
210
0.0
220
0.0
230
1.0
  0
LINE
  5
1B0
100
AcDbEntity
  8
0
370
    30
390
0
 62
     7
 48
0.0625
100
AcDbLine
 10
-81.152434
 20
25.000015
 30
0.0
 11
-81.152434
 21
22.500015
 31
0.0
210
0.0
220
0.0
230
1.0
  0
LINE
  5
1B1
100
AcDbEntity
  8
0
370
    30
390
0
 62
     7
 48
0.00125
100
AcDbLine
 10
-89.302418
 20
22.500014
 30
0.0
 11
-89.302418
 21
22.550012
 31
0.0
210
0.0
220
0.0
230
1.0
  0
LINE
  5
1B2
100
AcDbEntity
  8
0
370
    30
390
0
 62
     7
 48
0.13125
100
AcDbLine
 10
-89.952585
 20
5.405912
 30
0.0
 11
-84.702585
 21
5.405912
 31
0.0
210
0.0
220
0.0
230
1.0
  0
LINE
  5
1B3
100
AcDbEntity
  8
0
370
    30
390
0
 62
     7
 48
0.1925
100
AcDbLine
 10
-89.952583
 20
7.500015
 30
0.0
 11
-82.252583
 21
7.500015
 31
0.0
210
0.0
220
0.0
230
1.0
  0
SPLINE
  5
1B4
100
AcDbEntity
  8
0
370
    30
390
0
 62
     7
100
AcDbSpline
210
0.0
220
0.0
230
1.0
 70
     8
 71
     5
 72
    15
 73
     9
 74
     0
 42
0.0
 43
0.0
 40
0.0
 40
0.0
 40
0.0
 40
0.0
 40
0.0
 40
0.0
 40
1.7653549708259866
 40
1.7653549708259866
 40
1.7653549708259866
 40
3.3912452470099002
 40
3.3912452470099002
 40
3.3912452470099002
 40
3.3912452470099002
 40
3.3912452470099002
 40
3.3912452470099002
 10
-81.152580234178203
 20
8.4474519200347338
 30
0.0
 10
-81.152638821032156
 20
8.2442389770903564
 30
0.0
 10
-81.167730877405631
 20
8.0417696827160139
 30
0.0
 10
-81.197952844071125
 20
7.8448998111798405
 30
0.0
 10
-81.276599388438612
 20
7.4831549940371289
 30
0.0
 10
-81.376036798241472
 20
7.1636973455315429
 30
0.0
 10
-81.424485467744503
 20
7.0226051293352407
 30
0.0
 10
-81.468796127634036
 20
6.8965508779030795
 30
0.0
 10
-81.502526825326271
 20
6.7915140052525311
 30
0.0
  0
LINE
  5
1B5
100
AcDbEntity
  8
0
370
    13
390
0
 62
     7
 48
0.0275
100
AcDbLine
 10
-82.25258
 20
8.44844
 30
0.0
 11
-81.15258
 21
8.44844
 31
0.0
210
0.0
220
0.0
230
1.0
  0
LINE
  5
1B6
100
AcDbEntity
  8
0
370
    30
390
0
 62
     7
 48
0.023711
100
AcDbLine
 10
-82.2526
 20
8.44844
 30
0.0
 11
-82.252601
 21
7.500015
 31
0.0
210
0.0
220
0.0
230
1.0
  0
LINE
  5
1B7
100
AcDbEntity
  8
0
370
    30
390
0
 62
     7
 48
0.017711
100
AcDbLine
 10
-89.952601
 20
6.791568
 30
0.0
 11
-89.952601
 21
7.500015
 31
0.0
210
0.0
220
0.0
230
1.0
  0
LINE
  5
1B8
100
AcDbEntity
  8
0
370
    13
390
0
 62
     7
 48
0.1925
100
AcDbLine
 10
-89.952591
 20
6.791568
 30
0.0
 11
-82.252591
 21
6.791567
 31
0.0
210
0.0
220
0.0
230
1.0
  0
LINE
  5
1B9
100
AcDbEntity
  8
0
370
    13
390
0
 62
     7
 48
0.018752
100
AcDbLine
 10
-82.252591
 20
6.791514
 30
0.0
 11
-81.502527
 21
6.791514
 31
0.0
210
0.0
220
0.0
230
1.0
  0
LINE
  5
1BA
100
AcDbEntity
  8
0
370
    30
390
0
 62
     7
 48
0.0275
100
AcDbLine
 10
-82.25258
 20
8.750015
 30
0.0
 11
-81.15258
 21
8.750015
 31
0.0
210
0.0
220
0.0
230
1.0
  0
LINE
  5
1BB
100
AcDbEntity
  8
0
370
    30
390
0
 62
     7
 48
0.007539
100
AcDbLine
 10
-82.25258
 20
8.44844
 30
0.0
 11
-82.25258
 21
8.750015
 31
0.0
210
0.0
220
0.0
230
1.0
  0
LINE
  5
1BC
100
AcDbEntity
  8
0
370
    30
390
0
 62
     7
 48
0.007539
100
AcDbLine
 10
-81.15258
 20
8.750015
 30
0.0
 11
-81.15258
 21
8.44844
 31
0.0
210
0.0
220
0.0
230
1.0
  0
LINE
  5
1BD
100
AcDbEntity
  8
0
370
    30
390
0
 62
     7
 48
0.07
100
AcDbLine
 10
-82.25257
 20
8.750015
 30
0.0
 11
-85.05257
 21
8.750015
 31
0.0
210
0.0
220
0.0
230
1.0
  0
LINE
  5
1BE
100
AcDbEntity
  8
0
370
    30
390
0
 62
     7
 48
0.07
100
AcDbLine
 10
-82.25257
 20
8.551631
 30
0.0
 11
-85.05257
 21
8.551631
 31
0.0
210
0.0
220
0.0
230
1.0
  0
LINE
  5
1BF
100
AcDbEntity
  8
0
370
    30
390
0
 62
     7
 48
0.00496
100
AcDbLine
 10
-85.05257
 20
8.750015
 30
0.0
 11
-85.05257
 21
8.551631
 31
0.0
210
0.0
220
0.0
230
1.0
  0
LINE
  5
1C0
100
AcDbEntity
  8
0
370
    30
390
0
 62
     7
 48
0.02004
100
AcDbLine
 10
-85.05257
 20
8.551631
 30
0.0
 11
-85.05257
 21
7.750015
 31
0.0
210
0.0
220
0.0
230
1.0
  0
LINE
  5
1C1
100
AcDbEntity
  8
0
370
    30
390
0
 62
     7
 48
0.07
100
AcDbLine
 10
-85.05257
 20
7.750015
 30
0.0
 11
-82.25257
 21
7.750015
 31
0.0
210
0.0
220
0.0
230
1.0
  0
LINE
  5
1C2
100
AcDbEntity
  8
0
370
    30
390
0
 62
     7
 48
0.00625
100
AcDbLine
 10
-82.452245
 20
7.499991
 30
0.0
 11
-82.452245
 21
7.749992
 31
0.0
210
0.0
220
0.0
230
1.0
  0
LINE
  5
1C3
100
AcDbEntity
  8
0
370
    30
390
0
 62
     7
 48
0.05
100
AcDbLine
 10
-85.8024
 20
55.500015
 30
0.0
 11
-85.8024
 21
57.500015
 31
0.0
210
0.0
220
0.0
230
1.0
  0
LINE
  5
1C4
100
AcDbEntity
  8
0
370
    30
390
0
 62
     7
 48
0.0075
100
AcDbLine
 10
-85.80242
 20
53.450015
 30
0.0
 11
-85.802417
 21
53.150015
 31
0.0
210
0.0
220
0.0
230
1.0
  0
LINE
  5
1C5
100
AcDbEntity
  8
0
370
    30
390
0
 62
     7
 48
0.0075
100
AcDbLine
 10
-85.802371
 20
53.150015
 30
0.0
 11
-85.802368
 21
52.850015
 31
0.0
210
0.0
220
0.0
230
1.0
  0
LINE
  5
1C6
100
AcDbEntity
  8
0
370
    30
390
0
 62
     7
 48
0.000134
100
AcDbLine
 10
-81.152406
 20
-41.499985
 30
0.0
 11
-81.152406
 21
-41.494622
 31
0.0
210
0.0
220
0.0
230
1.0
  0
LINE
  5
1C7
100
AcDbEntity
  8
0
370
    30
390
0
 62
     7
 48
0.025
100
AcDbLine
 10
-81.152406
 20
-42.499985
 30
0.0
 11
-81.152406
 21
-41.499985
 31
0.0
210
0.0
220
0.0
230
1.0
  0
LINE
  5
1C8
100
AcDbEntity
  8
0
370
    30
390
0
 62
     7
 48
0.05
100
AcDbLine
 10
-81.1524
 20
55.500015
 30
0.0
 11
-81.1524
 21
57.500015
 31
0.0
210
0.0
220
0.0
230
1.0
  0
LINE
  5
1C9
100
AcDbEntity
  8
0
370
    30
390
0
 62
     7
 48
0.05
100
AcDbLine
 10
-81.152529
 20
22.500015
 30
0.0
 11
-81.152529
 21
20.500015
 31
0.0
210
0.0
220
0.0
230
1.0
  0
LINE
  5
1CA
100
AcDbEntity
  8
0
370
    30
390
0
 62
     7
 48
0.0375
100
AcDbLine
 10
-81.152544
 20
19.000015
 30
0.0
 11
-81.152544
 21
20.500015
 31
0.0
210
0.0
220
0.0
230
1.0
  0
LINE
  5
1CB
100
AcDbEntity
  8
0
370
    30
390
0
 62
     7
 48
0.006791
100
AcDbLine
 10
-81.152551
 20
18.728362
 30
0.0
 11
-81.152551
 21
19.000015
 31
0.0
210
0.0
220
0.0
230
1.0
  0
LINE
  5
1CC
100
AcDbEntity
  8
0
370
    30
390
0
 62
     7
 48
0.249459
100
AcDbLine
 10
-81.152554
 20
18.728362
 30
0.0
 11
-81.152562
 21
8.750015
 31
0.0
210
0.0
220
0.0
230
1.0
  0
LINE
  5
1CD
100
AcDbEntity
  8
0
370
    30
390
0
 62
     7
 48
0.20908
100
AcDbLine
 10
-81.15258
 20
8.44844
 30
0.0
 11
-81.152582
 21
0.085222
 31
0.0
210
0.0
220
0.0
230
1.0
  0
LINE
  5
1CE
100
AcDbEntity
  8
0
370
    30
390
0
 62
     7
 48
0.00426
100
AcDbLine
 10
-81.152582
 20
0.085222
 30
0.0
 11
-81.152582
 21
-0.085192
 31
0.0
210
0.0
220
0.0
230
1.0
  0
LINE
  5
1CF
100
AcDbEntity
  8
0
370
    30
390
0
 62
     7
 48
0.19162
100
AcDbLine
 10
-81.152582
 20
-0.085192
 30
0.0
 11
-81.152581
 21
-7.749985
 31
0.0
210
0.0
220
0.0
230
1.0
  0
LINE
  5
1D0
100
AcDbEntity
  8
0
370
    30
390
0
 62
     7
 48
0.017435
100
AcDbLine
 10
-81.152581
 20
-7.749985
 30
0.0
 11
-81.152581
 21
-8.447383
 31
0.0
210
0.0
220
0.0
230
1.0
  0
LINE
  5
1D1
100
AcDbEntity
  8
0
370
    30
390
0
 62
     7
 48
0.000026
100
AcDbLine
 10
-81.152581
 20
-8.447383
 30
0.0
 11
-81.152581
 21
-8.44841
 31
0.0
210
0.0
220
0.0
230
1.0
  0
LINE
  5
1D2
100
AcDbEntity
  8
0
370
    30
390
0
 62
     7
 48
0.176289
100
AcDbLine
 10
-81.152581
 20
-8.44841
 30
0.0
 11
-81.152577
 21
-15.499985
 31
0.0
210
0.0
220
0.0
230
1.0
  0
LINE
  5
1D3
100
AcDbEntity
  8
0
370
    30
390
0
 62
     7
 48
0.13019
100
AcDbLine
 10
-81.152572
 20
-15.499985
 30
0.0
 11
-81.152568
 21
-20.70758
 31
0.0
210
0.0
220
0.0
230
1.0
  0
LINE
  5
1D4
100
AcDbEntity
  8
0
370
    30
390
0
 62
     7
 48
0.04481
100
AcDbLine
 10
-81.152548
 20
-22.499985
 30
0.0
 11
-81.152547
 21
-20.70758
 31
0.0
210
0.0
220
0.0
230
1.0
  0
LINE
  5
1D5
100
AcDbEntity
  8
0
370
    30
390
0
 62
     7
 48
0.0625
100
AcDbLine
 10
-81.152437
 20
-22.499985
 30
0.0
 11
-81.152437
 21
-24.999985
 31
0.0
210
0.0
220
0.0
230
1.0
  0
LINE
  5
1D6
100
AcDbEntity
  8
0
370
    30
390
0
 62
     7
 48
0.390988
100
AcDbLine
 10
-81.152437
 20
-24.999985
 30
0.0
 11
-81.152427
 21
-40.639498
 31
0.0
210
0.0
220
0.0
230
1.0
  0
LINE
  5
1D7
100
AcDbEntity
  8
0
370
    30
390
0
 62
     7
 48
0.021378
100
AcDbLine
 10
-81.152406
 20
-41.494622
 30
0.0
 11
-81.152406
 21
-40.639498
 31
0.0
210
0.0
220
0.0
230
1.0
  0
LINE
  5
1D8
100
AcDbEntity
  8
0
370
    30
390
0
 62
     7
 48
0.11625
100
AcDbLine
 10
-81.1524
 20
57.500015
 30
0.0
 11
-85.8024
 21
57.500015
 31
0.0
210
0.0
220
0.0
230
1.0
  0
LINE
  5
1D9
100
AcDbEntity
  8
0
370
    30
390
0
 62
     7
 48
0.252504
100
AcDbLine
 10
-84.702552
 20
6.454484
 30
0.0
 11
-84.702552
 21
-3.645676
 31
0.0
210
0.0
220
0.0
230
1.0
  0
LINE
  5
1DA
100
AcDbEntity
  8
0
370
    30
390
0
 62
     7
 48
0.322244
100
AcDbLine
 10
-81.552552
 20
-6.444873
 30
0.0
 11
-81.552552
 21
6.444903
 31
0.0
210
0.0
220
0.0
230
1.0
  0
LINE
  5
1DB
100
AcDbEntity
  8
0
370
    30
390
0
 62
     7
 48
0.008427
100
AcDbLine
 10
-89.952552
 20
6.454484
 30
0.0
 11
-89.952552
 21
6.791568
 31
0.0
210
0.0
220
0.0
230
1.0
  0
LINE
  5
1DC
100
AcDbEntity
  8
0
370
    30
390
0
 62
     7
 48
0.026214
100
AcDbLine
 10
-89.952585
 20
5.405912
 30
0.0
 11
-89.952596
 21
6.454484
 31
0.0
210
0.0
220
0.0
230
1.0
  0
LINE
  5
1DD
100
AcDbEntity
  8
0
370
    30
390
0
 62
     7
 48
0.13125
100
AcDbLine
 10
-89.952596
 20
6.454484
 30
0.0
 11
-84.702596
 21
6.454484
 31
0.0
210
0.0
220
0.0
230
1.0
  0
LINE
  5
1DE
100
AcDbEntity
  8
0
370
    30
390
0
 62
     7
 48
0.00625
100
AcDbLine
 10
-85.052568
 20
7.500014
 30
0.0
 11
-85.052568
 21
7.750015
 31
0.0
210
0.0
220
0.0
230
1.0
  0
LINE
  5
1DF
100
AcDbEntity
  8
0
370
    30
390
0
 62
     7
 48
0.00625
100
AcDbLine
 10
-82.502568
 20
7.750015
 30
0.0
 11
-82.502568
 21
7.500015
 31
0.0
210
0.0
220
0.0
230
1.0
  0
ARC
  5
1E0
100
AcDbEntity
  8
0
370
    30
390
0
 62
     7
100
AcDbCircle
 10
-80.42246
 20
6.460262
 30
0.0
 40
1.12997
210
0.0
220
0.0
230
1.0
100
AcDbArc
 50
162.949458
 51
180.77867
  0
SPLINE
  5
1E1
100
AcDbEntity
  8
0
370
    30
390
0
 62
     7
100
AcDbSpline
210
0.0
220
0.0
230
1.0
 70
     8
 71
     5
 72
    15
 73
     9
 74
     0
 42
0.0
 43
0.0
 40
0.0
 40
0.0
 40
0.0
 40
0.0
 40
0.0
 40
0.0
 40
1.7650628627280076
 40
1.7650628627280076
 40
1.7650628627280076
 40
3.390718516979927
 40
3.390718516979927
 40
3.390718516979927
 40
3.390718516979927
 40
3.390718516979927
 40
3.390718516979927
 10
-81.152581106545043
 20
-8.4473832754791385
 30
0.0
 10
-81.152641952502265
 20
-8.2442040708123709
 30
0.0
 10
-81.167731304872504
 20
-8.0417687663977215
 30
0.0
 10
-81.19794527643225
 20
-7.8449304758611778
 30
0.0
 10
-81.27657211624215
 20
-7.4832363636973298
 30
0.0
 10
-81.375990565170994
 20
-7.1638122466901439
 30
0.0
 10
-81.424432565679396
 20
-7.0227304332777685
 30
0.0
 10
-81.468741822828562
 20
-6.8966786585833848
 30
0.0
 10
-81.50247965004759
 20
-6.7916330866023031
 30
0.0
  0
ARC
  5
1E2
100
AcDbEntity
  8
0
370
    30
390
0
 62
     7
100
AcDbCircle
 10
-80.422579
 20
-6.460245
 30
0.0
 40
1.129853
210
0.0
220
0.0
230
1.0
100
AcDbArc
 50
179.220618
 51
197.059625
  0
LINE
  5
1E3
100
AcDbEntity
  8
0
370
    13
390
0
 62
     7
 48
0.006253
100
AcDbLine
 10
-81.752617
 20
-6.791633
 30
0.0
 11
-81.50248
 21
-6.791633
 31
0.0
210
0.0
220
0.0
230
1.0
  0
LINE
  5
1E4
100
AcDbEntity
  8
0
370
    30
390
0
 62
     7
 48
0.0025
100
AcDbLine
 10
-82.05257
 20
8.750015
 30
0.0
 11
-82.152562
 21
8.750015
 31
0.0
210
0.0
220
0.0
230
1.0
  0
LINE
  5
1E5
100
AcDbEntity
  8
0
370
    30
390
0
 62
     7
 48
0.001252
100
AcDbLine
 10
-82.15257
 20
8.750015
 30
0.0
 11
-82.15257
 21
8.800103
 31
0.0
210
0.0
220
0.0
230
1.0
  0
LINE
  5
1E6
100
AcDbEntity
  8
0
370
    30
390
0
 62
     7
 48
0.00125
100
AcDbLine
 10
-85.05257
 20
8.80001
 30
0.0
 11
-85.05257
 21
8.750016
 31
0.0
210
0.0
220
0.0
230
1.0
  0
LINE
  5
1E7
100
AcDbEntity
  8
0
370
    30
390
0
 62
     7
 48
0.044129
100
AcDbLine
 10
-85.052564
 20
17.550441
 30
0.0
 11
-83.287393
 21
17.550441
 31
0.0
210
0.0
220
0.0
230
1.0
  0
LINE
  5
1E8
100
AcDbEntity
  8
0
370
    30
390
0
 62
     7
 48
0.063291
100
AcDbLine
 10
-83.202564
 20
17.465873
 30
0.0
 11
-83.202566
 21
14.934243
 31
0.0
210
0.0
220
0.0
230
1.0
  0
LINE
  5
1E9
100
AcDbEntity
  8
0
370
    30
390
0
 62
     7
 48
0.044146
100
AcDbLine
 10
-85.052566
 20
14.850015
 30
0.0
 11
-83.286743
 21
14.850015
 31
0.0
210
0.0
220
0.0
230
1.0
  0
LINE
  5
1EA
100
AcDbEntity
  8
0
370
    30
390
0
 62
     7
 48
0.09413
100
AcDbLine
 10
-85.052564
 20
17.550441
 30
0.0
 11
-88.817756
 21
17.550441
 31
0.0
210
0.0
220
0.0
230
1.0
  0
LINE
  5
1EB
100
AcDbEntity
  8
0
370
    30
390
0
 62
     7
 48
0.094146
100
AcDbLine
 10
-85.052566
 20
14.850015
 30
0.0
 11
-88.81841
 21
14.850015
 31
0.0
210
0.0
220
0.0
230
1.0
  0
LINE
  5
1EC
100
AcDbEntity
  8
0
370
    30
390
0
 62
     7
 48
0.125
100
AcDbLine
 10
-85.802055
 20
50.900015
 30
0.0
 11
-85.802055
 21
45.899997
 31
0.0
210
0.0
220
0.0
230
1.0
  0
LINE
  5
1ED
100
AcDbEntity
  8
0
370
    30
390
0
 62
     7
 48
0.025
100
AcDbLine
 10
-85.802045
 20
50.900015
 30
0.0
 11
-85.802045
 21
51.900015
 31
0.0
210
0.0
220
0.0
230
1.0
  0
LINE
  5
1EE
100
AcDbEntity
  8
0
370
    30
390
0
 62
     7
 48
0.004999
100
AcDbLine
 10
-85.802007
 20
51.900015
 30
0.0
 11
-85.802007
 21
52.099981
 31
0.0
210
0.0
220
0.0
230
1.0
  0
LINE
  5
1EF
100
AcDbEntity
  8
0
370
    13
390
0
 62
     7
 48
0.061229
100
AcDbLine
 10
-85.802055
 20
50.900015
 30
0.0
 11
-83.352914
 21
50.900015
 31
0.0
210
0.0
220
0.0
230
1.0
  0
LINE
  5
1F0
100
AcDbEntity
  8
0
370
    30
390
0
 62
     7
 48
0.10125
100
AcDbLine
 10
-85.802342
 20
57.500015
 30
0.0
 11
-89.85234
 21
57.500015
 31
0.0
210
0.0
220
0.0
230
1.0
  0
LINE
  5
1F1
100
AcDbEntity
  8
0
370
    30
390
0
 62
     7
 48
0.11625
100
AcDbLine
 10
-85.802406
 20
-42.499985
 30
0.0
 11
-81.152406
 21
-42.499985
 31
0.0
210
0.0
220
0.0
230
1.0
  0
LINE
  5
1F2
100
AcDbEntity
  8
0
370
    30
390
0
 62
     7
 48
0.10375
100
AcDbLine
 10
-85.802406
 20
-42.499985
 30
0.0
 11
-89.952406
 21
-42.499985
 31
0.0
210
0.0
220
0.0
230
1.0
  0
LINE
  5
1F3
100
AcDbEntity
  8
0
370
    13
390
0
 62
     7
 48
0.015001
100
AcDbLine
 10
-81.75263
 20
-8.44841
 30
0.0
 11
-81.152581
 21
-8.44841
 31
0.0
210
0.0
220
0.0
230
1.0
  0
LINE
  5
1F4
100
AcDbEntity
  8
0
370
    30
390
0
 62
     7
 48
0.134888
100
AcDbLine
 10
-85.05258
 20
-10.104446
 30
0.0
 11
-85.052577
 21
-15.499985
 31
0.0
210
0.0
220
0.0
230
1.0
  0
LINE
  5
1F5
100
AcDbEntity
  8
0
370
    30
390
0
 62
     7
 48
0.0975
100
AcDbLine
 10
-85.052577
 20
-15.499985
 30
0.0
 11
-81.152577
 21
-15.499985
 31
0.0
210
0.0
220
0.0
230
1.0
  0
LINE
  5
1F6
100
AcDbEntity
  8
0
370
    30
390
0
 62
     7
 48
0.13019
100
AcDbLine
 10
-85.052572
 20
-15.499985
 30
0.0
 11
-85.052568
 21
-20.70758
 31
0.0
210
0.0
220
0.0
230
1.0
  0
LINE
  5
1F7
100
AcDbEntity
  8
0
370
    13
390
0
 62
     7
 48
0.0975
100
AcDbLine
 10
-85.052568
 20
-20.70758
 30
0.0
 11
-81.152568
 21
-20.70758
 31
0.0
210
0.0
220
0.0
230
1.0
  0
LINE
  5
1F8
100
AcDbEntity
  8
0
370
    30
390
0
 62
     7
 48
0.04481
100
AcDbLine
 10
-85.052548
 20
-22.499985
 30
0.0
 11
-85.052547
 21
-20.70758
 31
0.0
210
0.0
220
0.0
230
1.0
  0
LINE
  5
1F9
100
AcDbEntity
  8
0
370
    30
390
0
 62
     7
 48
0.0975
100
AcDbLine
 10
-85.052548
 20
-22.499985
 30
0.0
 11
-81.152548
 21
-22.499985
 31
0.0
210
0.0
220
0.0
230
1.0
  0
LINE
  5
1FA
100
AcDbEntity
  8
0
370
    30
390
0
 62
     7
 48
0.0625
100
AcDbLine
 10
-85.802437
 20
-22.499985
 30
0.0
 11
-85.802437
 21
-24.999985
 31
0.0
210
0.0
220
0.0
230
1.0
  0
LINE
  5
1FB
100
AcDbEntity
  8
0
370
    30
390
0
 62
     7
 48
0.11625
100
AcDbLine
 10
-85.802437
 20
-24.999985
 30
0.0
 11
-81.152437
 21
-24.999985
 31
0.0
210
0.0
220
0.0
230
1.0
  0
LINE
  5
1FC
100
AcDbEntity
  8
0
370
    13
390
0
 62
     7
 48
0.0275
100
AcDbLine
 10
-82.252427
 20
-40.639498
 30
0.0
 11
-81.152427
 21
-40.639498
 31
0.0
210
0.0
220
0.0
230
1.0
  0
LINE
  5
1FD
100
AcDbEntity
  8
0
370
    30
390
0
 62
     7
 48
0.13125
100
AcDbLine
 10
-85.802437
 20
-24.999985
 30
0.0
 11
-85.802433
 21
-30.249985
 31
0.0
210
0.0
220
0.0
230
1.0
  0
LINE
  5
1FE
100
AcDbEntity
  8
0
370
    30
390
0
 62
     7
 48
0.10375
100
AcDbLine
 10
-85.802433
 20
-30.249985
 30
0.0
 11
-89.952433
 21
-30.249985
 31
0.0
210
0.0
220
0.0
230
1.0
  0
LINE
  5
1FF
100
AcDbEntity
  8
0
370
    30
390
0
 62
     7
 48
0.0475
100
AcDbLine
 10
-89.952432
 20
-32.149985
 30
0.0
 11
-89.952433
 21
-30.249985
 31
0.0
210
0.0
220
0.0
230
1.0
  0
ARC
  5
200
100
AcDbEntity
  8
0
370
    30
390
0
 62
     7
100
AcDbCircle
 10
-89.952275
 20
-35.749985
 30
0.0
 40
3.6
210
0.0
220
0.0
230
1.0
100
AcDbArc
 50
269.997572
 51
90.002503
  0
LINE
  5
201
100
AcDbEntity
  8
0
370
    30
390
0
 62
     7
 48
0.032238
100
AcDbLine
 10
-89.952426
 20
-40.639498
 30
0.0
 11
-89.952427
 21
-39.349985
 31
0.0
210
0.0
220
0.0
230
1.0
  0
LINE
  5
202
100
AcDbEntity
  8
0
370
    13
390
0
 62
     7
 48
0.10375
100
AcDbLine
 10
-85.802426
 20
-40.639498
 30
0.0
 11
-89.952426
 21
-40.639498
 31
0.0
210
0.0
220
0.0
230
1.0
  0
LINE
  5
203
100
AcDbEntity
  8
0
370
    13
390
0
 62
     7
 48
0.08875
100
AcDbLine
 10
-85.802427
 20
-40.639498
 30
0.0
 11
-82.252427
 21
-40.639498
 31
0.0
210
0.0
220
0.0
230
1.0
  0
LINE
  5
204
100
AcDbEntity
  8
0
370
    30
390
0
 62
     7
 48
0.002501
100
AcDbLine
 10
-89.952088
 20
-39.35001
 30
0.0
 11
-89.952088
 21
-39.249985
 31
0.0
210
0.0
220
0.0
230
1.0
  0
LINE
  5
205
100
AcDbEntity
  8
0
370
    30
390
0
 62
     7
 48
0.177499
100
AcDbLine
 10
-89.952113
 20
-32.15001
 30
0.0
 11
-89.952113
 21
-39.249985
 31
0.0
210
0.0
220
0.0
230
1.0
  0
LINE
  5
206
100
AcDbEntity
  8
0
370
    30
390
0
 62
     7
 48
0.027376
100
AcDbLine
 10
-85.802045
 20
51.900015
 30
0.0
 11
-84.707002
 21
51.900015
 31
0.0
210
0.0
220
0.0
230
1.0
  0
LINE
  5
207
100
AcDbEntity
  8
0
370
    30
390
0
 62
     7
 48
0.025134
100
AcDbLine
 10
-89.952406
 20
-41.494621
 30
0.0
 11
-89.952406
 21
-42.499985
 31
0.0
210
0.0
220
0.0
230
1.0
  0
LINE
  5
208
100
AcDbEntity
  8
0
370
    30
390
0
 62
     7
 48
0.021378
100
AcDbLine
 10
-89.952406
 20
-40.639498
 30
0.0
 11
-89.952406
 21
-41.494621
 31
0.0
210
0.0
220
0.0
230
1.0
  0
LINE
  5
209
100
AcDbEntity
  8
0
370
    30
390
0
 62
     7
 48
0.0375
100
AcDbLine
 10
-84.752242
 20
-42.499985
 30
0.0
 11
-84.752242
 21
-43.999985
 31
0.0
210
0.0
220
0.0
230
1.0
  0
LINE
  5
20A
100
AcDbEntity
  8
0
370
    30
390
0
 62
     7
 48
0.0375
100
AcDbLine
 10
-89.952294
 20
-42.499985
 30
0.0
 11
-89.952294
 21
-43.999985
 31
0.0
210
0.0
220
0.0
230
1.0
  0
LINE
  5
20B
100
AcDbEntity
  8
0
370
    30
390
0
 62
     7
 48
0.130001
100
AcDbLine
 10
-89.952294
 20
-43.999985
 30
0.0
 11
-84.752242
 21
-43.999985
 31
0.0
210
0.0
220
0.0
230
1.0
  0
LINE
  5
20C
100
AcDbEntity
  8
0
370
    30
390
0
 62
     7
 48
0.025
100
AcDbLine
 10
-84.702162
 20
-42.499985
 30
0.0
 11
-84.702162
 21
-43.499985
 31
0.0
210
0.0
220
0.0
230
1.0
  0
LINE
  5
20D
100
AcDbEntity
  8
0
370
    30
390
0
 62
     7
 48
0.001252
100
AcDbLine
 10
-84.702162
 20
-43.499985
 30
0.0
 11
-84.752247
 21
-43.499985
 31
0.0
210
0.0
220
0.0
230
1.0
  0
LINE
  5
20E
100
AcDbEntity
  8
0
370
    30
390
0
 62
     7
 48
0.0125
100
AcDbLine
 10
-84.702162
 20
-43.499985
 30
0.0
 11
-84.702157
 21
-43.999985
 31
0.0
210
0.0
220
0.0
230
1.0
  0
LINE
  5
20F
100
AcDbEntity
  8
0
370
    30
390
0
 62
     7
 48
0.00125
100
AcDbLine
 10
-89.9524
 20
-30.19998
 30
0.0
 11
-89.9524
 21
-30.249985
 31
0.0
210
0.0
220
0.0
230
1.0
  0
LINE
  5
210
100
AcDbEntity
  8
0
370
    30
390
0
 62
     7
 48
0.021059
100
AcDbLine
 10
-89.952113
 20
-39.249985
 30
0.0
 11
-89.109748
 21
-39.249985
 31
0.0
210
0.0
220
0.0
230
1.0
  0
LINE
  5
211
100
AcDbEntity
  8
0
370
    30
390
0
 62
     7
 48
0.001251
100
AcDbLine
 10
-84.702157
 20
-43.999985
 30
0.0
 11
-84.752198
 21
-43.999985
 31
0.0
210
0.0
220
0.0
230
1.0
  0
LINE
  5
212
100
AcDbEntity
  8
0
370
    13
390
0
 62
     7
 48
0.00125
100
AcDbLine
 10
-89.002418
 20
-22.499996
 30
0.0
 11
-89.002418
 21
-22.549986
 31
0.0
210
0.0
220
0.0
230
1.0
  0
LINE
  5
213
100
AcDbEntity
  8
0
370
    30
390
0
 62
     7
 48
0.00125
100
AcDbLine
 10
-89.302415
 20
-22.499996
 30
0.0
 11
-89.302414
 21
-22.549986
 31
0.0
210
0.0
220
0.0
230
1.0
  0
LINE
  5
214
100
AcDbEntity
  8
0
370
    30
390
0
 62
     7
 48
0.002609
100
AcDbLine
 10
-81.152299
 20
46.418225
 30
0.0
 11
-81.152291
 21
46.52258
 31
0.0
210
0.0
220
0.0
230
1.0
  0
LINE
  5
215
100
AcDbEntity
  8
0
370
    30
390
0
 62
     7
 48
0.072807
100
AcDbLine
 10
-81.152261
 20
48.217936
 30
0.0
 11
-81.15226
 21
51.1302
 31
0.0
210
0.0
220
0.0
230
1.0
  0
LINE
  5
216
100
AcDbEntity
  8
0
370
    30
390
0
 62
     7
 48
0.005943
100
AcDbLine
 10
-81.152292
 20
46.705527
 30
0.0
 11
-81.152293
 21
46.943253
 31
0.0
210
0.0
220
0.0
230
1.0
  0
LINE
  5
217
100
AcDbEntity
  8
0
370
    30
390
0
 62
     7
 48
0.0081
100
AcDbLine
 10
-81.152289
 20
45.858323
 30
0.0
 11
-81.15229
 21
46.182332
 31
0.0
210
0.0
220
0.0
230
1.0
  0
LINE
  5
218
100
AcDbEntity
  8
0
370
    30
390
0
 62
     7
 48
0.01308
100
AcDbLine
 10
-81.152312
 20
46.705528
 30
0.0
 11
-81.152299
 21
46.182333
 31
0.0
210
0.0
220
0.0
230
1.0
  0
LINE
  5
219
100
AcDbEntity
  8
0
370
    30
390
0
 62
     7
 48
0.116514
100
AcDbLine
 10
-81.15226
 20
51.366092
 30
0.0
 11
-81.152312
 21
46.705528
 31
0.0
210
0.0
220
0.0
230
1.0
  0
LINE
  5
21A
100
AcDbEntity
  8
0
370
    30
390
0
 62
     7
 48
0.004929
100
AcDbLine
 10
-81.152259
 20
48.020768
 30
0.0
 11
-81.152261
 21
48.217936
 31
0.0
210
0.0
220
0.0
230
1.0
  0
LINE
  5
21B
100
AcDbEntity
  8
0
370
    30
390
0
 62
     7
 48
0.000293
100
AcDbLine
 10
-81.152205
 20
44.197637
 30
0.0
 11
-81.152204
 21
44.185906
 31
0.0
210
0.0
220
0.0
230
1.0
  0
LINE
  5
21C
100
AcDbEntity
  8
0
370
    30
390
0
 62
     7
 48
0.000855
100
AcDbLine
 10
-81.152206
 20
44.231847
 30
0.0
 11
-81.152205
 21
44.197637
 31
0.0
210
0.0
220
0.0
230
1.0
  0
LINE
  5
21D
100
AcDbEntity
  8
0
370
    30
390
0
 62
     7
 48
0.000254
100
AcDbLine
 10
-81.152206
 20
44.242027
 30
0.0
 11
-81.152206
 21
44.231847
 31
0.0
210
0.0
220
0.0
230
1.0
  0
LINE
  5
21E
100
AcDbEntity
  8
0
370
    30
390
0
 62
     7
 48
0.000475
100
AcDbLine
 10
-81.152221
 20
44.242028
 30
0.0
 11
-81.152222
 21
44.261034
 31
0.0
210
0.0
220
0.0
230
1.0
  0
LINE
  5
21F
100
AcDbEntity
  8
0
370
    30
390
0
 62
     7
 48
0.000537
100
AcDbLine
 10
-81.152222
 20
44.261034
 30
0.0
 11
-81.152223
 21
44.282513
 31
0.0
210
0.0
220
0.0
230
1.0
  0
LINE
  5
220
100
AcDbEntity
  8
0
370
    30
390
0
 62
     7
 48
0.001358
100
AcDbLine
 10
-81.152223
 20
44.282513
 30
0.0
 11
-81.152225
 21
44.336834
 31
0.0
210
0.0
220
0.0
230
1.0
  0
LINE
  5
221
100
AcDbEntity
  8
0
370
    30
390
0
 62
     7
 48
0.001863
100
AcDbLine
 10
-81.152225
 20
44.336834
 30
0.0
 11
-81.152226
 21
44.41137
 31
0.0
210
0.0
220
0.0
230
1.0
  0
LINE
  5
222
100
AcDbEntity
  8
0
370
    30
390
0
 62
     7
 48
0.002748
100
AcDbLine
 10
-81.152227
 20
44.521282
 30
0.0
 11
-81.152226
 21
44.41137
 31
0.0
210
0.0
220
0.0
230
1.0
  0
LINE
  5
223
100
AcDbEntity
  8
0
370
    30
390
0
 62
     7
 48
0.002946
100
AcDbLine
 10
-81.152227
 20
44.521282
 30
0.0
 11
-81.152227
 21
44.639104
 31
0.0
210
0.0
220
0.0
230
1.0
  0
LINE
  5
224
100
AcDbEntity
  8
0
370
    30
390
0
 62
     7
 48
0.004327
100
AcDbLine
 10
-81.152227
 20
44.639104
 30
0.0
 11
-81.152228
 21
44.812182
 31
0.0
210
0.0
220
0.0
230
1.0
  0
LINE
  5
225
100
AcDbEntity
  8
0
370
    30
390
0
 62
     7
 48
0.004516
100
AcDbLine
 10
-81.152228
 20
44.812182
 30
0.0
 11
-81.152228
 21
44.99284
 31
0.0
210
0.0
220
0.0
230
1.0
  0
LINE
  5
226
100
AcDbEntity
  8
0
370
    30
390
0
 62
     7
 48
0.003032
100
AcDbLine
 10
-81.152228
 20
44.99284
 30
0.0
 11
-81.152228
 21
45.114123
 31
0.0
210
0.0
220
0.0
230
1.0
  0
LINE
  5
227
100
AcDbEntity
  8
0
370
    30
390
0
 62
     7
 48
0.002678
100
AcDbLine
 10
-81.152228
 20
45.114123
 30
0.0
 11
-81.152228
 21
45.221227
 31
0.0
210
0.0
220
0.0
230
1.0
  0
LINE
  5
228
100
AcDbEntity
  8
0
370
    30
390
0
 62
     7
 48
0.002959
100
AcDbLine
 10
-81.152228
 20
45.221227
 30
0.0
 11
-81.152228
 21
45.339599
 31
0.0
210
0.0
220
0.0
230
1.0
  0
LINE
  5
229
100
AcDbEntity
  8
0
370
    30
390
0
 62
     7
 48
0.002466
100
AcDbLine
 10
-81.152228
 20
45.339599
 30
0.0
 11
-81.152227
 21
45.438244
 31
0.0
210
0.0
220
0.0
230
1.0
  0
LINE
  5
22A
100
AcDbEntity
  8
0
370
    30
390
0
 62
     7
 48
0.002733
100
AcDbLine
 10
-81.152227
 20
45.438244
 30
0.0
 11
-81.152227
 21
45.547576
 31
0.0
210
0.0
220
0.0
230
1.0
  0
LINE
  5
22B
100
AcDbEntity
  8
0
370
    30
390
0
 62
     7
 48
0.001973
100
AcDbLine
 10
-81.152227
 20
45.547576
 30
0.0
 11
-81.152226
 21
45.626488
 31
0.0
210
0.0
220
0.0
230
1.0
  0
LINE
  5
22C
100
AcDbEntity
  8
0
370
    30
390
0
 62
     7
 48
0.001729
100
AcDbLine
 10
-81.152226
 20
45.626488
 30
0.0
 11
-81.152225
 21
45.695635
 31
0.0
210
0.0
220
0.0
230
1.0
  0
LINE
  5
22D
100
AcDbEntity
  8
0
370
    30
390
0
 62
     7
 48
0.001295
100
AcDbLine
 10
-81.152225
 20
45.695635
 30
0.0
 11
-81.152224
 21
45.747417
 31
0.0
210
0.0
220
0.0
230
1.0
  0
LINE
  5
22E
100
AcDbEntity
  8
0
370
    30
390
0
 62
     7
 48
0.00076
100
AcDbLine
 10
-81.152224
 20
45.747417
 30
0.0
 11
-81.152223
 21
45.777837
 31
0.0
210
0.0
220
0.0
230
1.0
  0
LINE
  5
22F
100
AcDbEntity
  8
0
370
    30
390
0
 62
     7
 48
0.000372
100
AcDbLine
 10
-81.152223
 20
45.777837
 30
0.0
 11
-81.152222
 21
45.792699
 31
0.0
210
0.0
220
0.0
230
1.0
  0
LINE
  5
230
100
AcDbEntity
  8
0
370
    30
390
0
 62
     7
 48
0.008546
100
AcDbLine
 10
-81.152207
 20
43.778527
 30
0.0
 11
-81.152207
 21
43.436693
 31
0.0
210
0.0
220
0.0
230
1.0
  0
LINE
  5
231
100
AcDbEntity
  8
0
370
    30
390
0
 62
     7
 48
0.017694
100
AcDbLine
 10
-81.152236
 20
41.602618
 30
0.0
 11
-81.152236
 21
42.310369
 31
0.0
210
0.0
220
0.0
230
1.0
  0
LINE
  5
232
100
AcDbEntity
  8
0
370
    30
390
0
 62
     7
 48
0.004816
100
AcDbLine
 10
-81.152228
 20
42.310369
 30
0.0
 11
-81.152228
 21
42.503027
 31
0.0
210
0.0
220
0.0
230
1.0
  0
LINE
  5
233
100
AcDbEntity
  8
0
370
    30
390
0
 62
     7
 48
0.001617
100
AcDbLine
 10
-81.152221
 20
51.36609
 30
0.0
 11
-81.152221
 21
51.430771
 31
0.0
210
0.0
220
0.0
230
1.0
  0
LINE
  5
234
100
AcDbEntity
  8
0
370
    30
390
0
 62
     7
 48
0.002164
100
AcDbLine
 10
-81.152221
 20
51.517319
 30
0.0
 11
-81.152221
 21
51.430771
 31
0.0
210
0.0
220
0.0
230
1.0
  0
LINE
  5
235
100
AcDbEntity
  8
0
370
    30
390
0
 62
     7
 48
0.002507
100
AcDbLine
 10
-81.152221
 20
51.517319
 30
0.0
 11
-81.15222
 21
51.617581
 31
0.0
210
0.0
220
0.0
230
1.0
  0
LINE
  5
236
100
AcDbEntity
  8
0
370
    30
390
0
 62
     7
 48
0.002099
100
AcDbLine
 10
-81.15222
 20
51.617581
 30
0.0
 11
-81.15222
 21
51.70156
 31
0.0
210
0.0
220
0.0
230
1.0
  0
LINE
  5
237
100
AcDbEntity
  8
0
370
    30
390
0
 62
     7
 48
0.001628
100
AcDbLine
 10
-81.15222
 20
51.70156
 30
0.0
 11
-81.152219
 21
51.76669
 31
0.0
210
0.0
220
0.0
230
1.0
  0
LINE
  5
238
100
AcDbEntity
  8
0
370
    30
390
0
 62
     7
 48
0.001457
100
AcDbLine
 10
-81.152219
 20
51.76669
 30
0.0
 11
-81.152219
 21
51.824961
 31
0.0
210
0.0
220
0.0
230
1.0
  0
LINE
  5
239
100
AcDbEntity
  8
0
370
    30
390
0
 62
     7
 48
0.000921
100
AcDbLine
 10
-81.152219
 20
51.824961
 30
0.0
 11
-81.152218
 21
51.861807
 31
0.0
210
0.0
220
0.0
230
1.0
  0
LINE
  5
23A
100
AcDbEntity
  8
0
370
    30
390
0
 62
     7
 48
0.000493
100
AcDbLine
 10
-81.152218
 20
51.861807
 30
0.0
 11
-81.152218
 21
51.881516
 31
0.0
210
0.0
220
0.0
230
1.0
  0
LINE
  5
23B
100
AcDbEntity
  8
0
370
    30
390
0
 62
     7
 48
0.000659
100
AcDbLine
 10
-81.152218
 20
51.881516
 30
0.0
 11
-81.152218
 21
51.907871
 31
0.0
210
0.0
220
0.0
230
1.0
  0
LINE
  5
23C
100
AcDbEntity
  8
0
370
    30
390
0
 62
     7
 48
0.000959
100
AcDbLine
 10
-81.152218
 20
51.907871
 30
0.0
 11
-81.152218
 21
51.946225
 31
0.0
210
0.0
220
0.0
230
1.0
  0
LINE
  5
23D
100
AcDbEntity
  8
0
370
    30
390
0
 62
     7
 48
0.000786
100
AcDbLine
 10
-81.152218
 20
51.946225
 30
0.0
 11
-81.152219
 21
51.977683
 31
0.0
210
0.0
220
0.0
230
1.0
  0
LINE
  5
23E
100
AcDbEntity
  8
0
370
    30
390
0
 62
     7
 48
0.000931
100
AcDbLine
 10
-81.152219
 20
52.014926
 30
0.0
 11
-81.152219
 21
51.977683
 31
0.0
210
0.0
220
0.0
230
1.0
  0
LINE
  5
23F
100
AcDbEntity
  8
0
370
    30
390
0
 62
     7
 48
0.000921
100
AcDbLine
 10
-81.152219
 20
52.014926
 30
0.0
 11
-81.152219
 21
52.051761
 31
0.0
210
0.0
220
0.0
230
1.0
  0
LINE
  5
240
100
AcDbEntity
  8
0
370
    30
390
0
 62
     7
 48
0.001061
100
AcDbLine
 10
-81.152219
 20
52.051761
 30
0.0
 11
-81.15222
 21
52.094211
 31
0.0
210
0.0
220
0.0
230
1.0
  0
LINE
  5
241
100
AcDbEntity
  8
0
370
    30
390
0
 62
     7
 48
0.001135
100
AcDbLine
 10
-81.15222
 20
52.094211
 30
0.0
 11
-81.15222
 21
52.139627
 31
0.0
210
0.0
220
0.0
230
1.0
  0
LINE
  5
242
100
AcDbEntity
  8
0
370
    30
390
0
 62
     7
 48
0.001233
100
AcDbLine
 10
-81.15222
 20
52.139627
 30
0.0
 11
-81.15222
 21
52.188962
 31
0.0
210
0.0
220
0.0
230
1.0
  0
LINE
  5
243
100
AcDbEntity
  8
0
370
    30
390
0
 62
     7
 48
0.001116
100
AcDbLine
 10
-81.15222
 20
52.188962
 30
0.0
 11
-81.15222
 21
52.233597
 31
0.0
210
0.0
220
0.0
230
1.0
  0
LINE
  5
244
100
AcDbEntity
  8
0
370
    30
390
0
 62
     7
 48
0.001477
100
AcDbLine
 10
-81.15222
 20
52.233597
 30
0.0
 11
-81.152221
 21
52.292685
 31
0.0
210
0.0
220
0.0
230
1.0
  0
LINE
  5
245
100
AcDbEntity
  8
0
370
    30
390
0
 62
     7
 48
0.001501
100
AcDbLine
 10
-81.152221
 20
52.292685
 30
0.0
 11
-81.152221
 21
52.352732
 31
0.0
210
0.0
220
0.0
230
1.0
  0
LINE
  5
246
100
AcDbEntity
  8
0
370
    30
390
0
 62
     7
 48
0.001563
100
AcDbLine
 10
-81.152221
 20
52.352732
 30
0.0
 11
-81.152221
 21
52.415238
 31
0.0
210
0.0
220
0.0
230
1.0
  0
LINE
  5
247
100
AcDbEntity
  8
0
370
    30
390
0
 62
     7
 48
0.00197
100
AcDbLine
 10
-81.152221
 20
52.415238
 30
0.0
 11
-81.152221
 21
52.494046
 31
0.0
210
0.0
220
0.0
230
1.0
  0
LINE
  5
248
100
AcDbEntity
  8
0
370
    30
390
0
 62
     7
 48
0.00192
100
AcDbLine
 10
-81.152221
 20
52.570841
 30
0.0
 11
-81.152221
 21
52.494046
 31
0.0
210
0.0
220
0.0
230
1.0
  0
LINE
  5
249
100
AcDbEntity
  8
0
370
    30
390
0
 62
     7
 48
0.001542
100
AcDbLine
 10
-81.152221
 20
52.570841
 30
0.0
 11
-81.15222
 21
52.632505
 31
0.0
210
0.0
220
0.0
230
1.0
  0
LINE
  5
24A
100
AcDbEntity
  8
0
370
    30
390
0
 62
     7
 48
0.001854
100
AcDbLine
 10
-81.15222
 20
52.632505
 30
0.0
 11
-81.15222
 21
52.706668
 31
0.0
210
0.0
220
0.0
230
1.0
  0
LINE
  5
24B
100
AcDbEntity
  8
0
370
    30
390
0
 62
     7
 48
0.001199
100
AcDbLine
 10
-81.15222
 20
52.706668
 30
0.0
 11
-81.15222
 21
52.754618
 31
0.0
210
0.0
220
0.0
230
1.0
  0
LINE
  5
24C
100
AcDbEntity
  8
0
370
    30
390
0
 62
     7
 48
0.001366
100
AcDbLine
 10
-81.15222
 20
52.754618
 30
0.0
 11
-81.152219
 21
52.809262
 31
0.0
210
0.0
220
0.0
230
1.0
  0
LINE
  5
24D
100
AcDbEntity
  8
0
370
    30
390
0
 62
     7
 48
0.001073
100
AcDbLine
 10
-81.152219
 20
52.809262
 30
0.0
 11
-81.152219
 21
52.852194
 31
0.0
210
0.0
220
0.0
230
1.0
  0
LINE
  5
24E
100
AcDbEntity
  8
0
370
    30
390
0
 62
     7
 48
0.000836
100
AcDbLine
 10
-81.152219
 20
52.852194
 30
0.0
 11
-81.152219
 21
52.885648
 31
0.0
210
0.0
220
0.0
230
1.0
  0
LINE
  5
24F
100
AcDbEntity
  8
0
370
    30
390
0
 62
     7
 48
0.000788
100
AcDbLine
 10
-81.152219
 20
52.885648
 30
0.0
 11
-81.152218
 21
52.917166
 31
0.0
210
0.0
220
0.0
230
1.0
  0
LINE
  5
250
100
AcDbEntity
  8
0
370
    30
390
0
 62
     7
 48
0.000462
100
AcDbLine
 10
-81.152218
 20
52.917166
 30
0.0
 11
-81.152218
 21
52.93563
 31
0.0
210
0.0
220
0.0
230
1.0
  0
LINE
  5
251
100
AcDbEntity
  8
0
370
    30
390
0
 62
     7
 48
0.000422
100
AcDbLine
 10
-81.152218
 20
52.93563
 30
0.0
 11
-81.152217
 21
52.952512
 31
0.0
210
0.0
220
0.0
230
1.0
  0
LINE
  5
252
100
AcDbEntity
  8
0
370
    30
390
0
 62
     7
 48
0.000316
100
AcDbLine
 10
-81.152217
 20
52.952512
 30
0.0
 11
-81.152216
 21
52.965171
 31
0.0
210
0.0
220
0.0
230
1.0
  0
LINE
  5
253
100
AcDbEntity
  8
0
370
    30
390
0
 62
     7
 48
0.000198
100
AcDbLine
 10
-81.152216
 20
52.965171
 30
0.0
 11
-81.152216
 21
52.973087
 31
0.0
210
0.0
220
0.0
230
1.0
  0
LINE
  5
254
100
AcDbEntity
  8
0
370
    30
390
0
 62
     7
 48
0.13
100
AcDbLine
 10
-85.802437
 20
-24.999985
 30
0.0
 11
-85.802433
 21
-30.199985
 31
0.0
210
0.0
220
0.0
230
1.0
  0
LINE
  5
255
100
AcDbEntity
  8
0
370
    30
390
0
 62
     7
 48
0.06125
100
AcDbLine
 10
-85.802437
 20
-22.549985
 30
0.0
 11
-85.802437
 21
-24.999985
 31
0.0
210
0.0
220
0.0
230
1.0
  0
LINE
  5
256
100
AcDbEntity
  8
0
370
    30
390
0
 62
     7
 48
0.00125
100
AcDbLine
 10
-89.352432
 20
-22.499995
 30
0.0
 11
-89.352432
 21
-22.549985
 31
0.0
210
0.0
220
0.0
230
1.0
  0
LINE
  5
257
100
AcDbEntity
  8
0
370
    30
390
0
 62
     7
 48
0.2075
100
AcDbLine
 10
-85.802433
 20
-30.199985
 30
0.0
 11
-94.102433
 21
-30.199984
 31
0.0
210
0.0
220
0.0
230
1.0
  0
LINE
  5
258
100
AcDbEntity
  8
0
370
    30
390
0
 62
     7
 48
0.2075
100
AcDbLine
 10
-94.102437
 20
-24.999984
 30
0.0
 11
-85.802437
 21
-24.999985
 31
0.0
210
0.0
220
0.0
230
1.0
  0
LINE
  5
259
100
AcDbEntity
  8
0
370
    30
390
0
 62
     7
 48
0.13
100
AcDbLine
 10
-94.102437
 20
-24.999984
 30
0.0
 11
-94.102433
 21
-30.199984
 31
0.0
210
0.0
220
0.0
230
1.0
  0
LINE
  5
25A
100
AcDbEntity
  8
0
370
    30
390
0
 62
     7
 48
0.06125
100
AcDbLine
 10
-94.102437
 20
-22.549984
 30
0.0
 11
-94.102437
 21
-24.999984
 31
0.0
210
0.0
220
0.0
230
1.0
  0
LINE
  5
25B
100
AcDbEntity
  8
0
370
    30
390
0
 62
     7
 48
0.2075
100
AcDbLine
 10
-85.802437
 20
-22.549985
 30
0.0
 11
-94.102437
 21
-22.549984
 31
0.0
210
0.0
220
0.0
230
1.0
  0
LINE
  5
25C
100
AcDbEntity
  8
0
370
    30
390
0
 62
     7
 48
0.00125
100
AcDbLine
 10
-90.552432
 20
-22.499995
 30
0.0
 11
-90.552432
 21
-22.549985
 31
0.0
210
0.0
220
0.0
230
1.0
  0
LINE
  5
25D
100
AcDbEntity
  8
0
370
    30
390
0
 62
     7
 48
0.0775
100
AcDbLine
 10
-94.102421
 20
42.500015
 30
0.0
 11
-94.102421
 21
45.600014
 31
0.0
210
0.0
220
0.0
230
1.0
  0
LINE
  5
25E
100
AcDbEntity
  8
0
370
    30
390
0
 62
     7
 48
0.0075
100
AcDbLine
 10
-94.102421
 20
45.600014
 30
0.0
 11
-94.102418
 21
45.900014
 31
0.0
210
0.0
220
0.0
230
1.0
  0
LINE
  5
25F
100
AcDbEntity
  8
0
370
    30
390
0
 62
     7
 48
0.06125
100
AcDbLine
 10
-94.102434
 20
25.000014
 30
0.0
 11
-94.102434
 21
22.550014
 31
0.0
210
0.0
220
0.0
230
1.0
  0
LINE
  5
260
100
AcDbEntity
  8
0
370
    30
390
0
 62
     7
 48
0.4375
100
AcDbLine
 10
-94.102421
 20
42.500015
 30
0.0
 11
-94.102434
 21
25.000014
 31
0.0
210
0.0
220
0.0
230
1.0
  0
LINE
  5
261
100
AcDbEntity
  8
0
370
    30
390
0
 62
     7
 48
0.06125
100
AcDbLine
 10
-85.802434
 20
25.000013
 30
0.0
 11
-85.802434
 21
22.550013
 31
0.0
210
0.0
220
0.0
230
1.0
  0
LINE
  5
262
100
AcDbEntity
  8
0
370
    30
390
0
 62
     7
 48
0.4375
100
AcDbLine
 10
-85.802421
 20
42.500014
 30
0.0
 11
-85.802434
 21
25.000013
 31
0.0
210
0.0
220
0.0
230
1.0
  0
LINE
  5
263
100
AcDbEntity
  8
0
370
    30
390
0
 62
     7
 48
0.05125
100
AcDbLine
 10
-85.802421
 20
42.500014
 30
0.0
 11
-85.802421
 21
44.550013
 31
0.0
210
0.0
220
0.0
230
1.0
  0
LINE
  5
264
100
AcDbEntity
  8
0
370
    30
390
0
 62
     7
 48
0.0075
100
AcDbLine
 10
-85.802421
 20
44.550013
 30
0.0
 11
-85.802418
 21
44.850013
 31
0.0
210
0.0
220
0.0
230
1.0
  0
LINE
  5
265
100
AcDbEntity
  8
0
370
    30
390
0
 62
     7
 48
0.0075
100
AcDbLine
 10
-85.802371
 20
44.850013
 30
0.0
 11
-85.802368
 21
45.150013
 31
0.0
210
0.0
220
0.0
230
1.0
  0
LINE
  5
266
100
AcDbEntity
  8
0
370
    30
390
0
 62
     7
 48
0.01125
100
AcDbLine
 10
-85.802368
 20
45.600013
 30
0.0
 11
-85.802368
 21
45.150013
 31
0.0
210
0.0
220
0.0
230
1.0
  0
LINE
  5
267
100
AcDbEntity
  8
0
370
    30
390
0
 62
     7
 48
0.0075
100
AcDbLine
 10
-85.802368
 20
45.600013
 30
0.0
 11
-85.802365
 21
45.900013
 31
0.0
210
0.0
220
0.0
230
1.0
  0
ARC
  5
268
100
AcDbEntity
  8
0
370
    13
390
0
 62
     7
100
AcDbCircle
 10
-85.802421
 20
49.000013
 30
0.0
 40
4.45
210
0.0
220
0.0
230
1.0
100
AcDbArc
 50
89.999997
 51
269.999996
  0
LINE
  5
269
100
AcDbEntity
  8
0
370
    30
390
0
 62
     7
 48
0.2075
100
AcDbLine
 10
-94.102421
 20
42.500015
 30
0.0
 11
-85.802421
 21
42.500014
 31
0.0
210
0.0
220
0.0
230
1.0
  0
ARC
  5
26A
100
AcDbEntity
  8
0
370
    13
390
0
 62
     7
100
AcDbCircle
 10
-94.102421
 20
49.000014
 30
0.0
 40
3.4
210
0.0
220
0.0
230
1.0
100
AcDbArc
 50
269.999997
 51
449.999997
  0
LINE
  5
26B
100
AcDbEntity
  8
0
370
    30
390
0
 62
     7
 48
0.0775
100
AcDbLine
 10
-94.10242
 20
52.400014
 30
0.0
 11
-94.10242
 21
55.500014
 31
0.0
210
0.0
220
0.0
230
1.0
  0
LINE
  5
26C
100
AcDbEntity
  8
0
370
    13
390
0
 62
     7
 48
0.2075
100
AcDbLine
 10
-85.80242
 20
55.500013
 30
0.0
 11
-94.10242
 21
55.500014
 31
0.0
210
0.0
220
0.0
230
1.0
  0
LINE
  5
26D
100
AcDbEntity
  8
0
370
    30
390
0
 62
     7
 48
0.05125
100
AcDbLine
 10
-85.80242
 20
53.450013
 30
0.0
 11
-85.80242
 21
55.500013
 31
0.0
210
0.0
220
0.0
230
1.0
  0
LINE
  5
26E
100
AcDbEntity
  8
0
370
    30
390
0
 62
     7
 48
0.0075
100
AcDbLine
 10
-94.10242
 20
52.400014
 30
0.0
 11
-94.102417
 21
52.100014
 31
0.0
210
0.0
220
0.0
230
1.0
  0
ARC
  5
26F
100
AcDbEntity
  8
0
370
    30
390
0
 62
     7
100
AcDbCircle
 10
-94.102418
 20
49.000014
 30
0.0
 40
3.1
210
0.0
220
0.0
230
1.0
100
AcDbArc
 50
269.999997
 51
449.999997
  0
LINE
  5
270
100
AcDbEntity
  8
0
370
    30
390
0
 62
     7
 48
0.08875
100
AcDbLine
 10
-90.552434
 20
22.550013
 30
0.0
 11
-94.102434
 21
22.550014
 31
0.0
210
0.0
220
0.0
230
1.0
  0
LINE
  5
271
100
AcDbEntity
  8
0
370
    30
390
0
 62
     7
 48
0.03
100
AcDbLine
 10
-89.352434
 20
22.550013
 30
0.0
 11
-90.552434
 21
22.550013
 31
0.0
210
0.0
220
0.0
230
1.0
  0
LINE
  5
272
100
AcDbEntity
  8
0
370
    30
390
0
 62
     7
 48
0.08875
100
AcDbLine
 10
-85.802434
 20
22.550013
 30
0.0
 11
-89.352434
 21
22.550013
 31
0.0
210
0.0
220
0.0
230
1.0
  0
LINE
  5
273
100
AcDbEntity
  8
0
370
    30
390
0
 62
     7
 48
0.2075
100
AcDbLine
 10
-85.802434
 20
25.000013
 30
0.0
 11
-94.102434
 21
25.000014
 31
0.0
210
0.0
220
0.0
230
1.0
  0
LINE
  5
274
100
AcDbEntity
  8
0
370
    13
390
0
 62
     7
 48
0.06123
100
AcDbLine
 10
-94.102167
 20
50.900014
 30
0.0
 11
-91.652959
 21
50.900013
 31
0.0
210
0.0
220
0.0
230
1.0
  0
LINE
  5
275
100
AcDbEntity
  8
0
370
    30
390
0
 62
     7
 48
0.125
100
AcDbLine
 10
-94.102168
 20
45.899998
 30
0.0
 11
-94.102167
 21
50.900014
 31
0.0
210
0.0
220
0.0
230
1.0
  0
ARC
  5
276
100
AcDbEntity
  8
0
370
    30
390
0
 62
     7
100
AcDbCircle
 10
-85.802418
 20
49.000013
 30
0.0
 40
4.15
210
0.0
220
0.0
230
1.0
100
AcDbArc
 50
89.999997
 51
269.999997
  0
ARC
  5
277
100
AcDbEntity
  8
0
370
    13
390
0
 62
     7
100
AcDbCircle
 10
-85.802368
 20
49.000013
 30
0.0
 40
3.85
210
0.0
220
0.0
230
1.0
100
AcDbArc
 50
89.999997
 51
270.0
  0
ARC
  5
278
100
AcDbEntity
  8
0
370
    13
390
0
 62
     7
100
AcDbCircle
 10
-85.802368
 20
49.000013
 30
0.0
 40
3.4
210
0.0
220
0.0
230
1.0
100
AcDbArc
 50
89.999997
 51
269.999997
  0
LINE
  5
279
100
AcDbEntity
  8
0
370
    30
390
0
 62
     7
 48
0.01125
100
AcDbLine
 10
-85.802368
 20
52.400013
 30
0.0
 11
-85.802368
 21
52.850013
 31
0.0
210
0.0
220
0.0
230
1.0
  0
LINE
  5
27A
100
AcDbEntity
  8
0
370
    30
390
0
 62
     7
 48
0.0075
100
AcDbLine
 10
-85.802368
 20
52.400013
 30
0.0
 11
-85.802365
 21
52.100013
 31
0.0
210
0.0
220
0.0
230
1.0
  0
ARC
  5
27B
100
AcDbEntity
  8
0
370
    30
390
0
 62
     7
100
AcDbCircle
 10
-85.802365
 20
49.000013
 30
0.0
 40
3.1
210
0.0
220
0.0
230
1.0
100
AcDbArc
 50
89.999997
 51
269.999997
  0
LINE
  5
27C
100
AcDbEntity
  8
0
370
    30
390
0
 62
     7
 48
0.0075
100
AcDbLine
 10
-85.80242
 20
53.450013
 30
0.0
 11
-85.802417
 21
53.150013
 31
0.0
210
0.0
220
0.0
230
1.0
  0
LINE
  5
27D
100
AcDbEntity
  8
0
370
    30
390
0
 62
     7
 48
0.0075
100
AcDbLine
 10
-85.802371
 20
53.150013
 30
0.0
 11
-85.802368
 21
52.850013
 31
0.0
210
0.0
220
0.0
230
1.0
  0
LINE
  5
27E
100
AcDbEntity
  8
0
370
    30
390
0
 62
     7
 48
0.025
100
AcDbLine
 10
-85.8024
 20
57.500013
 30
0.0
 11
-85.8024
 21
56.500012
 31
0.0
210
0.0
220
0.0
230
1.0
  0
LINE
  5
27F
100
AcDbEntity
  8
0
370
    30
390
0
 62
     7
 48
0.025
100
AcDbLine
 10
-85.8024
 20
56.499996
 30
0.0
 11
-85.8024
 21
55.500013
 31
0.0
210
0.0
220
0.0
230
1.0
  0
LINE
  5
280
100
AcDbEntity
  8
0
370
    30
390
0
 62
     7
 48
0.025
100
AcDbLine
 10
-94.1024
 20
56.499996
 30
0.0
 11
-94.1024
 21
55.500014
 31
0.0
210
0.0
220
0.0
230
1.0
  0
LINE
  5
281
100
AcDbEntity
  8
0
370
    30
390
0
 62
     7
 48
0.025
100
AcDbLine
 10
-94.1024
 20
57.500014
 30
0.0
 11
-94.1024
 21
56.500013
 31
0.0
210
0.0
220
0.0
230
1.0
  0
LINE
  5
282
100
AcDbEntity
  8
0
370
    30
390
0
 62
     7
 48
0.00125
100
AcDbLine
 10
-89.352429
 20
22.550013
 30
0.0
 11
-89.352429
 21
22.500005
 31
0.0
210
0.0
220
0.0
230
1.0
  0
LINE
  5
283
100
AcDbEntity
  8
0
370
    30
390
0
 62
     7
 48
0.00125
100
AcDbLine
 10
-90.552429
 20
22.550013
 30
0.0
 11
-90.552429
 21
22.500005
 31
0.0
210
0.0
220
0.0
230
1.0
  0
LINE
  5
284
100
AcDbEntity
  8
0
370
    30
390
0
 62
     7
 48
0.004991
100
AcDbLine
 10
-94.102115
 20
52.09965
 30
0.0
 11
-94.102115
 21
51.900014
 31
0.0
210
0.0
220
0.0
230
1.0
  0
LINE
  5
285
100
AcDbEntity
  8
0
370
    30
390
0
 62
     7
 48
0.025
100
AcDbLine
 10
-94.102157
 20
51.900014
 30
0.0
 11
-94.102157
 21
50.900014
 31
0.0
210
0.0
220
0.0
230
1.0
  0
LINE
  5
286
100
AcDbEntity
  8
0
370
    30
390
0
 62
     7
 48
0.027378
100
AcDbLine
 10
-94.102157
 20
51.900014
 30
0.0
 11
-93.007039
 21
51.900013
 31
0.0
210
0.0
220
0.0
230
1.0
  0
LINE
  5
287
100
AcDbEntity
  8
0
370
    30
390
0
 62
     7
 48
0.2075
100
AcDbLine
 10
-85.8024
 20
57.500013
 30
0.0
 11
-94.1024
 21
57.500014
 31
0.0
210
0.0
220
0.0
230
1.0
  0
LINE
  5
288
100
AcDbEntity
  8
0
370
    30
390
0
 62
     7
 48
0.007136
100
AcDbLine
 10
-85.802049
 20
52.09999
 30
0.0
 11
-85.802049
 21
51.814531
 31
0.0
210
0.0
220
0.0
230
1.0
  0
LINE
  5
289
100
AcDbEntity
  8
0
370
    30
390
0
 62
     7
 48
0.076494
100
AcDbLine
 10
-85.802049
 20
48.500013
 30
0.0
 11
-88.861802
 21
48.500013
 31
0.0
210
0.0
220
0.0
230
1.0
  0
LINE
  5
28A
100
AcDbEntity
  8
0
370
    30
390
0
 62
     7
 48
0.001264
100
AcDbLine
 10
-81.102001
 20
-17.749985
 30
0.0
 11
-81.15257
 21
-17.749985
 31
0.0
210
0.0
220
0.0
230
1.0
  0
LINE
  5
28B
100
AcDbEntity
  8
0
370
    30
390
0
 62
     7
100
AcDbLine
 10
-81.102003
 20
-42.199985
 30
0.0
 11
-81.102001
 21
-17.749985
 31
0.0
210
0.0
220
0.0
230
1.0
  0
ARC
  5
28C
100
AcDbEntity
  8
0
370
    30
390
0
 62
     7
100
AcDbCircle
 10
-81.402003
 20
-42.199985
 30
0.0
 40
0.3
210
0.0
220
0.0
230
1.0
100
AcDbArc
 50
326.285365
 51
359.999995
  0
LINE
  5
28D
100
AcDbEntity
  8
0
370
    30
390
0
 62
     7
 48
0.024441
100
AcDbLine
 10
-81.101984
 20
-17.527631
 30
0.0
 11
-81.101981
 21
-16.549985
 31
0.0
210
0.0
220
0.0
230
1.0
  0
LINE
  5
28E
100
AcDbEntity
  8
0
370
    30
390
0
 62
     7
 48
0.005559
100
AcDbLine
 10
-81.101987
 20
-17.749985
 30
0.0
 11
-81.101987
 21
-17.527631
 31
0.0
210
0.0
220
0.0
230
1.0
  0
ARC
  5
28F
100
AcDbEntity
  8
0
370
    30
390
0
 62
     7
100
AcDbCircle
 10
-81.401964
 20
-16.549985
 30
0.0
 40
0.3
210
0.0
220
0.0
230
1.0
100
AcDbArc
 50
359.999995
 51
33.581653
  0
LINE
  5
290
100
AcDbEntity
  8
0
370
    13
390
0
 62
     7
 48
0.001265
100
AcDbLine
 10
-81.101984
 20
-17.527631
 30
0.0
 11
-81.152571
 21
-17.527631
 31
0.0
210
0.0
220
0.0
230
1.0
  0
ARC
  5
291
100
AcDbEntity
  8
0
370
    30
390
0
 62
     7
100
AcDbCircle
 10
-92.301985
 20
-43.499984
 30
0.0
 40
2.5
210
0.0
220
0.0
230
1.0
100
AcDbArc
 50
191.537302
 51
269.999995
  0
LINE
  5
292
100
AcDbEntity
  8
0
370
    30
390
0
 62
     7
 48
0.125
100
AcDbLine
 10
-92.301985
 20
-45.999984
 30
0.0
 11
-87.301985
 21
-45.999985
 31
0.0
210
0.0
220
0.0
230
1.0
  0
ARC
  5
293
100
AcDbEntity
  8
0
370
    30
390
0
 62
     7
100
AcDbCircle
 10
-87.301985
 20
-43.499985
 30
0.0
 40
2.5
210
0.0
220
0.0
230
1.0
100
AcDbArc
 50
269.999995
 51
348.462586
  0
ARC
  5
294
100
AcDbEntity
  8
0
370
    30
390
0
 62
     7
100
AcDbCircle
 10
-89.801985
 20
-41.999984
 30
0.0
 40
2.5
210
0.0
220
0.0
230
1.0
100
AcDbArc
 50
233.13015
 51
306.869505
  0
ARC
  5
295
100
AcDbEntity
  8
0
370
    13
390
0
 62
     7
100
AcDbCircle
 10
-89.801965
 20
-41.999984
 30
0.0
 40
2.2
210
0.0
220
0.0
230
1.0
100
AcDbArc
 50
245.380879
 51
294.619954
  0
LINE
  5
296
100
AcDbEntity
  8
0
370
    30
390
0
 62
     7
 48
0.2625
100
AcDbLine
 10
-84.702631
 20
-0.798205
 30
0.0
 11
-95.202631
 21
-0.798205
 31
0.0
210
0.0
220
0.0
230
1.0
  0
LINE
  5
297
100
AcDbEntity
  8
0
370
    13
390
0
 62
     7
 48
0.225
100
AcDbLine
 10
-85.252607
 20
-2.62065
 30
0.0
 11
-94.252607
 21
-2.620649
 31
0.0
210
0.0
220
0.0
230
1.0
  0
LINE
  5
298
100
AcDbEntity
  8
0
370
    30
390
0
 62
     7
 48
0.008805
100
AcDbLine
 10
-85.25261
 20
-2.972866
 30
0.0
 11
-85.25261
 21
-2.62065
 31
0.0
210
0.0
220
0.0
230
1.0
  0
LINE
  5
299
100
AcDbEntity
  8
0
370
    30
390
0
 62
     7
 48
0.010494
100
AcDbLine
 10
-85.252608
 20
-2.972866
 30
0.0
 11
-85.252612
 21
-3.392617
 31
0.0
210
0.0
220
0.0
230
1.0
  0
LINE
  5
29A
100
AcDbEntity
  8
0
370
    30
390
0
 62
     7
 48
0.006317
100
AcDbLine
 10
-85.252627
 20
-3.392616
 30
0.0
 11
-85.25263
 21
-3.645312
 31
0.0
210
0.0
220
0.0
230
1.0
  0
LINE
  5
29B
100
AcDbEntity
  8
0
370
    30
390
0
 62
     7
 48
0.008805
100
AcDbLine
 10
-94.25261
 20
-2.972866
 30
0.0
 11
-94.25261
 21
-2.620649
 31
0.0
210
0.0
220
0.0
230
1.0
  0
LINE
  5
29C
100
AcDbEntity
  8
0
370
    30
390
0
 62
     7
 48
0.010494
100
AcDbLine
 10
-94.252608
 20
-2.972866
 30
0.0
 11
-94.252612
 21
-3.392616
 31
0.0
210
0.0
220
0.0
230
1.0
  0
LINE
  5
29D
100
AcDbEntity
  8
0
370
    30
390
0
 62
     7
 48
0.006317
100
AcDbLine
 10
-94.252627
 20
-3.392615
 30
0.0
 11
-94.25263
 21
-3.645312
 31
0.0
210
0.0
220
0.0
230
1.0
  0
LINE
  5
29E
100
AcDbEntity
  8
0
370
    13
390
0
 62
     7
 48
0.225
100
AcDbLine
 10
-85.252608
 20
-2.972866
 30
0.0
 11
-94.252608
 21
-2.972866
 31
0.0
210
0.0
220
0.0
230
1.0
  0
LINE
  5
29F
100
AcDbEntity
  8
0
370
    30
390
0
 62
     7
 48
0.2625
100
AcDbLine
 10
-84.70263
 20
0.798235
 30
0.0
 11
-95.202631
 21
0.798236
 31
0.0
210
0.0
220
0.0
230
1.0
  0
LINE
  5
2A0
100
AcDbEntity
  8
0
370
    30
390
0
 62
     7
 48
0.225
100
AcDbLine
 10
-85.252627
 20
-3.392616
 30
0.0
 11
-94.252627
 21
-3.392615
 31
0.0
210
0.0
220
0.0
230
1.0
  0
LINE
  5
2A1
100
AcDbEntity
  8
0
370
    30
390
0
 62
     7
 48
0.4
100
AcDbLine
 10
-81.752632
 20
-3.829541
 30
0.0
 11
-97.752632
 21
-3.82954
 31
0.0
210
0.0
220
0.0
230
1.0
  0
LINE
  5
2A2
100
AcDbEntity
  8
0
370
    30
390
0
 62
     7
 48
0.004606
100
AcDbLine
 10
-97.75263
 20
-3.645312
 30
0.0
 11
-97.752632
 21
-3.82954
 31
0.0
210
0.0
220
0.0
230
1.0
  0
LINE
  5
2A3
100
AcDbEntity
  8
0
370
    30
390
0
 62
     7
 48
0.0875
100
AcDbLine
 10
-94.25263
 20
-3.645312
 30
0.0
 11
-97.75263
 21
-3.645312
 31
0.0
210
0.0
220
0.0
230
1.0
  0
LINE
  5
2A4
100
AcDbEntity
  8
0
370
    30
390
0
 62
     7
 48
0.0875
100
AcDbLine
 10
-81.75263
 20
-3.645312
 30
0.0
 11
-85.25263
 21
-3.645312
 31
0.0
210
0.0
220
0.0
230
1.0
  0
LINE
  5
2A5
100
AcDbEntity
  8
0
370
    30
390
0
 62
     7
 48
0.004606
100
AcDbLine
 10
-81.75263
 20
-3.645312
 30
0.0
 11
-81.752632
 21
-3.829541
 31
0.0
210
0.0
220
0.0
230
1.0
  0
LINE
  5
2A6
100
AcDbEntity
  8
0
370
    30
390
0
 62
     7
 48
0.064745
100
AcDbLine
 10
-81.752656
 20
-6.419341
 30
0.0
 11
-81.752632
 21
-3.829541
 31
0.0
210
0.0
220
0.0
230
1.0
  0
LINE
  5
2A7
100
AcDbEntity
  8
0
370
    13
390
0
 62
     7
 48
0.4
100
AcDbLine
 10
-81.752656
 20
-6.419341
 30
0.0
 11
-97.752656
 21
-6.41934
 31
0.0
210
0.0
220
0.0
230
1.0
  0
LINE
  5
2A8
100
AcDbEntity
  8
0
370
    30
390
0
 62
     7
 48
0.064745
100
AcDbLine
 10
-97.752656
 20
-6.41934
 30
0.0
 11
-97.752632
 21
-3.82954
 31
0.0
210
0.0
220
0.0
230
1.0
  0
LINE
  5
2A9
100
AcDbEntity
  8
0
370
    30
390
0
 62
     7
 48
0.092128
100
AcDbLine
 10
-97.75264
 20
-10.104446
 30
0.0
 11
-97.75264
 21
-6.41934
 31
0.0
210
0.0
220
0.0
230
1.0
  0
LINE
  5
2AA
100
AcDbEntity
  8
0
370
    30
390
0
 62
     7
 48
0.092128
100
AcDbLine
 10
-81.75264
 20
-10.104446
 30
0.0
 11
-81.75264
 21
-6.419341
 31
0.0
210
0.0
220
0.0
230
1.0
  0
LINE
  5
2AB
100
AcDbEntity
  8
0
370
    30
390
0
 62
     7
 48
0.4
100
AcDbLine
 10
-97.75264
 20
-10.104446
 30
0.0
 11
-81.75264
 21
-10.104446
 31
0.0
210
0.0
220
0.0
230
1.0
  0
LINE
  5
2AC
100
AcDbEntity
  8
0
370
    30
390
0
 62
     7
 48
0.4395
100
AcDbLine
 10
-98.742568
 20
21.500014
 30
0.0
 11
-81.162568
 21
21.500013
 31
0.0
210
0.0
220
0.0
230
1.0
  0
LINE
  5
2AD
100
AcDbEntity
  8
0
370
    30
390
0
 62
     7
 48
0.4395
100
AcDbLine
 10
-98.742573
 20
18.000014
 30
0.0
 11
-81.162573
 21
18.000013
 31
0.0
210
0.0
220
0.0
230
1.0
  0
LINE
  5
2AE
100
AcDbEntity
  8
0
370
    30
390
0
 62
     7
 48
0.067677
100
AcDbLine
 10
-98.742573
 20
18.000014
 30
0.0
 11
-98.742571
 21
20.707083
 31
0.0
210
0.0
220
0.0
230
1.0
  0
LINE
  5
2AF
100
AcDbEntity
  8
0
370
    30
390
0
 62
     7
 48
0.019823
100
AcDbLine
 10
-98.74255
 20
21.500014
 30
0.0
 11
-98.74255
 21
20.707083
 31
0.0
210
0.0
220
0.0
230
1.0
  0
LINE
  5
2B0
100
AcDbEntity
  8
0
370
    30
390
0
 62
     7
 48
0.067677
100
AcDbLine
 10
-81.162573
 20
18.000013
 30
0.0
 11
-81.162571
 21
20.707082
 31
0.0
210
0.0
220
0.0
230
1.0
  0
LINE
  5
2B1
100
AcDbEntity
  8
0
370
    30
390
0
 62
     7
 48
0.019823
100
AcDbLine
 10
-81.16255
 20
21.500013
 30
0.0
 11
-81.16255
 21
20.707082
 31
0.0
210
0.0
220
0.0
230
1.0
  0
LINE
  5
2B2
100
AcDbEntity
  8
0
370
    30
390
0
 62
     7
 48
0.003023
100
AcDbLine
 10
-97.36405
 20
20.828014
 30
0.0
 11
-97.36405
 21
20.707083
 31
0.0
210
0.0
220
0.0
230
1.0
  0
LINE
  5
2B3
100
AcDbEntity
  8
0
370
    30
390
0
 62
     7
 48
0.006212
100
AcDbLine
 10
-97.61257
 20
20.828014
 30
0.0
 11
-97.36407
 21
20.828014
 31
0.0
210
0.0
220
0.0
230
1.0
  0
LINE
  5
2B4
100
AcDbEntity
  8
0
370
    30
390
0
 62
     7
 48
0.003188
100
AcDbLine
 10
-97.61257
 20
20.828014
 30
0.0
 11
-97.653021
 21
20.707083
 31
0.0
210
0.0
220
0.0
230
1.0
  0
LINE
  5
2B5
100
AcDbEntity
  8
0
370
    13
390
0
 62
     7
 48
0.027239
100
AcDbLine
 10
-98.742571
 20
20.707083
 30
0.0
 11
-97.653021
 21
20.707083
 31
0.0
210
0.0
220
0.0
230
1.0
  0
LINE
  5
2B6
100
AcDbEntity
  8
0
370
    13
390
0
 62
     7
 48
0.307459
100
AcDbLine
 10
-93.460937
 20
20.707083
 30
0.0
 11
-81.162571
 21
20.707082
 31
0.0
210
0.0
220
0.0
230
1.0
  0
ARC
  5
2B7
100
AcDbEntity
  8
0
370
    30
390
0
 62
     7
100
AcDbCircle
 10
-93.772577
 20
20.366014
 30
0.0
 40
0.462
210
0.0
220
0.0
230
1.0
100
AcDbArc
 50
286.156506
 51
89.999153
  0
LINE
  5
2B8
100
AcDbEntity
  8
0
370
    30
390
0
 62
     7
 48
0.004125
100
AcDbLine
 10
-93.93757
 20
20.828014
 30
0.0
 11
-93.77257
 21
20.828014
 31
0.0
210
0.0
220
0.0
230
1.0
  0
LINE
  5
2B9
100
AcDbEntity
  8
0
370
    30
390
0
 62
     7
 48
0.003023
100
AcDbLine
 10
-93.93755
 20
20.828014
 30
0.0
 11
-93.93755
 21
20.707083
 31
0.0
210
0.0
220
0.0
230
1.0
  0
LINE
  5
2BA
100
AcDbEntity
  8
0
370
    13
390
0
 62
     7
 48
0.002275
100
AcDbLine
 10
-94.028571
 20
20.707083
 30
0.0
 11
-93.937571
 21
20.707083
 31
0.0
210
0.0
220
0.0
230
1.0
  0
LINE
  5
2BB
100
AcDbEntity
  8
0
370
    30
390
0
 62
     7
 48
0.003023
100
AcDbLine
 10
-94.02855
 20
20.828014
 30
0.0
 11
-94.02855
 21
20.707083
 31
0.0
210
0.0
220
0.0
230
1.0
  0
LINE
  5
2BC
100
AcDbEntity
  8
0
370
    30
390
0
 62
     7
 48
0.01355
100
AcDbLine
 10
-94.57057
 20
20.828014
 30
0.0
 11
-94.02857
 21
20.828014
 31
0.0
210
0.0
220
0.0
230
1.0
  0
LINE
  5
2BD
100
AcDbEntity
  8
0
370
    30
390
0
 62
     7
 48
0.003023
100
AcDbLine
 10
-94.57055
 20
20.828014
 30
0.0
 11
-94.57055
 21
20.707083
 31
0.0
210
0.0
220
0.0
230
1.0
  0
LINE
  5
2BE
100
AcDbEntity
  8
0
370
    13
390
0
 62
     7
 48
0.011259
100
AcDbLine
 10
-95.020937
 20
20.707083
 30
0.0
 11
-94.570571
 21
20.707083
 31
0.0
210
0.0
220
0.0
230
1.0
  0
ARC
  5
2BF
100
AcDbEntity
  8
0
370
    30
390
0
 62
     7
100
AcDbCircle
 10
-95.332577
 20
20.366014
 30
0.0
 40
0.462
210
0.0
220
0.0
230
1.0
100
AcDbArc
 50
286.156506
 51
89.999153
  0
LINE
  5
2C0
100
AcDbEntity
  8
0
370
    30
390
0
 62
     7
 48
0.004125
100
AcDbLine
 10
-95.49757
 20
20.828014
 30
0.0
 11
-95.33257
 21
20.828014
 31
0.0
210
0.0
220
0.0
230
1.0
  0
LINE
  5
2C1
100
AcDbEntity
  8
0
370
    30
390
0
 62
     7
 48
0.003023
100
AcDbLine
 10
-95.49755
 20
20.828014
 30
0.0
 11
-95.49755
 21
20.707083
 31
0.0
210
0.0
220
0.0
230
1.0
  0
LINE
  5
2C2
100
AcDbEntity
  8
0
370
    13
390
0
 62
     7
 48
0.002275
100
AcDbLine
 10
-95.588571
 20
20.707083
 30
0.0
 11
-95.497571
 21
20.707083
 31
0.0
210
0.0
220
0.0
230
1.0
  0
LINE
  5
2C3
100
AcDbEntity
  8
0
370
    30
390
0
 62
     7
 48
0.003023
100
AcDbLine
 10
-95.58855
 20
20.828014
 30
0.0
 11
-95.58855
 21
20.707083
 31
0.0
210
0.0
220
0.0
230
1.0
  0
LINE
  5
2C4
100
AcDbEntity
  8
0
370
    30
390
0
 62
     7
 48
0.01355
100
AcDbLine
 10
-96.13057
 20
20.828014
 30
0.0
 11
-95.58857
 21
20.828014
 31
0.0
210
0.0
220
0.0
230
1.0
  0
LINE
  5
2C5
100
AcDbEntity
  8
0
370
    30
390
0
 62
     7
 48
0.003023
100
AcDbLine
 10
-96.13055
 20
20.828014
 30
0.0
 11
-96.13055
 21
20.707083
 31
0.0
210
0.0
220
0.0
230
1.0
  0
LINE
  5
2C6
100
AcDbEntity
  8
0
370
    13
390
0
 62
     7
 48
0.021216
100
AcDbLine
 10
-96.979205
 20
20.707083
 30
0.0
 11
-96.130571
 21
20.707083
 31
0.0
210
0.0
220
0.0
230
1.0
  0
LINE
  5
2C7
100
AcDbEntity
  8
0
370
    30
390
0
 62
     7
 48
0.003229
100
AcDbLine
 10
-97.02457
 20
20.828014
 30
0.0
 11
-96.979205
 21
20.707083
 31
0.0
210
0.0
220
0.0
230
1.0
  0
LINE
  5
2C8
100
AcDbEntity
  8
0
370
    30
390
0
 62
     7
 48
0.006212
100
AcDbLine
 10
-97.27307
 20
20.828014
 30
0.0
 11
-97.02457
 21
20.828014
 31
0.0
210
0.0
220
0.0
230
1.0
  0
LINE
  5
2C9
100
AcDbEntity
  8
0
370
    30
390
0
 62
     7
 48
0.003023
100
AcDbLine
 10
-97.27305
 20
20.828014
 30
0.0
 11
-97.27305
 21
20.707083
 31
0.0
210
0.0
220
0.0
230
1.0
  0
LINE
  5
2CA
100
AcDbEntity
  8
0
370
    13
390
0
 62
     7
 48
0.002275
100
AcDbLine
 10
-97.364071
 20
20.707083
 30
0.0
 11
-97.273071
 21
20.707083
 31
0.0
210
0.0
220
0.0
230
1.0
  0
LINE
  5
2CB
100
AcDbEntity
  8
0
370
    30
390
0
 62
     7
 48
0.022789
100
AcDbLine
 10
-93.937571
 20
19.795514
 30
0.0
 11
-93.937571
 21
20.707083
 31
0.0
210
0.0
220
0.0
230
1.0
  0
LINE
  5
2CC
100
AcDbEntity
  8
0
370
    30
390
0
 62
     7
 48
0.014024
100
AcDbLine
 10
-93.376592
 20
19.795514
 30
0.0
 11
-93.937571
 21
19.795514
 31
0.0
210
0.0
220
0.0
230
1.0
  0
ARC
  5
2CD
100
AcDbEntity
  8
0
370
    30
390
0
 62
     7
100
AcDbCircle
 10
-93.772577
 20
19.305514
 30
0.0
 40
0.63
210
0.0
220
0.0
230
1.0
100
AcDbArc
 50
51.057153
 51
78.225566
  0
LINE
  5
2CE
100
AcDbEntity
  8
0
370
    30
390
0
 62
     7
 48
0.02403
100
AcDbLine
 10
-97.653021
 20
20.707083
 30
0.0
 11
-97.957937
 21
19.795514
 31
0.0
210
0.0
220
0.0
230
1.0
  0
LINE
  5
2CF
100
AcDbEntity
  8
0
370
    30
390
0
 62
     7
 48
0.014847
100
AcDbLine
 10
-97.364071
 20
19.795514
 30
0.0
 11
-97.957937
 21
19.795514
 31
0.0
210
0.0
220
0.0
230
1.0
  0
LINE
  5
2D0
100
AcDbEntity
  8
0
370
    30
390
0
 62
     7
 48
0.022789
100
AcDbLine
 10
-97.364071
 20
19.795514
 30
0.0
 11
-97.364071
 21
20.707083
 31
0.0
210
0.0
220
0.0
230
1.0
  0
LINE
  5
2D1
100
AcDbEntity
  8
0
370
    30
390
0
 62
     7
 48
0.022789
100
AcDbLine
 10
-97.273071
 20
19.795514
 30
0.0
 11
-97.273071
 21
20.707083
 31
0.0
210
0.0
220
0.0
230
1.0
  0
LINE
  5
2D2
100
AcDbEntity
  8
0
370
    30
390
0
 62
     7
 48
0.015896
100
AcDbLine
 10
-96.637243
 20
19.795514
 30
0.0
 11
-97.273071
 21
19.795514
 31
0.0
210
0.0
220
0.0
230
1.0
  0
LINE
  5
2D3
100
AcDbEntity
  8
0
370
    30
390
0
 62
     7
 48
0.02434
100
AcDbLine
 10
-96.979205
 20
20.707083
 30
0.0
 11
-96.637243
 21
19.795514
 31
0.0
210
0.0
220
0.0
230
1.0
  0
LINE
  5
2D4
100
AcDbEntity
  8
0
370
    30
390
0
 62
     7
 48
0.022789
100
AcDbLine
 10
-96.130571
 20
19.795514
 30
0.0
 11
-96.130571
 21
20.707083
 31
0.0
210
0.0
220
0.0
230
1.0
  0
LINE
  5
2D5
100
AcDbEntity
  8
0
370
    30
390
0
 62
     7
 48
0.01355
100
AcDbLine
 10
-95.588571
 20
19.795514
 30
0.0
 11
-96.130571
 21
19.795514
 31
0.0
210
0.0
220
0.0
230
1.0
  0
LINE
  5
2D6
100
AcDbEntity
  8
0
370
    30
390
0
 62
     7
 48
0.022789
100
AcDbLine
 10
-95.588571
 20
19.795514
 30
0.0
 11
-95.588571
 21
20.707083
 31
0.0
210
0.0
220
0.0
230
1.0
  0
LINE
  5
2D7
100
AcDbEntity
  8
0
370
    30
390
0
 62
     7
 48
0.022789
100
AcDbLine
 10
-95.497571
 20
19.795514
 30
0.0
 11
-95.497571
 21
20.707083
 31
0.0
210
0.0
220
0.0
230
1.0
  0
LINE
  5
2D8
100
AcDbEntity
  8
0
370
    30
390
0
 62
     7
 48
0.014024
100
AcDbLine
 10
-94.936592
 20
19.795514
 30
0.0
 11
-95.497571
 21
19.795514
 31
0.0
210
0.0
220
0.0
230
1.0
  0
ARC
  5
2D9
100
AcDbEntity
  8
0
370
    30
390
0
 62
     7
100
AcDbCircle
 10
-95.332577
 20
19.305514
 30
0.0
 40
0.63
210
0.0
220
0.0
230
1.0
100
AcDbArc
 50
51.057153
 51
78.225566
  0
LINE
  5
2DA
100
AcDbEntity
  8
0
370
    30
390
0
 62
     7
 48
0.022789
100
AcDbLine
 10
-94.570571
 20
19.795514
 30
0.0
 11
-94.570571
 21
20.707083
 31
0.0
210
0.0
220
0.0
230
1.0
  0
LINE
  5
2DB
100
AcDbEntity
  8
0
370
    30
390
0
 62
     7
 48
0.01355
100
AcDbLine
 10
-94.028571
 20
19.795514
 30
0.0
 11
-94.570571
 21
19.795514
 31
0.0
210
0.0
220
0.0
230
1.0
  0
LINE
  5
2DC
100
AcDbEntity
  8
0
370
    30
390
0
 62
     7
 48
0.022789
100
AcDbLine
 10
-94.028571
 20
19.795514
 30
0.0
 11
-94.028571
 21
20.707083
 31
0.0
210
0.0
220
0.0
230
1.0
  0
LINE
  5
2DD
100
AcDbEntity
  8
0
370
    30
390
0
 62
     7
 48
0.015578
100
AcDbLine
 10
-97.364072
 20
19.708014
 30
0.0
 11
-97.987206
 21
19.708014
 31
0.0
210
0.0
220
0.0
230
1.0
  0
LINE
  5
2DE
100
AcDbEntity
  8
0
370
    30
390
0
 62
     7
 48
0.027218
100
AcDbLine
 10
-97.987206
 20
19.708014
 30
0.0
 11
-98.332573
 21
18.675514
 31
0.0
210
0.0
220
0.0
230
1.0
  0
LINE
  5
2DF
100
AcDbEntity
  8
0
370
    30
390
0
 62
     7
 48
0.0126
100
AcDbLine
 10
-97.828573
 20
18.675514
 30
0.0
 11
-98.332573
 21
18.675514
 31
0.0
210
0.0
220
0.0
230
1.0
  0
LINE
  5
2E0
100
AcDbEntity
  8
0
370
    30
390
0
 62
     7
 48
0.010403
100
AcDbLine
 10
-97.696572
 20
19.070139
 30
0.0
 11
-97.828573
 21
18.675514
 31
0.0
210
0.0
220
0.0
230
1.0
  0
LINE
  5
2E1
100
AcDbEntity
  8
0
370
    30
390
0
 62
     7
 48
0.008312
100
AcDbLine
 10
-97.364072
 20
19.070139
 30
0.0
 11
-97.696572
 21
19.070139
 31
0.0
210
0.0
220
0.0
230
1.0
  0
LINE
  5
2E2
100
AcDbEntity
  8
0
370
    30
390
0
 62
     7
 48
0.015947
100
AcDbLine
 10
-97.364072
 20
19.070139
 30
0.0
 11
-97.364072
 21
19.708014
 31
0.0
210
0.0
220
0.0
230
1.0
  0
LINE
  5
2E3
100
AcDbEntity
  8
0
370
    30
390
0
 62
     7
 48
0.027569
100
AcDbLine
 10
-96.604418
 20
19.708014
 30
0.0
 11
-96.217091
 21
18.675514
 31
0.0
210
0.0
220
0.0
230
1.0
  0
LINE
  5
2E4
100
AcDbEntity
  8
0
370
    30
390
0
 62
     7
 48
0.016716
100
AcDbLine
 10
-96.604418
 20
19.708014
 30
0.0
 11
-97.273072
 21
19.708014
 31
0.0
210
0.0
220
0.0
230
1.0
  0
LINE
  5
2E5
100
AcDbEntity
  8
0
370
    30
390
0
 62
     7
 48
0.015947
100
AcDbLine
 10
-97.273072
 20
19.070139
 30
0.0
 11
-97.273072
 21
19.708014
 31
0.0
210
0.0
220
0.0
230
1.0
  0
LINE
  5
2E6
100
AcDbEntity
  8
0
370
    30
390
0
 62
     7
 48
0.008312
100
AcDbLine
 10
-96.940572
 20
19.070139
 30
0.0
 11
-97.273072
 21
19.070139
 31
0.0
210
0.0
220
0.0
230
1.0
  0
LINE
  5
2E7
100
AcDbEntity
  8
0
370
    30
390
0
 62
     7
 48
0.010537
100
AcDbLine
 10
-96.940572
 20
19.070139
 30
0.0
 11
-96.792534
 21
18.675514
 31
0.0
210
0.0
220
0.0
230
1.0
  0
LINE
  5
2E8
100
AcDbEntity
  8
0
370
    30
390
0
 62
     7
 48
0.014386
100
AcDbLine
 10
-96.217091
 20
18.675514
 30
0.0
 11
-96.792534
 21
18.675514
 31
0.0
210
0.0
220
0.0
230
1.0
  0
LINE
  5
2E9
100
AcDbEntity
  8
0
370
    30
390
0
 62
     7
 48
0.025813
100
AcDbLine
 10
-95.588573
 20
18.675514
 30
0.0
 11
-95.588572
 21
19.708014
 31
0.0
210
0.0
220
0.0
230
1.0
  0
LINE
  5
2EA
100
AcDbEntity
  8
0
370
    30
390
0
 62
     7
 48
0.01355
100
AcDbLine
 10
-95.588572
 20
19.708014
 30
0.0
 11
-96.130572
 21
19.708014
 31
0.0
210
0.0
220
0.0
230
1.0
  0
LINE
  5
2EB
100
AcDbEntity
  8
0
370
    30
390
0
 62
     7
 48
0.025813
100
AcDbLine
 10
-96.130573
 20
18.675514
 30
0.0
 11
-96.130572
 21
19.708014
 31
0.0
210
0.0
220
0.0
230
1.0
  0
LINE
  5
2EC
100
AcDbEntity
  8
0
370
    30
390
0
 62
     7
 48
0.01355
100
AcDbLine
 10
-95.588573
 20
18.675514
 30
0.0
 11
-96.130573
 21
18.675514
 31
0.0
210
0.0
220
0.0
230
1.0
  0
LINE
  5
2ED
100
AcDbEntity
  8
0
370
    30
390
0
 62
     7
 48
0.004125
100
AcDbLine
 10
-95.332573
 20
18.675514
 30
0.0
 11
-95.497573
 21
18.675514
 31
0.0
210
0.0
220
0.0
230
1.0
  0
ARC
  5
2EE
100
AcDbEntity
  8
0
370
    30
390
0
 62
     7
100
AcDbCircle
 10
-95.332577
 20
19.305514
 30
0.0
 40
0.63
210
0.0
220
0.0
230
1.0
100
AcDbArc
 50
270.000416
 51
39.708688
  0
LINE
  5
2EF
100
AcDbEntity
  8
0
370
    30
390
0
 62
     7
 48
0.016241
100
AcDbLine
 10
-94.847913
 20
19.708014
 30
0.0
 11
-95.497572
 21
19.708014
 31
0.0
210
0.0
220
0.0
230
1.0
  0
LINE
  5
2F0
100
AcDbEntity
  8
0
370
    30
390
0
 62
     7
 48
0.025813
100
AcDbLine
 10
-95.497573
 20
18.675514
 30
0.0
 11
-95.497572
 21
19.708014
 31
0.0
210
0.0
220
0.0
230
1.0
  0
LINE
  5
2F1
100
AcDbEntity
  8
0
370
    30
390
0
 62
     7
 48
0.01355
100
AcDbLine
 10
-94.028573
 20
18.675514
 30
0.0
 11
-94.570573
 21
18.675514
 31
0.0
210
0.0
220
0.0
230
1.0
  0
LINE
  5
2F2
100
AcDbEntity
  8
0
370
    30
390
0
 62
     7
 48
0.025813
100
AcDbLine
 10
-94.028573
 20
18.675514
 30
0.0
 11
-94.028572
 21
19.708014
 31
0.0
210
0.0
220
0.0
230
1.0
  0
LINE
  5
2F3
100
AcDbEntity
  8
0
370
    30
390
0
 62
     7
 48
0.01355
100
AcDbLine
 10
-94.028572
 20
19.708014
 30
0.0
 11
-94.570572
 21
19.708014
 31
0.0
210
0.0
220
0.0
230
1.0
  0
LINE
  5
2F4
100
AcDbEntity
  8
0
370
    30
390
0
 62
     7
 48
0.025813
100
AcDbLine
 10
-94.570573
 20
18.675514
 30
0.0
 11
-94.570572
 21
19.708014
 31
0.0
210
0.0
220
0.0
230
1.0
  0
LINE
  5
2F5
100
AcDbEntity
  8
0
370
    30
390
0
 62
     7
 48
0.016241
100
AcDbLine
 10
-93.287913
 20
19.708014
 30
0.0
 11
-93.937572
 21
19.708014
 31
0.0
210
0.0
220
0.0
230
1.0
  0
LINE
  5
2F6
100
AcDbEntity
  8
0
370
    30
390
0
 62
     7
 48
0.025813
100
AcDbLine
 10
-93.937573
 20
18.675514
 30
0.0
 11
-93.937572
 21
19.708014
 31
0.0
210
0.0
220
0.0
230
1.0
  0
LINE
  5
2F7
100
AcDbEntity
  8
0
370
    30
390
0
 62
     7
 48
0.004125
100
AcDbLine
 10
-93.772573
 20
18.675514
 30
0.0
 11
-93.937573
 21
18.675514
 31
0.0
210
0.0
220
0.0
230
1.0
  0
ARC
  5
2F8
100
AcDbEntity
  8
0
370
    30
390
0
 62
     7
100
AcDbCircle
 10
-93.772577
 20
19.305514
 30
0.0
 40
0.63
210
0.0
220
0.0
230
1.0
100
AcDbArc
 50
270.000416
 51
39.708688
  0
LINE
  5
2F9
100
AcDbEntity
  8
0
370
    30
390
0
 62
     7
 48
0.007505
100
AcDbLine
 10
-81.152566
 20
8.499808
 30
0.0
 11
-81.152566
 21
8.800013
 31
0.0
210
0.0
220
0.0
230
1.0
  0
LINE
  5
2FA
100
AcDbEntity
  8
0
370
    30
390
0
 62
     7
 48
0.00125
100
AcDbLine
 10
-82.052566
 20
8.750016
 30
0.0
 11
-82.052566
 21
8.800013
 31
0.0
210
0.0
220
0.0
230
1.0
  0
LINE
  5
2FB
100
AcDbEntity
  8
0
370
    30
390
0
 62
     7
 48
0.00125
100
AcDbLine
 10
-98.752566
 20
8.800014
 30
0.0
 11
-98.752566
 21
8.750015
 31
0.0
210
0.0
220
0.0
230
1.0
  0
LINE
  5
2FC
100
AcDbEntity
  8
0
370
    30
390
0
 62
     7
 48
0.00125
100
AcDbLine
 10
-97.852566
 20
8.800014
 30
0.0
 11
-97.852566
 21
8.750014
 31
0.0
210
0.0
220
0.0
230
1.0
  0
LINE
  5
2FD
100
AcDbEntity
  8
0
370
    30
390
0
 62
     7
 48
0.297677
100
AcDbLine
 10
-98.75258
 20
8.800014
 30
0.0
 11
-98.752571
 21
20.707083
 31
0.0
210
0.0
220
0.0
230
1.0
  0
LINE
  5
2FE
100
AcDbEntity
  8
0
370
    30
390
0
 62
     7
 48
0.044823
100
AcDbLine
 10
-98.75255
 20
22.500014
 30
0.0
 11
-98.75255
 21
20.707083
 31
0.0
210
0.0
220
0.0
230
1.0
  0
LINE
  5
2FF
100
AcDbEntity
  8
0
370
    30
390
0
 62
     7
 48
0.44
100
AcDbLine
 10
-81.15258
 20
8.800013
 30
0.0
 11
-98.75258
 21
8.800014
 31
0.0
210
0.0
220
0.0
230
1.0
  0
LINE
  5
300
100
AcDbEntity
  8
0
370
    13
390
0
 62
     7
 48
0.44
100
AcDbLine
 10
-81.152571
 20
20.707083
 30
0.0
 11
-98.752571
 21
20.707083
 31
0.0
210
0.0
220
0.0
230
1.0
  0
LINE
  5
301
100
AcDbEntity
  8
0
370
    30
390
0
 62
     7
 48
0.044823
100
AcDbLine
 10
-81.15255
 20
22.500013
 30
0.0
 11
-81.15255
 21
20.707083
 31
0.0
210
0.0
220
0.0
230
1.0
  0
LINE
  5
302
100
AcDbEntity
  8
0
370
    30
390
0
 62
     7
 48
0.44
100
AcDbLine
 10
-81.15255
 20
22.500013
 30
0.0
 11
-98.75255
 21
22.500014
 31
0.0
210
0.0
220
0.0
230
1.0
  0
LINE
  5
303
100
AcDbEntity
  8
0
370
    30
390
0
 62
     7
 48
0.297677
100
AcDbLine
 10
-81.15258
 20
8.800013
 30
0.0
 11
-81.152571
 21
20.707083
 31
0.0
210
0.0
220
0.0
230
1.0
  0
LINE
  5
304
100
AcDbEntity
  8
0
370
    30
390
0
 62
     7
 48
0.055
100
AcDbLine
 10
-88.952576
 20
15.100013
 30
0.0
 11
-88.952574
 21
17.300013
 31
0.0
210
0.0
220
0.0
230
1.0
  0
ARC
  5
305
100
AcDbEntity
  8
0
370
    30
390
0
 62
     7
100
AcDbCircle
 10
-88.652555
 20
17.300013
 30
0.0
 40
0.3
210
0.0
220
0.0
230
1.0
100
AcDbArc
 50
90.003566
 51
179.999998
  0
LINE
  5
306
100
AcDbEntity
  8
0
370
    30
390
0
 62
     7
 48
0.13
100
AcDbLine
 10
-88.652574
 20
17.600013
 30
0.0
 11
-83.452574
 21
17.600013
 31
0.0
210
0.0
220
0.0
230
1.0
  0
ARC
  5
307
100
AcDbEntity
  8
0
370
    30
390
0
 62
     7
100
AcDbCircle
 10
-83.452555
 20
17.300013
 30
0.0
 40
0.3
210
0.0
220
0.0
230
1.0
100
AcDbArc
 50
359.999998
 51
90.003566
  0
LINE
  5
308
100
AcDbEntity
  8
0
370
    30
390
0
 62
     7
 48
0.055
100
AcDbLine
 10
-83.152574
 20
17.300013
 30
0.0
 11
-83.152576
 21
15.100013
 31
0.0
210
0.0
220
0.0
230
1.0
  0
ARC
  5
309
100
AcDbEntity
  8
0
370
    30
390
0
 62
     7
100
AcDbCircle
 10
-83.452555
 20
15.100013
 30
0.0
 40
0.3
210
0.0
220
0.0
230
1.0
100
AcDbArc
 50
269.995989
 51
359.999998
  0
LINE
  5
30A
100
AcDbEntity
  8
0
370
    30
390
0
 62
     7
 48
0.13
100
AcDbLine
 10
-83.452576
 20
14.800013
 30
0.0
 11
-88.652576
 21
14.800013
 31
0.0
210
0.0
220
0.0
230
1.0
  0
ARC
  5
30B
100
AcDbEntity
  8
0
370
    30
390
0
 62
     7
100
AcDbCircle
 10
-88.652555
 20
15.100013
 30
0.0
 40
0.3
210
0.0
220
0.0
230
1.0
100
AcDbArc
 50
179.999998
 51
269.995988
  0
LINE
  5
30C
100
AcDbEntity
  8
0
370
    30
390
0
 62
     7
 48
0.045
100
AcDbLine
 10
-85.852608
 20
15.100015
 30
0.0
 11
-85.852608
 21
16.900015
 31
0.0
210
0.0
220
0.0
230
1.0
  0
LINE
  5
30D
100
AcDbEntity
  8
0
370
    30
390
0
 62
     7
 48
0.0175
100
AcDbLine
 10
-85.852608
 20
16.900015
 30
0.0
 11
-85.152608
 21
16.900015
 31
0.0
210
0.0
220
0.0
230
1.0
  0
LINE
  5
30E
100
AcDbEntity
  8
0
370
    30
390
0
 62
     7
 48
0.01
100
AcDbLine
 10
-85.152608
 20
16.900015
 30
0.0
 11
-85.152608
 21
17.300015
 31
0.0
210
0.0
220
0.0
230
1.0
  0
LINE
  5
30F
100
AcDbEntity
  8
0
370
    30
390
0
 62
     7
 48
0.045
100
AcDbLine
 10
-86.952608
 20
17.300015
 30
0.0
 11
-85.152608
 21
17.300015
 31
0.0
210
0.0
220
0.0
230
1.0
  0
LINE
  5
310
100
AcDbEntity
  8
0
370
    30
390
0
 62
     7
 48
0.01
100
AcDbLine
 10
-86.952608
 20
16.900015
 30
0.0
 11
-86.952608
 21
17.300015
 31
0.0
210
0.0
220
0.0
230
1.0
  0
LINE
  5
311
100
AcDbEntity
  8
0
370
    30
390
0
 62
     7
 48
0.0175
100
AcDbLine
 10
-86.952608
 20
16.900015
 30
0.0
 11
-86.252608
 21
16.900015
 31
0.0
210
0.0
220
0.0
230
1.0
  0
LINE
  5
312
100
AcDbEntity
  8
0
370
    30
390
0
 62
     7
 48
0.045
100
AcDbLine
 10
-86.252608
 20
15.100015
 30
0.0
 11
-86.252608
 21
16.900015
 31
0.0
210
0.0
220
0.0
230
1.0
  0
LINE
  5
313
100
AcDbEntity
  8
0
370
    30
390
0
 62
     7
 48
0.01
100
AcDbLine
 10
-86.252608
 20
15.100015
 30
0.0
 11
-85.852608
 21
15.100015
 31
0.0
210
0.0
220
0.0
230
1.0
  0
LINE
  5
314
100
AcDbEntity
  8
0
370
    30
390
0
 62
     7
 48
0.01
100
AcDbLine
 10
-83.302544
 20
14.850013
 30
0.0
 11
-83.302544
 21
15.250015
 31
0.0
210
0.0
220
0.0
230
1.0
  0
LINE
  5
315
100
AcDbEntity
  8
0
370
    30
390
0
 62
     7
 48
0.010244
100
AcDbLine
 10
-83.302544
 20
17.559795
 30
0.0
 11
-83.302544
 21
17.150015
 31
0.0
210
0.0
220
0.0
230
1.0
  0
LINE
  5
316
100
AcDbEntity
  8
0
370
    30
390
0
 62
     7
 48
0.0475
100
AcDbLine
 10
-83.302602
 20
17.150015
 30
0.0
 11
-83.302602
 21
15.250015
 31
0.0
210
0.0
220
0.0
230
1.0
  0
ARC
  5
317
100
AcDbEntity
  8
0
370
    30
390
0
 62
     7
100
AcDbCircle
 10
-83.602602
 20
15.250015
 30
0.0
 40
0.3
210
0.0
220
0.0
230
1.0
100
AcDbArc
 50
269.999997
 51
359.999997
  0
LINE
  5
318
100
AcDbEntity
  8
0
370
    30
390
0
 62
     7
 48
0.1225
100
AcDbLine
 10
-88.502602
 20
14.950015
 30
0.0
 11
-83.602602
 21
14.950015
 31
0.0
210
0.0
220
0.0
230
1.0
  0
ARC
  5
319
100
AcDbEntity
  8
0
370
    30
390
0
 62
     7
100
AcDbCircle
 10
-88.502602
 20
15.250015
 30
0.0
 40
0.3
210
0.0
220
0.0
230
1.0
100
AcDbArc
 50
179.999997
 51
269.999997
  0
LINE
  5
31A
100
AcDbEntity
  8
0
370
    30
390
0
 62
     7
 48
0.0475
100
AcDbLine
 10
-88.802602
 20
17.150015
 30
0.0
 11
-88.802602
 21
15.250015
 31
0.0
210
0.0
220
0.0
230
1.0
  0
ARC
  5
31B
100
AcDbEntity
  8
0
370
    30
390
0
 62
     7
100
AcDbCircle
 10
-88.502602
 20
17.150015
 30
0.0
 40
0.3
210
0.0
220
0.0
230
1.0
100
AcDbArc
 50
89.999997
 51
179.999997
  0
LINE
  5
31C
100
AcDbEntity
  8
0
370
    30
390
0
 62
     7
 48
0.1225
100
AcDbLine
 10
-88.502602
 20
17.450015
 30
0.0
 11
-83.602602
 21
17.450015
 31
0.0
210
0.0
220
0.0
230
1.0
  0
ARC
  5
31D
100
AcDbEntity
  8
0
370
    30
390
0
 62
     7
100
AcDbCircle
 10
-83.602602
 20
17.150015
 30
0.0
 40
0.3
210
0.0
220
0.0
230
1.0
100
AcDbArc
 50
359.999997
 51
449.999997
  0
LINE
  5
31E
100
AcDbEntity
  8
0
370
    13
390
0
 62
     7
 48
0.0075
100
AcDbLine
 10
-83.602605
 20
17.150015
 30
0.0
 11
-83.302602
 21
17.150015
 31
0.0
210
0.0
220
0.0
230
1.0
  0
LINE
  5
31F
100
AcDbEntity
  8
0
370
    13
390
0
 62
     7
 48
0.0475
100
AcDbLine
 10
-83.602605
 20
17.150015
 30
0.0
 11
-83.602605
 21
15.250015
 31
0.0
210
0.0
220
0.0
230
1.0
  0
LINE
  5
320
100
AcDbEntity
  8
0
370
    13
390
0
 62
     7
 48
0.0075
100
AcDbLine
 10
-83.602605
 20
15.250015
 30
0.0
 11
-83.302602
 21
15.250015
 31
0.0
210
0.0
220
0.0
230
1.0
  0
LINE
  5
321
100
AcDbEntity
  8
0
370
    13
390
0
 62
     7
 48
0.0075
100
AcDbLine
 10
-83.602602
 20
15.250015
 30
0.0
 11
-83.602602
 21
14.950015
 31
0.0
210
0.0
220
0.0
230
1.0
  0
LINE
  5
322
100
AcDbEntity
  8
0
370
    13
390
0
 62
     7
 48
0.05625
100
AcDbLine
 10
-88.502605
 20
15.250015
 30
0.0
 11
-86.252605
 21
15.250015
 31
0.0
210
0.0
220
0.0
230
1.0
  0
LINE
  5
323
100
AcDbEntity
  8
0
370
    13
390
0
 62
     7
 48
0.0075
100
AcDbLine
 10
-88.502602
 20
15.250015
 30
0.0
 11
-88.502602
 21
14.950015
 31
0.0
210
0.0
220
0.0
230
1.0
  0
LINE
  5
324
100
AcDbEntity
  8
0
370
    13
390
0
 62
     7
 48
0.05625
100
AcDbLine
 10
-85.852605
 20
15.250015
 30
0.0
 11
-83.602605
 21
15.250015
 31
0.0
210
0.0
220
0.0
230
1.0
  0
LINE
  5
325
100
AcDbEntity
  8
0
370
    13
390
0
 62
     7
 48
0.0075
100
AcDbLine
 10
-88.802602
 20
15.250015
 30
0.0
 11
-88.502605
 21
15.250015
 31
0.0
210
0.0
220
0.0
230
1.0
  0
LINE
  5
326
100
AcDbEntity
  8
0
370
    13
390
0
 62
     7
 48
0.0475
100
AcDbLine
 10
-88.502605
 20
17.150015
 30
0.0
 11
-88.502605
 21
15.250015
 31
0.0
210
0.0
220
0.0
230
1.0
  0
LINE
  5
327
100
AcDbEntity
  8
0
370
    13
390
0
 62
     7
 48
0.0075
100
AcDbLine
 10
-88.802602
 20
17.150015
 30
0.0
 11
-88.502605
 21
17.150015
 31
0.0
210
0.0
220
0.0
230
1.0
  0
LINE
  5
328
100
AcDbEntity
  8
0
370
    13
390
0
 62
     7
 48
0.0075
100
AcDbLine
 10
-88.502602
 20
17.150015
 30
0.0
 11
-88.502602
 21
17.450015
 31
0.0
210
0.0
220
0.0
230
1.0
  0
LINE
  5
329
100
AcDbEntity
  8
0
370
    13
390
0
 62
     7
 48
0.03875
100
AcDbLine
 10
-85.152605
 20
17.150015
 30
0.0
 11
-83.602605
 21
17.150015
 31
0.0
210
0.0
220
0.0
230
1.0
  0
LINE
  5
32A
100
AcDbEntity
  8
0
370
    13
390
0
 62
     7
 48
0.0075
100
AcDbLine
 10
-83.602602
 20
17.150015
 30
0.0
 11
-83.602602
 21
17.450015
 31
0.0
210
0.0
220
0.0
230
1.0
  0
LINE
  5
32B
100
AcDbEntity
  8
0
370
    13
390
0
 62
     7
 48
0.03875
100
AcDbLine
 10
-88.502605
 20
17.150015
 30
0.0
 11
-86.952605
 21
17.150015
 31
0.0
210
0.0
220
0.0
230
1.0
  0
ENDBLK
  5
32C
100
AcDbEntity
  8
0
390
0
100
AcDbBlockEnd
  0
BLOCK
  5
32D
100
AcDbEntity
  8
0
370
     0
390
0
100
AcDbBlockBegin
  2
*D12
 70
    65
 10
0.0
 20
0.0
 30
0.0
  3
*D12
  1

  0
TEXT
  5
32E
100
AcDbEntity
  8
0
370
    13
390
0
 62
     5
100
AcDbText
 10
137.721596
 20
252.908935
 30
0.0
 40
2.5
  1
68.5
 72
     5
 11
146.019005
 21
252.908935
 31
0.0
100
AcDbText
  0
LINE
  5
32F
100
AcDbEntity
  8
0
370
    13
390
0
 62
     5
100
AcDbLine
 10
107.634509
 20
186.194117
 30
0.0
 11
107.634509
 21
252.908935
 31
0.0
210
0.0
220
0.0
230
1.0
  0
LINE
  5
330
100
AcDbEntity
  8
0
370
    13
390
0
 62
     5
100
AcDbLine
 10
176.106091
 20
168.444107
 30
0.0
 11
176.106091
 21
252.908935
 31
0.0
210
0.0
220
0.0
230
1.0
  0
POLYLINE
  5
331
100
AcDbEntity
  8
0
370
    13
390
0
 62
     5
100
AcDb2dPolyline
 66
     1
 10
0.0
 20
0.0
 30
0.0
 71
     3
  0
VERTEX
  5
332
100
AcDbEntity
  8
0
370
     0
390
0
100
AcDbVertex
100
AcDb2dVertex
 10
109.566361
 20
252.926575
 30
0.0
  0
VERTEX
  5
333
100
AcDbEntity
  8
0
370
     0
390
0
100
AcDbVertex
100
AcDb2dVertex
 10
107.634509
 20
252.408935
 30
0.0
  0
VERTEX
  5
334
100
AcDbEntity
  8
0
370
     0
390
0
100
AcDbVertex
100
AcDb2dVertex
 10
109.566361
 20
251.891296
 30
0.0
  0
SEQEND
  5
335
100
AcDbEntity
  8
0
370
     0
390
0
  0
POLYLINE
  5
336
100
AcDbEntity
  8
0
370
    13
390
0
 62
     5
100
AcDb2dPolyline
 66
     1
 10
0.0
 20
0.0
 30
0.0
 71
     3
  0
VERTEX
  5
337
100
AcDbEntity
  8
0
370
     0
390
0
100
AcDbVertex
100
AcDb2dVertex
 10
174.174236
 20
251.891296
 30
0.0
  0
VERTEX
  5
338
100
AcDbEntity
  8
0
370
     0
390
0
100
AcDbVertex
100
AcDb2dVertex
 10
176.106091
 20
252.408935
 30
0.0
  0
VERTEX
  5
339
100
AcDbEntity
  8
0
370
     0
390
0
100
AcDbVertex
100
AcDb2dVertex
 10
174.174236
 20
252.926575
 30
0.0
  0
SEQEND
  5
33A
100
AcDbEntity
  8
0
370
     0
390
0
  0
LINE
  5
33B
100
AcDbEntity
  8
0
370
    13
390
0
 62
     5
100
AcDbLine
 10
107.634509
 20
252.408935
 30
0.0
 11
176.106091
 21
252.408935
 31
0.0
210
0.0
220
0.0
230
1.0
  0
ENDBLK
  5
33C
100
AcDbEntity
  8
0
390
0
100
AcDbBlockEnd
  0
BLOCK
  5
33D
100
AcDbEntity
  8
0
370
     0
390
0
100
AcDbBlockBegin
  2
*D13
 70
    65
 10
0.0
 20
0.0
 30
0.0
  3
*D13
  1

  0
TEXT
  5
33E
100
AcDbEntity
  8
0
370
    13
390
0
 62
     5
100
AcDbText
 10
125.235874
 20
242.870804
 30
0.0
 40
2.5
  1
43.5
 72
     5
 11
133.533283
 21
242.870804
 31
0.0
100
AcDbText
  0
LINE
  5
33F
100
AcDbEntity
  8
0
370
    13
390
0
 62
     5
100
AcDbLine
 10
107.634509
 20
186.194117
 30
0.0
 11
107.634509
 21
242.870804
 31
0.0
210
0.0
220
0.0
230
1.0
  0
LINE
  5
340
100
AcDbEntity
  8
0
370
    13
390
0
 62
     5
100
AcDbLine
 10
151.134647
 20
145.94412
 30
0.0
 11
151.134647
 21
242.870804
 31
0.0
210
0.0
220
0.0
230
1.0
  0
POLYLINE
  5
341
100
AcDbEntity
  8
0
370
    13
390
0
 62
     5
100
AcDb2dPolyline
 66
     1
 10
0.0
 20
0.0
 30
0.0
 71
     3
  0
VERTEX
  5
342
100
AcDbEntity
  8
0
370
     0
390
0
100
AcDbVertex
100
AcDb2dVertex
 10
109.566361
 20
242.888443
 30
0.0
  0
VERTEX
  5
343
100
AcDbEntity
  8
0
370
     0
390
0
100
AcDbVertex
100
AcDb2dVertex
 10
107.634509
 20
242.370804
 30
0.0
  0
VERTEX
  5
344
100
AcDbEntity
  8
0
370
     0
390
0
100
AcDbVertex
100
AcDb2dVertex
 10
109.566361
 20
241.853165
 30
0.0
  0
SEQEND
  5
345
100
AcDbEntity
  8
0
370
     0
390
0
  0
POLYLINE
  5
346
100
AcDbEntity
  8
0
370
    13
390
0
 62
     5
100
AcDb2dPolyline
 66
     1
 10
0.0
 20
0.0
 30
0.0
 71
     3
  0
VERTEX
  5
347
100
AcDbEntity
  8
0
370
     0
390
0
100
AcDbVertex
100
AcDb2dVertex
 10
149.202797
 20
241.853165
 30
0.0
  0
VERTEX
  5
348
100
AcDbEntity
  8
0
370
     0
390
0
100
AcDbVertex
100
AcDb2dVertex
 10
151.134647
 20
242.370804
 30
0.0
  0
VERTEX
  5
349
100
AcDbEntity
  8
0
370
     0
390
0
100
AcDbVertex
100
AcDb2dVertex
 10
149.202797
 20
242.888443
 30
0.0
  0
SEQEND
  5
34A
100
AcDbEntity
  8
0
370
     0
390
0
  0
LINE
  5
34B
100
AcDbEntity
  8
0
370
    13
390
0
 62
     5
100
AcDbLine
 10
107.634509
 20
242.370804
 30
0.0
 11
151.134647
 21
242.370804
 31
0.0
210
0.0
220
0.0
230
1.0
  0
ENDBLK
  5
34C
100
AcDbEntity
  8
0
390
0
100
AcDbBlockEnd
  0
BLOCK
  5
34D
100
AcDbEntity
  8
0
370
     0
390
0
100
AcDbBlockBegin
  2
*D14
 70
    65
 10
0.0
 20
0.0
 30
0.0
  3
*D14
  1

  0
TEXT
  5
34E
100
AcDbEntity
  8
0
370
    13
390
0
 62
     5
100
AcDbText
 10
184.132946
 20
165.751761
 30
0.0
 40
2.5
  1
45
 50
90.000003
 72
     5
 11
184.132946
 21
170.136481
 31
0.0
100
AcDbText
  0
LINE
  5
34F
100
AcDbEntity
  8
0
370
    13
390
0
 62
     5
100
AcDbLine
 10
162.567833
 20
145.44412
 30
0.0
 11
185.132946
 21
145.44412
 31
0.0
210
0.0
220
0.0
230
1.0
  0
LINE
  5
350
100
AcDbEntity
  8
0
370
    13
390
0
 62
     5
100
AcDbLine
 10
160.964996
 20
190.44412
 30
0.0
 11
185.132946
 21
190.44412
 31
0.0
210
0.0
220
0.0
230
1.0
  0
POLYLINE
  5
351
100
AcDbEntity
  8
0
370
    13
390
0
 62
     5
100
AcDb2dPolyline
 66
     1
 10
0.0
 20
0.0
 30
0.0
 71
     3
  0
VERTEX
  5
352
100
AcDbEntity
  8
0
370
     0
390
0
100
AcDbVertex
100
AcDb2dVertex
 10
184.115307
 20
147.375973
 30
0.0
  0
VERTEX
  5
353
100
AcDbEntity
  8
0
370
     0
390
0
100
AcDbVertex
100
AcDb2dVertex
 10
184.632946
 20
145.44412
 30
0.0
  0
VERTEX
  5
354
100
AcDbEntity
  8
0
370
     0
390
0
100
AcDbVertex
100
AcDb2dVertex
 10
185.150585
 20
147.375973
 30
0.0
  0
SEQEND
  5
355
100
AcDbEntity
  8
0
370
     0
390
0
  0
POLYLINE
  5
356
100
AcDbEntity
  8
0
370
    13
390
0
 62
     5
100
AcDb2dPolyline
 66
     1
 10
0.0
 20
0.0
 30
0.0
 71
     3
  0
VERTEX
  5
357
100
AcDbEntity
  8
0
370
     0
390
0
100
AcDbVertex
100
AcDb2dVertex
 10
185.150585
 20
188.51227
 30
0.0
  0
VERTEX
  5
358
100
AcDbEntity
  8
0
370
     0
390
0
100
AcDbVertex
100
AcDb2dVertex
 10
184.632946
 20
190.44412
 30
0.0
  0
VERTEX
  5
359
100
AcDbEntity
  8
0
370
     0
390
0
100
AcDbVertex
100
AcDb2dVertex
 10
184.115307
 20
188.51227
 30
0.0
  0
SEQEND
  5
35A
100
AcDbEntity
  8
0
370
     0
390
0
  0
LINE
  5
35B
100
AcDbEntity
  8
0
370
    13
390
0
 62
     5
100
AcDbLine
 10
184.632946
 20
145.44412
 30
0.0
 11
184.632946
 21
190.44412
 31
0.0
210
0.0
220
0.0
230
1.0
  0
ENDBLK
  5
35C
100
AcDbEntity
  8
0
390
0
100
AcDbBlockEnd
  0
BLOCK
  5
35D
100
AcDbEntity
  8
0
370
     0
390
0
100
AcDbBlockBegin
  2
*D15
 70
    65
 10
0.0
 20
0.0
 30
0.0
  3
*D15
  1

  0
TEXT
  5
35E
100
AcDbEntity
  8
0
370
    13
390
0
 62
     5
100
AcDbText
 10
121.835852
 20
102.503021
 30
0.0
 40
2.5
  1
50.3
 72
     5
 11
130.133261
 21
102.503021
 31
0.0
100
AcDbText
  0
LINE
  5
35F
100
AcDbEntity
  8
0
370
    13
390
0
 62
     5
100
AcDbLine
 10
100.834467
 20
125.244122
 30
0.0
 11
100.834467
 21
101.503021
 31
0.0
210
0.0
220
0.0
230
1.0
  0
LINE
  5
360
100
AcDbEntity
  8
0
370
    13
390
0
 62
     5
100
AcDbLine
 10
151.134647
 20
142.44412
 30
0.0
 11
151.134647
 21
101.503021
 31
0.0
210
0.0
220
0.0
230
1.0
  0
POLYLINE
  5
361
100
AcDbEntity
  8
0
370
    13
390
0
 62
     5
100
AcDb2dPolyline
 66
     1
 10
0.0
 20
0.0
 30
0.0
 71
     3
  0
VERTEX
  5
362
100
AcDbEntity
  8
0
370
     0
390
0
100
AcDbVertex
100
AcDb2dVertex
 10
149.202797
 20
101.485382
 30
0.0
  0
VERTEX
  5
363
100
AcDbEntity
  8
0
370
     0
390
0
100
AcDbVertex
100
AcDb2dVertex
 10
151.134647
 20
102.003021
 30
0.0
  0
VERTEX
  5
364
100
AcDbEntity
  8
0
370
     0
390
0
100
AcDbVertex
100
AcDb2dVertex
 10
149.202797
 20
102.52066
 30
0.0
  0
SEQEND
  5
365
100
AcDbEntity
  8
0
370
     0
390
0
  0
POLYLINE
  5
366
100
AcDbEntity
  8
0
370
    13
390
0
 62
     5
100
AcDb2dPolyline
 66
     1
 10
0.0
 20
0.0
 30
0.0
 71
     3
  0
VERTEX
  5
367
100
AcDbEntity
  8
0
370
     0
390
0
100
AcDbVertex
100
AcDb2dVertex
 10
102.766319
 20
102.52066
 30
0.0
  0
VERTEX
  5
368
100
AcDbEntity
  8
0
370
     0
390
0
100
AcDbVertex
100
AcDb2dVertex
 10
100.834467
 20
102.003021
 30
0.0
  0
VERTEX
  5
369
100
AcDbEntity
  8
0
370
     0
390
0
100
AcDbVertex
100
AcDb2dVertex
 10
102.766319
 20
101.485382
 30
0.0
  0
SEQEND
  5
36A
100
AcDbEntity
  8
0
370
     0
390
0
  0
LINE
  5
36B
100
AcDbEntity
  8
0
370
    13
390
0
 62
     5
100
AcDbLine
 10
100.834467
 20
102.003021
 30
0.0
 11
151.134647
 21
102.003021
 31
0.0
210
0.0
220
0.0
230
1.0
  0
ENDBLK
  5
36C
100
AcDbEntity
  8
0
390
0
100
AcDbBlockEnd
  0
BLOCK
  5
36D
100
AcDbEntity
  8
0
370
     0
390
0
100
AcDbBlockBegin
  2
*D16
 70
    65
 10
0.0
 20
0.0
 30
0.0
  3
*D16
  1

  0
TEXT
  5
36E
100
AcDbEntity
  8
0
370
    13
390
0
 62
     5
100
AcDbText
 10
124.624046
 20
233.203171
 30
0.0
 40
2.5
  1
42.3
 72
     5
 11
132.921455
 21
233.203171
 31
0.0
100
AcDbText
  0
LINE
  5
36F
100
AcDbEntity
  8
0
370
    13
390
0
 62
     5
100
AcDbLine
 10
107.634509
 20
186.194117
 30
0.0
 11
107.634509
 21
233.203171
 31
0.0
210
0.0
220
0.0
230
1.0
  0
LINE
  5
370
100
AcDbEntity
  8
0
370
    13
390
0
 62
     5
 48
0.308976
100
AcDbLine
 10
149.910992
 20
220.84412
 30
0.0
 11
149.910992
 21
233.203171
 31
0.0
210
0.0
220
0.0
230
1.0
  0
POLYLINE
  5
371
100
AcDbEntity
  8
0
370
    13
390
0
 62
     5
100
AcDb2dPolyline
 66
     1
 10
0.0
 20
0.0
 30
0.0
 71
     3
  0
VERTEX
  5
372
100
AcDbEntity
  8
0
370
     0
390
0
100
AcDbVertex
100
AcDb2dVertex
 10
109.566361
 20
233.22081
 30
0.0
  0
VERTEX
  5
373
100
AcDbEntity
  8
0
370
     0
390
0
100
AcDbVertex
100
AcDb2dVertex
 10
107.634509
 20
232.703171
 30
0.0
  0
VERTEX
  5
374
100
AcDbEntity
  8
0
370
     0
390
0
100
AcDbVertex
100
AcDb2dVertex
 10
109.566361
 20
232.185532
 30
0.0
  0
SEQEND
  5
375
100
AcDbEntity
  8
0
370
     0
390
0
  0
POLYLINE
  5
376
100
AcDbEntity
  8
0
370
    13
390
0
 62
     5
100
AcDb2dPolyline
 66
     1
 10
0.0
 20
0.0
 30
0.0
 71
     3
  0
VERTEX
  5
377
100
AcDbEntity
  8
0
370
     0
390
0
100
AcDbVertex
100
AcDb2dVertex
 10
147.979141
 20
232.185532
 30
0.0
  0
VERTEX
  5
378
100
AcDbEntity
  8
0
370
     0
390
0
100
AcDbVertex
100
AcDb2dVertex
 10
149.910992
 20
232.703171
 30
0.0
  0
VERTEX
  5
379
100
AcDbEntity
  8
0
370
     0
390
0
100
AcDbVertex
100
AcDb2dVertex
 10
147.979141
 20
233.22081
 30
0.0
  0
SEQEND
  5
37A
100
AcDbEntity
  8
0
370
     0
390
0
  0
LINE
  5
37B
100
AcDbEntity
  8
0
370
    13
390
0
 62
     5
100
AcDbLine
 10
107.634509
 20
232.703171
 30
0.0
 11
149.910992
 21
232.703171
 31
0.0
210
0.0
220
0.0
230
1.0
  0
ENDBLK
  5
37C
100
AcDbEntity
  8
0
390
0
100
AcDbBlockEnd
  0
BLOCK
  5
37D
100
AcDbEntity
  8
0
370
     0
390
0
100
AcDbBlockBegin
  2
BLOCK11
 70
     0
 10
0.0
 20
0.0
 30
0.0
  3
BLOCK11
  1

  0
LINE
  5
37E
100
AcDbEntity
  8
0
370
    30
390
0
 62
     7
100
AcDbLine
 10
-4.771358
 20
57.500014
 30
0.0
 11
40.704922
 21
57.500014
 31
0.0
210
0.0
220
0.0
230
1.0
  0
ARC
  5
37F
100
AcDbEntity
  8
0
370
    30
390
0
 62
     7
100
AcDbCircle
 10
34.645759
 20
-13.964914
 30
0.0
 40
1.001552
210
0.0
220
0.0
230
1.0
100
AcDbArc
 50
192.61069
 51
372.61069
  0
ARC
  5
380
100
AcDbEntity
  8
0
370
    30
390
0
 62
     7
100
AcDbCircle
 10
43.428644
 20
-11.999986
 30
0.0
 40
7.998448
210
0.0
220
0.0
230
1.0
100
AcDbArc
 50
153.38931
 51
192.61069
  0
ARC
  5
381
100
AcDbEntity
  8
0
370
    30
390
0
 62
     7
100
AcDbCircle
 10
35.382008
 20
-7.968653
 30
0.0
 40
1.001552
210
0.0
220
0.0
230
1.0
100
AcDbArc
 50
333.38931
 51
513.38931
  0
ARC
  5
382
100
AcDbEntity
  8
0
370
    30
390
0
 62
     7
100
AcDbCircle
 10
43.428644
 20
-11.999986
 30
0.0
 40
10.001552
210
0.0
220
0.0
230
1.0
100
AcDbArc
 50
153.38931
 51
192.61069
  0
ARC
  5
383
100
AcDbEntity
  8
0
370
    30
390
0
 62
     7
100
AcDbCircle
 10
-4.771358
 20
56.000014
 30
0.0
 40
1.5
210
0.0
220
0.0
230
1.0
100
AcDbArc
 50
90.0
 51
180.0
  0
LINE
  5
384
100
AcDbEntity
  8
0
370
    30
390
0
 62
     7
100
AcDbLine
 10
40.839844
 20
-42.499986
 30
0.0
 11
1.028642
 21
-42.499986
 31
0.0
210
0.0
220
0.0
230
1.0
  0
ARC
  5
385
100
AcDbEntity
  8
0
370
    30
390
0
 62
     7
100
AcDbCircle
 10
40.839844
 20
-40.499935
 30
0.0
 40
2.000052
210
0.0
220
0.0
230
1.0
100
AcDbArc
 50
270.0
 51
355.998534
  0
LINE
  5
386
100
AcDbEntity
  8
0
370
    30
390
0
 62
     7
 48
0.391943
100
AcDbLine
 10
43.928642
 20
-24.999986
 30
0.0
 11
42.83502
 21
-40.639499
 31
0.0
210
0.0
220
0.0
230
1.0
  0
LINE
  5
387
100
AcDbEntity
  8
0
370
    30
390
0
 62
     7
 48
0.0625
100
AcDbLine
 10
43.928642
 20
-22.499986
 30
0.0
 11
43.928642
 21
-24.999986
 31
0.0
210
0.0
220
0.0
230
1.0
  0
LINE
  5
388
100
AcDbEntity
  8
0
370
    30
390
0
 62
     7
 48
0.27333
100
AcDbLine
 10
54.861829
 20
-22.499986
 30
0.0
 11
43.928642
 21
-22.499986
 31
0.0
210
0.0
220
0.0
230
1.0
  0
ARC
  5
389
100
AcDbEntity
  8
0
370
    30
390
0
 62
     7
100
AcDbCircle
 10
54.861829
 20
-20.499978
 30
0.0
 40
2.000008
210
0.0
220
0.0
230
1.0
100
AcDbArc
 50
270.0
 51
354.041908
  0
ARC
  5
38A
100
AcDbEntity
  8
0
370
    30
390
0
 62
     7
100
AcDbCircle
 10
-141.572984
 20
0.000162
 30
0.0
 40
199.501632
210
0.0
220
0.0
230
1.0
100
AcDbArc
 50
354.042118
 51
355.543951
  0
LINE
  5
38B
100
AcDbEntity
  8
0
370
    30
390
0
 62
     7
 48
0.012538
100
AcDbLine
 10
57.827113
 20
-15.499986
 30
0.0
 11
57.3256
 21
-15.499986
 31
0.0
210
0.0
220
0.0
230
1.0
  0
ARC
  5
38C
100
AcDbEntity
  8
0
370
    30
390
0
 62
     7
100
AcDbCircle
 10
-141.575206
 20
0.000244
 30
0.0
 40
200.003855
210
0.0
220
0.0
230
1.0
100
AcDbArc
 50
355.55514
 51
357.579389
  0
ARC
  5
38D
100
AcDbEntity
  8
0
370
    30
390
0
 62
     7
100
AcDbCircle
 10
-141.572472
 20
0.000014
 30
0.0
 40
200.001113
210
0.0
220
0.0
230
1.0
100
AcDbArc
 50
357.579422
 51
362.421002
  0
ARC
  5
38E
100
AcDbEntity
  8
0
370
    30
390
0
 62
     7
100
AcDbCircle
 10
-141.572143
 20
-0.000042
 30
0.0
 40
200.000786
210
0.0
220
0.0
230
1.0
100
AcDbArc
 50
2.421022
 51
2.507497
  0
LINE
  5
38F
100
AcDbEntity
  8
0
370
    30
390
0
 62
     7
 48
0.025024
100
AcDbLine
 10
57.23618
 20
8.750014
 30
0.0
 11
58.237144
 21
8.750014
 31
0.0
210
0.0
220
0.0
230
1.0
  0
ARC
  5
390
100
AcDbEntity
  8
0
370
    30
390
0
 62
     7
100
AcDbCircle
 10
56.835792
 20
8.750031
 30
0.0
 40
0.400389
210
0.0
220
0.0
230
1.0
100
AcDbArc
 50
180.002516
 51
359.997485
  0
ARC
  5
391
100
AcDbEntity
  8
0
370
    30
390
0
 62
     7
100
AcDbCircle
 10
-141.575206
 20
-0.000216
 30
0.0
 40
198.203855
210
0.0
220
0.0
230
1.0
100
AcDbArc
 50
2.530295
 51
5.422053
  0
ARC
  5
392
100
AcDbEntity
  8
0
370
    30
390
0
 62
     7
100
AcDbCircle
 10
55.443161
 20
18.700014
 30
0.0
 40
0.3
210
0.0
220
0.0
230
1.0
100
AcDbArc
 50
5.422053
 51
90.0
  0
LINE
  5
393
100
AcDbEntity
  8
0
370
    30
390
0
 62
     7
 48
0.017104
100
AcDbLine
 10
55.443161
 20
19.000014
 30
0.0
 11
54.758992
 21
19.000014
 31
0.0
210
0.0
220
0.0
230
1.0
  0
ARC
  5
394
100
AcDbEntity
  8
0
370
    30
390
0
 62
     7
100
AcDbCircle
 10
54.758992
 20
20.500014
 30
0.0
 40
1.5
210
0.0
220
0.0
230
1.0
100
AcDbArc
 50
180.0
 51
270.0
  0
LINE
  5
395
100
AcDbEntity
  8
0
370
    30
390
0
 62
     7
 48
0.05
100
AcDbLine
 10
53.258992
 20
22.500022
 30
0.0
 11
53.258992
 21
20.500014
 31
0.0
210
0.0
220
0.0
230
1.0
  0
LINE
  5
396
100
AcDbEntity
  8
0
370
    30
390
0
 62
     7
 48
0.233259
100
AcDbLine
 10
53.258992
 20
22.500014
 30
0.0
 11
43.928642
 21
22.500014
 31
0.0
210
0.0
220
0.0
230
1.0
  0
LINE
  5
397
100
AcDbEntity
  8
0
370
    30
390
0
 62
     7
 48
0.0625
100
AcDbLine
 10
43.928642
 20
25.000014
 30
0.0
 11
43.928642
 21
22.500014
 31
0.0
210
0.0
220
0.0
230
1.0
  0
LINE
  5
398
100
AcDbEntity
  8
0
370
    30
390
0
 62
     7
 48
0.438569
100
AcDbLine
 10
42.704922
 20
42.500021
 30
0.0
 11
43.928642
 21
25.000014
 31
0.0
210
0.0
220
0.0
230
1.0
  0
LINE
  5
399
100
AcDbEntity
  8
0
370
    30
390
0
 62
     7
 48
0.325
100
AcDbLine
 10
42.704922
 20
42.500021
 30
0.0
 11
42.704922
 21
55.500014
 31
0.0
210
0.0
220
0.0
230
1.0
  0
ARC
  5
39A
100
AcDbEntity
  8
0
370
    30
390
0
 62
     7
100
AcDbCircle
 10
40.704922
 20
55.500014
 30
0.0
 40
2.0
210
0.0
220
0.0
230
1.0
100
AcDbArc
 50
0.0
 51
90.0
  0
LINE
  5
39B
100
AcDbEntity
  8
0
370
    30
390
0
 62
     7
100
AcDbLine
 10
-6.271358
 20
28.451834
 30
0.0
 11
-6.271358
 21
56.000014
 31
0.0
210
0.0
220
0.0
230
1.0
  0
ARC
  5
39C
100
AcDbEntity
  8
0
370
    30
390
0
 62
     7
100
AcDbCircle
 10
-4.771358
 20
28.451834
 30
0.0
 40
1.5
210
0.0
220
0.0
230
1.0
100
AcDbArc
 50
180.0
 51
240.0
  0
LINE
  5
39D
100
AcDbEntity
  8
0
370
    30
390
0
 62
     7
 48
0.054848
100
AcDbLine
 10
-3.621358
 20
26.055831
 30
0.0
 11
-5.521358
 21
27.152796
 31
0.0
210
0.0
220
0.0
230
1.0
  0
ARC
  5
39E
100
AcDbEntity
  8
0
370
    30
390
0
 62
     7
100
AcDbCircle
 10
-3.871358
 20
25.622818
 30
0.0
 40
0.5
210
0.0
220
0.0
230
1.0
100
AcDbArc
 50
0.0
 51
60.0
  0
LINE
  5
39F
100
AcDbEntity
  8
0
370
    30
390
0
 62
     7
 48
0.157338
100
AcDbLine
 10
-3.371358
 20
25.622818
 30
0.0
 11
-3.371358
 21
19.329296
 31
0.0
210
0.0
220
0.0
230
1.0
  0
ARC
  5
3A0
100
AcDbEntity
  8
0
370
    30
390
0
 62
     7
100
AcDbCircle
 10
-2.571358
 20
19.329296
 30
0.0
 40
0.8
210
0.0
220
0.0
230
1.0
100
AcDbArc
 50
180.0
 51
250.0
  0
LINE
  5
3A1
100
AcDbEntity
  8
0
370
    30
390
0
 62
     7
 48
0.060488
100
AcDbLine
 10
-0.571358
 20
17.750014
 30
0.0
 11
-2.844974
 21
18.577542
 31
0.0
210
0.0
220
0.0
230
1.0
  0
LINE
  5
3A2
100
AcDbEntity
  8
0
370
    30
390
0
 62
     7
 48
0.025
100
AcDbLine
 10
-0.571358
 20
17.750014
 30
0.0
 11
0.428642
 21
17.750014
 31
0.0
210
0.0
220
0.0
230
1.0
  0
LINE
  5
3A3
100
AcDbEntity
  8
0
370
    30
390
0
 62
     7
100
AcDbLine
 10
0.428642
 20
-17.699986
 30
0.0
 11
0.428642
 21
17.750014
 31
0.0
210
0.0
220
0.0
230
1.0
  0
LINE
  5
3A4
100
AcDbEntity
  8
0
370
    30
390
0
 62
     7
 48
0.015
100
AcDbLine
 10
1.028642
 20
-17.699986
 30
0.0
 11
0.428642
 21
-17.699986
 31
0.0
210
0.0
220
0.0
230
1.0
  0
LINE
  5
3A5
100
AcDbEntity
  8
0
370
    30
390
0
 62
     7
100
AcDbLine
 10
1.028642
 20
-17.699986
 30
0.0
 11
1.028642
 21
-42.499986
 31
0.0
210
0.0
220
0.0
230
1.0
  0
CIRCLE
  5
3A6
100
AcDbEntity
  8
0
370
    30
390
0
 62
     7
100
AcDbCircle
 10
-3.02131
 20
54.500014
 30
0.0
 40
2.250048
210
0.0
220
0.0
230
1.0
  0
LINE
  5
3A7
100
AcDbEntity
  8
0
370
    30
390
0
 62
     7
 48
0.1625
100
AcDbLine
 10
4.178642
 20
-40.999986
 30
0.0
 11
4.178642
 21
-34.499986
 31
0.0
210
0.0
220
0.0
230
1.0
  0
LINE
  5
3A8
100
AcDbEntity
  8
0
370
    30
390
0
 62
     7
 48
0.0875
100
AcDbLine
 10
4.178642
 20
-34.499986
 30
0.0
 11
7.678642
 21
-34.499986
 31
0.0
210
0.0
220
0.0
230
1.0
  0
LINE
  5
3A9
100
AcDbEntity
  8
0
370
    30
390
0
 62
     7
 48
0.1625
100
AcDbLine
 10
7.678642
 20
-40.999986
 30
0.0
 11
7.678642
 21
-34.499986
 31
0.0
210
0.0
220
0.0
230
1.0
  0
LINE
  5
3AA
100
AcDbEntity
  8
0
370
    30
390
0
 62
     7
 48
0.0875
100
AcDbLine
 10
7.678642
 20
-40.999986
 30
0.0
 11
4.178642
 21
-40.999986
 31
0.0
210
0.0
220
0.0
230
1.0
  0
ARC
  5
3AB
100
AcDbEntity
  8
0
370
    30
390
0
 62
     7
100
AcDbCircle
 10
10.628642
 20
-8.799986
 30
0.0
 40
0.3
210
0.0
220
0.0
230
1.0
100
AcDbArc
 50
180.0
 51
270.0
  0
LINE
  5
3AC
100
AcDbEntity
  8
0
370
    30
390
0
 62
     7
 48
0.185
100
AcDbLine
 10
10.328642
 20
-1.399986
 30
0.0
 11
10.328642
 21
-8.799986
 31
0.0
210
0.0
220
0.0
230
1.0
  0
ARC
  5
3AD
100
AcDbEntity
  8
0
370
    30
390
0
 62
     7
100
AcDbCircle
 10
10.628642
 20
-1.399986
 30
0.0
 40
0.3
210
0.0
220
0.0
230
1.0
100
AcDbArc
 50
90.0
 51
180.0
  0
LINE
  5
3AE
100
AcDbEntity
  8
0
370
    30
390
0
 62
     7
 48
0.135
100
AcDbLine
 10
10.628642
 20
-1.099986
 30
0.0
 11
16.028642
 21
-1.099986
 31
0.0
210
0.0
220
0.0
230
1.0
  0
ARC
  5
3AF
100
AcDbEntity
  8
0
370
    30
390
0
 62
     7
100
AcDbCircle
 10
16.028642
 20
-1.399986
 30
0.0
 40
0.3
210
0.0
220
0.0
230
1.0
100
AcDbArc
 50
0.0
 51
90.0
  0
LINE
  5
3B0
100
AcDbEntity
  8
0
370
    30
390
0
 62
     7
 48
0.185
100
AcDbLine
 10
16.328642
 20
-1.399986
 30
0.0
 11
16.328642
 21
-8.799986
 31
0.0
210
0.0
220
0.0
230
1.0
  0
ARC
  5
3B1
100
AcDbEntity
  8
0
370
    30
390
0
 62
     7
100
AcDbCircle
 10
16.028642
 20
-8.799986
 30
0.0
 40
0.3
210
0.0
220
0.0
230
1.0
100
AcDbArc
 50
270.0
 51
360.0
  0
LINE
  5
3B2
100
AcDbEntity
  8
0
370
    30
390
0
 62
     7
 48
0.135
100
AcDbLine
 10
10.628642
 20
-9.099986
 30
0.0
 11
16.028642
 21
-9.099986
 31
0.0
210
0.0
220
0.0
230
1.0
  0
CIRCLE
  5
3B3
100
AcDbEntity
  8
0
370
    13
390
0
 62
     7
100
AcDbCircle
 10
9.427642
 20
-35.749986
 30
0.0
 40
0.950387
210
0.0
220
0.0
230
1.0
  0
LINE
  5
3B4
100
AcDbEntity
  8
0
370
    30
390
0
 62
     7
 48
0.078
100
AcDbLine
 10
2.068642
 20
25.299171
 30
0.0
 11
5.188642
 21
25.299171
 31
0.0
210
0.0
220
0.0
230
1.0
  0
ARC
  5
3B5
100
AcDbEntity
  8
0
370
    30
390
0
 62
     7
100
AcDbCircle
 10
5.188642
 20
25.059171
 30
0.0
 40
0.24
210
0.0
220
0.0
230
1.0
100
AcDbArc
 50
0.0
 51
90.0
  0
LINE
  5
3B6
100
AcDbEntity
  8
0
370
    30
390
0
 62
     7
100
AcDbLine
 10
5.428642
 20
2.140014
 30
0.0
 11
5.428642
 21
25.059171
 31
0.0
210
0.0
220
0.0
230
1.0
  0
ARC
  5
3B7
100
AcDbEntity
  8
0
370
    30
390
0
 62
     7
100
AcDbCircle
 10
5.188642
 20
2.140014
 30
0.0
 40
0.24
210
0.0
220
0.0
230
1.0
100
AcDbArc
 50
270.0
 51
360.0
  0
LINE
  5
3B8
100
AcDbEntity
  8
0
370
    30
390
0
 62
     7
 48
0.078
100
AcDbLine
 10
2.068642
 20
1.900014
 30
0.0
 11
5.188642
 21
1.900014
 31
0.0
210
0.0
220
0.0
230
1.0
  0
ARC
  5
3B9
100
AcDbEntity
  8
0
370
    30
390
0
 62
     7
100
AcDbCircle
 10
2.068642
 20
2.140014
 30
0.0
 40
0.24
210
0.0
220
0.0
230
1.0
100
AcDbArc
 50
180.0
 51
270.0
  0
LINE
  5
3BA
100
AcDbEntity
  8
0
370
    30
390
0
 62
     7
100
AcDbLine
 10
1.828642
 20
2.140014
 30
0.0
 11
1.828642
 21
25.059171
 31
0.0
210
0.0
220
0.0
230
1.0
  0
ARC
  5
3BB
100
AcDbEntity
  8
0
370
    30
390
0
 62
     7
100
AcDbCircle
 10
2.068642
 20
25.059171
 30
0.0
 40
0.24
210
0.0
220
0.0
230
1.0
100
AcDbArc
 50
90.0
 51
180.0
  0
LINE
  5
3BC
100
AcDbEntity
  8
0
370
    30
390
0
 62
     7
 48
0.134994
100
AcDbLine
 10
2.128766
 20
-10.099986
 30
0.0
 11
7.528517
 21
-10.099986
 31
0.0
210
0.0
220
0.0
230
1.0
  0
ARC
  5
3BD
100
AcDbEntity
  8
0
370
    30
390
0
 62
     7
100
AcDbCircle
 10
2.128766
 20
-9.799862
 30
0.0
 40
0.300124
210
0.0
220
0.0
230
1.0
100
AcDbArc
 50
180.0
 51
270.0
  0
LINE
  5
3BE
100
AcDbEntity
  8
0
370
    30
390
0
 62
     7
 48
0.209994
100
AcDbLine
 10
1.828642
 20
-1.40011
 30
0.0
 11
1.828642
 21
-9.799862
 31
0.0
210
0.0
220
0.0
230
1.0
  0
ARC
  5
3BF
100
AcDbEntity
  8
0
370
    30
390
0
 62
     7
100
AcDbCircle
 10
2.128766
 20
-1.40011
 30
0.0
 40
0.300124
210
0.0
220
0.0
230
1.0
100
AcDbArc
 50
90.0
 51
180.0
  0
LINE
  5
3C0
100
AcDbEntity
  8
0
370
    30
390
0
 62
     7
 48
0.134994
100
AcDbLine
 10
7.528517
 20
-1.099986
 30
0.0
 11
2.128766
 21
-1.099986
 31
0.0
210
0.0
220
0.0
230
1.0
  0
ARC
  5
3C1
100
AcDbEntity
  8
0
370
    30
390
0
 62
     7
100
AcDbCircle
 10
7.528517
 20
-1.40011
 30
0.0
 40
0.300124
210
0.0
220
0.0
230
1.0
100
AcDbArc
 50
0.0
 51
90.0
  0
LINE
  5
3C2
100
AcDbEntity
  8
0
370
    30
390
0
 62
     7
 48
0.209994
100
AcDbLine
 10
7.828642
 20
-9.799862
 30
0.0
 11
7.828642
 21
-1.40011
 31
0.0
210
0.0
220
0.0
230
1.0
  0
ARC
  5
3C3
100
AcDbEntity
  8
0
370
    30
390
0
 62
     7
100
AcDbCircle
 10
7.528517
 20
-9.799862
 30
0.0
 40
0.300124
210
0.0
220
0.0
230
1.0
100
AcDbArc
 50
270.0
 51
360.0
  0
CIRCLE
  5
3C4
100
AcDbEntity
  8
0
370
    30
390
0
 62
     7
100
AcDbCircle
 10
23.728642
 20
-1.699986
 30
0.0
 40
2.6
210
0.0
220
0.0
230
1.0
  0
CIRCLE
  5
3C5
100
AcDbEntity
  8
0
370
    13
390
0
 62
     7
100
AcDbCircle
 10
40.228642
 20
27.400014
 30
0.0
 40
0.946829
210
0.0
220
0.0
230
1.0
  0
CIRCLE
  5
3C6
100
AcDbEntity
  8
0
370
    30
390
0
 62
     7
100
AcDbCircle
 10
34.754804
 20
-10.934973
 30
0.0
 40
7.0
210
0.0
220
0.0
230
1.0
  0
LINE
  5
3C7
100
AcDbEntity
  8
0
370
    30
390
0
 62
     7
 48
0.03
100
AcDbLine
 10
31.278642
 20
56.200014
 30
0.0
 11
31.278642
 21
55.000014
 31
0.0
210
0.0
220
0.0
230
1.0
  0
LINE
  5
3C8
100
AcDbEntity
  8
0
370
    30
390
0
 62
     7
 48
0.11
100
AcDbLine
 10
26.878642
 20
55.000014
 30
0.0
 11
31.278642
 21
55.000014
 31
0.0
210
0.0
220
0.0
230
1.0
  0
LINE
  5
3C9
100
AcDbEntity
  8
0
370
    30
390
0
 62
     7
 48
0.03
100
AcDbLine
 10
26.878642
 20
56.200014
 30
0.0
 11
26.878642
 21
55.000014
 31
0.0
210
0.0
220
0.0
230
1.0
  0
LINE
  5
3CA
100
AcDbEntity
  8
0
370
    30
390
0
 62
     7
 48
0.11
100
AcDbLine
 10
26.878642
 20
56.200014
 30
0.0
 11
31.278642
 21
56.200014
 31
0.0
210
0.0
220
0.0
230
1.0
  0
CIRCLE
  5
3CB
100
AcDbEntity
  8
0
370
    13
390
0
 62
     7
100
AcDbCircle
 10
40.228642
 20
-27.399986
 30
0.0
 40
0.946829
210
0.0
220
0.0
230
1.0
  0
CIRCLE
  5
3CC
100
AcDbEntity
  8
0
370
    30
390
0
 62
     7
100
AcDbCircle
 10
40.228642
 20
55.350014
 30
0.0
 40
1.5
210
0.0
220
0.0
230
1.0
  0
CIRCLE
  5
3CD
100
AcDbEntity
  8
0
370
    13
390
0
 62
     7
100
AcDbCircle
 10
6.228642
 20
-13.899986
 30
0.0
 40
0.950387
210
0.0
220
0.0
230
1.0
  0
CIRCLE
  5
3CE
100
AcDbEntity
  8
0
370
    13
390
0
 62
     7
100
AcDbCircle
 10
3.428642
 20
33.500014
 30
0.0
 40
0.946829
210
0.0
220
0.0
230
1.0
  0
CIRCLE
  5
3CF
100
AcDbEntity
  8
0
370
    13
390
0
 62
     7
100
AcDbCircle
 10
53.228642
 20
11.000014
 30
0.0
 40
0.950387
210
0.0
220
0.0
230
1.0
  0
LINE
  5
3D0
100
AcDbEntity
  8
0
370
    30
390
0
 62
     7
 48
0.00125
100
AcDbLine
 10
27.302231
 20
56.150013
 30
0.0
 11
27.30246
 21
56.200013
 31
0.0
210
0.0
220
0.0
230
1.0
  0
CIRCLE
  5
3D1
100
AcDbEntity
  8
0
370
    30
390
0
 62
     7
100
AcDbCircle
 10
61.428646
 20
0.000014
 30
0.0
 40
0.75
210
0.0
220
0.0
230
1.0
  0
LINE
  5
3D2
100
AcDbEntity
  8
0
370
    30
390
0
 62
     7
 48
0.00125
100
AcDbLine
 10
0.428656
 20
-17.749984
 30
0.0
 11
0.428656
 21
-17.699986
 31
0.0
210
0.0
220
0.0
230
1.0
  0
LINE
  5
3D3
100
AcDbEntity
  8
0
370
    30
390
0
 62
     7
 48
0.03
100
AcDbLine
 10
-0.171334
 20
-42.499986
 30
0.0
 11
1.028666
 21
-42.499986
 31
0.0
210
0.0
220
0.0
230
1.0
  0
LINE
  5
3D4
100
AcDbEntity
  8
0
370
    30
390
0
 62
     7
 48
0.06
100
AcDbLine
 10
-2.571344
 20
-42.499986
 30
0.0
 11
-0.171344
 21
-42.499986
 31
0.0
210
0.0
220
0.0
230
1.0
  0
ARC
  5
3D5
100
AcDbEntity
  8
0
370
    30
390
0
 62
     7
100
AcDbCircle
 10
60.248342
 20
-8.532895
 30
0.0
 40
2.0
210
0.0
220
0.0
230
1.0
100
AcDbArc
 50
119.468051
 51
177.536527
  0
ARC
  5
3D6
100
AcDbEntity
  8
0
370
    30
390
0
 62
     7
100
AcDbCircle
 10
55.428647
 20
0.000014
 30
0.0
 40
7.8
210
0.0
220
0.0
230
1.0
100
AcDbArc
 50
299.457095
 51
55.717216
  0
ARC
  5
3D7
100
AcDbEntity
  8
0
370
    13
390
0
 62
     7
100
AcDbCircle
 10
-141.572468
 20
0.000014
 30
0.0
 40
201.497776
210
0.0
220
0.0
230
1.0
100
AcDbArc
 50
358.167087
 51
361.832913
  0
ARC
  5
3D8
100
AcDbEntity
  8
0
370
    30
390
0
 62
     7
100
AcDbCircle
 10
55.428647
 20
0.000014
 30
0.0
 40
7.8
210
0.0
220
0.0
230
1.0
100
AcDbArc
 50
55.717228
 51
60.540679
  0
ARC
  5
3D9
100
AcDbEntity
  8
0
370
    30
390
0
 62
     7
100
AcDbCircle
 10
60.248342
 20
8.532923
 30
0.0
 40
2.0
210
0.0
220
0.0
230
1.0
100
AcDbArc
 50
182.449376
 51
240.540631
  0
CIRCLE
  5
3DA
100
AcDbEntity
  8
0
370
    13
390
0
 62
     7
100
AcDbCircle
 10
9.427645
 20
-35.749986
 30
0.0
 40
0.473056
210
0.0
220
0.0
230
1.0
  0
CIRCLE
  5
3DB
100
AcDbEntity
  8
0
370
    13
390
0
 62
     7
100
AcDbCircle
 10
40.228645
 20
27.400014
 30
0.0
 40
0.473414
210
0.0
220
0.0
230
1.0
  0
CIRCLE
  5
3DC
100
AcDbEntity
  8
0
370
    13
390
0
 62
     7
100
AcDbCircle
 10
40.228645
 20
-27.399986
 30
0.0
 40
0.473414
210
0.0
220
0.0
230
1.0
  0
CIRCLE
  5
3DD
100
AcDbEntity
  8
0
370
    13
390
0
 62
     7
100
AcDbCircle
 10
6.228645
 20
-13.899986
 30
0.0
 40
0.473056
210
0.0
220
0.0
230
1.0
  0
CIRCLE
  5
3DE
100
AcDbEntity
  8
0
370
    13
390
0
 62
     7
100
AcDbCircle
 10
3.428645
 20
33.500014
 30
0.0
 40
0.473414
210
0.0
220
0.0
230
1.0
  0
CIRCLE
  5
3DF
100
AcDbEntity
  8
0
370
    13
390
0
 62
     7
100
AcDbCircle
 10
53.228645
 20
11.000014
 30
0.0
 40
0.473056
210
0.0
220
0.0
230
1.0
  0
LINE
  5
3E0
100
AcDbEntity
  8
0
370
    30
390
0
 62
     7
 48
0.00375
100
AcDbLine
 10
30.978712
 20
55.300013
 30
0.0
 11
30.82871
 21
55.300013
 31
0.0
210
0.0
220
0.0
230
1.0
  0
LINE
  5
3E1
100
AcDbEntity
  8
0
370
    30
390
0
 62
     7
 48
0.0225
100
AcDbLine
 10
30.978712
 20
55.300013
 30
0.0
 11
30.978713
 21
56.200013
 31
0.0
210
0.0
220
0.0
230
1.0
  0
ARC
  5
3E2
100
AcDbEntity
  8
0
370
    30
390
0
 62
     7
100
AcDbCircle
 10
-141.575196
 20
-0.000216
 30
0.0
 40
199.003855
210
0.0
220
0.0
230
1.0
100
AcDbArc
 50
2.520117
 51
2.534536
  0
LINE
  5
3E3
100
AcDbEntity
  8
0
370
    30
390
0
 62
     7
 48
0.02
100
AcDbLine
 10
11.928678
 20
-42.499986
 30
0.0
 11
11.928678
 21
-43.299986
 31
0.0
210
0.0
220
0.0
230
1.0
  0
LINE
  5
3E4
100
AcDbEntity
  8
0
370
    30
390
0
 62
     7
 48
0.097396
100
AcDbLine
 10
16.228678
 20
-43.999986
 30
0.0
 11
12.332823
 21
-43.999986
 31
0.0
210
0.0
220
0.0
230
1.0
  0
LINE
  5
3E5
100
AcDbEntity
  8
0
370
    30
390
0
 62
     7
 48
0.020207
100
AcDbLine
 10
12.332823
 20
-43.999986
 30
0.0
 11
11.928678
 21
-43.299986
 31
0.0
210
0.0
220
0.0
230
1.0
  0
ARC
  5
3E6
100
AcDbEntity
  8
0
370
    30
390
0
 62
     7
100
AcDbCircle
 10
0.728656
 20
-21.018986
 30
0.0
 40
0.3
210
0.0
220
0.0
230
1.0
100
AcDbArc
 50
0.0
 51
2.080606
  0
CIRCLE
  5
3E7
100
AcDbEntity
  8
0
370
    30
390
0
 62
     7
100
AcDbCircle
 10
-3.021293
 20
54.500014
 30
0.0
 40
1.300048
210
0.0
220
0.0
230
1.0
  0
LINE
  5
3E8
100
AcDbEntity
  8
0
370
    30
390
0
 62
     7
 48
0.0375
100
AcDbLine
 10
29.778731
 20
-42.499987
 30
0.0
 11
29.778731
 21
-43.999987
 31
0.0
210
0.0
220
0.0
230
1.0
  0
LINE
  5
3E9
100
AcDbEntity
  8
0
370
    13
390
0
 62
     7
 48
0.0375
100
AcDbLine
 10
24.578678
 20
-42.499986
 30
0.0
 11
24.578678
 21
-43.999986
 31
0.0
210
0.0
220
0.0
230
1.0
  0
LINE
  5
3EA
100
AcDbEntity
  8
0
370
    30
390
0
 62
     7
 48
0.130001
100
AcDbLine
 10
24.578678
 20
-43.999987
 30
0.0
 11
29.778731
 21
-43.999987
 31
0.0
210
0.0
220
0.0
230
1.0
  0
LINE
  5
3EB
100
AcDbEntity
  8
0
370
    30
390
0
 62
     7
 48
0.017678
100
AcDbLine
 10
19.478678
 20
-43.499986
 30
0.0
 11
19.978678
 21
-43.999986
 31
0.0
210
0.0
220
0.0
230
1.0
  0
LINE
  5
3EC
100
AcDbEntity
  8
0
370
    30
390
0
 62
     7
 48
0.115
100
AcDbLine
 10
19.978678
 20
-43.999986
 30
0.0
 11
24.578678
 21
-43.999986
 31
0.0
210
0.0
220
0.0
230
1.0
  0
LINE
  5
3ED
100
AcDbEntity
  8
0
370
    30
390
0
 62
     7
 48
0.025
100
AcDbLine
 10
19.478678
 20
-42.499986
 30
0.0
 11
19.478678
 21
-43.499986
 31
0.0
210
0.0
220
0.0
230
1.0
  0
LINE
  5
3EE
100
AcDbEntity
  8
0
370
    30
390
0
 62
     7
 48
0.025
100
AcDbLine
 10
16.728678
 20
-42.499986
 30
0.0
 11
16.728678
 21
-43.499986
 31
0.0
210
0.0
220
0.0
230
1.0
  0
LINE
  5
3EF
100
AcDbEntity
  8
0
370
    30
390
0
 62
     7
 48
0.017678
100
AcDbLine
 10
16.728678
 20
-43.499986
 30
0.0
 11
16.228678
 21
-43.999986
 31
0.0
210
0.0
220
0.0
230
1.0
  0
ARC
  5
3F0
100
AcDbEntity
  8
0
370
    30
390
0
 62
     7
100
AcDbCircle
 10
54.913387
 20
20.000014
 30
0.0
 40
1.5
210
0.0
220
0.0
230
1.0
100
AcDbArc
 50
77.611228
 51
87.859904
  0
ARC
  5
3F1
100
AcDbEntity
  8
0
370
    30
390
0
 62
     7
100
AcDbCircle
 10
53.559002
 20
21.800014
 30
0.0
 40
0.3
210
0.0
220
0.0
230
1.0
100
AcDbArc
 50
180.0
 51
213.553574
  0
CIRCLE
  5
3F2
100
AcDbEntity
  8
0
370
    30
390
0
 62
     7
100
AcDbCircle
 10
-3.021298
 20
54.500014
 30
0.0
 40
1.800048
210
0.0
220
0.0
230
1.0
  0
CIRCLE
  5
3F3
100
AcDbEntity
  8
0
370
    30
390
0
 62
     7
100
AcDbCircle
 10
23.728653
 20
-1.699986
 30
0.0
 40
2.3
210
0.0
220
0.0
230
1.0
  0
CIRCLE
  5
3F4
100
AcDbEntity
  8
0
370
    30
390
0
 62
     7
100
AcDbCircle
 10
40.228656
 20
55.350014
 30
0.0
 40
1.35
210
0.0
220
0.0
230
1.0
  0
CIRCLE
  5
3F5
100
AcDbEntity
  8
0
370
    30
390
0
 62
     7
100
AcDbCircle
 10
40.228659
 20
55.350014
 30
0.0
 40
1.05
210
0.0
220
0.0
230
1.0
  0
CIRCLE
  5
3F6
100
AcDbEntity
  8
0
370
    30
390
0
 62
     7
100
AcDbCircle
 10
55.008997
 20
20.750014
 30
0.0
 40
0.725
210
0.0
220
0.0
230
1.0
  0
LINE
  5
3F7
100
AcDbEntity
  8
0
370
    30
390
0
 62
     7
 48
0.0125
100
AcDbLine
 10
11.328642
 20
-4.599986
 30
0.0
 11
10.828642
 21
-4.599986
 31
0.0
210
0.0
220
0.0
230
1.0
  0
ARC
  5
3F8
100
AcDbEntity
  8
0
370
    30
390
0
 62
     7
100
AcDbCircle
 10
13.328642
 20
-4.599986
 30
0.0
 40
2.0
210
0.0
220
0.0
230
1.0
100
AcDbArc
 50
0.0
 51
180.0
  0
LINE
  5
3F9
100
AcDbEntity
  8
0
370
    30
390
0
 62
     7
 48
0.0125
100
AcDbLine
 10
15.828642
 20
-4.599986
 30
0.0
 11
15.328642
 21
-4.599986
 31
0.0
210
0.0
220
0.0
230
1.0
  0
ARC
  5
3FA
100
AcDbEntity
  8
0
370
    30
390
0
 62
     7
100
AcDbCircle
 10
13.328642
 20
-4.599986
 30
0.0
 40
2.5
210
0.0
220
0.0
230
1.0
100
AcDbArc
 50
0.0
 51
180.0
  0
ARC
  5
3FB
100
AcDbEntity
  8
0
370
    30
390
0
 62
     7
100
AcDbCircle
 10
13.328642
 20
-8.099986
 30
0.0
 40
2.5
210
0.0
220
0.0
230
1.0
100
AcDbArc
 50
0.0
 51
180.0
  0
LINE
  5
3FC
100
AcDbEntity
  8
0
370
    30
390
0
 62
     7
 48
0.0125
100
AcDbLine
 10
11.328642
 20
-8.099986
 30
0.0
 11
10.828642
 21
-8.099986
 31
0.0
210
0.0
220
0.0
230
1.0
  0
ARC
  5
3FD
100
AcDbEntity
  8
0
370
    30
390
0
 62
     7
100
AcDbCircle
 10
13.329272
 20
-8.100542
 30
0.0
 40
2.00063
210
0.0
220
0.0
230
1.0
100
AcDbArc
 50
97.196672
 51
179.984083
  0
LINE
  5
3FE
100
AcDbEntity
  8
0
370
    30
390
0
 62
     7
 48
0.049608
100
AcDbLine
 10
13.078642
 20
-8.099986
 30
0.0
 11
13.078642
 21
-6.115673
 31
0.0
210
0.0
220
0.0
230
1.0
  0
LINE
  5
3FF
100
AcDbEntity
  8
0
370
    30
390
0
 62
     7
 48
0.0125
100
AcDbLine
 10
13.578642
 20
-8.099986
 30
0.0
 11
13.078642
 21
-8.099986
 31
0.0
210
0.0
220
0.0
230
1.0
  0
LINE
  5
400
100
AcDbEntity
  8
0
370
    30
390
0
 62
     7
 48
0.049608
100
AcDbLine
 10
13.578642
 20
-6.115673
 30
0.0
 11
13.578642
 21
-8.099986
 31
0.0
210
0.0
220
0.0
230
1.0
  0
ARC
  5
401
100
AcDbEntity
  8
0
370
    30
390
0
 62
     7
100
AcDbCircle
 10
13.328011
 20
-8.100542
 30
0.0
 40
2.00063
210
0.0
220
0.0
230
1.0
100
AcDbArc
 50
0.015917
 51
82.803328
  0
LINE
  5
402
100
AcDbEntity
  8
0
370
    30
390
0
 62
     7
 48
0.0125
100
AcDbLine
 10
15.828642
 20
-8.099986
 30
0.0
 11
15.328642
 21
-8.099986
 31
0.0
210
0.0
220
0.0
230
1.0
  0
LINE
  5
403
100
AcDbEntity
  8
0
370
    30
390
0
 62
     7
 48
0.054488
100
AcDbLine
 10
2.528642
 20
24.499171
 30
0.0
 11
4.708158
 21
24.499171
 31
0.0
210
0.0
220
0.0
230
1.0
  0
LINE
  5
404
100
AcDbEntity
  8
0
370
    30
390
0
 62
     7
 48
0.007045
100
AcDbLine
 10
2.53057
 20
24.21739
 30
0.0
 11
2.528642
 21
24.499171
 31
0.0
210
0.0
220
0.0
230
1.0
  0
LINE
  5
405
100
AcDbEntity
  8
0
370
    30
390
0
 62
     7
 48
0.046768
100
AcDbLine
 10
4.401273
 20
24.21739
 30
0.0
 11
2.53057
 21
24.21739
 31
0.0
210
0.0
220
0.0
230
1.0
  0
LINE
  5
406
100
AcDbEntity
  8
0
370
    30
390
0
 62
     7
 48
0.049407
100
AcDbLine
 10
2.53057
 20
23.580049
 30
0.0
 11
4.401273
 21
24.21739
 31
0.0
210
0.0
220
0.0
230
1.0
  0
LINE
  5
407
100
AcDbEntity
  8
0
370
    30
390
0
 62
     7
 48
0.006254
100
AcDbLine
 10
2.53057
 20
23.329903
 30
0.0
 11
2.53057
 21
23.580049
 31
0.0
210
0.0
220
0.0
230
1.0
  0
LINE
  5
408
100
AcDbEntity
  8
0
370
    30
390
0
 62
     7
 48
0.048665
100
AcDbLine
 10
4.366654
 20
22.683363
 30
0.0
 11
2.53057
 21
23.329903
 31
0.0
210
0.0
220
0.0
230
1.0
  0
LINE
  5
409
100
AcDbEntity
  8
0
370
    30
390
0
 62
     7
 48
0.045902
100
AcDbLine
 10
2.53057
 20
22.683363
 30
0.0
 11
4.366654
 21
22.683363
 31
0.0
210
0.0
220
0.0
230
1.0
  0
LINE
  5
40A
100
AcDbEntity
  8
0
370
    30
390
0
 62
     7
 48
0.006766
100
AcDbLine
 10
2.53057
 20
22.41274
 30
0.0
 11
2.53057
 21
22.683363
 31
0.0
210
0.0
220
0.0
230
1.0
  0
LINE
  5
40B
100
AcDbEntity
  8
0
370
    30
390
0
 62
     7
 48
0.05444
100
AcDbLine
 10
4.708158
 20
22.41274
 30
0.0
 11
2.53057
 21
22.41274
 31
0.0
210
0.0
220
0.0
230
1.0
  0
LINE
  5
40C
100
AcDbEntity
  8
0
370
    30
390
0
 62
     7
 48
0.009812
100
AcDbLine
 10
4.708158
 20
22.805238
 30
0.0
 11
4.708158
 21
22.41274
 31
0.0
210
0.0
220
0.0
230
1.0
  0
LINE
  5
40D
100
AcDbEntity
  8
0
370
    30
390
0
 62
     7
 48
0.049441
100
AcDbLine
 10
2.837882
 20
23.44803
 30
0.0
 11
4.708158
 21
22.805238
 31
0.0
210
0.0
220
0.0
230
1.0
  0
LINE
  5
40E
100
AcDbEntity
  8
0
370
    30
390
0
 62
     7
 48
0.049234
100
AcDbLine
 10
4.708158
 20
24.06479
 30
0.0
 11
2.837882
 21
23.44803
 31
0.0
210
0.0
220
0.0
230
1.0
  0
LINE
  5
40F
100
AcDbEntity
  8
0
370
    30
390
0
 62
     7
 48
0.01086
100
AcDbLine
 10
4.708158
 20
24.499171
 30
0.0
 11
4.708158
 21
24.06479
 31
0.0
210
0.0
220
0.0
230
1.0
  0
LINE
  5
410
100
AcDbEntity
  8
0
370
    30
390
0
 62
     7
 48
0.058267
100
AcDbLine
 10
2.53057
 20
22.184096
 30
0.0
 11
4.703324
 21
21.340797
 31
0.0
210
0.0
220
0.0
230
1.0
  0
LINE
  5
411
100
AcDbEntity
  8
0
370
    30
390
0
 62
     7
 48
0.007727
100
AcDbLine
 10
2.532304
 20
21.87502
 30
0.0
 11
2.53057
 21
22.184096
 31
0.0
210
0.0
220
0.0
230
1.0
  0
LINE
  5
412
100
AcDbEntity
  8
0
370
    30
390
0
 62
     7
 48
0.017566
100
AcDbLine
 10
3.192265
 20
21.633839
 30
0.0
 11
2.532304
 21
21.87502
 31
0.0
210
0.0
220
0.0
230
1.0
  0
LINE
  5
413
100
AcDbEntity
  8
0
370
    30
390
0
 62
     7
 48
0.022775
100
AcDbLine
 10
3.192265
 20
20.722823
 30
0.0
 11
3.192265
 21
21.633839
 31
0.0
210
0.0
220
0.0
230
1.0
  0
LINE
  5
414
100
AcDbEntity
  8
0
370
    30
390
0
 62
     7
 48
0.01774
100
AcDbLine
 10
2.530131
 20
20.467635
 30
0.0
 11
3.192265
 21
20.722823
 31
0.0
210
0.0
220
0.0
230
1.0
  0
LINE
  5
415
100
AcDbEntity
  8
0
370
    30
390
0
 62
     7
 48
0.008082
100
AcDbLine
 10
2.530131
 20
20.144344
 30
0.0
 11
2.530131
 21
20.467635
 31
0.0
210
0.0
220
0.0
230
1.0
  0
LINE
  5
416
100
AcDbEntity
  8
0
370
    30
390
0
 62
     7
 48
0.05866
100
AcDbLine
 10
4.703324
 20
21.029073
 30
0.0
 11
2.530131
 21
20.144344
 31
0.0
210
0.0
220
0.0
230
1.0
  0
LINE
  5
417
100
AcDbEntity
  8
0
370
    30
390
0
 62
     7
 48
0.007793
100
AcDbLine
 10
4.703324
 20
21.340797
 30
0.0
 11
4.703324
 21
21.029073
 31
0.0
210
0.0
220
0.0
230
1.0
  0
LINE
  5
418
100
AcDbEntity
  8
0
370
    30
390
0
 62
     7
 48
0.054535
100
AcDbLine
 10
2.525663
 20
19.909737
 30
0.0
 11
4.707047
 21
19.909737
 31
0.0
210
0.0
220
0.0
230
1.0
  0
LINE
  5
419
100
AcDbEntity
  8
0
370
    30
390
0
 62
     7
 48
0.021178
100
AcDbLine
 10
2.525663
 20
19.909737
 30
0.0
 11
2.525663
 21
19.062611
 31
0.0
210
0.0
220
0.0
230
1.0
  0
LINE
  5
41A
100
AcDbEntity
  8
0
370
    30
390
0
 62
     7
 48
0.00372
100
AcDbLine
 10
2.53776
 20
18.91432
 30
0.0
 11
2.525663
 21
19.062611
 31
0.0
210
0.0
220
0.0
230
1.0
  0
LINE
  5
41B
100
AcDbEntity
  8
0
370
    30
390
0
 62
     7
 48
0.003484
100
AcDbLine
 10
2.560954
 20
18.776912
 30
0.0
 11
2.53776
 21
18.91432
 31
0.0
210
0.0
220
0.0
230
1.0
  0
LINE
  5
41C
100
AcDbEntity
  8
0
370
    30
390
0
 62
     7
 48
0.00311
100
AcDbLine
 10
2.596574
 20
18.657723
 30
0.0
 11
2.560954
 21
18.776912
 31
0.0
210
0.0
220
0.0
230
1.0
  0
LINE
  5
41D
100
AcDbEntity
  8
0
370
    30
390
0
 62
     7
 48
0.004727
100
AcDbLine
 10
2.687541
 20
18.491969
 30
0.0
 11
2.596574
 21
18.657723
 31
0.0
210
0.0
220
0.0
230
1.0
  0
LINE
  5
41E
100
AcDbEntity
  8
0
370
    30
390
0
 62
     7
 48
0.003215
100
AcDbLine
 10
2.771208
 20
18.394295
 30
0.0
 11
2.687541
 21
18.491969
 31
0.0
210
0.0
220
0.0
230
1.0
  0
LINE
  5
41F
100
AcDbEntity
  8
0
370
    30
390
0
 62
     7
 48
0.00298
100
AcDbLine
 10
2.861503
 20
18.316487
 30
0.0
 11
2.771208
 21
18.394295
 31
0.0
210
0.0
220
0.0
230
1.0
  0
LINE
  5
420
100
AcDbEntity
  8
0
370
    30
390
0
 62
     7
 48
0.00289
100
AcDbLine
 10
2.959928
 20
18.255873
 30
0.0
 11
2.861503
 21
18.316487
 31
0.0
210
0.0
220
0.0
230
1.0
  0
LINE
  5
421
100
AcDbEntity
  8
0
370
    30
390
0
 62
     7
 48
0.003726
100
AcDbLine
 10
3.095793
 20
18.194624
 30
0.0
 11
2.959928
 21
18.255873
 31
0.0
210
0.0
220
0.0
230
1.0
  0
LINE
  5
422
100
AcDbEntity
  8
0
370
    30
390
0
 62
     7
 48
0.003085
100
AcDbLine
 10
3.212333
 20
18.154018
 30
0.0
 11
3.095793
 21
18.194624
 31
0.0
210
0.0
220
0.0
230
1.0
  0
LINE
  5
423
100
AcDbEntity
  8
0
370
    30
390
0
 62
     7
 48
0.003814
100
AcDbLine
 10
3.361442
 20
18.121736
 30
0.0
 11
3.212333
 21
18.154018
 31
0.0
210
0.0
220
0.0
230
1.0
  0
LINE
  5
424
100
AcDbEntity
  8
0
370
    30
390
0
 62
     7
 48
0.003796
100
AcDbLine
 10
3.512077
 20
18.102699
 30
0.0
 11
3.361442
 21
18.121736
 31
0.0
210
0.0
220
0.0
230
1.0
  0
LINE
  5
425
100
AcDbEntity
  8
0
370
    30
390
0
 62
     7
 48
0.00304
100
AcDbLine
 10
3.633671
 20
18.102699
 30
0.0
 11
3.512077
 21
18.102699
 31
0.0
210
0.0
220
0.0
230
1.0
  0
LINE
  5
426
100
AcDbEntity
  8
0
370
    30
390
0
 62
     7
 48
0.004375
100
AcDbLine
 10
3.808463
 20
18.110976
 30
0.0
 11
3.633671
 21
18.102699
 31
0.0
210
0.0
220
0.0
230
1.0
  0
LINE
  5
427
100
AcDbEntity
  8
0
370
    30
390
0
 62
     7
 48
0.003748
100
AcDbLine
 10
3.956571
 20
18.134163
 30
0.0
 11
3.808463
 21
18.110976
 31
0.0
210
0.0
220
0.0
230
1.0
  0
LINE
  5
428
100
AcDbEntity
  8
0
370
    30
390
0
 62
     7
 48
0.004632
100
AcDbLine
 10
4.135819
 20
18.18105
 30
0.0
 11
3.956571
 21
18.134163
 31
0.0
210
0.0
220
0.0
230
1.0
  0
LINE
  5
429
100
AcDbEntity
  8
0
370
    30
390
0
 62
     7
 48
0.004566
100
AcDbLine
 10
4.300932
 20
18.259139
 30
0.0
 11
4.135819
 21
18.18105
 31
0.0
210
0.0
220
0.0
230
1.0
  0
LINE
  5
42A
100
AcDbEntity
  8
0
370
    30
390
0
 62
     7
 48
0.003997
100
AcDbLine
 10
4.430436
 20
18.352913
 30
0.0
 11
4.300932
 21
18.259139
 31
0.0
210
0.0
220
0.0
230
1.0
  0
LINE
  5
42B
100
AcDbEntity
  8
0
370
    30
390
0
 62
     7
 48
0.004227
100
AcDbLine
 10
4.546122
 20
18.476198
 30
0.0
 11
4.430436
 21
18.352913
 31
0.0
210
0.0
220
0.0
230
1.0
  0
LINE
  5
42C
100
AcDbEntity
  8
0
370
    30
390
0
 62
     7
 48
0.003764
100
AcDbLine
 10
4.624272
 20
18.604878
 30
0.0
 11
4.546122
 21
18.476198
 31
0.0
210
0.0
220
0.0
230
1.0
  0
LINE
  5
42D
100
AcDbEntity
  8
0
370
    30
390
0
 62
     7
 48
0.003724
100
AcDbLine
 10
4.676005
 20
18.744551
 30
0.0
 11
4.624272
 21
18.604878
 31
0.0
210
0.0
220
0.0
230
1.0
  0
LINE
  5
42E
100
AcDbEntity
  8
0
370
    30
390
0
 62
     7
 48
0.003269
100
AcDbLine
 10
4.699125
 20
18.873232
 30
0.0
 11
4.676005
 21
18.744551
 31
0.0
210
0.0
220
0.0
230
1.0
  0
LINE
  5
42F
100
AcDbEntity
  8
0
370
    30
390
0
 62
     7
 48
0.003196
100
AcDbLine
 10
4.707047
 20
19.000819
 30
0.0
 11
4.699125
 21
18.873232
 31
0.0
210
0.0
220
0.0
230
1.0
  0
LINE
  5
430
100
AcDbEntity
  8
0
370
    30
390
0
 62
     7
 48
0.022723
100
AcDbLine
 10
4.707047
 20
19.909737
 30
0.0
 11
4.707047
 21
19.000819
 31
0.0
210
0.0
220
0.0
230
1.0
  0
LINE
  5
431
100
AcDbEntity
  8
0
370
    30
390
0
 62
     7
 48
0.054668
100
AcDbLine
 10
2.530204
 20
17.692494
 30
0.0
 11
4.716923
 21
17.692494
 31
0.0
210
0.0
220
0.0
230
1.0
  0
LINE
  5
432
100
AcDbEntity
  8
0
370
    30
390
0
 62
     7
 48
0.040435
100
AcDbLine
 10
2.530204
 20
17.692494
 30
0.0
 11
2.528446
 21
16.075099
 31
0.0
210
0.0
220
0.0
230
1.0
  0
LINE
  5
433
100
AcDbEntity
  8
0
370
    30
390
0
 62
     7
 48
0.006239
100
AcDbLine
 10
2.777995
 20
16.075099
 30
0.0
 11
2.528446
 21
16.075099
 31
0.0
210
0.0
220
0.0
230
1.0
  0
LINE
  5
434
100
AcDbEntity
  8
0
370
    30
390
0
 62
     7
 48
0.033141
100
AcDbLine
 10
2.777995
 20
17.400752
 30
0.0
 11
2.777995
 21
16.075099
 31
0.0
210
0.0
220
0.0
230
1.0
  0
LINE
  5
435
100
AcDbEntity
  8
0
370
    30
390
0
 62
     7
 48
0.01869
100
AcDbLine
 10
3.525614
 20
17.400752
 30
0.0
 11
2.777995
 21
17.400752
 31
0.0
210
0.0
220
0.0
230
1.0
  0
LINE
  5
436
100
AcDbEntity
  8
0
370
    30
390
0
 62
     7
 48
0.029942
100
AcDbLine
 10
3.525614
 20
16.203072
 30
0.0
 11
3.525614
 21
17.400752
 31
0.0
210
0.0
220
0.0
230
1.0
  0
LINE
  5
437
100
AcDbEntity
  8
0
370
    30
390
0
 62
     7
 48
0.006301
100
AcDbLine
 10
3.777653
 20
16.203072
 30
0.0
 11
3.525614
 21
16.203072
 31
0.0
210
0.0
220
0.0
230
1.0
  0
LINE
  5
438
100
AcDbEntity
  8
0
370
    30
390
0
 62
     7
 48
0.029942
100
AcDbLine
 10
3.777653
 20
17.400752
 30
0.0
 11
3.777653
 21
16.203072
 31
0.0
210
0.0
220
0.0
230
1.0
  0
LINE
  5
439
100
AcDbEntity
  8
0
370
    30
390
0
 62
     7
 48
0.016852
100
AcDbLine
 10
4.45175
 20
17.400752
 30
0.0
 11
3.777653
 21
17.400752
 31
0.0
210
0.0
220
0.0
230
1.0
  0
LINE
  5
43A
100
AcDbEntity
  8
0
370
    30
390
0
 62
     7
 48
0.032091
100
AcDbLine
 10
4.45175
 20
16.117128
 30
0.0
 11
4.45175
 21
17.400752
 31
0.0
210
0.0
220
0.0
230
1.0
  0
LINE
  5
43B
100
AcDbEntity
  8
0
370
    30
390
0
 62
     7
 48
0.006629
100
AcDbLine
 10
4.716923
 20
16.117128
 30
0.0
 11
4.45175
 21
16.117128
 31
0.0
210
0.0
220
0.0
230
1.0
  0
LINE
  5
43C
100
AcDbEntity
  8
0
370
    30
390
0
 62
     7
 48
0.039384
100
AcDbLine
 10
4.716923
 20
17.692494
 30
0.0
 11
4.716923
 21
16.117128
 31
0.0
210
0.0
220
0.0
230
1.0
  0
LINE
  5
43D
100
AcDbEntity
  8
0
370
    30
390
0
 62
     7
 48
0.054712
100
AcDbLine
 10
2.528446
 20
14.764381
 30
0.0
 11
4.716923
 21
14.764381
 31
0.0
210
0.0
220
0.0
230
1.0
  0
LINE
  5
43E
100
AcDbEntity
  8
0
370
    30
390
0
 62
     7
 48
0.006949
100
AcDbLine
 10
2.528446
 20
14.486433
 30
0.0
 11
2.528446
 21
14.764381
 31
0.0
210
0.0
220
0.0
230
1.0
  0
LINE
  5
43F
100
AcDbEntity
  8
0
370
    30
390
0
 62
     7
 48
0.054712
100
AcDbLine
 10
4.716923
 20
14.486433
 30
0.0
 11
2.528446
 21
14.486433
 31
0.0
210
0.0
220
0.0
230
1.0
  0
LINE
  5
440
100
AcDbEntity
  8
0
370
    30
390
0
 62
     7
 48
0.006949
100
AcDbLine
 10
4.716923
 20
14.764381
 30
0.0
 11
4.716923
 21
14.486433
 31
0.0
210
0.0
220
0.0
230
1.0
  0
LINE
  5
441
100
AcDbEntity
  8
0
370
    30
390
0
 62
     7
 48
0.054712
100
AcDbLine
 10
2.528446
 20
13.974898
 30
0.0
 11
4.716923
 21
13.974898
 31
0.0
210
0.0
220
0.0
230
1.0
  0
LINE
  5
442
100
AcDbEntity
  8
0
370
    30
390
0
 62
     7
 48
0.006721
100
AcDbLine
 10
2.528446
 20
13.974898
 30
0.0
 11
2.528446
 21
13.706056
 31
0.0
210
0.0
220
0.0
230
1.0
  0
LINE
  5
443
100
AcDbEntity
  8
0
370
    30
390
0
 62
     7
 48
0.043286
100
AcDbLine
 10
4.259879
 20
13.706056
 30
0.0
 11
2.528446
 21
13.706056
 31
0.0
210
0.0
220
0.0
230
1.0
  0
LINE
  5
444
100
AcDbEntity
  8
0
370
    30
390
0
 62
     7
 48
0.052374
100
AcDbLine
 10
2.52581
 20
12.530519
 30
0.0
 11
4.259879
 21
13.706056
 31
0.0
210
0.0
220
0.0
230
1.0
  0
LINE
  5
445
100
AcDbEntity
  8
0
370
    30
390
0
 62
     7
 48
0.006887
100
AcDbLine
 10
2.52581
 20
12.255049
 30
0.0
 11
2.52581
 21
12.530519
 31
0.0
210
0.0
220
0.0
230
1.0
  0
LINE
  5
446
100
AcDbEntity
  8
0
370
    30
390
0
 62
     7
 48
0.054557
100
AcDbLine
 10
4.708073
 20
12.255049
 30
0.0
 11
2.52581
 21
12.255049
 31
0.0
210
0.0
220
0.0
230
1.0
  0
LINE
  5
447
100
AcDbEntity
  8
0
370
    30
390
0
 62
     7
 48
0.006887
100
AcDbLine
 10
4.708073
 20
12.530519
 30
0.0
 11
4.708073
 21
12.255049
 31
0.0
210
0.0
220
0.0
230
1.0
  0
LINE
  5
448
100
AcDbEntity
  8
0
370
    30
390
0
 62
     7
 48
0.042713
100
AcDbLine
 10
2.999552
 20
12.530519
 30
0.0
 11
4.708073
 21
12.530519
 31
0.0
210
0.0
220
0.0
230
1.0
  0
LINE
  5
449
100
AcDbEntity
  8
0
370
    30
390
0
 62
     7
 48
0.051648
100
AcDbLine
 10
4.716923
 20
13.678853
 30
0.0
 11
2.999552
 21
12.530519
 31
0.0
210
0.0
220
0.0
230
1.0
  0
LINE
  5
44A
100
AcDbEntity
  8
0
370
    30
390
0
 62
     7
 48
0.007401
100
AcDbLine
 10
4.716923
 20
13.974898
 30
0.0
 11
4.716923
 21
13.678853
 31
0.0
210
0.0
220
0.0
230
1.0
  0
LINE
  5
44B
100
AcDbEntity
  8
0
370
    30
390
0
 62
     7
 48
0.054657
100
AcDbLine
 10
2.528446
 20
10.866884
 30
0.0
 11
4.714713
 21
10.866884
 31
0.0
210
0.0
220
0.0
230
1.0
  0
LINE
  5
44C
100
AcDbEntity
  8
0
370
    30
390
0
 62
     7
 48
0.006829
100
AcDbLine
 10
2.528446
 20
10.866884
 30
0.0
 11
2.528446
 21
10.593715
 31
0.0
210
0.0
220
0.0
230
1.0
  0
LINE
  5
44D
100
AcDbEntity
  8
0
370
    30
390
0
 62
     7
 48
0.054657
100
AcDbLine
 10
4.714713
 20
10.593715
 30
0.0
 11
2.528446
 21
10.593715
 31
0.0
210
0.0
220
0.0
230
1.0
  0
LINE
  5
44E
100
AcDbEntity
  8
0
370
    30
390
0
 62
     7
 48
0.006829
100
AcDbLine
 10
4.714713
 20
10.866884
 30
0.0
 11
4.714713
 21
10.593715
 31
0.0
210
0.0
220
0.0
230
1.0
  0
LINE
  5
44F
100
AcDbEntity
  8
0
370
    30
390
0
 62
     7
 48
0.042964
100
AcDbLine
 10
4.714713
 20
10.233449
 30
0.0
 11
4.714713
 21
8.514876
 31
0.0
210
0.0
220
0.0
230
1.0
  0
LINE
  5
450
100
AcDbEntity
  8
0
370
    30
390
0
 62
     7
 48
0.006419
100
AcDbLine
 10
4.457939
 20
10.234798
 30
0.0
 11
4.714713
 21
10.233449
 31
0.0
210
0.0
220
0.0
230
1.0
  0
LINE
  5
451
100
AcDbEntity
  8
0
370
    30
390
0
 62
     7
 48
0.018031
100
AcDbLine
 10
4.457939
 20
9.51357
 30
0.0
 11
4.457939
 21
10.234798
 31
0.0
210
0.0
220
0.0
230
1.0
  0
LINE
  5
452
100
AcDbEntity
  8
0
370
    30
390
0
 62
     7
 48
0.048237
100
AcDbLine
 10
2.528446
 20
9.51357
 30
0.0
 11
4.457939
 21
9.51357
 31
0.0
210
0.0
220
0.0
230
1.0
  0
LINE
  5
453
100
AcDbEntity
  8
0
370
    30
390
0
 62
     7
 48
0.007285
100
AcDbLine
 10
2.528446
 20
9.222163
 30
0.0
 11
2.528446
 21
9.51357
 31
0.0
210
0.0
220
0.0
230
1.0
  0
LINE
  5
454
100
AcDbEntity
  8
0
370
    30
390
0
 62
     7
 48
0.048196
100
AcDbLine
 10
4.456291
 20
9.222163
 30
0.0
 11
2.528446
 21
9.222163
 31
0.0
210
0.0
220
0.0
230
1.0
  0
LINE
  5
455
100
AcDbEntity
  8
0
370
    30
390
0
 62
     7
 48
0.017682
100
AcDbLine
 10
4.456291
 20
8.514876
 30
0.0
 11
4.456291
 21
9.222163
 31
0.0
210
0.0
220
0.0
230
1.0
  0
LINE
  5
456
100
AcDbEntity
  8
0
370
    30
390
0
 62
     7
 48
0.006461
100
AcDbLine
 10
4.714713
 20
8.514876
 30
0.0
 11
4.456291
 21
8.514876
 31
0.0
210
0.0
220
0.0
230
1.0
  0
LINE
  5
457
100
AcDbEntity
  8
0
370
    30
390
0
 62
     7
 48
0.05845
100
AcDbLine
 10
2.528446
 20
8.447768
 30
0.0
 11
4.709489
 21
7.605623
 31
0.0
210
0.0
220
0.0
230
1.0
  0
LINE
  5
458
100
AcDbEntity
  8
0
370
    30
390
0
 62
     7
 48
0.007684
100
AcDbLine
 10
2.529997
 20
8.140419
 30
0.0
 11
2.528446
 21
8.447768
 31
0.0
210
0.0
220
0.0
230
1.0
  0
LINE
  5
459
100
AcDbEntity
  8
0
370
    30
390
0
 62
     7
 48
0.017626
100
AcDbLine
 10
3.192948
 20
7.900459
 30
0.0
 11
2.529997
 21
8.140419
 31
0.0
210
0.0
220
0.0
230
1.0
  0
LINE
  5
45A
100
AcDbEntity
  8
0
370
    30
390
0
 62
     7
 48
0.023088
100
AcDbLine
 10
3.192948
 20
6.976936
 30
0.0
 11
3.192948
 21
7.900459
 31
0.0
210
0.0
220
0.0
230
1.0
  0
LINE
  5
45B
100
AcDbEntity
  8
0
370
    30
390
0
 62
     7
 48
0.017804
100
AcDbLine
 10
2.5283
 20
6.721205
 30
0.0
 11
3.192948
 21
6.976936
 31
0.0
210
0.0
220
0.0
230
1.0
  0
LINE
  5
45C
100
AcDbEntity
  8
0
370
    30
390
0
 62
     7
 48
0.00793
100
AcDbLine
 10
2.5283
 20
6.404018
 30
0.0
 11
2.5283
 21
6.721205
 31
0.0
210
0.0
220
0.0
230
1.0
  0
LINE
  5
45D
100
AcDbEntity
  8
0
370
    30
390
0
 62
     7
 48
0.058914
100
AcDbLine
 10
4.709489
 20
7.296077
 30
0.0
 11
2.5283
 21
6.404018
 31
0.0
210
0.0
220
0.0
230
1.0
  0
LINE
  5
45E
100
AcDbEntity
  8
0
370
    30
390
0
 62
     7
 48
0.007739
100
AcDbLine
 10
4.709489
 20
7.605623
 30
0.0
 11
4.709489
 21
7.296077
 31
0.0
210
0.0
220
0.0
230
1.0
  0
LINE
  5
45F
100
AcDbEntity
  8
0
370
    30
390
0
 62
     7
 48
0.054523
100
AcDbLine
 10
4.709232
 20
6.181276
 30
0.0
 11
2.5283
 21
6.179933
 31
0.0
210
0.0
220
0.0
230
1.0
  0
LINE
  5
460
100
AcDbEntity
  8
0
370
    30
390
0
 62
     7
 48
0.033978
100
AcDbLine
 10
2.5283
 20
6.179933
 30
0.0
 11
2.5283
 21
4.820802
 31
0.0
210
0.0
220
0.0
230
1.0
  0
LINE
  5
461
100
AcDbEntity
  8
0
370
    30
390
0
 62
     7
 48
0.006416
100
AcDbLine
 10
2.5283
 20
4.820802
 30
0.0
 11
2.784953
 21
4.820802
 31
0.0
210
0.0
220
0.0
230
1.0
  0
LINE
  5
462
100
AcDbEntity
  8
0
370
    30
390
0
 62
     7
 48
0.026815
100
AcDbLine
 10
2.784953
 20
4.820802
 30
0.0
 11
2.784953
 21
5.89341
 31
0.0
210
0.0
220
0.0
230
1.0
  0
LINE
  5
463
100
AcDbEntity
  8
0
370
    30
390
0
 62
     7
 48
0.048107
100
AcDbLine
 10
2.784953
 20
5.89341
 30
0.0
 11
4.709232
 21
5.89341
 31
0.0
210
0.0
220
0.0
230
1.0
  0
LINE
  5
464
100
AcDbEntity
  8
0
370
    30
390
0
 62
     7
 48
0.007197
100
AcDbLine
 10
4.709232
 20
5.89341
 30
0.0
 11
4.709232
 21
6.181276
 31
0.0
210
0.0
220
0.0
230
1.0
  0
LINE
  5
465
100
AcDbEntity
  8
0
370
    30
390
0
 62
     7
 48
0.023358
100
AcDbLine
 10
3.462602
 20
3.860628
 30
0.0
 11
2.5283
 21
3.860628
 31
0.0
210
0.0
220
0.0
230
1.0
  0
LINE
  5
466
100
AcDbEntity
  8
0
370
    30
390
0
 62
     7
 48
0.007232
100
AcDbLine
 10
2.5283
 20
3.860628
 30
0.0
 11
2.5283
 21
3.571333
 31
0.0
210
0.0
220
0.0
230
1.0
  0
LINE
  5
467
100
AcDbEntity
  8
0
370
    30
390
0
 62
     7
 48
0.023045
100
AcDbLine
 10
2.5283
 20
3.571333
 30
0.0
 11
3.450089
 21
3.571333
 31
0.0
210
0.0
220
0.0
230
1.0
  0
LINE
  5
468
100
AcDbEntity
  8
0
370
    30
390
0
 62
     7
 48
0.038307
100
AcDbLine
 10
3.450089
 20
3.571333
 30
0.0
 11
4.710526
 21
2.700014
 31
0.0
210
0.0
220
0.0
230
1.0
  0
LINE
  5
469
100
AcDbEntity
  8
0
370
    30
390
0
 62
     7
 48
0.008409
100
AcDbLine
 10
4.710526
 20
2.700014
 30
0.0
 11
4.710526
 21
3.036379
 31
0.0
210
0.0
220
0.0
230
1.0
  0
LINE
  5
46A
100
AcDbEntity
  8
0
370
    30
390
0
 62
     7
 48
0.030596
100
AcDbLine
 10
4.710526
 20
3.036379
 30
0.0
 11
3.678556
 21
3.694252
 31
0.0
210
0.0
220
0.0
230
1.0
  0
LINE
  5
46B
100
AcDbEntity
  8
0
370
    30
390
0
 62
     7
 48
0.03051
100
AcDbLine
 10
3.678556
 20
3.694252
 30
0.0
 11
4.710526
 21
4.345754
 31
0.0
210
0.0
220
0.0
230
1.0
  0
LINE
  5
46C
100
AcDbEntity
  8
0
370
    30
390
0
 62
     7
 48
0.008786
100
AcDbLine
 10
4.710526
 20
4.345754
 30
0.0
 11
4.710526
 21
4.6972
 31
0.0
210
0.0
220
0.0
230
1.0
  0
LINE
  5
46D
100
AcDbEntity
  8
0
370
    30
390
0
 62
     7
 48
0.03756
100
AcDbLine
 10
4.710526
 20
4.6972
 30
0.0
 11
3.462602
 21
3.860628
 31
0.0
210
0.0
220
0.0
230
1.0
  0
LINE
  5
46E
100
AcDbEntity
  8
0
370
    30
390
0
 62
     7
 48
0.021
100
AcDbLine
 10
3.928642
 20
-3.189628
 30
0.0
 11
4.768642
 21
-3.189628
 31
0.0
210
0.0
220
0.0
230
1.0
  0
LINE
  5
46F
100
AcDbEntity
  8
0
370
    30
390
0
 62
     7
 48
0.012
100
AcDbLine
 10
3.928642
 20
-2.709628
 30
0.0
 11
3.928642
 21
-3.189628
 31
0.0
210
0.0
220
0.0
230
1.0
  0
LINE
  5
470
100
AcDbEntity
  8
0
370
    30
390
0
 62
     7
 48
0.015892
100
AcDbLine
 10
3.328642
 20
-2.499628
 30
0.0
 11
3.928642
 21
-2.709628
 31
0.0
210
0.0
220
0.0
230
1.0
  0
LINE
  5
471
100
AcDbEntity
  8
0
370
    30
390
0
 62
     7
 48
0.01875
100
AcDbLine
 10
3.328642
 20
-1.749628
 30
0.0
 11
3.328642
 21
-2.499628
 31
0.0
210
0.0
220
0.0
230
1.0
  0
LINE
  5
472
100
AcDbEntity
  8
0
370
    30
390
0
 62
     7
 48
0.038141
100
AcDbLine
 10
4.768642
 20
-2.253628
 30
0.0
 11
3.328642
 21
-1.749628
 31
0.0
210
0.0
220
0.0
230
1.0
  0
LINE
  5
473
100
AcDbEntity
  8
0
370
    30
390
0
 62
     7
 48
0.0234
100
AcDbLine
 10
4.768642
 20
-2.253628
 30
0.0
 11
4.768642
 21
-3.189628
 31
0.0
210
0.0
220
0.0
230
1.0
  0
LINE
  5
474
100
AcDbEntity
  8
0
370
    30
390
0
 62
     7
 48
0.036
100
AcDbLine
 10
4.888642
 20
-3.189628
 30
0.0
 11
6.328642
 21
-3.189628
 31
0.0
210
0.0
220
0.0
230
1.0
  0
LINE
  5
475
100
AcDbEntity
  8
0
370
    30
390
0
 62
     7
 48
0.02235
100
AcDbLine
 10
4.888642
 20
-2.295628
 30
0.0
 11
4.888642
 21
-3.189628
 31
0.0
210
0.0
220
0.0
230
1.0
  0
LINE
  5
476
100
AcDbEntity
  8
0
370
    30
390
0
 62
     7
 48
0.038141
100
AcDbLine
 10
6.328642
 20
-2.799628
 30
0.0
 11
4.888642
 21
-2.295628
 31
0.0
210
0.0
220
0.0
230
1.0
  0
LINE
  5
477
100
AcDbEntity
  8
0
370
    30
390
0
 62
     7
 48
0.00975
100
AcDbLine
 10
6.328642
 20
-2.799628
 30
0.0
 11
6.328642
 21
-3.189628
 31
0.0
210
0.0
220
0.0
230
1.0
  0
LINE
  5
478
100
AcDbEntity
  8
0
370
    30
390
0
 62
     7
 48
0.0234
100
AcDbLine
 10
4.768642
 20
-3.309628
 30
0.0
 11
4.768642
 21
-4.245628
 31
0.0
210
0.0
220
0.0
230
1.0
  0
LINE
  5
479
100
AcDbEntity
  8
0
370
    30
390
0
 62
     7
 48
0.038141
100
AcDbLine
 10
4.768642
 20
-4.245628
 30
0.0
 11
3.328642
 21
-4.749628
 31
0.0
210
0.0
220
0.0
230
1.0
  0
LINE
  5
47A
100
AcDbEntity
  8
0
370
    30
390
0
 62
     7
 48
0.01875
100
AcDbLine
 10
3.328642
 20
-3.999628
 30
0.0
 11
3.328642
 21
-4.749628
 31
0.0
210
0.0
220
0.0
230
1.0
  0
LINE
  5
47B
100
AcDbEntity
  8
0
370
    30
390
0
 62
     7
 48
0.015892
100
AcDbLine
 10
3.328642
 20
-3.999628
 30
0.0
 11
3.928642
 21
-3.789628
 31
0.0
210
0.0
220
0.0
230
1.0
  0
LINE
  5
47C
100
AcDbEntity
  8
0
370
    30
390
0
 62
     7
 48
0.012
100
AcDbLine
 10
3.928642
 20
-3.309628
 30
0.0
 11
3.928642
 21
-3.789628
 31
0.0
210
0.0
220
0.0
230
1.0
  0
LINE
  5
47D
100
AcDbEntity
  8
0
370
    30
390
0
 62
     7
 48
0.021
100
AcDbLine
 10
3.928642
 20
-3.309628
 30
0.0
 11
4.768642
 21
-3.309628
 31
0.0
210
0.0
220
0.0
230
1.0
  0
LINE
  5
47E
100
AcDbEntity
  8
0
370
    30
390
0
 62
     7
 48
0.00975
100
AcDbLine
 10
6.328642
 20
-3.309628
 30
0.0
 11
6.328642
 21
-3.699628
 31
0.0
210
0.0
220
0.0
230
1.0
  0
LINE
  5
47F
100
AcDbEntity
  8
0
370
    30
390
0
 62
     7
 48
0.038141
100
AcDbLine
 10
6.328642
 20
-3.699628
 30
0.0
 11
4.888642
 21
-4.203628
 31
0.0
210
0.0
220
0.0
230
1.0
  0
LINE
  5
480
100
AcDbEntity
  8
0
370
    30
390
0
 62
     7
 48
0.02235
100
AcDbLine
 10
4.888642
 20
-3.309628
 30
0.0
 11
4.888642
 21
-4.203628
 31
0.0
210
0.0
220
0.0
230
1.0
  0
LINE
  5
481
100
AcDbEntity
  8
0
370
    30
390
0
 62
     7
 48
0.036
100
AcDbLine
 10
4.888642
 20
-3.309628
 30
0.0
 11
6.328642
 21
-3.309628
 31
0.0
210
0.0
220
0.0
230
1.0
  0
LINE
  5
482
100
AcDbEntity
  8
0
370
    30
390
0
 62
     7
 48
0.021
100
AcDbLine
 10
4.768642
 20
-4.959628
 30
0.0
 11
4.768642
 21
-5.799628
 31
0.0
210
0.0
220
0.0
230
1.0
  0
LINE
  5
483
100
AcDbEntity
  8
0
370
    30
390
0
 62
     7
 48
0.036
100
AcDbLine
 10
3.328642
 20
-5.799628
 30
0.0
 11
4.768642
 21
-5.799628
 31
0.0
210
0.0
220
0.0
230
1.0
  0
LINE
  5
484
100
AcDbEntity
  8
0
370
    30
390
0
 62
     7
 48
0.021
100
AcDbLine
 10
3.328642
 20
-4.959628
 30
0.0
 11
3.328642
 21
-5.799628
 31
0.0
210
0.0
220
0.0
230
1.0
  0
LINE
  5
485
100
AcDbEntity
  8
0
370
    30
390
0
 62
     7
 48
0.036
100
AcDbLine
 10
3.328642
 20
-4.959628
 30
0.0
 11
4.768642
 21
-4.959628
 31
0.0
210
0.0
220
0.0
230
1.0
  0
LINE
  5
486
100
AcDbEntity
  8
0
370
    30
390
0
 62
     7
 48
0.021
100
AcDbLine
 10
6.328642
 20
-4.959628
 30
0.0
 11
6.328642
 21
-5.799628
 31
0.0
210
0.0
220
0.0
230
1.0
  0
LINE
  5
487
100
AcDbEntity
  8
0
370
    30
390
0
 62
     7
 48
0.036
100
AcDbLine
 10
4.888642
 20
-5.799628
 30
0.0
 11
6.328642
 21
-5.799628
 31
0.0
210
0.0
220
0.0
230
1.0
  0
LINE
  5
488
100
AcDbEntity
  8
0
370
    30
390
0
 62
     7
 48
0.021
100
AcDbLine
 10
4.888642
 20
-4.959628
 30
0.0
 11
4.888642
 21
-5.799628
 31
0.0
210
0.0
220
0.0
230
1.0
  0
LINE
  5
489
100
AcDbEntity
  8
0
370
    30
390
0
 62
     7
 48
0.036
100
AcDbLine
 10
4.888642
 20
-4.959628
 30
0.0
 11
6.328642
 21
-4.959628
 31
0.0
210
0.0
220
0.0
230
1.0
  0
LINE
  5
48A
100
AcDbEntity
  8
0
370
    30
390
0
 62
     7
 48
0.024
100
AcDbLine
 10
4.768642
 20
-5.919628
 30
0.0
 11
4.768642
 21
-6.879628
 31
0.0
210
0.0
220
0.0
230
1.0
  0
ARC
  5
48B
100
AcDbEntity
  8
0
370
    30
390
0
 62
     7
100
AcDbCircle
 10
4.228642
 20
-6.159628
 30
0.0
 40
0.9
210
0.0
220
0.0
230
1.0
100
AcDbArc
 50
180.0
 51
306.869898
  0
LINE
  5
48C
100
AcDbEntity
  8
0
370
    30
390
0
 62
     7
 48
0.006
100
AcDbLine
 10
3.328642
 20
-5.919628
 30
0.0
 11
3.328642
 21
-6.159628
 31
0.0
210
0.0
220
0.0
230
1.0
  0
LINE
  5
48D
100
AcDbEntity
  8
0
370
    30
390
0
 62
     7
 48
0.036
100
AcDbLine
 10
3.328642
 20
-5.919628
 30
0.0
 11
4.768642
 21
-5.919628
 31
0.0
210
0.0
220
0.0
230
1.0
  0
LINE
  5
48E
100
AcDbEntity
  8
0
370
    30
390
0
 62
     7
 48
0.006
100
AcDbLine
 10
6.328642
 20
-5.919628
 30
0.0
 11
6.328642
 21
-6.159628
 31
0.0
210
0.0
220
0.0
230
1.0
  0
ARC
  5
48F
100
AcDbEntity
  8
0
370
    30
390
0
 62
     7
100
AcDbCircle
 10
5.653642
 20
-6.159628
 30
0.0
 40
0.675
210
0.0
220
0.0
230
1.0
100
AcDbArc
 50
209.384681
 51
360.0
  0
ARC
  5
490
100
AcDbEntity
  8
0
370
    30
390
0
 62
     7
100
AcDbCircle
 10
4.228642
 20
-6.159628
 30
0.0
 40
0.9
210
0.0
220
0.0
230
1.0
100
AcDbArc
 50
317.166572
 51
338.407484
  0
LINE
  5
491
100
AcDbEntity
  8
0
370
    30
390
0
 62
     7
 48
0.021297
100
AcDbLine
 10
4.888642
 20
-5.919628
 30
0.0
 11
4.888642
 21
-6.77151
 31
0.0
210
0.0
220
0.0
230
1.0
  0
LINE
  5
492
100
AcDbEntity
  8
0
370
    30
390
0
 62
     7
 48
0.036
100
AcDbLine
 10
4.888642
 20
-5.919628
 30
0.0
 11
6.328642
 21
-5.919628
 31
0.0
210
0.0
220
0.0
230
1.0
  0
LINE
  5
493
100
AcDbEntity
  8
0
370
    30
390
0
 62
     7
 48
0.021
100
AcDbLine
 10
4.768642
 20
-7.299628
 30
0.0
 11
4.768642
 21
-8.139628
 31
0.0
210
0.0
220
0.0
230
1.0
  0
LINE
  5
494
100
AcDbEntity
  8
0
370
    30
390
0
 62
     7
 48
0.036
100
AcDbLine
 10
3.328642
 20
-8.139628
 30
0.0
 11
4.768642
 21
-8.139628
 31
0.0
210
0.0
220
0.0
230
1.0
  0
LINE
  5
495
100
AcDbEntity
  8
0
370
    30
390
0
 62
     7
 48
0.021
100
AcDbLine
 10
3.328642
 20
-7.299628
 30
0.0
 11
3.328642
 21
-8.139628
 31
0.0
210
0.0
220
0.0
230
1.0
  0
LINE
  5
496
100
AcDbEntity
  8
0
370
    30
390
0
 62
     7
 48
0.036
100
AcDbLine
 10
3.328642
 20
-7.299628
 30
0.0
 11
4.768642
 21
-7.299628
 31
0.0
210
0.0
220
0.0
230
1.0
  0
LINE
  5
497
100
AcDbEntity
  8
0
370
    30
390
0
 62
     7
 48
0.021
100
AcDbLine
 10
6.328642
 20
-7.299628
 30
0.0
 11
6.328642
 21
-8.139628
 31
0.0
210
0.0
220
0.0
230
1.0
  0
LINE
  5
498
100
AcDbEntity
  8
0
370
    30
390
0
 62
     7
 48
0.036
100
AcDbLine
 10
4.888642
 20
-8.139628
 30
0.0
 11
6.328642
 21
-8.139628
 31
0.0
210
0.0
220
0.0
230
1.0
  0
LINE
  5
499
100
AcDbEntity
  8
0
370
    30
390
0
 62
     7
 48
0.021
100
AcDbLine
 10
4.888642
 20
-7.299628
 30
0.0
 11
4.888642
 21
-8.139628
 31
0.0
210
0.0
220
0.0
230
1.0
  0
LINE
  5
49A
100
AcDbEntity
  8
0
370
    30
390
0
 62
     7
 48
0.036
100
AcDbLine
 10
4.888642
 20
-7.299628
 30
0.0
 11
6.328642
 21
-7.299628
 31
0.0
210
0.0
220
0.0
230
1.0
  0
LINE
  5
49B
100
AcDbEntity
  8
0
370
    30
390
0
 62
     7
 48
0.024
100
AcDbLine
 10
4.768642
 20
-8.259628
 30
0.0
 11
4.768642
 21
-9.219628
 31
0.0
210
0.0
220
0.0
230
1.0
  0
ARC
  5
49C
100
AcDbEntity
  8
0
370
    30
390
0
 62
     7
100
AcDbCircle
 10
4.228642
 20
-8.499628
 30
0.0
 40
0.9
210
0.0
220
0.0
230
1.0
100
AcDbArc
 50
180.0
 51
306.869898
  0
LINE
  5
49D
100
AcDbEntity
  8
0
370
    30
390
0
 62
     7
 48
0.006
100
AcDbLine
 10
3.328642
 20
-8.259628
 30
0.0
 11
3.328642
 21
-8.499628
 31
0.0
210
0.0
220
0.0
230
1.0
  0
LINE
  5
49E
100
AcDbEntity
  8
0
370
    30
390
0
 62
     7
 48
0.036
100
AcDbLine
 10
3.328642
 20
-8.259628
 30
0.0
 11
4.768642
 21
-8.259628
 31
0.0
210
0.0
220
0.0
230
1.0
  0
LINE
  5
49F
100
AcDbEntity
  8
0
370
    30
390
0
 62
     7
 48
0.006
100
AcDbLine
 10
6.328642
 20
-8.259628
 30
0.0
 11
6.328642
 21
-8.499628
 31
0.0
210
0.0
220
0.0
230
1.0
  0
ARC
  5
4A0
100
AcDbEntity
  8
0
370
    30
390
0
 62
     7
100
AcDbCircle
 10
5.653642
 20
-8.499628
 30
0.0
 40
0.675
210
0.0
220
0.0
230
1.0
100
AcDbArc
 50
209.384681
 51
360.0
  0
ARC
  5
4A1
100
AcDbEntity
  8
0
370
    30
390
0
 62
     7
100
AcDbCircle
 10
4.228642
 20
-8.499628
 30
0.0
 40
0.9
210
0.0
220
0.0
230
1.0
100
AcDbArc
 50
317.166572
 51
338.407484
  0
LINE
  5
4A2
100
AcDbEntity
  8
0
370
    30
390
0
 62
     7
 48
0.021297
100
AcDbLine
 10
4.888642
 20
-8.259628
 30
0.0
 11
4.888642
 21
-9.11151
 31
0.0
210
0.0
220
0.0
230
1.0
  0
LINE
  5
4A3
100
AcDbEntity
  8
0
370
    30
390
0
 62
     7
 48
0.036
100
AcDbLine
 10
4.888642
 20
-8.259628
 30
0.0
 11
6.328642
 21
-8.259628
 31
0.0
210
0.0
220
0.0
230
1.0
  0
CIRCLE
  5
4A4
100
AcDbEntity
  8
0
370
    30
390
0
 62
     7
100
AcDbCircle
 10
23.72866
 20
-1.699986
 30
0.0
 40
1.6
210
0.0
220
0.0
230
1.0
  0
CIRCLE
  5
4A5
100
AcDbEntity
  8
0
370
    30
390
0
 62
     7
100
AcDbCircle
 10
55.008994
 20
20.750014
 30
0.0
 40
0.425
210
0.0
220
0.0
230
1.0
  0
LINE
  5
4A6
100
AcDbEntity
  8
0
370
    30
390
0
 62
     7
 48
0.027898
100
AcDbLine
 10
4.478617
 20
21.197591
 30
0.0
 11
3.420012
 21
21.55061
 31
0.0
210
0.0
220
0.0
230
1.0
  0
LINE
  5
4A7
100
AcDbEntity
  8
0
370
    30
390
0
 62
     7
 48
0.028226
100
AcDbLine
 10
3.420012
 20
20.805055
 30
0.0
 11
4.478617
 21
21.197591
 31
0.0
210
0.0
220
0.0
230
1.0
  0
LINE
  5
4A8
100
AcDbEntity
  8
0
370
    30
390
0
 62
     7
 48
0.018639
100
AcDbLine
 10
3.420012
 20
21.55061
 30
0.0
 11
3.420012
 21
20.805055
 31
0.0
210
0.0
220
0.0
230
1.0
  0
LINE
  5
4A9
100
AcDbEntity
  8
0
370
    30
390
0
 62
     7
 48
0.041859
100
AcDbLine
 10
2.784586
 20
19.621913
 30
0.0
 11
4.458939
 21
19.621913
 31
0.0
210
0.0
220
0.0
230
1.0
  0
LINE
  5
4AA
100
AcDbEntity
  8
0
370
    30
390
0
 62
     7
 48
0.012545
100
AcDbLine
 10
4.458939
 20
19.621913
 30
0.0
 11
4.458939
 21
19.120094
 31
0.0
210
0.0
220
0.0
230
1.0
  0
LINE
  5
4AB
100
AcDbEntity
  8
0
370
    30
390
0
 62
     7
 48
0.003291
100
AcDbLine
 10
4.448661
 20
18.988857
 30
0.0
 11
4.458939
 21
19.120094
 31
0.0
210
0.0
220
0.0
230
1.0
  0
LINE
  5
4AC
100
AcDbEntity
  8
0
370
    30
390
0
 62
     7
 48
0.003886
100
AcDbLine
 10
4.448661
 20
18.988857
 30
0.0
 11
4.427091
 21
18.834932
 31
0.0
210
0.0
220
0.0
230
1.0
  0
LINE
  5
4AD
100
AcDbEntity
  8
0
370
    30
390
0
 62
     7
 48
0.002244
100
AcDbLine
 10
4.427091
 20
18.834932
 30
0.0
 11
4.393205
 21
18.751814
 31
0.0
210
0.0
220
0.0
230
1.0
  0
LINE
  5
4AE
100
AcDbEntity
  8
0
370
    30
390
0
 62
     7
 48
0.001837
100
AcDbLine
 10
4.393205
 20
18.751814
 30
0.0
 11
4.358293
 21
18.687166
 31
0.0
210
0.0
220
0.0
230
1.0
  0
LINE
  5
4AF
100
AcDbEntity
  8
0
370
    30
390
0
 62
     7
 48
0.002074
100
AcDbLine
 10
4.358293
 20
18.687166
 30
0.0
 11
4.303861
 21
18.624568
 31
0.0
210
0.0
220
0.0
230
1.0
  0
LINE
  5
4B0
100
AcDbEntity
  8
0
370
    30
390
0
 62
     7
 48
0.002519
100
AcDbLine
 10
4.303861
 20
18.624568
 30
0.0
 11
4.228434
 21
18.557753
 31
0.0
210
0.0
220
0.0
230
1.0
  0
LINE
  5
4B1
100
AcDbEntity
  8
0
370
    30
390
0
 62
     7
 48
0.002451
100
AcDbLine
 10
4.228434
 20
18.557753
 30
0.0
 11
4.147514
 21
18.502437
 31
0.0
210
0.0
220
0.0
230
1.0
  0
LINE
  5
4B2
100
AcDbEntity
  8
0
370
    30
390
0
 62
     7
 48
0.002877
100
AcDbLine
 10
4.147514
 20
18.502437
 30
0.0
 11
4.042765
 21
18.454781
 31
0.0
210
0.0
220
0.0
230
1.0
  0
LINE
  5
4B3
100
AcDbEntity
  8
0
370
    30
390
0
 62
     7
 48
0.002045
100
AcDbLine
 10
4.042765
 20
18.454781
 30
0.0
 11
3.963554
 21
18.434352
 31
0.0
210
0.0
220
0.0
230
1.0
  0
LINE
  5
4B4
100
AcDbEntity
  8
0
370
    30
390
0
 62
     7
 48
0.002051
100
AcDbLine
 10
3.963554
 20
18.434352
 30
0.0
 11
3.883244
 21
18.417598
 31
0.0
210
0.0
220
0.0
230
1.0
  0
LINE
  5
4B5
100
AcDbEntity
  8
0
370
    30
390
0
 62
     7
 48
0.002498
100
AcDbLine
 10
3.883244
 20
18.417598
 30
0.0
 11
3.78411
 21
18.405135
 31
0.0
210
0.0
220
0.0
230
1.0
  0
LINE
  5
4B6
100
AcDbEntity
  8
0
370
    30
390
0
 62
     7
 48
0.002684
100
AcDbLine
 10
3.78411
 20
18.405135
 30
0.0
 11
3.676872
 21
18.400154
 31
0.0
210
0.0
220
0.0
230
1.0
  0
LINE
  5
4B7
100
AcDbEntity
  8
0
370
    30
390
0
 62
     7
 48
0.002456
100
AcDbLine
 10
3.676872
 20
18.400154
 30
0.0
 11
3.578629
 21
18.400154
 31
0.0
210
0.0
220
0.0
230
1.0
  0
LINE
  5
4B8
100
AcDbEntity
  8
0
370
    30
390
0
 62
     7
 48
0.002429
100
AcDbLine
 10
3.578629
 20
18.400154
 30
0.0
 11
3.481608
 21
18.405159
 31
0.0
210
0.0
220
0.0
230
1.0
  0
LINE
  5
4B9
100
AcDbEntity
  8
0
370
    30
390
0
 62
     7
 48
0.002354
100
AcDbLine
 10
3.481608
 20
18.405159
 30
0.0
 11
3.388212
 21
18.417281
 31
0.0
210
0.0
220
0.0
230
1.0
  0
LINE
  5
4BA
100
AcDbEntity
  8
0
370
    30
390
0
 62
     7
 48
0.003099
100
AcDbLine
 10
3.388212
 20
18.417281
 30
0.0
 11
3.266532
 21
18.440883
 31
0.0
210
0.0
220
0.0
230
1.0
  0
LINE
  5
4BB
100
AcDbEntity
  8
0
370
    30
390
0
 62
     7
 48
0.00269
100
AcDbLine
 10
3.266532
 20
18.440883
 30
0.0
 11
3.164237
 21
18.474275
 31
0.0
210
0.0
220
0.0
230
1.0
  0
LINE
  5
4BC
100
AcDbEntity
  8
0
370
    30
390
0
 62
     7
 48
0.002665
100
AcDbLine
 10
3.164237
 20
18.474275
 30
0.0
 11
3.068388
 21
18.520955
 31
0.0
210
0.0
220
0.0
230
1.0
  0
LINE
  5
4BD
100
AcDbEntity
  8
0
370
    30
390
0
 62
     7
 48
0.002333
100
AcDbLine
 10
3.068388
 20
18.520955
 30
0.0
 11
2.989176
 21
18.570308
 31
0.0
210
0.0
220
0.0
230
1.0
  0
LINE
  5
4BE
100
AcDbEntity
  8
0
370
    30
390
0
 62
     7
 48
0.002177
100
AcDbLine
 10
2.989176
 20
18.570308
 30
0.0
 11
2.924857
 21
18.628981
 31
0.0
210
0.0
220
0.0
230
1.0
  0
LINE
  5
4BF
100
AcDbEntity
  8
0
370
    30
390
0
 62
     7
 48
0.002997
100
AcDbLine
 10
2.924857
 20
18.628981
 30
0.0
 11
2.856828
 21
18.727693
 31
0.0
210
0.0
220
0.0
230
1.0
  0
LINE
  5
4C0
100
AcDbEntity
  8
0
370
    30
390
0
 62
     7
 48
0.002685
100
AcDbLine
 10
2.856828
 20
18.727693
 30
0.0
 11
2.817497
 21
18.82765
 31
0.0
210
0.0
220
0.0
230
1.0
  0
LINE
  5
4C1
100
AcDbEntity
  8
0
370
    30
390
0
 62
     7
 48
0.003205
100
AcDbLine
 10
2.817497
 20
18.82765
 30
0.0
 11
2.792338
 21
18.953371
 31
0.0
210
0.0
220
0.0
230
1.0
  0
LINE
  5
4C2
100
AcDbEntity
  8
0
370
    30
390
0
 62
     7
 48
0.002738
100
AcDbLine
 10
2.784586
 20
19.062611
 30
0.0
 11
2.792338
 21
18.953371
 31
0.0
210
0.0
220
0.0
230
1.0
  0
LINE
  5
4C3
100
AcDbEntity
  8
0
370
    30
390
0
 62
     7
 48
0.013983
100
AcDbLine
 10
2.784586
 20
19.621913
 30
0.0
 11
2.784586
 21
19.062611
 31
0.0
210
0.0
220
0.0
230
1.0
  0
LINE
  5
4C4
100
AcDbEntity
  8
0
370
    30
390
0
 62
     7
 48
0.027638
100
AcDbLine
 10
4.468437
 20
7.453804
 30
0.0
 11
3.424178
 21
7.816764
 31
0.0
210
0.0
220
0.0
230
1.0
  0
LINE
  5
4C5
100
AcDbEntity
  8
0
370
    30
390
0
 62
     7
 48
0.027746
100
AcDbLine
 10
3.424178
 20
7.077968
 30
0.0
 11
4.468437
 21
7.453804
 31
0.0
210
0.0
220
0.0
230
1.0
  0
LINE
  5
4C6
100
AcDbEntity
  8
0
370
    30
390
0
 62
     7
 48
0.01847
100
AcDbLine
 10
3.424178
 20
7.816764
 30
0.0
 11
3.424178
 21
7.077968
 31
0.0
210
0.0
220
0.0
230
1.0
  0
LINE
  5
4C7
100
AcDbEntity
  8
0
370
    30
390
0
 62
     7
 48
0.00125
100
AcDbLine
 10
27.178588
 20
56.200004
 30
0.0
 11
27.178588
 21
56.150009
 31
0.0
210
0.0
220
0.0
230
1.0
  0
ARC
  5
4C8
100
AcDbEntity
  8
0
370
    30
390
0
 62
     7
100
AcDbCircle
 10
54.913331
 20
20.000015
 30
0.0
 40
1.5
210
0.0
220
0.0
230
1.0
100
AcDbArc
 50
77.609482
 51
87.854305
  0
ARC
  5
4C9
100
AcDbEntity
  8
0
370
    30
390
0
 62
     7
100
AcDbCircle
 10
27.298785
 20
56.155656
 30
0.0
 40
0.104686
210
0.0
220
0.0
230
1.0
100
AcDbArc
 50
154.736528
 51
183.068871
  0
LINE
  5
4CA
100
AcDbEntity
  8
0
370
    30
390
0
 62
     7
 48
0.05875
100
AcDbLine
 10
0.428504
 20
-17.749987
 30
0.0
 11
0.428504
 21
-15.399984
 31
0.0
210
0.0
220
0.0
230
1.0
  0
LINE
  5
4CB
100
AcDbEntity
  8
0
370
    30
390
0
 62
     7
 48
0.005
100
AcDbLine
 10
0.428588
 20
-15.399985
 30
0.0
 11
0.428588
 21
-15.199991
 31
0.0
210
0.0
220
0.0
230
1.0
  0
LINE
  5
4CC
100
AcDbEntity
  8
0
370
    30
390
0
 62
     7
 48
0.001141
100
AcDbLine
 10
54.758985
 20
19.000441
 30
0.0
 11
54.713339
 21
19.000441
 31
0.0
210
0.0
220
0.0
230
1.0
  0
LINE
  5
4CD
100
AcDbEntity
  8
0
370
    30
390
0
 62
     7
 48
0.002502
100
AcDbLine
 10
31.278635
 20
55.300015
 30
0.0
 11
31.178558
 21
55.300015
 31
0.0
210
0.0
220
0.0
230
1.0
  0
LINE
  5
4CE
100
AcDbEntity
  8
0
370
    30
390
0
 62
     7
 48
0.0225
100
AcDbLine
 10
31.178558
 20
55.300015
 30
0.0
 11
31.178549
 21
56.200015
 31
0.0
210
0.0
220
0.0
230
1.0
  0
LINE
  5
4CF
100
AcDbEntity
  8
0
370
    30
390
0
 62
     7
 48
0.0375
100
AcDbLine
 10
29.778546
 20
-42.499985
 30
0.0
 11
29.778546
 21
-43.999985
 31
0.0
210
0.0
220
0.0
230
1.0
  0
LINE
  5
4D0
100
AcDbEntity
  8
0
370
    30
390
0
 62
     7
 48
0.025
100
AcDbLine
 10
19.478546
 20
-42.499985
 30
0.0
 11
19.478546
 21
-43.499985
 31
0.0
210
0.0
220
0.0
230
1.0
  0
LINE
  5
4D1
100
AcDbEntity
  8
0
370
    30
390
0
 62
     7
 48
0.02
100
AcDbLine
 10
11.928546
 20
-42.499985
 30
0.0
 11
11.928546
 21
-43.299985
 31
0.0
210
0.0
220
0.0
230
1.0
  0
LINE
  5
4D2
100
AcDbEntity
  8
0
370
    30
390
0
 62
     7
 48
0.020207
100
AcDbLine
 10
11.928546
 20
-43.299985
 30
0.0
 11
12.332691
 21
-43.999985
 31
0.0
210
0.0
220
0.0
230
1.0
  0
LINE
  5
4D3
100
AcDbEntity
  8
0
370
    30
390
0
 62
     7
 48
0.017678
100
AcDbLine
 10
19.478546
 20
-43.499985
 30
0.0
 11
19.978546
 21
-43.999985
 31
0.0
210
0.0
220
0.0
230
1.0
  0
LINE
  5
4D4
100
AcDbEntity
  8
0
370
    30
390
0
 62
     7
100
AcDbLine
 10
0.428504
 20
17.75001
 30
0.0
 11
0.428504
 21
-15.199985
 31
0.0
210
0.0
220
0.0
230
1.0
  0
LINE
  5
4D5
100
AcDbEntity
  8
0
370
    30
390
0
 62
     7
 48
0.0775
100
AcDbLine
 10
42.704987
 20
42.500015
 30
0.0
 11
42.704987
 21
45.600014
 31
0.0
210
0.0
220
0.0
230
1.0
  0
LINE
  5
4D6
100
AcDbEntity
  8
0
370
    30
390
0
 62
     7
 48
0.06125
100
AcDbLine
 10
43.928706
 20
25.000014
 30
0.0
 11
43.928706
 21
22.550014
 31
0.0
210
0.0
220
0.0
230
1.0
  0
LINE
  5
4D7
100
AcDbEntity
  8
0
370
    30
390
0
 62
     7
 48
0.438568
100
AcDbLine
 10
42.704987
 20
42.500015
 30
0.0
 11
43.928706
 21
25.000014
 31
0.0
210
0.0
220
0.0
230
1.0
  0
LINE
  5
4D8
100
AcDbEntity
  8
0
370
    30
390
0
 62
     7
 48
0.17
100
AcDbLine
 10
42.704987
 20
45.600014
 30
0.0
 11
42.704987
 21
52.400014
 31
0.0
210
0.0
220
0.0
230
1.0
  0
LINE
  5
4D9
100
AcDbEntity
  8
0
370
    30
390
0
 62
     7
 48
0.0775
100
AcDbLine
 10
42.704987
 20
52.400014
 30
0.0
 11
42.704987
 21
55.500014
 31
0.0
210
0.0
220
0.0
230
1.0
  0
ARC
  5
4DA
100
AcDbEntity
  8
0
370
    30
390
0
 62
     7
100
AcDbCircle
 10
40.704987
 20
55.500014
 30
0.0
 40
2.0
210
0.0
220
0.0
230
1.0
100
AcDbArc
 50
0.0
 51
89.999454
  0
LINE
  5
4DB
100
AcDbEntity
  8
0
370
    30
390
0
 62
     7
 48
0.014992
100
AcDbLine
 10
26.479018
 20
57.500014
 30
0.0
 11
27.078706
 21
57.500014
 31
0.0
210
0.0
220
0.0
230
1.0
  0
LINE
  5
4DC
100
AcDbEntity
  8
0
370
    30
390
0
 62
     7
 48
0.0225
100
AcDbLine
 10
27.078706
 20
55.300014
 30
0.0
 11
27.078706
 21
56.20001
 31
0.0
210
0.0
220
0.0
230
1.0
  0
LINE
  5
4DD
100
AcDbEntity
  8
0
370
    30
390
0
 62
     7
 48
0.0075
100
AcDbLine
 10
27.078706
 20
55.00001
 30
0.0
 11
27.078706
 21
55.300014
 31
0.0
210
0.0
220
0.0
230
1.0
  0
LINE
  5
4DE
100
AcDbEntity
  8
0
370
    30
390
0
 62
     7
 48
0.140657
100
AcDbLine
 10
35.078706
 20
57.500014
 30
0.0
 11
40.704987
 21
57.500014
 31
0.0
210
0.0
220
0.0
230
1.0
  0
LINE
  5
4DF
100
AcDbEntity
  8
0
370
    30
390
0
 62
     7
 48
0.281242
100
AcDbLine
 10
6.528706
 20
57.500014
 30
0.0
 11
17.778395
 21
57.500014
 31
0.0
210
0.0
220
0.0
230
1.0
  0
LINE
  5
4E0
100
AcDbEntity
  8
0
370
    30
390
0
 62
     7
 48
0.09375
100
AcDbLine
 10
27.078724
 20
56.150013
 30
0.0
 11
30.828724
 21
56.150013
 31
0.0
210
0.0
220
0.0
230
1.0
  0
LINE
  5
4E1
100
AcDbEntity
  8
0
370
    30
390
0
 62
     7
 48
0.011248
100
AcDbLine
 10
31.278638
 20
55.300014
 30
0.0
 11
30.828711
 21
55.300014
 31
0.0
210
0.0
220
0.0
230
1.0
  0
LINE
  5
4E2
100
AcDbEntity
  8
0
370
    30
390
0
 62
     7
 48
0.02125
100
AcDbLine
 10
30.828724
 20
56.150013
 30
0.0
 11
30.828711
 21
55.300014
 31
0.0
210
0.0
220
0.0
230
1.0
  0
LINE
  5
4E3
100
AcDbEntity
  8
0
370
    30
390
0
 62
     7
 48
0.145876
100
AcDbLine
 10
19.328746
 20
57.500013
 30
0.0
 11
25.163799
 21
57.500013
 31
0.0
210
0.0
220
0.0
230
1.0
  0
LINE
  5
4E4
100
AcDbEntity
  8
0
370
    30
390
0
 62
     7
 48
0.038758
100
AcDbLine
 10
19.328746
 20
57.500013
 30
0.0
 11
17.778419
 21
57.500013
 31
0.0
210
0.0
220
0.0
230
1.0
  0
LINE
  5
4E5
100
AcDbEntity
  8
0
370
    30
390
0
 62
     7
 48
0.03
100
AcDbLine
 10
0.278741
 20
57.500013
 30
0.0
 11
1.478741
 21
57.500013
 31
0.0
210
0.0
220
0.0
230
1.0
  0
LINE
  5
4E6
100
AcDbEntity
  8
0
370
    30
390
0
 62
     7
 48
0.12625
100
AcDbLine
 10
-4.771294
 20
57.500014
 30
0.0
 11
0.278706
 21
57.500014
 31
0.0
210
0.0
220
0.0
230
1.0
  0
LINE
  5
4E7
100
AcDbEntity
  8
0
370
    30
390
0
 62
     7
 48
0.032881
100
AcDbLine
 10
25.163799
 20
57.500013
 30
0.0
 11
26.479044
 21
57.500013
 31
0.0
210
0.0
220
0.0
230
1.0
  0
LINE
  5
4E8
100
AcDbEntity
  8
0
370
    30
390
0
 62
     7
 48
0.04
100
AcDbLine
 10
4.928712
 20
57.500014
 30
0.0
 11
6.528712
 21
57.500014
 31
0.0
210
0.0
220
0.0
230
1.0
  0
LINE
  5
4E9
100
AcDbEntity
  8
0
370
    30
390
0
 62
     7
 48
0.01
100
AcDbLine
 10
4.928712
 20
57.500014
 30
0.0
 11
4.528725
 21
57.500014
 31
0.0
210
0.0
220
0.0
230
1.0
  0
LINE
  5
4EA
100
AcDbEntity
  8
0
370
    30
390
0
 62
     7
 48
0.045
100
AcDbLine
 10
4.528744
 20
57.500013
 30
0.0
 11
2.728744
 21
57.500013
 31
0.0
210
0.0
220
0.0
230
1.0
  0
LINE
  5
4EB
100
AcDbEntity
  8
0
370
    30
390
0
 62
     7
 48
0.03125
100
AcDbLine
 10
2.728735
 20
57.500014
 30
0.0
 11
1.478732
 21
57.500014
 31
0.0
210
0.0
220
0.0
230
1.0
  0
LINE
  5
4EC
100
AcDbEntity
  8
0
370
    30
390
0
 62
     7
 48
0.001254
100
AcDbLine
 10
-3.421507
 20
23.400016
 30
0.0
 11
-3.371361
 21
23.400016
 31
0.0
210
0.0
220
0.0
230
1.0
  0
LINE
  5
4ED
100
AcDbEntity
  8
0
370
    30
390
0
 62
     7
 48
0.02125
100
AcDbLine
 10
0.378493
 20
17.750011
 30
0.0
 11
0.378493
 21
16.900016
 31
0.0
210
0.0
220
0.0
230
1.0
  0
LINE
  5
4EE
100
AcDbEntity
  8
0
370
    30
390
0
 62
     7
 48
0.02
100
AcDbLine
 10
0.378493
 20
16.900016
 30
0.0
 11
-0.421507
 21
16.900016
 31
0.0
210
0.0
220
0.0
230
1.0
  0
LINE
  5
4EF
100
AcDbEntity
  8
0
370
    30
390
0
 62
     7
 48
0.02
100
AcDbLine
 10
-0.421507
 20
16.900016
 30
0.0
 11
-0.821507
 21
16.207195
 31
0.0
210
0.0
220
0.0
230
1.0
  0
LINE
  5
4F0
100
AcDbEntity
  8
0
370
    30
390
0
 62
     7
 48
0.020891
100
AcDbLine
 10
-0.821507
 20
16.207195
 30
0.0
 11
-1.037791
 21
15.400016
 31
0.0
210
0.0
220
0.0
230
1.0
  0
LINE
  5
4F1
100
AcDbEntity
  8
0
370
    30
390
0
 62
     7
 48
0.009728
100
AcDbLine
 10
-1.037791
 20
15.400016
 30
0.0
 11
-1.426918
 21
15.400016
 31
0.0
210
0.0
220
0.0
230
1.0
  0
ARC
  5
4F2
100
AcDbEntity
  8
0
370
    30
390
0
 62
     7
100
AcDbCircle
 10
-1.426918
 20
15.700016
 30
0.0
 40
0.3
210
0.0
220
0.0
230
1.0
100
AcDbArc
 50
235.0
 51
270.0
  0
LINE
  5
4F3
100
AcDbEntity
  8
0
370
    30
390
0
 62
     7
 48
0.121152
100
AcDbLine
 10
-1.598991
 20
15.45427
 30
0.0
 11
-5.56866
 21
18.233863
 31
0.0
210
0.0
220
0.0
230
1.0
  0
ARC
  5
4F4
100
AcDbEntity
  8
0
370
    30
390
0
 62
     7
100
AcDbCircle
 10
-4.421507
 20
19.872167
 30
0.0
 40
2.0
210
0.0
220
0.0
230
1.0
100
AcDbArc
 50
180.0
 51
235.0
  0
LINE
  5
4F5
100
AcDbEntity
  8
0
370
    30
390
0
 62
     7
 48
0.061026
100
AcDbLine
 10
-3.421507
 20
25.841063
 30
0.0
 11
-3.421507
 21
23.400016
 31
0.0
210
0.0
220
0.0
230
1.0
  0
LINE
  5
4F6
100
AcDbEntity
  8
0
370
    30
390
0
 62
     7
100
AcDbLine
 10
-6.421507
 20
19.872167
 30
0.0
 11
-6.421507
 21
41.500016
 31
0.0
210
0.0
220
0.0
230
1.0
  0
LINE
  5
4F7
100
AcDbEntity
  8
0
370
    13
390
0
 62
     7
 48
0.003754
100
AcDbLine
 10
-6.421507
 20
41.500016
 30
0.0
 11
-6.271361
 21
41.500016
 31
0.0
210
0.0
220
0.0
230
1.0
  0
LINE
  5
4F8
100
AcDbEntity
  8
0
370
    30
390
0
 62
     7
 48
0.003753
100
AcDbLine
 10
-6.421482
 20
44.000016
 30
0.0
 11
-6.271362
 21
44.000016
 31
0.0
210
0.0
220
0.0
230
1.0
  0
LINE
  5
4F9
100
AcDbEntity
  8
0
370
    30
390
0
 62
     7
 48
0.0625
100
AcDbLine
 10
-6.421482
 20
44.000016
 30
0.0
 11
-6.421482
 21
41.500016
 31
0.0
210
0.0
220
0.0
230
1.0
  0
ARC
  5
4FA
100
AcDbEntity
  8
0
370
    30
390
0
 62
     7
100
AcDbCircle
 10
-0.391343
 20
-17.449984
 30
0.0
 40
0.3
210
0.0
220
0.0
230
1.0
100
AcDbArc
 50
195.0
 51
270.0
  0
LINE
  5
4FB
100
AcDbEntity
  8
0
370
    30
390
0
 62
     7
 48
0.035495
100
AcDbLine
 10
-0.391343
 20
-17.749984
 30
0.0
 11
1.028459
 21
-17.749984
 31
0.0
210
0.0
220
0.0
230
1.0
  0
LINE
  5
4FC
100
AcDbEntity
  8
0
370
    13
390
0
 62
     7
 48
0.005357
100
AcDbLine
 10
-1.15736
 20
-16.549984
 30
0.0
 11
-0.94308
 21
-16.549984
 31
0.0
210
0.0
220
0.0
230
1.0
  0
ARC
  5
4FD
100
AcDbEntity
  8
0
370
    13
390
0
 62
     7
100
AcDbCircle
 10
-1.15736
 20
-19.249984
 30
0.0
 40
2.7
210
0.0
220
0.0
230
1.0
100
AcDbArc
 50
89.999998
 51
130.0
  0
LINE
  5
4FE
100
AcDbEntity
  8
0
370
    13
390
0
 62
     7
 48
0.083918
100
AcDbLine
 10
-2.892887
 20
-17.181664
 30
0.0
 11
-5.46428
 21
-19.339318
 31
0.0
210
0.0
220
0.0
230
1.0
  0
ARC
  5
4FF
100
AcDbEntity
  8
0
370
    13
390
0
 62
     7
100
AcDbCircle
 10
-4.371541
 20
-20.641594
 30
0.0
 40
1.7
210
0.0
220
0.0
230
1.0
100
AcDbArc
 50
129.999996
 51
180.0
  0
LINE
  5
500
100
AcDbEntity
  8
0
370
    13
390
0
 62
     7
100
AcDbLine
 10
-6.071541
 20
-42.199984
 30
0.0
 11
-6.071541
 21
-20.641594
 31
0.0
210
0.0
220
0.0
230
1.0
  0
LINE
  5
501
100
AcDbEntity
  8
0
370
    13
390
0
 62
     7
 48
0.1775
100
AcDbLine
 10
-6.071541
 20
-42.199984
 30
0.0
 11
1.028459
 21
-42.199984
 31
0.0
210
0.0
220
0.0
230
1.0
  0
LINE
  5
502
100
AcDbEntity
  8
0
370
    30
390
0
 62
     7
100
AcDbLine
 10
1.028459
 20
-42.199984
 30
0.0
 11
1.028459
 21
-17.749984
 31
0.0
210
0.0
220
0.0
230
1.0
  0
LINE
  5
503
100
AcDbEntity
  8
0
370
    30
390
0
 62
     7
 48
0.025303
100
AcDbLine
 10
-0.68112
 20
-17.527629
 30
0.0
 11
-0.94308
 21
-16.549984
 31
0.0
210
0.0
220
0.0
230
1.0
  0
LINE
  5
504
100
AcDbEntity
  8
0
370
    30
390
0
 62
     7
 48
0.007765
100
AcDbLine
 10
-1.023461
 20
-16.249984
 30
0.0
 11
-0.94308
 21
-16.549984
 31
0.0
210
0.0
220
0.0
230
1.0
  0
LINE
  5
505
100
AcDbEntity
  8
0
370
    30
390
0
 62
     7
 48
0.0075
100
AcDbLine
 10
1.028462
 20
-42.199984
 30
0.0
 11
1.028462
 21
-42.499984
 31
0.0
210
0.0
220
0.0
230
1.0
  0
LINE
  5
506
100
AcDbEntity
  8
0
370
    30
390
0
 62
     7
 48
0.1775
100
AcDbLine
 10
-6.071538
 20
-42.499984
 30
0.0
 11
1.028462
 21
-42.499984
 31
0.0
210
0.0
220
0.0
230
1.0
  0
LINE
  5
507
100
AcDbEntity
  8
0
370
    13
390
0
 62
     7
 48
0.0075
100
AcDbLine
 10
-6.071538
 20
-42.499984
 30
0.0
 11
-6.071538
 21
-42.199984
 31
0.0
210
0.0
220
0.0
230
1.0
  0
LINE
  5
508
100
AcDbEntity
  8
0
370
    13
390
0
 62
     7
 48
0.0075
100
AcDbLine
 10
-6.071541
 20
-20.641594
 30
0.0
 11
-6.371538
 21
-20.641594
 31
0.0
210
0.0
220
0.0
230
1.0
  0
LINE
  5
509
100
AcDbEntity
  8
0
370
    30
390
0
 62
     7
100
AcDbLine
 10
-6.371538
 20
-42.199984
 30
0.0
 11
-6.371538
 21
-20.641594
 31
0.0
210
0.0
220
0.0
230
1.0
  0
LINE
  5
50A
100
AcDbEntity
  8
0
370
    13
390
0
 62
     7
 48
0.0075
100
AcDbLine
 10
-6.071541
 20
-42.199984
 30
0.0
 11
-6.371538
 21
-42.199984
 31
0.0
210
0.0
220
0.0
230
1.0
  0
LINE
  5
50B
100
AcDbEntity
  8
0
370
    13
390
0
 62
     7
 48
0.0075
100
AcDbLine
 10
-5.464278
 20
-19.339317
 30
0.0
 11
-5.657113
 21
-19.109505
 31
0.0
210
0.0
220
0.0
230
1.0
  0
ARC
  5
50C
100
AcDbEntity
  8
0
370
    30
390
0
 62
     7
100
AcDbCircle
 10
-4.371538
 20
-20.641594
 30
0.0
 40
2.0
210
0.0
220
0.0
230
1.0
100
AcDbArc
 50
130.0
 51
180.0
  0
LINE
  5
50D
100
AcDbEntity
  8
0
370
    13
390
0
 62
     7
 48
0.0075
100
AcDbLine
 10
-2.892885
 20
-17.181662
 30
0.0
 11
-3.08572
 21
-16.95185
 31
0.0
210
0.0
220
0.0
230
1.0
  0
LINE
  5
50E
100
AcDbEntity
  8
0
370
    30
390
0
 62
     7
 48
0.083918
100
AcDbLine
 10
-3.08572
 20
-16.95185
 30
0.0
 11
-5.657113
 21
-19.109505
 31
0.0
210
0.0
220
0.0
230
1.0
  0
LINE
  5
50F
100
AcDbEntity
  8
0
370
    13
390
0
 62
     7
 48
0.0075
100
AcDbLine
 10
-1.157357
 20
-16.549984
 30
0.0
 11
-1.157357
 21
-16.249984
 31
0.0
210
0.0
220
0.0
230
1.0
  0
ARC
  5
510
100
AcDbEntity
  8
0
370
    30
390
0
 62
     7
100
AcDbCircle
 10
-1.157357
 20
-19.249984
 30
0.0
 40
3.0
210
0.0
220
0.0
230
1.0
100
AcDbArc
 50
90.0
 51
130.0
  0
LINE
  5
511
100
AcDbEntity
  8
0
370
    30
390
0
 62
     7
 48
0.003347
100
AcDbLine
 10
-1.157357
 20
-16.249984
 30
0.0
 11
-1.023461
 21
-16.249984
 31
0.0
210
0.0
220
0.0
230
1.0
  0
ARC
  5
512
100
AcDbEntity
  8
0
370
    30
390
0
 62
     7
100
AcDbCircle
 10
-6.071538
 20
-42.199984
 30
0.0
 40
0.3
210
0.0
220
0.0
230
1.0
100
AcDbArc
 50
180.0
 51
270.0
  0
LINE
  5
513
100
AcDbEntity
  8
0
370
    30
390
0
 62
     7
 48
0.025
100
AcDbLine
 10
-3.771503
 20
-42.499986
 30
0.0
 11
-3.771503
 21
-43.499984
 31
0.0
210
0.0
220
0.0
230
1.0
  0
LINE
  5
514
100
AcDbEntity
  8
0
370
    13
390
0
 62
     7
 48
0.075
100
AcDbLine
 10
-3.771503
 20
-43.499984
 30
0.0
 11
-0.771503
 21
-43.499984
 31
0.0
210
0.0
220
0.0
230
1.0
  0
LINE
  5
515
100
AcDbEntity
  8
0
370
    30
390
0
 62
     7
 48
0.025
100
AcDbLine
 10
-0.771503
 20
-42.499988
 30
0.0
 11
-0.771503
 21
-43.499984
 31
0.0
210
0.0
220
0.0
230
1.0
  0
LINE
  5
516
100
AcDbEntity
  8
0
370
    30
390
0
 62
     7
 48
0.0625
100
AcDbLine
 10
-0.771478
 20
-45.999984
 30
0.0
 11
-0.771478
 21
-43.499984
 31
0.0
210
0.0
220
0.0
230
1.0
  0
LINE
  5
517
100
AcDbEntity
  8
0
370
    30
390
0
 62
     7
 48
0.0625
100
AcDbLine
 10
-3.771478
 20
-45.999984
 30
0.0
 11
-3.771478
 21
-43.499984
 31
0.0
210
0.0
220
0.0
230
1.0
  0
LINE
  5
518
100
AcDbEntity
  8
0
370
    30
390
0
 62
     7
 48
0.075
100
AcDbLine
 10
-3.771478
 20
-45.999984
 30
0.0
 11
-0.771478
 21
-45.999984
 31
0.0
210
0.0
220
0.0
230
1.0
  0
ARC
  5
519
100
AcDbEntity
  8
0
370
    30
390
0
 62
     7
100
AcDbCircle
 10
62.137281
 20
-3.706032
 30
0.0
 40
0.3
210
0.0
220
0.0
230
1.0
100
AcDbArc
 50
266.99313
 51
317.5
  0
LINE
  5
51A
100
AcDbEntity
  8
0
370
    30
390
0
 62
     7
 48
0.0175
100
AcDbLine
 10
62.831377
 20
-3.392615
 30
0.0
 11
62.358464
 21
-3.908709
 31
0.0
210
0.0
220
0.0
230
1.0
  0
LINE
  5
51B
100
AcDbEntity
  8
0
370
    30
390
0
 62
     7
 48
0.009351
100
AcDbLine
 10
62.831377
 20
-3.392615
 30
0.0
 11
63.107147
 21
-3.645312
 31
0.0
210
0.0
220
0.0
230
1.0
  0
LINE
  5
51C
100
AcDbEntity
  8
0
370
    30
390
0
 62
     7
 48
0.009351
100
AcDbLine
 10
59.453426
 20
-7.079002
 30
0.0
 11
59.729196
 21
-7.331699
 31
0.0
210
0.0
220
0.0
230
1.0
  0
LINE
  5
51D
100
AcDbEntity
  8
0
370
    30
390
0
 62
     7
 48
0.0175
100
AcDbLine
 10
59.453426
 20
-7.079002
 30
0.0
 11
59.926339
 21
-6.562908
 31
0.0
210
0.0
220
0.0
230
1.0
  0
ARC
  5
51E
100
AcDbEntity
  8
0
370
    30
390
0
 62
     7
100
AcDbCircle
 10
59.705156
 20
-6.360231
 30
0.0
 40
0.3
210
0.0
220
0.0
230
1.0
100
AcDbArc
 50
317.5
 51
368.014806
  0
ARC
  5
51F
100
AcDbEntity
  8
0
370
    30
390
0
 62
     7
100
AcDbCircle
 10
60.801522
 20
-5.533804
 30
0.0
 40
0.3
210
0.0
220
0.0
230
1.0
100
AcDbArc
 50
239.941742
 51
317.5
  0
LINE
  5
520
100
AcDbEntity
  8
0
370
    30
390
0
 62
     7
 48
0.0225
100
AcDbLine
 10
61.022706
 20
-5.736481
 30
0.0
 11
61.630737
 21
-5.072931
 31
0.0
210
0.0
220
0.0
230
1.0
  0
ARC
  5
521
100
AcDbEntity
  8
0
370
    30
390
0
 62
     7
100
AcDbCircle
 10
61.409554
 20
-4.870254
 30
0.0
 40
0.3
210
0.0
220
0.0
230
1.0
100
AcDbArc
 50
317.5
 51
395.054767
  0
LINE
  5
522
100
AcDbEntity
  8
0
370
    30
390
0
 62
     7
 48
0.006817
100
AcDbLine
 10
63.107112
 20
-3.645312
 30
0.0
 11
63.308162
 21
-3.82954
 31
0.0
210
0.0
220
0.0
230
1.0
  0
LINE
  5
523
100
AcDbEntity
  8
0
370
    30
390
0
 62
     7
 48
0.006817
100
AcDbLine
 10
59.729161
 20
-7.331698
 30
0.0
 11
59.930211
 21
-7.515927
 31
0.0
210
0.0
220
0.0
230
1.0
  0
LINE
  5
524
100
AcDbEntity
  8
0
370
    30
390
0
 62
     7
 48
0.02
100
AcDbLine
 10
62.56664
 20
-4.235134
 30
0.0
 11
63.107112
 21
-3.645312
 31
0.0
210
0.0
220
0.0
230
1.0
  0
ARC
  5
525
100
AcDbEntity
  8
0
370
    30
390
0
 62
     7
100
AcDbCircle
 10
55.428467
 20
0.000016
 30
0.0
 40
8.3
210
0.0
220
0.0
230
1.0
100
AcDbArc
 50
305.68108
 51
329.31892
  0
LINE
  5
526
100
AcDbEntity
  8
0
370
    30
390
0
 62
     7
 48
0.02
100
AcDbLine
 10
60.269633
 20
-6.741876
 30
0.0
 11
59.729161
 21
-7.331698
 31
0.0
210
0.0
220
0.0
230
1.0
  0
LINE
  5
527
100
AcDbEntity
  8
0
370
    30
390
0
 62
     7
 48
0.087757
100
AcDbLine
 10
65.677775
 20
-6.41934
 30
0.0
 11
63.308162
 21
-3.82954
 31
0.0
210
0.0
220
0.0
230
1.0
  0
ARC
  5
528
100
AcDbEntity
  8
0
370
    30
390
0
 62
     7
100
AcDbCircle
 10
64.054673
 20
-7.904446
 30
0.0
 40
2.2
210
0.0
220
0.0
230
1.0
100
AcDbArc
 50
232.542132
 51
402.457868
  0
LINE
  5
529
100
AcDbEntity
  8
0
370
    30
390
0
 62
     7
 48
0.087757
100
AcDbLine
 10
62.716681
 20
-9.650807
 30
0.0
 11
59.930211
 21
-7.515927
 31
0.0
210
0.0
220
0.0
230
1.0
  0
ARC
  5
52A
100
AcDbEntity
  8
0
370
    30
390
0
 62
     7
100
AcDbCircle
 10
63.980884
 20
-7.836831
 30
0.0
 40
0.8
210
0.0
220
0.0
230
1.0
100
AcDbArc
 50
227.5
 51
407.5
  0
LINE
  5
52B
100
AcDbEntity
  8
0
370
    30
390
0
 62
     7
 48
0.0475
100
AcDbLine
 10
64.521356
 20
-7.247009
 30
0.0
 11
63.120529
 21
-5.963387
 31
0.0
210
0.0
220
0.0
230
1.0
  0
ARC
  5
52C
100
AcDbEntity
  8
0
370
    30
390
0
 62
     7
100
AcDbCircle
 10
62.580057
 20
-6.553209
 30
0.0
 40
0.8
210
0.0
220
0.0
230
1.0
100
AcDbArc
 50
47.5
 51
227.5
  0
LINE
  5
52D
100
AcDbEntity
  8
0
370
    30
390
0
 62
     7
 48
0.0475
100
AcDbLine
 10
63.440412
 20
-8.426652
 30
0.0
 11
62.039585
 21
-7.143031
 31
0.0
210
0.0
220
0.0
230
1.0
  0
ARC
  5
52E
100
AcDbEntity
  8
0
370
    30
390
0
 62
     7
100
AcDbCircle
 10
-141.572472
 20
0.000014
 30
0.0
 40
200.001113
210
0.0
220
0.0
230
1.0
100
AcDbArc
 50
5.163578
 51
5.942755
  0
ARC
  5
52F
100
AcDbEntity
  8
0
370
    30
390
0
 62
     7
100
AcDbCircle
 10
55.36455
 20
20.500014
 30
0.0
 40
2.0
210
0.0
220
0.0
230
1.0
100
AcDbArc
 50
5.942748
 51
30.0
  0
ARC
  5
530
100
AcDbEntity
  8
0
370
    30
390
0
 62
     7
100
AcDbCircle
 10
56.83358
 20
8.91692
 30
0.0
 40
0.417111
210
0.0
220
0.0
230
1.0
100
AcDbArc
 50
196.276627
 51
343.723373
  0
ARC
  5
531
100
AcDbEntity
  8
0
370
    30
390
0
 62
     7
100
AcDbCircle
 10
-141.575206
 20
-0.000216
 30
0.0
 40
198.203855
210
0.0
220
0.0
230
1.0
100
AcDbArc
 50
2.544763
 51
5.436594
  0
LINE
  5
532
100
AcDbEntity
  8
0
370
    30
390
0
 62
     7
 48
0.025024
100
AcDbLine
 10
58.234948
 20
8.800014
 30
0.0
 11
57.233973
 21
8.800014
 31
0.0
210
0.0
220
0.0
230
1.0
  0
ARC
  5
533
100
AcDbEntity
  8
0
370
    30
390
0
 62
     7
100
AcDbCircle
 10
-141.572472
 20
0.000014
 30
0.0
 40
200.001113
210
0.0
220
0.0
230
1.0
100
AcDbArc
 50
2.521814
 51
5.942755
  0
ARC
  5
534
100
AcDbEntity
  8
0
370
    30
390
0
 62
     7
100
AcDbCircle
 10
55.36455
 20
20.500014
 30
0.0
 40
2.0
210
0.0
220
0.0
230
1.0
100
AcDbArc
 50
5.942755
 51
90.0
  0
LINE
  5
535
100
AcDbEntity
  8
0
370
    30
390
0
 62
     7
 48
0.051389
100
AcDbLine
 10
55.36455
 20
22.500014
 30
0.0
 11
53.308992
 21
22.500014
 31
0.0
210
0.0
220
0.0
230
1.0
  0
LINE
  5
536
100
AcDbEntity
  8
0
370
    30
390
0
 62
     7
 48
0.08625
100
AcDbLine
 10
53.308992
 20
22.500014
 30
0.0
 11
53.308992
 21
19.050014
 31
0.0
210
0.0
220
0.0
230
1.0
  0
LINE
  5
537
100
AcDbEntity
  8
0
370
    30
390
0
 62
     7
 48
0.053235
100
AcDbLine
 10
55.438409
 20
19.050014
 30
0.0
 11
53.308992
 21
19.050014
 31
0.0
210
0.0
220
0.0
230
1.0
  0
ARC
  5
538
100
AcDbEntity
  8
0
370
    30
390
0
 62
     7
100
AcDbCircle
 10
55.438409
 20
18.750014
 30
0.0
 40
0.3
210
0.0
220
0.0
230
1.0
100
AcDbArc
 50
5.436594
 51
90.0
  0
CIRCLE
  5
539
100
AcDbEntity
  8
0
370
    30
390
0
 62
     7
100
AcDbCircle
 10
55.008992
 20
20.750014
 30
0.0
 40
0.75
210
0.0
220
0.0
230
1.0
  0
LINE
  5
53A
100
AcDbEntity
  8
0
370
    30
390
0
 62
     7
 48
0.01
100
AcDbLine
 10
61.013359
 20
16.900015
 30
0.0
 11
61.013359
 21
17.300015
 31
0.0
210
0.0
220
0.0
230
1.0
  0
LINE
  5
53B
100
AcDbEntity
  8
0
370
    30
390
0
 62
     7
 48
0.045
100
AcDbLine
 10
61.013366
 20
15.100015
 30
0.0
 11
61.013366
 21
16.900015
 31
0.0
210
0.0
220
0.0
230
1.0
  0
LINE
  5
53C
100
AcDbEntity
  8
0
370
    30
390
0
 62
     7
 48
0.008505
100
AcDbLine
 10
60.673166
 20
17.300015
 30
0.0
 11
61.013359
 21
17.300015
 31
0.0
210
0.0
220
0.0
230
1.0
  0
LINE
  5
53D
100
AcDbEntity
  8
0
370
    30
390
0
 62
     7
 48
0.0075
100
AcDbLine
 10
60.713359
 20
16.900015
 30
0.0
 11
61.013359
 21
16.900015
 31
0.0
210
0.0
220
0.0
230
1.0
  0
LINE
  5
53E
100
AcDbEntity
  8
0
370
    30
390
0
 62
     7
 48
0.008505
100
AcDbLine
 10
60.673173
 20
15.100015
 30
0.0
 11
61.013366
 21
15.100015
 31
0.0
210
0.0
220
0.0
230
1.0
  0
LINE
  5
53F
100
AcDbEntity
  8
0
370
    30
390
0
 62
     7
 48
0.063606
100
AcDbLine
 10
57.869098
 20
14.950015
 30
0.0
 11
60.413343
 21
14.950015
 31
0.0
210
0.0
220
0.0
230
1.0
  0
LINE
  5
540
100
AcDbEntity
  8
0
370
    13
390
0
 62
     7
 48
0.0075
100
AcDbLine
 10
60.413343
 20
15.250015
 30
0.0
 11
60.413343
 21
14.950015
 31
0.0
210
0.0
220
0.0
230
1.0
  0
LINE
  5
541
100
AcDbEntity
  8
0
370
    13
390
0
 62
     7
 48
0.064174
100
AcDbLine
 10
57.846383
 20
15.250015
 30
0.0
 11
60.41334
 21
15.250015
 31
0.0
210
0.0
220
0.0
230
1.0
  0
LINE
  5
542
100
AcDbEntity
  8
0
370
    13
390
0
 62
     7
 48
0.0475
100
AcDbLine
 10
60.41334
 20
17.150015
 30
0.0
 11
60.41334
 21
15.250015
 31
0.0
210
0.0
220
0.0
230
1.0
  0
LINE
  5
543
100
AcDbEntity
  8
0
370
    13
390
0
 62
     7
 48
0.068034
100
AcDbLine
 10
60.41334
 20
17.150015
 30
0.0
 11
57.691975
 21
17.150015
 31
0.0
210
0.0
220
0.0
230
1.0
  0
LINE
  5
544
100
AcDbEntity
  8
0
370
    13
390
0
 62
     7
 48
0.0075
100
AcDbLine
 10
60.413343
 20
17.150015
 30
0.0
 11
60.413343
 21
17.450015
 31
0.0
210
0.0
220
0.0
230
1.0
  0
LINE
  5
545
100
AcDbEntity
  8
0
370
    30
390
0
 62
     7
 48
0.068685
100
AcDbLine
 10
60.413343
 20
17.450015
 30
0.0
 11
57.665927
 21
17.450015
 31
0.0
210
0.0
220
0.0
230
1.0
  0
ARC
  5
546
100
AcDbEntity
  8
0
370
    30
390
0
 62
     7
100
AcDbCircle
 10
60.413343
 20
15.250015
 30
0.0
 40
0.3
210
0.0
220
0.0
230
1.0
100
AcDbArc
 50
270.0
 51
360.0
  0
LINE
  5
547
100
AcDbEntity
  8
0
370
    13
390
0
 62
     7
 48
0.0075
100
AcDbLine
 10
60.41334
 20
15.250015
 30
0.0
 11
60.713343
 21
15.250015
 31
0.0
210
0.0
220
0.0
230
1.0
  0
LINE
  5
548
100
AcDbEntity
  8
0
370
    30
390
0
 62
     7
 48
0.0475
100
AcDbLine
 10
60.713343
 20
17.150015
 30
0.0
 11
60.713343
 21
15.250015
 31
0.0
210
0.0
220
0.0
230
1.0
  0
LINE
  5
549
100
AcDbEntity
  8
0
370
    13
390
0
 62
     7
 48
0.0075
100
AcDbLine
 10
60.41334
 20
17.150015
 30
0.0
 11
60.713343
 21
17.150015
 31
0.0
210
0.0
220
0.0
230
1.0
  0
ARC
  5
54A
100
AcDbEntity
  8
0
370
    30
390
0
 62
     7
100
AcDbCircle
 10
60.413343
 20
17.150015
 30
0.0
 40
0.3
210
0.0
220
0.0
230
1.0
100
AcDbArc
 50
0.0
 51
90.0
  0
ENDBLK
  5
54B
100
AcDbEntity
  8
0
390
0
100
AcDbBlockEnd
  0
ENDSEC
  0
SECTION
  2
ENTITIES
  0
VIEWPORT
  5
EB
100
AcDbEntity
 67
     1
  8
0
370
     0
390
0
 62
     0
 48
0.0
100
AcDbViewport
 10
0.0
 20
0.0
 30
0.0
 40
1000.0
 41
1000.0
 68
     1
 69
     1
 12
0.0
 22
0.0
 13
0.0
 23
0.0
 14
1.0
 24
1.0
 15
1.0
 25
1.0
 16
0.0
 26
0.0
 36
1.0
 17
0.0
 27
0.0
 37
0.0
 42
50.0
 43
0.0
 44
0.0
 45
1000.0
 50
0.0
 51
0.0
 72
   100
 90
        0
340
0
  1

281
     0
 71
     0
 74
     1
110
0.0
120
0.0
130
0.0
111
1.0
121
0.0
131
0.0
112
0.0
122
1.0
132
0.0
345
0
346
0
 79
     0
146
0.0
  0
TEXT
  5
28
100
AcDbEntity
  8
General
370
    13
390
0
 62
     7
100
AcDbText
 10
201.952377
 20
77.049881
 30
0.0
 40
2.2
  1
E
 41
0.974
 72
     5
 11
204.12265
 21
77.049881
 31
0.0
100
AcDbText
  0
TEXT
  5
29
100
AcDbEntity
  8
General
370
    13
390
0
 62
     7
100
AcDbText
 10
201.952377
 20
30.883251
 30
0.0
 40
2.2
  1
F
 41
0.974
 72
     5
 11
203.902878
 21
30.883251
 31
0.0
100
AcDbText
  0
TEXT
  5
2A
100
AcDbEntity
  8
General
370
    13
390
0
 62
     7
100
AcDbText
 10
172.573166
 20
6.65
 30
0.0
 40
1.7
  1
Formato UNI A4
 41
1.003
 72
     5
 11
199.3013
 21
6.65
 31
0.0
100
AcDbText
  0
TEXT
  5
2B
100
AcDbEntity
  8
General
370
    13
390
0
 62
     7
100
AcDbText
 10
201.952377
 20
261.716248
 30
0.0
 40
2.2
  1
A
 41
0.974
 72
     5
 11
204.12265
 21
261.716248
 31
0.0
100
AcDbText
  0
TEXT
  5
2C
100
AcDbEntity
  8
General
370
    13
390
0
 62
     7
100
AcDbText
 10
201.757065
 20
215.549759
 30
0.0
 40
2.2
  1
B
 41
0.974
 72
     5
 11
203.927338
 21
215.549759
 31
0.0
100
AcDbText
  0
TEXT
  5
2D
100
AcDbEntity
  8
General
370
    13
390
0
 62
     7
100
AcDbText
 10
201.952377
 20
169.383133
 30
0.0
 40
2.2
  1
C
 41
0.974
 72
     5
 11
204.26001
 21
169.383133
 31
0.0
100
AcDbText
  0
TEXT
  5
2E
100
AcDbEntity
  8
General
370
    13
390
0
 62
     7
100
AcDbText
 10
201.952377
 20
123.216507
 30
0.0
 40
2.2
  1
D
 41
0.974
 72
     5
 11
204.26001
 21
123.216507
 31
0.0
100
AcDbText
  0
TEXT
  5
2F
100
AcDbEntity
  8
General
370
    13
390
0
 62
     7
100
AcDbText
 10
15.018771
 20
98.299774
 30
0.0
 40
2.2
  1
0
 50
89.999108
 41
0.974
 72
     5
 11
15.0188
 21
100.112915
 31
0.0
100
AcDbText
  0
TEXT
  5
30
100
AcDbEntity
  8
General
370
    13
390
0
 62
     7
100
AcDbText
 10
15.248263
 20
147.228729
 30
0.0
 40
2.2
  1
50
 50
89.999108
 41
0.725
 72
     5
 11
15.248315
 21
150.51297
 31
0.0
100
AcDbText
  0
TEXT
  5
31
100
AcDbEntity
  8
General
370
    13
390
0
 62
     7
100
AcDbText
 10
15.248263
 20
196.228729
 30
0.0
 40
2.2
  1
100
 50
89.999053
 41
0.725
 72
     5
 11
15.248349
 21
201.447586
 31
0.0
100
AcDbText
  0
TEXT
  5
32
100
AcDbEntity
  8
General
370
    13
390
0
 62
     7
100
AcDbText
 10
174.687927
 20
38.649925
 30
0.0
 40
1.7
  1
VOLUME
 72
     5
 11
188.645004
 21
38.649925
 31
0.0
100
AcDbText
  0
TEXT
  5
33
100
AcDbEntity
  8
General
370
    13
390
0
 62
     7
100
AcDbText
 10
166.097672
 20
50.867874
 30
0.0
 40
1.7
  1
SCALA
 50
359.999964
 72
     5
 11
176.02829
 21
50.867867
 31
0.0
100
AcDbText
  0
TEXT
  5
34
100
AcDbEntity
  8
General
370
    13
390
0
 62
     7
100
AcDbText
 10
175.102936
 20
289.170135
 30
0.0
 40
2.2
  1
4
 41
0.974
 72
     5
 11
176.916077
 21
289.170135
 31
0.0
100
AcDbText
  0
TEXT
  5
35
100
AcDbEntity
  8
General
370
    13
390
0
 62
     7
100
AcDbText
 10
130.230667
 20
289.031555
 30
0.0
 40
2.2
  1
3
 41
0.974
 72
     5
 11
132.043808
 21
289.031555
 31
0.0
100
AcDbText
  0
TEXT
  5
36
100
AcDbEntity
  8
General
370
    13
390
0
 62
     7
100
AcDbText
 10
84.146667
 20
288.978912
 30
0.0
 40
2.2
  1
2
 41
0.974
 72
     5
 11
85.959808
 21
288.978912
 31
0.0
100
AcDbText
  0
TEXT
  5
37
100
AcDbEntity
  8
General
370
    13
390
0
 62
     7
100
AcDbText
 10
37.923237
 20
288.926239
 30
0.0
 40
2.2
  1
1
 41
0.974
 72
     5
 11
39.736374
 21
288.926239
 31
0.0
100
AcDbText
  0
TEXT
  5
38
100
AcDbEntity
  8
General
370
    13
390
0
 62
     7
100
AcDbText
 10
21.122538
 20
54.649925
 30
0.0
 40
1.7
  1
Ed.
 72
     5
 11
26.252035
 21
54.649925
 31
0.0
100
AcDbText
  0
TEXT
  5
39
100
AcDbEntity
  8
General
370
    13
390
0
 62
     7
100
AcDbText
 10
28.797792
 20
54.649925
 30
0.0
 40
1.7
  1
Data
 72
     5
 11
36.099731
 21
54.649925
 31
0.0
100
AcDbText
  0
TEXT
  5
3A
100
AcDbEntity
  8
General
370
    13
390
0
 62
     7
100
AcDbText
 10
39.24971
 20
54.649925
 30
0.0
 40
1.7
  1
N.Mod.
 72
     5
 11
50.634991
 21
54.649925
 31
0.0
100
AcDbText
  0
TEXT
  5
3B
100
AcDbEntity
  8
General
370
    13
390
0
 62
     7
100
AcDbText
 10
53.254524
 20
54.649925
 30
0.0
 40
1.7
  1
Elab.
 72
     5
 11
61.617363
 21
54.649925
 31
0.0
100
AcDbText
  0
TEXT
  5
3C
100
AcDbEntity
  8
General
370
    13
390
0
 62
     7
100
AcDbText
 10
65.606445
 20
54.649925
 30
0.0
 40
1.7
  1
Prep.
 72
     5
 11
74.252617
 21
54.649925
 31
0.0
100
AcDbText
  0
TEXT
  5
3D
100
AcDbEntity
  8
General
370
    13
390
0
 62
     7
100
AcDbText
 10
78.100037
 20
54.649925
 30
0.0
 40
1.7
  1
Appr.
 72
     5
 11
86.746208
 21
54.649925
 31
0.0
100
AcDbText
  0
TEXT
  5
3E
100
AcDbEntity
  8
0
370
    13
390
0
 62
     7
100
AcDbText
 10
126.460579
 20
38.80238
 30
0.0
 40
1.7
  1
UNITA' DI M. / u. of m.
 72
     5
 11
152.265701
 21
38.80238
 31
0.0
100
AcDbText
  0
TEXT
  5
3F
100
AcDbEntity
  8
0
370
    13
390
0
 62
     5
100
AcDbText
 10
21.351105
 20
58.646755
 30
0.0
 40
1.7
  1
A1
 72
     5
 11
23.956299
 21
58.646755
 31
0.0
100
AcDbText
  0
TEXT
  5
40
100
AcDbEntity
  8
0
370
    13
390
0
 62
     5
100
AcDbText
 10
25.888313
 20
58.390907
 30
0.0
 40
2.0
  1
10.04.2015
 72
     5
 11
38.511688
 21
58.390907
 31
0.0
100
AcDbText
  0
TEXT
  5
41
100
AcDbEntity
  8
0
370
    13
390
0
 62
     5
100
AcDbText
 10
39.599998
 20
58.66753
 30
0.0
 40
1.6
  1
2MB14323
 72
     5
 11
49.324677
 21
58.66753
 31
0.0
100
AcDbText
  0
TEXT
  5
42
100
AcDbEntity
  8
0
370
    13
390
0
 62
     5
100
AcDbText
 10
52.868153
 20
58.66753
 30
0.0
 40
1.6
  1
C.Bottini
 72
     5
 11
60.431789
 21
58.66753
 31
0.0
100
AcDbText
  0
TEXT
  5
43
100
AcDbEntity
  8
0
370
    13
390
0
 62
     5
100
AcDbText
 10
65.368149
 20
58.66753
 30
0.0
 40
1.6
  1
C.Bottini
 72
     5
 11
72.931786
 21
58.66753
 31
0.0
100
AcDbText
  0
TEXT
  5
44
100
AcDbEntity
  8
0
370
    13
390
0
 62
     5
100
AcDbText
 10
77.042824
 20
58.66753
 30
0.0
 40
1.6
  1
V.Patruno
 72
     5
 11
85.957108
 21
58.66753
 31
0.0
100
AcDbText
  0
TEXT
  5
45
100
AcDbEntity
  8
0
370
    13
390
0
 62
     5
100
AcDbText
 10
88.092484
 20
58.525974
 30
0.0
 40
1.8
  1
Aggiornato 3D
 72
     5
 11
102.515862
 21
58.525974
 31
0.0
100
AcDbText
  0
TEXT
  5
46
100
AcDbEntity
  8
0
370
    13
390
0
 62
     5
100
AcDbText
 10
114.831139
 20
48.272728
 30
0.0
 40
1.6
  1
SP00300- DSE201 1P+N/1m ELN
 72
     5
 11
145.168808
 21
48.272728
 31
0.0
100
AcDbText
  0
TEXT
  5
47
100
AcDbEntity
  8
0
370
    13
390
0
 62
     5
100
AcDbText
 10
142.422043
 20
34.843533
 30
0.0
 40
2.0
  1
mm
 72
     5
 11
146.577881
 21
34.843533
 31
0.0
100
AcDbText
  0
TEXT
  5
48
100
AcDbEntity
  8
0
370
    13
390
0
 62
     5
100
AcDbText
 10
168.13179
 20
42.909092
 30
0.0
 40
3.5
  1
1:1
 72
     5
 11
174.268158
 21
42.909092
 31
0.0
100
AcDbText
  0
TEXT
  5
49
100
AcDbEntity
  8
0
370
    13
390
0
 62
     5
100
AcDbText
 10
177.168808
 20
35.093533
 30
0.0
 40
2.0
  1
0 mm3
 72
     5
 11
184.831146
 21
35.093533
 31
0.0
100
AcDbText
  0
TEXT
  5
4A
100
AcDbEntity
  8
0
370
    13
390
0
 62
     5
100
AcDbText
 10
81.0
 20
25.580521
 30
0.0
 40
2.5
  1
DSE (3D PRODUCT SKIN)
 72
     5
 11
118.662338
 21
25.580521
 31
0.0
100
AcDbText
  0
TEXT
  5
4B
100
AcDbEntity
  8
0
370
    13
390
0
 62
     5
100
AcDbText
 10
170.299698
 20
18.376623
 30
0.0
 40
3.0
  1
04161165-----
 72
     5
 11
193.16983
 21
18.376623
 31
0.0
100
AcDbText
  0
TEXT
  5
4C
100
AcDbEntity
  8
0
370
    13
390
0
 62
     7
100
AcDbText
 10
33.238121
 20
22.982212
 30
0.0
 40
2.4
  1
ABB SACE Division
 72
     5
 11
64.930435
 21
22.982212
 31
0.0
100
AcDbText
  0
TEXT
  5
4D
100
AcDbEntity
  8
0
370
    13
390
0
 62
     7
100
AcDbText
 10
25.345314
 20
18.647545
 30
0.0
 40
1.8
  1
DIN-rail Products & Wiring Accessories
 72
     5
 11
72.823235
 21
18.647545
 31
0.0
100
AcDbText
  0
TEXT
  5
4E
100
AcDbEntity
  8
0
370
    13
390
0
 62
     7
100
AcDbText
 10
20.235962
 20
13.828666
 30
0.0
 40
1.6
  1
Questo disegno \U+00E8 di esclusiva propriet\U+00E0 di ABB S.p.A. Ne \U+00E8 vietata la riproduzione a termini di legge
 72
     5
 11
126.820541
 21
13.828666
 31
0.0
100
AcDbText
  0
TEXT
  5
4F
100
AcDbEntity
  8
0
370
    13
390
0
 62
     7
100
AcDbText
 10
20.384979
 20
11.362883
 30
0.0
 40
1.6
  1
Edizione cartiglio Marzo 2008
 72
     5
 11
51.913185
 21
11.362883
 31
0.0
100
AcDbText
  0
POINT
  5
50
100
AcDbEntity
  8
General
370
     5
390
0
 62
     7
100
AcDbPoint
 10
194.869827
 20
47.5
 30
0.0
210
0.0
220
0.0
230
1.0
  0
LINE
  5
51
100
AcDbEntity
  8
General
370
    13
390
0
 62
     7
100
AcDbLine
 10
19.999969
 20
10.0
 30
0.0
 11
19.999969
 21
75.46106
 31
0.0
210
0.0
220
0.0
230
1.0
  0
LINE
  5
52
100
AcDbEntity
  8
General
370
    13
390
0
 62
     7
100
AcDbLine
 10
19.999969
 20
10.0
 30
0.0
 11
199.999969
 21
10.0
 31
0.0
210
0.0
220
0.0
230
1.0
  0
LINE
  5
53
100
AcDbEntity
  8
General
370
    20
390
0
 62
     7
 48
0.05
100
AcDbLine
 10
199.999969
 20
240.83313
 30
0.0
 11
201.999969
 21
240.83313
 31
0.0
210
0.0
220
0.0
230
1.0
  0
LINE
  5
54
100
AcDbEntity
  8
General
370
    13
390
0
 62
     7
 48
0.1
100
AcDbLine
 10
104.999992
 20
291.999756
 30
0.0
 11
104.999992
 21
295.999756
 31
0.0
210
0.0
220
0.0
230
1.0
  0
LINE
  5
55
100
AcDbEntity
  8
General
370
    13
390
0
 62
     7
 48
0.1
100
AcDbLine
 10
104.999992
 20
1.0
 30
0.0
 11
104.999992
 21
5.0
 31
0.0
210
0.0
220
0.0
230
1.0
  0
LINE
  5
56
100
AcDbEntity
  8
General
370
    13
390
0
 62
     7
 48
0.049994
100
AcDbLine
 10
19.999969
 20
8.000244
 30
0.0
 11
19.999969
 21
10.0
 31
0.0
210
0.0
220
0.0
230
1.0
  0
LINE
  5
57
100
AcDbEntity
  8
General
370
    13
390
0
 62
     7
 48
0.05
100
AcDbLine
 10
17.999969
 20
10.0
 30
0.0
 11
19.999969
 21
10.0
 31
0.0
210
0.0
220
0.0
230
1.0
  0
LINE
  5
58
100
AcDbEntity
  8
General
370
    13
390
0
 62
     7
 48
0.049994
100
AcDbLine
 10
199.999969
 20
8.000244
 30
0.0
 11
199.999969
 21
10.0
 31
0.0
210
0.0
220
0.0
230
1.0
  0
LINE
  5
59
100
AcDbEntity
  8
General
370
    13
390
0
 62
     7
 48
0.05
100
AcDbLine
 10
199.999969
 20
10.0
 30
0.0
 11
201.999969
 21
10.0
 31
0.0
210
0.0
220
0.0
230
1.0
  0
LINE
  5
5A
100
AcDbEntity
  8
General
370
    20
390
0
 62
     7
 48
0.049994
100
AcDbLine
 10
19.999969
 20
286.999756
 30
0.0
 11
19.999969
 21
288.999512
 31
0.0
210
0.0
220
0.0
230
1.0
  0
LINE
  5
5B
100
AcDbEntity
  8
General
370
    20
390
0
 62
     7
 48
0.05
100
AcDbLine
 10
17.999969
 20
286.999756
 30
0.0
 11
19.999969
 21
286.999756
 31
0.0
210
0.0
220
0.0
230
1.0
  0
LINE
  5
5C
100
AcDbEntity
  8
General
370
    20
390
0
 62
     7
100
AcDbLine
 10
19.999969
 20
10.0
 30
0.0
 11
19.999969
 21
286.999756
 31
0.0
210
0.0
220
0.0
230
1.0
  0
LINE
  5
5D
100
AcDbEntity
  8
General
370
    20
390
0
 62
     7
 48
0.05
100
AcDbLine
 10
17.999985
 20
193.499847
 30
0.0
 11
19.999969
 21
193.499847
 31
0.0
210
0.0
220
0.0
230
1.0
  0
LINE
  5
5E
100
AcDbEntity
  8
General
370
    20
390
0
 62
     7
 48
0.05
100
AcDbLine
 10
17.999985
 20
183.499847
 30
0.0
 11
19.999969
 21
183.499847
 31
0.0
210
0.0
220
0.0
230
1.0
  0
LINE
  5
5F
100
AcDbEntity
  8
General
370
    20
390
0
 62
     7
 48
0.05
100
AcDbLine
 10
17.999985
 20
173.499847
 30
0.0
 11
19.999969
 21
173.499847
 31
0.0
210
0.0
220
0.0
230
1.0
  0
LINE
  5
60
100
AcDbEntity
  8
General
370
    20
390
0
 62
     7
 48
0.05
100
AcDbLine
 10
17.999985
 20
163.499847
 30
0.0
 11
19.999969
 21
163.499847
 31
0.0
210
0.0
220
0.0
230
1.0
  0
LINE
  5
61
100
AcDbEntity
  8
General
370
    20
390
0
 62
     7
 48
0.05
100
AcDbLine
 10
17.999985
 20
153.499847
 30
0.0
 11
19.999969
 21
153.499847
 31
0.0
210
0.0
220
0.0
230
1.0
  0
LINE
  5
62
100
AcDbEntity
  8
General
370
    20
390
0
 62
     7
 48
0.05
100
AcDbLine
 10
17.999985
 20
143.499847
 30
0.0
 11
19.999969
 21
143.499847
 31
0.0
210
0.0
220
0.0
230
1.0
  0
LINE
  5
63
100
AcDbEntity
  8
General
370
    20
390
0
 62
     7
 48
0.099999
100
AcDbLine
 10
16.0
 20
198.499847
 30
0.0
 11
19.999969
 21
198.499847
 31
0.0
210
0.0
220
0.0
230
1.0
  0
LINE
  5
64
100
AcDbEntity
  8
General
370
    20
390
0
 62
     7
 48
0.099999
100
AcDbLine
 10
16.0
 20
188.499847
 30
0.0
 11
19.999969
 21
188.499847
 31
0.0
210
0.0
220
0.0
230
1.0
  0
LINE
  5
65
100
AcDbEntity
  8
General
370
    20
390
0
 62
     7
 48
0.099999
100
AcDbLine
 10
16.0
 20
178.499847
 30
0.0
 11
19.999969
 21
178.499847
 31
0.0
210
0.0
220
0.0
230
1.0
  0
LINE
  5
66
100
AcDbEntity
  8
General
370
    20
390
0
 62
     7
 48
0.099999
100
AcDbLine
 10
16.0
 20
168.499847
 30
0.0
 11
19.999969
 21
168.499847
 31
0.0
210
0.0
220
0.0
230
1.0
  0
LINE
  5
67
100
AcDbEntity
  8
General
370
    20
390
0
 62
     7
 48
0.099999
100
AcDbLine
 10
16.0
 20
158.499847
 30
0.0
 11
19.999969
 21
158.499847
 31
0.0
210
0.0
220
0.0
230
1.0
  0
LINE
  5
68
100
AcDbEntity
  8
General
370
    20
390
0
 62
     7
 48
0.05
100
AcDbLine
 10
17.999985
 20
123.499847
 30
0.0
 11
19.999969
 21
123.499847
 31
0.0
210
0.0
220
0.0
230
1.0
  0
LINE
  5
69
100
AcDbEntity
  8
General
370
    13
390
0
 62
     7
 48
0.228116
100
AcDbLine
 10
1.444518
 20
148.499847
 30
0.0
 11
10.56917
 21
148.499847
 31
0.0
210
0.0
220
0.0
230
1.0
  0
LINE
  5
6A
100
AcDbEntity
  8
General
370
    20
390
0
 62
     7
100
AcDbLine
 10
19.999969
 20
286.999756
 30
0.0
 11
199.999969
 21
286.999756
 31
0.0
210
0.0
220
0.0
230
1.0
  0
LINE
  5
6B
100
AcDbEntity
  8
General
370
    20
390
0
 62
     7
100
AcDbLine
 10
199.999969
 20
10.0
 30
0.0
 11
199.999969
 21
286.999756
 31
0.0
210
0.0
220
0.0
230
1.0
  0
LINE
  5
6C
100
AcDbEntity
  8
General
370
    20
390
0
 62
     7
100
AcDbLine
 10
19.999969
 20
10.0
 30
0.0
 11
199.999969
 21
10.0
 31
0.0
210
0.0
220
0.0
230
1.0
  0
LINE
  5
6D
100
AcDbEntity
  8
General
370
    20
390
0
 62
     7
 48
0.05
100
AcDbLine
 10
17.999985
 20
103.499847
 30
0.0
 11
19.999969
 21
103.499847
 31
0.0
210
0.0
220
0.0
230
1.0
  0
LINE
  5
6E
100
AcDbEntity
  8
General
370
    13
390
0
 62
     7
100
AcDbLine
 10
209.999985
 20
0.0
 30
0.0
 11
209.999985
 21
296.999756
 31
0.0
210
0.0
220
0.0
230
1.0
  0
LINE
  5
6F
100
AcDbEntity
  8
General
370
    13
390
0
 62
     7
100
AcDbLine
 10
0.0
 20
0.0
 30
0.0
 11
209.999985
 21
0.0
 31
0.0
210
0.0
220
0.0
230
1.0
  0
LINE
  5
70
100
AcDbEntity
  8
General
370
    13
390
0
 62
     7
100
AcDbLine
 10
0.0
 20
296.999756
 30
0.0
 11
209.999985
 21
296.999756
 31
0.0
210
0.0
220
0.0
230
1.0
  0
LINE
  5
71
100
AcDbEntity
  8
General
370
    20
390
0
 62
     7
 48
0.05
100
AcDbLine
 10
17.999985
 20
113.499847
 30
0.0
 11
19.999969
 21
113.499847
 31
0.0
210
0.0
220
0.0
230
1.0
  0
LINE
  5
72
100
AcDbEntity
  8
General
370
    20
390
0
 62
     7
 48
0.05
100
AcDbLine
 10
17.999985
 20
133.499847
 30
0.0
 11
19.999969
 21
133.499847
 31
0.0
210
0.0
220
0.0
230
1.0
  0
LINE
  5
73
100
AcDbEntity
  8
General
370
    13
390
0
 62
     7
 48
0.05
100
AcDbLine
 10
199.999969
 20
56.166626
 30
0.0
 11
201.999969
 21
56.166626
 31
0.0
210
0.0
220
0.0
230
1.0
  0
LINE
  5
74
100
AcDbEntity
  8
General
370
    20
390
0
 62
     7
 48
0.05
100
AcDbLine
 10
199.999969
 20
194.666504
 30
0.0
 11
201.999969
 21
194.666504
 31
0.0
210
0.0
220
0.0
230
1.0
  0
LINE
  5
75
100
AcDbEntity
  8
General
370
    20
390
0
 62
     7
 48
0.049994
100
AcDbLine
 10
64.999969
 20
286.999756
 30
0.0
 11
64.999969
 21
288.999512
 31
0.0
210
0.0
220
0.0
230
1.0
  0
LINE
  5
76
100
AcDbEntity
  8
General
370
    20
390
0
 62
     7
 48
0.049994
100
AcDbLine
 10
199.999969
 20
286.999756
 30
0.0
 11
199.999969
 21
288.999512
 31
0.0
210
0.0
220
0.0
230
1.0
  0
LINE
  5
77
100
AcDbEntity
  8
General
370
    20
390
0
 62
     7
 48
0.049994
100
AcDbLine
 10
154.999969
 20
286.999756
 30
0.0
 11
154.999969
 21
288.999512
 31
0.0
210
0.0
220
0.0
230
1.0
  0
LINE
  5
78
100
AcDbEntity
  8
General
370
    20
390
0
 62
     7
 48
0.049994
100
AcDbLine
 10
109.999969
 20
286.999756
 30
0.0
 11
109.999969
 21
288.999512
 31
0.0
210
0.0
220
0.0
230
1.0
  0
LINE
  5
79
100
AcDbEntity
  8
General
370
    20
390
0
 62
     7
 48
0.05
100
AcDbLine
 10
17.999985
 20
143.499847
 30
0.0
 11
19.999969
 21
143.499847
 31
0.0
210
0.0
220
0.0
230
1.0
  0
LINE
  5
7A
100
AcDbEntity
  8
General
370
    13
390
0
 62
     7
100
AcDbLine
 10
0.0
 20
0.0
 30
0.0
 11
0.0
 21
296.999756
 31
0.0
210
0.0
220
0.0
230
1.0
  0
LINE
  5
7B
100
AcDbEntity
  8
General
370
    20
390
0
 62
     7
 48
0.05
100
AcDbLine
 10
199.999969
 20
102.333252
 30
0.0
 11
201.999969
 21
102.333252
 31
0.0
210
0.0
220
0.0
230
1.0
  0
LINE
  5
7C
100
AcDbEntity
  8
General
370
    20
390
0
 62
     7
 48
0.05
100
AcDbLine
 10
199.999969
 20
148.499878
 30
0.0
 11
201.999969
 21
148.499878
 31
0.0
210
0.0
220
0.0
230
1.0
  0
LINE
  5
7D
100
AcDbEntity
  8
General
370
    20
390
0
 62
     7
 48
0.05
100
AcDbLine
 10
199.999969
 20
286.999756
 30
0.0
 11
201.999969
 21
286.999756
 31
0.0
210
0.0
220
0.0
230
1.0
  0
LINE
  5
7E
100
AcDbEntity
  8
General
370
    20
390
0
 62
     7
 48
0.099999
100
AcDbLine
 10
16.0
 20
148.499847
 30
0.0
 11
19.999969
 21
148.499847
 31
0.0
210
0.0
220
0.0
230
1.0
  0
LINE
  5
7F
100
AcDbEntity
  8
General
370
    20
390
0
 62
     7
 48
0.099999
100
AcDbLine
 10
16.0
 20
138.499847
 30
0.0
 11
19.999969
 21
138.499847
 31
0.0
210
0.0
220
0.0
230
1.0
  0
LINE
  5
80
100
AcDbEntity
  8
General
370
    20
390
0
 62
     7
 48
0.099999
100
AcDbLine
 10
16.0
 20
128.499847
 30
0.0
 11
19.999969
 21
128.499847
 31
0.0
210
0.0
220
0.0
230
1.0
  0
LINE
  5
81
100
AcDbEntity
  8
General
370
    20
390
0
 62
     7
 48
0.099999
100
AcDbLine
 10
16.0
 20
98.499863
 30
0.0
 11
19.999969
 21
98.499863
 31
0.0
210
0.0
220
0.0
230
1.0
  0
LINE
  5
82
100
AcDbEntity
  8
General
370
    20
390
0
 62
     7
 48
0.099999
100
AcDbLine
 10
16.0
 20
118.499847
 30
0.0
 11
19.999969
 21
118.499847
 31
0.0
210
0.0
220
0.0
230
1.0
  0
LINE
  5
83
100
AcDbEntity
  8
General
370
    20
390
0
 62
     7
 48
0.099999
100
AcDbLine
 10
16.0
 20
108.499847
 30
0.0
 11
19.999969
 21
108.499847
 31
0.0
210
0.0
220
0.0
230
1.0
  0
LINE
  5
84
100
AcDbEntity
  8
General
370
    30
390
0
 62
     7
100
AcDbLine
 10
19.999969
 20
10.0
 30
0.0
 11
199.999969
 21
10.0
 31
0.0
210
0.0
220
0.0
230
1.0
  0
LINE
  5
85
100
AcDbEntity
  8
General
370
    30
390
0
 62
     7
100
AcDbLine
 10
199.999969
 20
10.0
 30
0.0
 11
199.999969
 21
61.5
 31
0.0
210
0.0
220
0.0
230
1.0
  0
LINE
  5
86
100
AcDbEntity
  8
General
370
    13
390
0
 62
     7
100
AcDbLine
 10
19.999969
 20
61.5
 30
0.0
 11
199.999969
 21
61.5
 31
0.0
210
0.0
220
0.0
230
1.0
  0
LINE
  5
87
100
AcDbEntity
  8
General
370
    20
390
0
 62
     7
100
AcDbLine
 10
19.999969
 20
33.5
 30
0.0
 11
199.999969
 21
33.5
 31
0.0
210
0.0
220
0.0
230
1.0
  0
LINE
  5
88
100
AcDbEntity
  8
General
370
    20
390
0
 62
     7
100
AcDbLine
 10
19.999969
 20
16.325235
 30
0.0
 11
199.999969
 21
16.325235
 31
0.0
210
0.0
220
0.0
230
1.0
  0
LINE
  5
89
100
AcDbEntity
  8
General
370
    20
390
0
 62
     7
100
AcDbLine
 10
19.999969
 20
57.5
 30
0.0
 11
199.999969
 21
57.5
 31
0.0
210
0.0
220
0.0
230
1.0
  0
LINE
  5
8A
100
AcDbEntity
  8
General
370
    20
390
0
 62
     7
100
AcDbLine
 10
19.999969
 20
53.5
 30
0.0
 11
199.999969
 21
53.5
 31
0.0
210
0.0
220
0.0
230
1.0
  0
LINE
  5
8B
100
AcDbEntity
  8
General
370
    20
390
0
 62
     7
100
AcDbLine
 10
19.999969
 20
41.5
 30
0.0
 11
87.499969
 21
41.5
 31
0.0
210
0.0
220
0.0
230
1.0
  0
LINE
  5
8C
100
AcDbEntity
  8
General
370
    20
390
0
 62
     7
 48
0.429369
100
AcDbLine
 10
78.999969
 20
16.325235
 30
0.0
 11
78.999969
 21
33.5
 31
0.0
210
0.0
220
0.0
230
1.0
  0
LINE
  5
8D
100
AcDbEntity
  8
General
370
    20
390
0
 62
     7
100
AcDbLine
 10
87.499969
 20
33.5
 30
0.0
 11
87.499969
 21
53.5
 31
0.0
210
0.0
220
0.0
230
1.0
  0
LINE
  5
8E
100
AcDbEntity
  8
General
370
    20
390
0
 62
     7
 48
0.3
100
AcDbLine
 10
178.499969
 20
41.5
 30
0.0
 11
178.499969
 21
53.5
 31
0.0
210
0.0
220
0.0
230
1.0
  0
LINE
  5
8F
100
AcDbEntity
  8
General
370
    20
390
0
 62
     7
100
AcDbLine
 10
87.499969
 20
41.5
 30
0.0
 11
163.499969
 21
41.5
 31
0.0
210
0.0
220
0.0
230
1.0
  0
LINE
  5
90
100
AcDbEntity
  8
General
370
    20
390
0
 62
     7
100
AcDbLine
 10
163.499969
 20
10.0
 30
0.0
 11
163.499969
 21
53.5
 31
0.0
210
0.0
220
0.0
230
1.0
  0
LINE
  5
91
100
AcDbEntity
  8
General
370
    20
390
0
 62
     7
 48
0.2
100
AcDbLine
 10
125.499969
 20
33.5
 30
0.0
 11
125.499969
 21
41.5
 31
0.0
210
0.0
220
0.0
230
1.0
  0
LINE
  5
92
100
AcDbEntity
  8
General
370
    13
390
0
 62
     7
 48
0.1
100
AcDbLine
 10
25.999969
 20
53.5
 30
0.0
 11
25.999969
 21
57.5
 31
0.0
210
0.0
220
0.0
230
1.0
  0
LINE
  5
93
100
AcDbEntity
  8
General
370
    20
390
0
 62
     7
 48
0.1
100
AcDbLine
 10
87.499969
 20
53.5
 30
0.0
 11
87.499969
 21
57.5
 31
0.0
210
0.0
220
0.0
230
1.0
  0
LINE
  5
94
100
AcDbEntity
  8
General
370
    13
390
0
 62
     7
 48
0.1
100
AcDbLine
 10
25.999969
 20
57.5
 30
0.0
 11
25.999969
 21
61.5
 31
0.0
210
0.0
220
0.0
230
1.0
  0
LINE
  5
95
100
AcDbEntity
  8
General
370
    20
390
0
 62
     7
 48
0.1
100
AcDbLine
 10
87.499969
 20
57.5
 30
0.0
 11
87.499969
 21
61.5
 31
0.0
210
0.0
220
0.0
230
1.0
  0
LINE
  5
96
100
AcDbEntity
  8
General
370
    20
390
0
 62
     7
100
AcDbLine
 10
163.499969
 20
41.5
 30
0.0
 11
199.999969
 21
41.5
 31
0.0
210
0.0
220
0.0
230
1.0
  0
LINE
  5
97
100
AcDbEntity
  8
General
370
    13
390
0
 62
     7
 48
0.2
100
AcDbLine
 10
38.299969
 20
53.5
 30
0.0
 11
38.299969
 21
61.5
 31
0.0
210
0.0
220
0.0
230
1.0
  0
CIRCLE
  5
98
100
AcDbEntity
  8
General
370
    20
390
0
 62
     7
100
AcDbCircle
 10
194.869831
 20
47.5
 30
0.0
 40
3.356447
210
0.0
220
0.0
230
1.0
  0
LINE
  5
99
100
AcDbEntity
  8
General
370
    13
390
0
  6
DASHDOT
 62
     7
 48
0.218416
100
AcDbLine
 10
194.869831
 20
43.136248
 30
0.0
 11
194.869831
 21
51.872884
 31
0.0
210
0.0
220
0.0
230
1.0
  0
LINE
  5
9A
100
AcDbEntity
  8
General
370
    13
390
0
  6
DASHDOT
 62
     7
 48
0.469614
100
AcDbLine
 10
179.541715
 20
47.5
 30
0.0
 11
198.326277
 21
47.5
 31
0.0
210
0.0
220
0.0
230
1.0
  0
LINE
  5
9B
100
AcDbEntity
  8
General
370
    20
390
0
 62
     7
 48
0.165322
100
AcDbLine
 10
188.005331
 20
44.243553
 30
0.0
 11
188.005331
 21
50.856447
 31
0.0
210
0.0
220
0.0
230
1.0
  0
LINE
  5
9C
100
AcDbEntity
  8
General
370
    20
390
0
 62
     7
 48
0.100389
100
AcDbLine
 10
181.023822
 20
45.492212
 30
0.0
 11
181.023822
 21
49.507788
 31
0.0
210
0.0
220
0.0
230
1.0
  0
CIRCLE
  5
9D
100
AcDbEntity
  8
General
370
    20
390
0
 62
     7
100
AcDbCircle
 10
194.869831
 20
47.5
 30
0.0
 40
2.007788
210
0.0
220
0.0
230
1.0
  0
LINE
  5
9E
100
AcDbEntity
  8
General
370
    20
390
0
 62
     7
 48
0.177307
100
AcDbLine
 10
181.023822
 20
45.492212
 30
0.0
 11
188.005331
 21
44.243553
 31
0.0
210
0.0
220
0.0
230
1.0
  0
LINE
  5
9F
100
AcDbEntity
  8
General
370
    20
390
0
 62
     7
 48
0.177764
100
AcDbLine
 10
181.023822
 20
49.507788
 30
0.0
 11
188.005331
 21
50.856447
 31
0.0
210
0.0
220
0.0
230
1.0
  0
LINE
  5
A0
100
AcDbEntity
  8
0
370
    13
390
0
 62
     7
100
AcDbLine
 10
87.499969
 20
47.5
 30
0.0
 11
178.499969
 21
47.5
 31
0.0
210
0.0
220
0.0
230
1.0
  0
LINE
  5
A1
100
AcDbEntity
  8
General
370
    13
390
0
 62
     7
 48
0.2
100
AcDbLine
 10
50.599969
 20
53.5
 30
0.0
 11
50.599969
 21
61.5
 31
0.0
210
0.0
220
0.0
230
1.0
  0
LINE
  5
A2
100
AcDbEntity
  8
General
370
    13
390
0
 62
     7
 48
0.2
100
AcDbLine
 10
62.899969
 20
53.5
 30
0.0
 11
62.899969
 21
61.5
 31
0.0
210
0.0
220
0.0
230
1.0
  0
LINE
  5
A3
100
AcDbEntity
  8
General
370
    13
390
0
 62
     7
 48
0.2
100
AcDbLine
 10
75.199969
 20
53.5
 30
0.0
 11
75.199969
 21
61.5
 31
0.0
210
0.0
220
0.0
230
1.0
  0
DIMENSION
  5
A5
100
AcDbEntity
  8
0
370
     0
390
0
 62
     0
100
AcDbDimension
  2
*D9
 10
34.703069
 20
225.444121
 30
0.0
 11
34.703066
 21
175.444121
 31
0.0
 70
   160
 71
     5
 72
     1
 41
1.0
 42
0.0
210
0.0
220
0.0
230
1.0
 52
89.999523
  3
STANDARD
100
AcDbAlignedDimension
 13
49.315713
 23
125.444121
 33
0.0
 14
53.96572
 24
225.444121
 34
0.0
 50
89.99952
100
AcDbRotatedDimension
  0
DIMENSION
  5
A7
100
AcDbEntity
  8
0
370
     0
390
0
 62
     0
100
AcDbDimension
  2
*D10
 10
49.315699
 20
232.971588
 30
0.0
 11
58.115699
 21
232.971588
 31
0.0
 70
   160
 71
     5
 72
     1
 41
1.0
 42
0.0
210
0.0
220
0.0
230
1.0
 52
89.999523
  3
STANDARD
100
AcDbAlignedDimension
 13
66.915699
 23
223.444122
 33
0.0
 14
49.315699
 24
223.444121
 34
0.0
 50
179.999046
100
AcDbRotatedDimension
  0
LINE
  5
A8
100
AcDbEntity
  8
0
370
    13
390
0
  6
DASHDOT
 62
     7
 48
0.015015
100
AcDbLine
 10
50.916104
 20
216.994171
 30
0.0
 11
50.916104
 21
216.39357
 31
0.0
210
0.0
220
0.0
230
1.0
  0
LINE
  5
A9
100
AcDbEntity
  8
0
370
    13
390
0
  6
DASHDOT
 62
     7
 48
0.388501
100
AcDbLine
 10
48.020695
 20
223.444122
 30
0.0
 11
63.560719
 21
223.444118
 31
0.0
210
0.0
220
0.0
230
1.0
  0
LINE
  5
AA
100
AcDbEntity
  8
0
370
    13
390
0
  6
DASHDOT
 62
     7
100
AcDbLine
 10
47.517186
 20
167.944121
 30
0.0
 11
68.713894
 21
167.944122
 31
0.0
210
0.0
220
0.0
230
1.0
  0
LINE
  5
AB
100
AcDbEntity
  8
0
370
    13
390
0
  6
DASHDOT
 62
     7
 48
0.003015
100
AcDbLine
 10
50.325612
 20
176.694138
 30
0.0
 11
50.204998
 21
176.694138
 31
0.0
210
0.0
220
0.0
230
1.0
  0
LINE
  5
AC
100
AcDbEntity
  8
0
370
    13
390
0
  6
DASHDOT
 62
     7
 48
0.045015
100
AcDbLine
 10
58.11588
 20
125.59417
 30
0.0
 11
58.11588
 21
123.793571
 31
0.0
210
0.0
220
0.0
230
1.0
  0
LINE
  5
AD
100
AcDbEntity
  8
0
370
    13
390
0
  6
DASHDOT
 62
     7
 48
0.003
100
AcDbLine
 10
65.90556
 20
176.694139
 30
0.0
 11
66.025547
 21
176.694139
 31
0.0
210
0.0
220
0.0
230
1.0
  0
LINE
  5
AE
100
AcDbEntity
  8
0
370
    13
390
0
  6
DASHDOT
 62
     7
 48
0.073474
100
AcDbLine
 10
62.021153
 20
218.844124
 30
0.0
 11
64.960118
 21
218.844124
 31
0.0
210
0.0
220
0.0
230
1.0
  0
LINE
  5
AF
100
AcDbEntity
  8
0
370
    13
390
0
  6
DASHDOT
 62
     7
 48
0.073476
100
AcDbLine
 10
53.721028
 20
218.84412
 30
0.0
 11
56.660084
 21
218.84412
 31
0.0
210
0.0
220
0.0
230
1.0
  0
LINE
  5
B0
100
AcDbEntity
  8
0
370
    13
390
0
  6
DASHDOT
 62
     7
 48
0.27
100
AcDbLine
 10
52.915509
 20
165.192425
 30
0.0
 11
63.715512
 21
165.192424
 31
0.0
210
0.0
220
0.0
230
1.0
  0
LINE
  5
B1
100
AcDbEntity
  8
0
370
    13
390
0
  6
DASHDOT
 62
     7
 48
0.315
100
AcDbLine
 10
51.815487
 20
167.944123
 30
0.0
 11
64.415486
 21
167.944122
 31
0.0
210
0.0
220
0.0
230
1.0
  0
LINE
  5
B2
100
AcDbEntity
  8
0
370
    13
390
0
  6
DASHDOT
 62
     7
 48
0.48
100
AcDbLine
 10
48.715458
 20
160.039661
 30
0.0
 11
67.915478
 21
160.03966
 31
0.0
210
0.0
220
0.0
230
1.0
  0
LINE
  5
B3
100
AcDbEntity
  8
0
370
    13
390
0
  6
DASHDOT
 62
     7
100
AcDbLine
 10
68.663624
 20
188.44412
 30
0.0
 11
47.566998
 21
188.44412
 31
0.0
210
0.0
220
0.0
230
1.0
  0
DIMENSION
  5
B5
100
AcDbEntity
  8
0
370
     0
390
0
 62
     0
100
AcDbDimension
  2
*D12
 10
107.634509
 20
252.408936
 30
0.0
 11
141.870298
 21
252.408936
 31
0.0
 70
   160
 71
     5
 72
     1
 41
1.0
 42
0.0
210
0.0
220
0.0
230
1.0
 52
89.999523
  3
STANDARD
100
AcDbAlignedDimension
 13
176.106088
 23
167.944107
 33
0.0
 14
107.634509
 24
185.694117
 34
0.0
 50
179.999046
100
AcDbRotatedDimension
  0
DIMENSION
  5
B7
100
AcDbEntity
  8
0
370
     0
390
0
 62
     0
100
AcDbDimension
  2
*D13
 10
107.634509
 20
242.370804
 30
0.0
 11
129.384578
 21
242.370804
 31
0.0
 70
   160
 71
     5
 72
     1
 41
1.0
 42
0.0
210
0.0
220
0.0
230
1.0
 52
89.999523
  3
STANDARD
100
AcDbAlignedDimension
 13
151.134647
 23
145.444121
 33
0.0
 14
107.634509
 24
185.694117
 34
0.0
 50
179.999046
100
AcDbRotatedDimension
  0
DIMENSION
  5
B9
100
AcDbEntity
  8
0
370
     0
390
0
 62
     0
100
AcDbDimension
  2
*D14
 10
184.632946
 20
145.444121
 30
0.0
 11
184.632946
 21
167.944121
 31
0.0
 70
   160
 71
     5
 72
     1
 41
1.0
 42
0.0
210
0.0
220
0.0
230
1.0
 52
89.999523
  3
STANDARD
100
AcDbAlignedDimension
 13
160.464997
 23
190.444121
 33
0.0
 14
162.067834
 24
145.444121
 34
0.0
 50
269.998569
100
AcDbRotatedDimension
  0
DIMENSION
  5
BB
100
AcDbEntity
  8
0
370
     0
390
0
 62
     0
100
AcDbDimension
  2
*D15
 10
151.134647
 20
102.003021
 30
0.0
 11
125.984557
 21
102.003021
 31
0.0
 70
   160
 71
     5
 72
     1
 41
1.0
 42
0.0
210
0.0
220
0.0
230
1.0
 52
89.999523
  3
STANDARD
100
AcDbAlignedDimension
 13
100.834467
 23
125.744123
 33
0.0
 14
151.134647
 24
142.944121
 34
0.0
 50
359.998092
100
AcDbRotatedDimension
  0
DIMENSION
  5
BD
100
AcDbEntity
  8
0
370
     0
390
0
 62
     0
100
AcDbDimension
  2
*D16
 10
107.634509
 20
232.703171
 30
0.0
 11
128.772751
 21
232.703171
 31
0.0
 70
   160
 71
     5
 72
     1
 41
1.0
 42
0.0
210
0.0
220
0.0
230
1.0
 52
89.999523
  3
STANDARD
100
AcDbAlignedDimension
 13
149.910992
 23
220.344121
 33
0.0
 14
107.634509
 24
185.694117
 34
0.0
 50
179.999046
100
AcDbRotatedDimension
  0
LINE
  5
BE
100
AcDbEntity
  8
0
370
    13
390
0
  6
DASHDOT
 62
     7
 48
0.045015
100
AcDbLine
 10
131.784737
 20
125.59417
 30
0.0
 11
131.784737
 21
123.793571
 31
0.0
210
0.0
220
0.0
230
1.0
  0
LINE
  5
BF
100
AcDbEntity
  8
0
370
    13
390
0
  6
DASHDOT
 62
     7
 48
0.0003
100
AcDbLine
 10
134.399103
 20
223.644123
 30
0.0
 11
134.411118
 21
223.644123
 31
0.0
210
0.0
220
0.0
230
1.0
  0
POINT
  5
C0
100
AcDbEntity
  8
0
370
     5
390
0
 62
     7
100
AcDbPoint
 10
165.397778
 20
156.730615
 30
0.0
210
0.0
220
0.0
230
1.0
  0
POINT
  5
C1
100
AcDbEntity
  8
0
370
     5
390
0
 62
     7
100
AcDbPoint
 10
176.106091
 20
167.944107
 30
0.0
210
0.0
220
0.0
230
1.0
  0
LINE
  5
C2
100
AcDbEntity
  8
0
370
    13
390
0
  6
DASHSPACE
 62
     7
 48
0.0125
100
AcDbLine
 10
169.956005
 20
165.644107
 30
0.0
 11
169.956005
 21
166.144107
 31
0.0
210
0.0
220
0.0
230
1.0
  0
ARC
  5
C3
100
AcDbEntity
  8
0
370
    13
390
0
  6
DASHSPACE
 62
     7
100
AcDbCircle
 10
169.656005
 20
166.144107
 30
0.0
 40
0.3
210
0.0
220
0.0
230
1.0
100
AcDbArc
 50
360.0
 51
410.533283
  0
ARC
  5
C4
100
AcDbEntity
  8
0
370
    13
390
0
  6
DASHSPACE
 62
     7
100
AcDbCircle
 10
169.906005
 20
167.494107
 30
0.0
 40
0.3
210
0.0
220
0.0
230
1.0
100
AcDbArc
 50
282.422215
 51
360.0
  0
LINE
  5
C5
100
AcDbEntity
  8
0
370
    13
390
0
  6
DASHSPACE
 62
     7
 48
0.0225
100
AcDbLine
 10
170.206005
 20
167.494107
 30
0.0
 11
170.206005
 21
168.394107
 31
0.0
210
0.0
220
0.0
230
1.0
  0
ARC
  5
C6
100
AcDbEntity
  8
0
370
    13
390
0
  6
DASHSPACE
 62
     7
100
AcDbCircle
 10
169.906005
 20
168.394107
 30
0.0
 40
0.3
210
0.0
220
0.0
230
1.0
100
AcDbArc
 50
360.0
 51
437.577933
  0
ARC
  5
C7
100
AcDbEntity
  8
0
370
    13
390
0
  6
DASHSPACE
 62
     7
100
AcDbCircle
 10
169.656005
 20
169.744107
 30
0.0
 40
0.3
210
0.0
220
0.0
230
1.0
100
AcDbArc
 50
309.46638
 51
360.0
  0
LINE
  5
C8
100
AcDbEntity
  8
0
370
    13
390
0
  6
DASHSPACE
 62
     7
 48
0.0125
100
AcDbLine
 10
169.956005
 20
170.244107
 30
0.0
 11
169.956005
 21
169.744107
 31
0.0
210
0.0
220
0.0
230
1.0
  0
ARC
  5
C9
100
AcDbEntity
  8
0
370
    13
390
0
  6
DASHSPACE
 62
     7
100
AcDbCircle
 10
170.156005
 20
170.244107
 30
0.0
 40
0.2
210
0.0
220
0.0
230
1.0
100
AcDbArc
 50
90.0
 51
180.0
  0
LINE
  5
CA
100
AcDbEntity
  8
0
370
    13
390
0
  6
DASHSPACE
 62
     7
 48
0.004351
100
AcDbLine
 10
170.156005
 20
170.444107
 30
0.0
 11
170.330043
 21
170.444107
 31
0.0
210
0.0
220
0.0
230
1.0
  0
LINE
  5
CB
100
AcDbEntity
  8
0
370
    13
390
0
  6
DASHSPACE
 62
     7
 48
0.004351
100
AcDbLine
 10
170.156005
 20
165.444107
 30
0.0
 11
170.330043
 21
165.444107
 31
0.0
210
0.0
220
0.0
230
1.0
  0
ARC
  5
CC
100
AcDbEntity
  8
0
370
    13
390
0
  6
DASHSPACE
 62
     7
100
AcDbCircle
 10
170.156005
 20
165.644107
 30
0.0
 40
0.2
210
0.0
220
0.0
230
1.0
100
AcDbArc
 50
180.0
 51
270.0
  0
LINE
  5
CD
100
AcDbEntity
  8
0
370
    13
390
0
  6
DASHSPACE
 62
     7
 48
0.006817
100
AcDbLine
 10
170.330043
 20
170.444107
 30
0.0
 11
170.602736
 21
170.444107
 31
0.0
210
0.0
220
0.0
230
1.0
  0
LINE
  5
CE
100
AcDbEntity
  8
0
370
    13
390
0
  6
DASHSPACE
 62
     7
 48
0.006817
100
AcDbLine
 10
170.330043
 20
165.444107
 30
0.0
 11
170.602736
 21
165.444107
 31
0.0
210
0.0
220
0.0
230
1.0
  0
LINE
  5
CF
100
AcDbEntity
  8
0
370
    13
390
0
  6
DASHSPACE
 62
     7
 48
0.02
100
AcDbLine
 10
170.330043
 20
169.644107
 30
0.0
 11
170.330043
 21
170.444107
 31
0.0
210
0.0
220
0.0
230
1.0
  0
ARC
  5
D0
100
AcDbEntity
  8
0
370
    13
390
0
  6
DASHSPACE
 62
     7
100
AcDbCircle
 10
162.206005
 20
167.944107
 30
0.0
 40
8.3
210
0.0
220
0.0
230
1.0
100
AcDbArc
 50
348.18108
 51
371.81892
  0
LINE
  5
D1
100
AcDbEntity
  8
0
370
    13
390
0
  6
DASHSPACE
 62
     7
 48
0.02
100
AcDbLine
 10
170.330043
 20
166.244107
 30
0.0
 11
170.330043
 21
165.444107
 31
0.0
210
0.0
220
0.0
230
1.0
  0
LINE
  5
D2
100
AcDbEntity
  8
0
370
    13
390
0
  6
DASHSPACE
 62
     7
 48
0.087757
100
AcDbLine
 10
174.099442
 20
170.135594
 30
0.0
 11
170.602736
 21
170.444107
 31
0.0
210
0.0
220
0.0
230
1.0
  0
ARC
  5
D3
100
AcDbEntity
  8
0
370
    13
390
0
  6
DASHSPACE
 62
     7
100
AcDbCircle
 10
173.906088
 20
167.944107
 30
0.0
 40
2.2
210
0.0
220
0.0
230
1.0
100
AcDbArc
 50
275.042132
 51
444.957868
  0
LINE
  5
D4
100
AcDbEntity
  8
0
370
    13
390
0
  6
DASHSPACE
 62
     7
 48
0.087757
100
AcDbLine
 10
174.099442
 20
165.75262
 30
0.0
 11
170.602736
 21
165.444107
 31
0.0
210
0.0
220
0.0
230
1.0
  0
LINE
  5
D5
100
AcDbEntity
  8
0
370
    13
390
0
  6
DASHSPACE
 62
     7
 48
0.0475
100
AcDbLine
 10
173.806005
 20
169.044107
 30
0.0
 11
171.906005
 21
169.044107
 31
0.0
210
0.0
220
0.0
230
1.0
  0
ARC
  5
D6
100
AcDbEntity
  8
0
370
    13
390
0
  6
DASHSPACE
 62
     7
100
AcDbCircle
 10
171.906005
 20
167.944107
 30
0.0
 40
1.1
210
0.0
220
0.0
230
1.0
100
AcDbArc
 50
90.0
 51
270.00002
  0
LINE
  5
D7
100
AcDbEntity
  8
0
370
    13
390
0
  6
DASHSPACE
 62
     7
 48
0.0475
100
AcDbLine
 10
173.806005
 20
166.844107
 30
0.0
 11
171.906005
 21
166.844107
 31
0.0
210
0.0
220
0.0
230
1.0
  0
ARC
  5
D8
100
AcDbEntity
  8
0
370
    13
390
0
  6
DASHSPACE
 62
     7
100
AcDbCircle
 10
173.806005
 20
167.944107
 30
0.0
 40
1.1
210
0.0
220
0.0
230
1.0
100
AcDbArc
 50
270.0
 51
450.00002
  0
LINE
  5
D9
100
AcDbEntity
  8
0
370
    13
390
0
  6
DASHSPACE
 62
     7
 48
0.005314
100
AcDbLine
 10
169.993434
 20
167.494107
 30
0.0
 11
170.206005
 21
167.494107
 31
0.0
210
0.0
220
0.0
230
1.0
  0
LINE
  5
DA
100
AcDbEntity
  8
0
370
    13
390
0
  6
DASHSPACE
 62
     7
 48
0.005314
100
AcDbLine
 10
169.993433
 20
168.394107
 30
0.0
 11
170.206005
 21
168.394107
 31
0.0
210
0.0
220
0.0
230
1.0
  0
LINE
  5
DB
100
AcDbEntity
  8
0
370
    13
390
0
  6
DASHSPACE
 62
     7
 48
0.0075
100
AcDbLine
 10
173.806005
 20
168.744107
 30
0.0
 11
173.806005
 21
169.044107
 31
0.0
210
0.0
220
0.0
230
1.0
  0
LINE
  5
DC
100
AcDbEntity
  8
0
370
    13
390
0
  6
DASHSPACE
 62
     7
 48
0.0075
100
AcDbLine
 10
171.906005
 20
168.744107
 30
0.0
 11
171.906005
 21
169.044107
 31
0.0
210
0.0
220
0.0
230
1.0
  0
LINE
  5
DD
100
AcDbEntity
  8
0
370
    13
390
0
  6
DASHSPACE
 62
     7
 48
0.0475
100
AcDbLine
 10
173.806005
 20
168.744107
 30
0.0
 11
171.906005
 21
168.744107
 31
0.0
210
0.0
220
0.0
230
1.0
  0
LINE
  5
DE
100
AcDbEntity
  8
0
370
    13
390
0
  6
DASHSPACE
 62
     7
 48
0.0075
100
AcDbLine
 10
171.906005
 20
167.144107
 30
0.0
 11
171.906005
 21
166.844107
 31
0.0
210
0.0
220
0.0
230
1.0
  0
ARC
  5
DF
100
AcDbEntity
  8
0
370
    13
390
0
  6
DASHSPACE
 62
     7
100
AcDbCircle
 10
171.906005
 20
167.944107
 30
0.0
 40
0.8
210
0.0
220
0.0
230
1.0
100
AcDbArc
 50
90.0
 51
270.0
  0
LINE
  5
E0
100
AcDbEntity
  8
0
370
    13
390
0
  6
DASHSPACE
 62
     7
 48
0.0075
100
AcDbLine
 10
173.806005
 20
167.144107
 30
0.0
 11
173.806005
 21
166.844107
 31
0.0
210
0.0
220
0.0
230
1.0
  0
LINE
  5
E1
100
AcDbEntity
  8
0
370
    13
390
0
  6
DASHSPACE
 62
     7
 48
0.0475
100
AcDbLine
 10
173.806005
 20
167.144107
 30
0.0
 11
171.906005
 21
167.144107
 31
0.0
210
0.0
220
0.0
230
1.0
  0
ARC
  5
E2
100
AcDbEntity
  8
0
370
    13
390
0
  6
DASHSPACE
 62
     7
100
AcDbCircle
 10
173.806005
 20
167.944107
 30
0.0
 40
0.8
210
0.0
220
0.0
230
1.0
100
AcDbArc
 50
270.0
 51
450.0
  0
LINE
  5
E3
100
AcDbEntity
  8
0
370
    13
390
0
  6
DASHSPACE
 62
     7
 48
0.0075
100
AcDbLine
 10
173.806005
 20
168.444107
 30
0.0
 11
173.806004
 21
168.744107
 31
0.0
210
0.0
220
0.0
230
1.0
  0
LINE
  5
E4
100
AcDbEntity
  8
0
370
    13
390
0
  6
DASHSPACE
 62
     7
 48
0.0475
100
AcDbLine
 10
173.806005
 20
168.444107
 30
0.0
 11
171.906005
 21
168.444107
 31
0.0
210
0.0
220
0.0
230
1.0
  0
LINE
  5
E5
100
AcDbEntity
  8
0
370
    13
390
0
  6
DASHSPACE
 62
     7
 48
0.0075
100
AcDbLine
 10
171.906005
 20
168.444107
 30
0.0
 11
171.906005
 21
168.744107
 31
0.0
210
0.0
220
0.0
230
1.0
  0
ARC
  5
E6
100
AcDbEntity
  8
0
370
    13
390
0
  6
DASHSPACE
 62
     7
100
AcDbCircle
 10
171.906005
 20
167.944107
 30
0.0
 40
0.5
210
0.0
220
0.0
230
1.0
100
AcDbArc
 50
90.0
 51
270.000015
  0
LINE
  5
E7
100
AcDbEntity
  8
0
370
    13
390
0
  6
DASHSPACE
 62
     7
 48
0.0075
100
AcDbLine
 10
171.906005
 20
167.444107
 30
0.0
 11
171.906005
 21
167.144107
 31
0.0
210
0.0
220
0.0
230
1.0
  0
LINE
  5
E8
100
AcDbEntity
  8
0
370
    13
390
0
  6
DASHSPACE
 62
     7
 48
0.0475
100
AcDbLine
 10
173.806005
 20
167.444107
 30
0.0
 11
171.906005
 21
167.444107
 31
0.0
210
0.0
220
0.0
230
1.0
  0
LINE
  5
E9
100
AcDbEntity
  8
0
370
    13
390
0
  6
DASHSPACE
 62
     7
 48
0.0075
100
AcDbLine
 10
173.806005
 20
167.444107
 30
0.0
 11
173.806005
 21
167.144107
 31
0.0
210
0.0
220
0.0
230
1.0
  0
ARC
  5
EA
100
AcDbEntity
  8
0
370
    13
390
0
  6
DASHSPACE
 62
     7
100
AcDbCircle
 10
173.806005
 20
167.944107
 30
0.0
 40
0.5
210
0.0
220
0.0
230
1.0
100
AcDbArc
 50
270.000011
 51
450.000061
  0
INSERT
  5
54C
100
AcDbEntity
  8
0
370
     0
390
0
100
AcDbBlockReference
  2
BLOCK1
 10
0.0
 20
0.0
 30
0.0
210
0.0
220
0.0
230
1.0
  0
INSERT
  5
54D
100
AcDbEntity
  8
0
370
     0
390
0
100
AcDbBlockReference
  2
BLOCK2
 10
0.0
 20
0.0
 30
0.0
210
0.0
220
0.0
230
1.0
  0
INSERT
  5
54E
100
AcDbEntity
  8
0
370
     0
390
0
100
AcDbBlockReference
  2
BLOCK3
 10
0.0
 20
0.0
 30
0.0
210
0.0
220
0.0
230
1.0
  0
INSERT
  5
54F
100
AcDbEntity
  8
0
370
     0
390
0
100
AcDbBlockReference
  2
BLOCK4
 10
0.0
 20
0.0
 30
0.0
210
0.0
220
0.0
230
1.0
  0
INSERT
  5
550
100
AcDbEntity
  8
0
370
     0
390
0
100
AcDbBlockReference
  2
BLOCK5
 10
0.0
 20
0.0
 30
0.0
210
0.0
220
0.0
230
1.0
  0
INSERT
  5
551
100
AcDbEntity
  8
0
370
     0
390
0
100
AcDbBlockReference
  2
BLOCK6
 10
0.0
 20
0.0
 30
0.0
210
0.0
220
0.0
230
1.0
  0
INSERT
  5
552
100
AcDbEntity
  8
0
370
     0
390
0
100
AcDbBlockReference
  2
BLOCK7
 10
0.0
 20
0.0
 30
0.0
210
0.0
220
0.0
230
1.0
  0
INSERT
  5
553
100
AcDbEntity
  8
0
370
     0
390
0
100
AcDbBlockReference
  2
BLOCK8
 10
0.0
 20
0.0
 30
0.0
210
0.0
220
0.0
230
1.0
  0
INSERT
  5
554
100
AcDbEntity
  8
0
370
     0
390
0
100
AcDbBlockReference
  2
BLOCK9
 10
0.0
 20
0.0
 30
0.0
210
0.0
220
0.0
230
1.0
  0
INSERT
  5
555
100
AcDbEntity
  8
0
370
     0
390
0
100
AcDbBlockReference
  2
BLOCK10
 10
148.06812
 20
167.944107
 30
0.0
210
0.0
220
0.0
230
1.0
  0
INSERT
  5
556
100
AcDbEntity
  8
0
370
     0
390
0
100
AcDbBlockReference
  2
BLOCK11
 10
107.206005
 20
167.944107
 30
0.0
210
0.0
220
0.0
230
1.0
  0
ENDSEC
  0
SECTION
  2
OBJECTS
  0
DICTIONARY
  5
19
100
AcDbDictionary
280
     0
281
     1
  3
ACAD_GROUP
350
1A
  3
ACAD_MLINESTYLE
350
1B
  3
ACAD_LAYOUT
350
1E
  3
ACAD_PLOTSETTINGS
350
22
  3
ACAD_PLOTSTYLENAME
350
1F
  3
ACAD_WIPEOUT_VARS
350
23
  0
DICTIONARY
  5
1A
102
{ACAD_REACTORS
330
19
102
}
100
AcDbDictionary
280
     0
281
     1
  0
DICTIONARY
  5
1B
102
{ACAD_REACTORS
330
19
102
}
100
AcDbDictionary
280
     0
281
     1
  3
Standard
350
1C
  0
MLINESTYLE
  5
1C
102
{ACAD_REACTORS
330
1B
102
}
100
AcDbMlineStyle
  2
Standard
 70
     0
  3

 62
     0
 51
90.0
 52
90.0
 71
     2
 49
0.5
 62
   256
  6
ByLayer
 49
-0.5
 62
   256
  6
ByLayer
  0
ACDBDICTIONARYWDFLT
  5
1F
102
{ACAD_REACTORS
330
19
102
}
100
AcDbDictionary
281
     1
  3
Normal
350
1D
100
AcDbDictionaryWithDefault
340
1D
  0
ACDBPLACEHOLDER
  5
1D
102
{ACAD_REACTORS
330
1F
102
}
  0
LAYOUT
  5
20
102
{ACAD_REACTORS
330
1E
102
}
100
AcDbPlotSettings
  1

  2

  4

  6

 40
0.0
 41
0.0
 42
0.0
 43
0.0
 44
0.0
 45
0.0
 46
0.0
 47
0.0
 48
0.0
 49
0.0
140
0.0
141
0.0
142
1.0
143
1.0
 70
  1024
 72
     0
 73
     0
 74
     0
  7

 75
     0
147
1.0
148
0.0
149
0.0
100
AcDbLayout
  1
Model
 70
     0
 71
     0
 10
0.0
 20
0.0
 11
0.0
 21
0.0
 12
0.0
 22
0.0
 32
0.0
 14
0.0
 24
0.0
 34
0.0
 15
0.0
 25
0.0
 35
0.0
146
0.0
 13
0.0
 23
0.0
 33
0.0
 16
0.0
 26
0.0
 36
0.0
 17
0.0
 27
0.0
 37
0.0
 76
     0
330
A
331
0
345
0
346
0
  0
LAYOUT
  5
21
102
{ACAD_REACTORS
330
1E
102
}
100
AcDbPlotSettings
  1

  2

  4

  6

 40
0.0
 41
0.0
 42
0.0
 43
0.0
 44
0.0
 45
0.0
 46
0.0
 47
0.0
 48
0.0
 49
0.0
140
0.0
141
0.0
142
1.0
143
1.0
 70
     0
 72
     0
 73
     0
 74
     0
  7

 75
     0
147
1.0
148
0.0
149
0.0
100
AcDbLayout
  1
Layout1
 70
     0
 71
     0
 10
0.0
 20
0.0
 11
0.0
 21
0.0
 12
0.0
 22
0.0
 32
0.0
 14
0.0
 24
0.0
 34
0.0
 15
0.0
 25
0.0
 35
0.0
146
0.0
 13
0.0
 23
0.0
 33
0.0
 16
0.0
 26
0.0
 36
0.0
 17
0.0
 27
0.0
 37
0.0
 76
     0
330
B
331
0
345
0
346
0
  0
DICTIONARY
  5
1E
102
{ACAD_REACTORS
330
19
102
}
100
AcDbDictionary
280
     0
281
     1
  3
Layout1
350
21
  3
Model
350
20
  0
DICTIONARY
  5
22
102
{ACAD_REACTORS
330
19
102
}
100
AcDbDictionary
280
     0
281
     1
  0
WIPEOUTVARIABLES
  5
23
100
AcDbWipeoutVariables
 70
     1
  0
ENDSEC
  0
EOF
