  0
SECTION
  2
HEADER
  9
$ACADVER
  1
AC1009
999
I-DEAS 11 NX Not Encoded
  9
$EXTMIN
 10
0.0
 20
0.0
  9
$EXTMAX
 10
5.94E+002
 20
4.2E+002
  9
$TEXTSIZE
 40
1.25E-001
  9
$LTSCALE
 40
1.0
  9
$CLAYER
  8
231
  9
$CECOLOR
 62
5
  9
$DIMASZ
 40
1.25E-001
  9
$DIMEXO
 40
6.25E-002
  9
$DIMDLI
 40
2.5E-001
  9
$DIMEXE
 40
1.25E-001
  9
$DIMTP
 40
5.0E-003
  9
$DIMTM
 40
-5.0E-003
  9
$DIMTXT
 40
3.0
  9
$DIMLIM
 70
0
  9
$DIMTIH
 70
1
  9
$DIMTOH
 70
1
  9
$DIMSE1
 70
0
  9
$DIMSE2
 70
0
  9
$DIMTAD
 70
0
  9
$DIMASO
 70
1
  9
$DIMALT
 70
0
  9
$DIMALTD
 70
0
  9
$DIMTOFL
 70
1
  9
$DIMTIX
 70
0
  9
$DIMSAH
 70
0
  9
$DIMTFAC
 40
1.0
  9
$DIMGAP
 40
6.25E-002
  9
$LUNITS
 70
2
  9
$LUPREC
 70
3
  9
$FILLETRAD
 40
1.0E+001
  9
$AUNITS
 70
0
  9
$AUPREC
 70
1
  9
$CHAMFERA
 40
6.0
  9
$CHAMFERB
 40
6.0
  9
$ANGBASE
 50
0.0
  9
$ANGDIR
 70
0
  9
$PEXTMIN
 10
0.0
 20
0.0
 30
0.0
  9
$PEXTMAX
 10
5.94E+002
 20
4.2E+002
 30
0.0
  9
$PLIMMIN
 10
0.0
 20
0.0
  9
$PLIMMAX
 10
5.94E+002
 20
4.2E+002
  9
$PDMODE
 70
2
  9
$PDSIZE
 40
-1.0E-002
  9
$SPLINETYPE
 70
6
  9
$TILEMODE
 70
0
  0
ENDSEC
  0
SECTION
  2
TABLES
  0
TABLE
  2
VPORT
 70
2
  0
VPORT
  2
*Active
 70
0
 10
0.0
 20
0.0
 11
5.94E+002
 21
4.2E+002
 12
2.97E+002
 22
2.1E+002
 13
0.0
 23
0.0
 14
1.0
 24
1.0
 15
0.0
 25
0.0
 16
0.0
 26
0.0
 36
1.0
 17
0.0
 27
0.0
 37
0.0
 40
4.2E+002
 41
1.4142857
 42
5.0E+001
 43
0.0
 44
0.0
 50
0.0
 51
0.0
 71
0
 72
100
 73
1
 74
3
 75
0
 76
0
 77
0
 78
0
  0
ENDTAB
  0
TABLE
  2
LTYPE
 70
7
  0
LTYPE
  2
HIDDENNEW0
  3
_ 
 70
64
 72
65
 73
3
 40
4.5
 49
1.5
 49
-1.5
 49
1.5
  0
LTYPE
  2
HIDDENNEW1
  3
_ 
 70
64
 72
65
 73
3
 40
4.5
 49
1.5
 49
-1.5
 49
1.5
  0
LTYPE
  2
HIDDEN
  3
_ 
 70
64
 72
65
 73
3
 40
4.5
 49
1.5
 49
-1.5
 49
1.5
  0
LTYPE
  2
CENTERLINE
  3
_ 
 70
64
 72
65
 73
5
 40
3.0E+001
 49
1.2E+001
 49
-1.5
 49
3.0
 49
-1.5
 49
1.2E+001
  0
LTYPE
  2
PHANTOM
  3
_ 
 70
64
 72
65
 73
7
 40
2.95E+001
 49
9.5
 49
-1.5
 49
3.0
 49
-1.5
 49
3.0
 49
-1.5
 49
9.5
  0
LTYPE
  2
SHORT_DASH
  3
_ 
 70
64
 72
65
 73
3
 40
3.0
 49
7.5E-001
 49
-1.5
 49
7.5E-001
  0
LTYPE
  2
LONG_DASH
  3
_ 
 70
64
 72
65
 73
3
 40
9.0
 49
2.25
 49
-4.5
 49
2.25
  0
ENDTAB
  0
TABLE
  2
LAYER
 70
258
  0
LAYER
  2
0
 70
0
 62
-7
  6
CONTINUOUS
  0
LAYER
  2
1
 70
0
 62
7
  6
CONTINUOUS
  0
LAYER
  2
2
 70
0
 62
7
  6
CONTINUOUS
  0
LAYER
  2
3
 70
0
 62
7
  6
CONTINUOUS
  0
LAYER
  2
4
 70
0
 62
7
  6
CONTINUOUS
  0
LAYER
  2
5
 70
0
 62
7
  6
CONTINUOUS
  0
LAYER
  2
Drafting_Hidden_Entities
 70
1
 62
7
  6
CONTINUOUS
  0
ENDTAB
  0
TABLE
  2
STYLE
 70
1
  0
STYLE
  2
STANDARD
 70
64
 40
0.0
 41
1.0
 50
0.0
 71
0
 42
1.0
  3
monotxt.shx
  4

  0
ENDTAB
  0
TABLE
  2
VIEW
 70
0
  0
ENDTAB
  0
TABLE
  2
DIMSTYLE
 70
1
  0
DIMSTYLE
  2
DSTYLE1
 70
0
  3

  4

  5

  6

  7

 40
1.0
 41
3.0
 42
0.0
 43
3.8E-001
 44
3.0
 45
1.0E-001
 46
0.0
 47
1.0
 48
1.0
 71
0
 72
0
 73
0
 74
0
 75
0
 76
0
 77
1
 78
11
140
3.0
141
9.0E-002
142
0.0
143
3.9370079E-002
144
1.0
145
0.0
146
1.0
147
2.0
170
0
171
2
172
0
173
0
174
0
175
0
176
0
177
0
178
0
  0
ENDTAB
  0
ENDSEC
  0
SECTION
  2
BLOCKS
  0
BLOCK
  2
_AH12
  3
_AH
 10
0.0
 20
0.0
 70
64
  0
LINE
  8
0
  6
CONTINUOUS
 62
0
 10
0.0
 20
0.0
 11
1.0
 21
0.0
  0
LINE
  8
0
  6
CONTINUOUS
 62
0
 10
0.0
 20
0.0
 11
-1.0
 21
0.0
  0
ENDBLK
  0
BLOCK
  2
_AH13
  3
_AH
 10
0.0
 20
0.0
 70
64
  0
SOLID
  8
0
  6
CONTINUOUS
 62
0
 10
0.0
 20
0.0
 11
-1.0
 21
1.66667E-001
 12
-1.0
 22
-1.66667E-001
 13
0.0
 23
0.0
  0
ENDBLK
  0
BLOCK
  2
_AH14
  3
_AH
 10
0.0
 20
0.0
 70
64
  0
ENDBLK
  0
BLOCK
  2
_AH15
  3
_AH
 10
0.0
 20
0.0
 70
64
  0
CIRCLE
  8
0
  6
CONTINUOUS
 62
0
 10
0.0
 20
0.0
 40
1.66667E-001
  0
LINE
  8
0
  6
CONTINUOUS
 62
0
 10
0.0
 20
0.0
 11
-1.0
 21
0.0
  0
ENDBLK
  0
BLOCK
  2
_AH16
  3
_AH
 10
0.0
 20
0.0
 70
64
  0
CIRCLE
  8
0
  6
CONTINUOUS
 62
0
 10
0.0
 20
0.0
 40
8.3335E-002
  0
LINE
  8
0
  6
CONTINUOUS
 62
0
 10
0.0
 20
0.0
 11
-1.0
 21
0.0
  0
ENDBLK
  0
BLOCK
  2
_AH17
  3
_AH
 10
0.0
 20
0.0
 70
64
  0
LINE
  8
0
  6
CONTINUOUS
 62
0
 10
-1.66667E-001
 20
-1.66667E-001
 11
1.66667E-001
 21
-1.66667E-001
  0
LINE
  8
0
  6
CONTINUOUS
 62
0
 10
1.66667E-001
 20
-1.66667E-001
 11
1.66667E-001
 21
1.66667E-001
  0
LINE
  8
0
  6
CONTINUOUS
 62
0
 10
1.66667E-001
 20
1.66667E-001
 11
-1.66667E-001
 21
1.66667E-001
  0
LINE
  8
0
  6
CONTINUOUS
 62
0
 10
-1.66667E-001
 20
1.66667E-001
 11
-1.66667E-001
 21
-1.66667E-001
  0
LINE
  8
0
  6
CONTINUOUS
 62
0
 10
0.0
 20
0.0
 11
-1.0
 21
0.0
  0
ENDBLK
  0
BLOCK
  2
_AH18
  3
_AH
 10
0.0
 20
0.0
 70
64
  0
SOLID
  8
0
  6
CONTINUOUS
 62
0
 10
-1.66667E-001
 20
-1.66667E-001
 11
1.66667E-001
 21
-1.66667E-001
 12
-1.66667E-001
 22
1.66667E-001
 13
1.66667E-001
 23
1.66667E-001
  0
LINE
  8
0
  6
CONTINUOUS
 62
0
 10
0.0
 20
0.0
 11
-1.0
 21
0.0
  0
ENDBLK
  0
BLOCK
  2
_AH19
  3
_AH
 10
0.0
 20
0.0
 70
64
  0
LINE
  8
0
  6
CONTINUOUS
 62
0
 10
-5.0E-001
 20
-5.0E-001
 11
5.0E-001
 21
5.0E-001
  0
LINE
  8
0
  6
CONTINUOUS
 62
0
 10
0.0
 20
0.0
 11
-1.0
 21
0.0
  0
ENDBLK
  0
BLOCK
  2
_AH20
  3
_AH
 10
0.0
 20
0.0
 70
64
  0
ARC
  8
0
  6
CONTINUOUS
 62
0
 10
-1.66667E-001
 20
0.0
 40
1.66667E-001
 50
2.7E+002
 51
3.6E+002
  0
ARC
  8
0
  6
CONTINUOUS
 62
0
 10
1.66667E-001
 20
0.0
 40
1.66667E-001
 50
9.0E+001
 51
1.8E+002
  0
LINE
  8
0
  6
CONTINUOUS
 62
0
 10
0.0
 20
0.0
 11
-1.0
 21
0.0
  0
ENDBLK
  0
BLOCK
  2
_AH21
  3
_AH
 10
0.0
 20
0.0
 70
64
  0
LINE
  8
0
  6
CONTINUOUS
 62
0
 10
0.0
 20
0.0
 11
-1.0
 21
-1.66667E-001
  0
LINE
  8
0
  6
CONTINUOUS
 62
0
 10
-1.0
 20
-1.66667E-001
 11
-1.0
 21
1.66667E-001
  0
LINE
  8
0
  6
CONTINUOUS
 62
0
 10
-1.0
 20
1.66667E-001
 11
0.0
 21
0.0
  0
ENDBLK
  0
BLOCK
  2
*TX41
  3
*TX
 10
0.0
 20
0.0
 70
65
  0
TEXT
  8
1
  6
CONTINUOUS
 62
1
 10
0.0
 20
0.0
 40
2.2
  1
1SCC301453F0001
  0
TEXT
  8
1
  6
CONTINUOUS
 62
1
 10
0.0
 20
-3.3
 40
2.2
  1
1SCC301454F0001
  0
ENDBLK
  0
BLOCK
  2
TITL_GRA
 10
0.0
 20
0.0
 70
0
  0
LINE
  8
1
  6
CONTINUOUS
 62
2
 10
2.1500009E+001
 20
5.1142526E+001
 11
2.1500009E+001
 21
5.3272526E+001
  0
LINE
  8
1
  6
CONTINUOUS
 62
2
 10
2.0050001E+002
 20
5.1142526E+001
 11
2.0050001E+002
 21
5.3272526E+001
  0
LINE
  8
1
  6
CONTINUOUS
 62
2
 10
1.8592465E+002
 20
1.5142526E+001
 11
1.8592465E+002
 21
2.8142526E+001
  0
LINE
  8
1
  6
CONTINUOUS
 62
2
 10
2.1500009E+001
 20
4.4142526E+001
 11
1.2650001E+002
 21
4.4142526E+001
  0
LINE
  8
1
  6
CONTINUOUS
 62
2
 10
2.0050001E+002
 20
1.5142526E+001
 11
2.0050001E+002
 21
5.1142526E+001
  0
LINE
  8
1
  6
CONTINUOUS
 62
2
 10
2.1500009E+001
 20
1.5142526E+001
 11
2.0050001E+002
 21
1.5142526E+001
  0
LINE
  8
1
  6
CONTINUOUS
 62
2
 10
7.5000009E+001
 20
2.8142526E+001
 11
2.0050001E+002
 21
2.8142526E+001
  0
LINE
  8
1
  6
CONTINUOUS
 62
2
 10
7.5000009E+001
 20
2.1642526E+001
 11
1.2650001E+002
 21
2.1642526E+001
  0
LINE
  8
1
  6
CONTINUOUS
 62
2
 10
7.5000009E+001
 20
6.832526
 11
7.5000009E+001
 21
2.1642526E+001
  0
LINE
  8
1
  6
CONTINUOUS
 62
2
 10
5.2500009E+001
 20
3.7142526E+001
 11
5.2500009E+001
 21
4.4142526E+001
  0
LINE
  8
1
  6
CONTINUOUS
 62
2
 10
1.2650001E+002
 20
7.052526
 11
1.2650001E+002
 21
2.8142526E+001
  0
LINE
  8
1
  6
CONTINUOUS
 62
2
 10
2.1500009E+001
 20
1.5142526E+001
 11
2.1500009E+001
 21
5.1142526E+001
  0
LINE
  8
1
  6
CONTINUOUS
 62
2
 10
2.1500009E+001
 20
3.7142526E+001
 11
2.0050001E+002
 21
3.7142526E+001
  0
LINE
  8
1
  6
CONTINUOUS
 62
2
 10
2.1500009E+001
 20
5.1142526E+001
 11
2.0050001E+002
 21
5.1142526E+001
  0
LINE
  8
1
  6
CONTINUOUS
 62
2
 10
7.5000009E+001
 20
4.4142526E+001
 11
7.5000009E+001
 21
5.1142526E+001
  0
LINE
  8
1
  6
CONTINUOUS
 62
2
 10
7.5000009E+001
 20
3.7142526E+001
 11
7.5000009E+001
 21
4.4142526E+001
  0
LINE
  8
1
  6
CONTINUOUS
 62
2
 10
7.5000009E+001
 20
2.8142526E+001
 11
7.5000009E+001
 21
3.7142526E+001
  0
LINE
  8
1
  6
CONTINUOUS
 62
2
 10
7.5000009E+001
 20
2.1642526E+001
 11
7.5000009E+001
 21
2.8142526E+001
  0
LINE
  8
1
  6
CONTINUOUS
 62
2
 10
1.2650001E+002
 20
4.4142526E+001
 11
1.2650001E+002
 21
5.1142526E+001
  0
LINE
  8
1
  6
CONTINUOUS
 62
2
 10
1.2650001E+002
 20
3.7142526E+001
 11
1.2650001E+002
 21
4.4142526E+001
  0
LINE
  8
1
  6
CONTINUOUS
 62
2
 10
1.2650001E+002
 20
2.8142526E+001
 11
1.2650001E+002
 21
3.7142526E+001
  0
LINE
  8
1
  6
HIDDEN
 62
2
 10
6.4000009E+001
 20
3.7922526E+001
 11
6.4000009E+001
 21
4.3202526E+001
  0
LINE
  8
1
  6
HIDDEN
 62
2
 10
5.4000009E+001
 20
4.0642526E+001
 11
6.6720009E+001
 21
4.0642526E+001
  0
LINE
  8
1
  6
CONTINUOUS
 62
2
 10
6.0000009E+001
 20
3.8662526E+001
 11
6.0000009E+001
 21
4.2642526E+001
  0
LINE
  8
1
  6
CONTINUOUS
 62
2
 10
5.7000009E+001
 20
3.9642526E+001
 11
5.7000009E+001
 21
4.1642526E+001
  0
LINE
  8
1
  6
CONTINUOUS
 62
2
 10
5.7000009E+001
 20
4.1642526E+001
 11
6.0000009E+001
 21
4.2642526E+001
  0
LINE
  8
1
  6
CONTINUOUS
 62
2
 10
5.7000009E+001
 20
3.9642526E+001
 11
6.0000009E+001
 21
3.8662526E+001
  0
LINE
  8
1
  6
CONTINUOUS
 62
2
 10
1.6137001E+002
 20
5.1142526E+001
 11
1.6137001E+002
 21
5.3272526E+001
  0
LINE
  8
1
  6
CONTINUOUS
 62
2
 10
1.0137001E+002
 20
5.1142526E+001
 11
1.0137001E+002
 21
5.3272526E+001
  0
LINE
  8
1
  6
CONTINUOUS
 62
2
 10
1.4985294E+002
 20
2.8142526E+001
 11
1.4985294E+002
 21
3.7142526E+001
  0
LINE
  8
1
  6
CONTINUOUS
 62
2
 10
1.7289293E+002
 20
2.8142526E+001
 11
1.7289293E+002
 21
3.7142526E+001
  0
CIRCLE
  8
1
  6
CONTINUOUS
 62
2
 10
6.4000009E+001
 20
4.0642526E+001
 40
2.0
  0
CIRCLE
  8
1
  6
CONTINUOUS
 62
2
 10
6.4000009E+001
 20
4.0642526E+001
 40
1.0
  0
TEXT
  8
1
  6
CONTINUOUS
 62
2
 10
6.8400009E+001
 20
4.1942526E+001
 40
1.2
  1
PROJ
  0
TEXT
  8
1
  6
CONTINUOUS
 62
2
 10
2.5229957E+001
 20
2.6968965E+001
 40
4.5
  1
ABB Oy
 41
7.62E-001
  0
TEXT
  8
1
  6
CONTINUOUS
 62
2
 10
2.4843451E+001
 20
2.2041012E+001
 40
3.55
  1
Low Voltage Products
 41
6.35E-001
  0
POINT
  8
Drafting_Hidden_Entities
  6
CONTINUOUS
 62
1
 10
0.0
 20
0.0
  0
ENDBLK
  0
BLOCK
  2
TITL_TEXT
 10
0.0
 20
0.0
 70
0
  0
ATTDEF
  8
1
  6
CONTINUOUS
 62
2
 10
1.2706969E+002
 20
3.5447498E+001
 40
1.2
  1
DOCUMENT TYPE
  3
DOCUMENT TYPE
  2
DOCUMENTTYPE
 70
0
  0
ATTDEF
  8
1
  6
CONTINUOUS
 62
2
 10
1.2738227E+002
 20
2.6248866E+001
 40
1.2
  1
DRAWING NO
  3
DRAWING NO
  2
DRAWINGNO
 70
0
  0
ATTDEF
  8
1
  6
CONTINUOUS
 62
2
 10
1.2702504E+002
 20
4.8977526E+001
 40
1.2
  1
DESCRIPTION
  3
DESCRIPTION
  2
DESCRIPTION
 70
0
  0
ATTDEF
  8
1
  6
CONTINUOUS
 62
2
 10
1.9201752E+002
 20
2.6242492E+001
 40
1.2
  1
REV.
  3
REV.
  2
REV.
 70
0
  0
ATTDEF
  8
1
  6
CONTINUOUS
 62
2
 10
7.5549331E+001
 20
4.1854656E+001
 40
1.2
  1
DEPARTMENT
  3
DEPARTMENT
  2
DEPARTMENT
 70
0
  0
ATTDEF
  8
1
  6
CONTINUOUS
 62
2
 10
1.5223913E+002
 20
3.5494431E+001
 40
1.2
  1
DISTRIBUTION
  3
DISTRIBUTION
  2
DISTRIBUTION
 70
0
  0
ATTDEF
  8
1
  6
CONTINUOUS
 62
2
 10
7.5456787E+001
 20
2.6144386E+001
 40
1.2
  1
CHECKED
  3
CHECKED
  2
CHECKED
 70
0
  0
ATTDEF
  8
1
  6
CONTINUOUS
 62
2
 10
7.5400891E+001
 20
1.9576581E+001
 40
1.2
  1
APPROVED
  3
APPROVED
  2
APPROVED
 70
0
  0
ATTDEF
  8
1
  6
CONTINUOUS
 62
2
 10
7.5484735E+001
 20
3.5059705E+001
 40
1.2
  1
DRAWN
  3
DRAWN
  2
DRAWN
 70
0
  0
ATTDEF
  8
1
  6
CONTINUOUS
 62
2
 10
7.5484735E+001
 20
2.9146017E+001
 40
1.2
  1
DATE
  3
DATE
  2
DATE
 70
0
  0
ATTDEF
  8
1
  6
CONTINUOUS
 62
2
 10
2.204048E+001
 20
1.2763116E+001
 40
1.2
  1
TC ITEM NUMBER
  3
TC ITEM NUMBER
  2
TCITEMNUMBER
 70
0
  0
ATTDEF
  8
1
  6
CONTINUOUS
 62
2
 10
1.7574005E+002
 20
3.5642858E+001
 40
1.2
  1
PAPER SIZE
  3
PAPER SIZE
  2
PAPERSIZE
 70
0
  0
ATTDEF
  8
1
  6
CONTINUOUS
 62
2
 10
3.0279021E+001
 20
5.210194E+001
 40
1.4
  1
NAME
  3
NAME
  2
NAME
 70
0
  0
ATTDEF
  8
1
  6
CONTINUOUS
 62
2
 10
1.0435243E+002
 20
5.1960066E+001
 40
1.4
  1
RAW MATERIAL
  3
RAW MATERIAL
  2
RAWMATERIAL
 70
0
  0
ATTDEF
  8
1
  6
CONTINUOUS
 62
2
 10
2.1979557E+001
 20
4.9009199E+001
 40
1.2
  1
TOLERANCES
  3
TOLERANCES
  2
TOLERANCES
 70
0
  0
ATTDEF
  8
1
  6
CONTINUOUS
 62
2
 10
7.5427577E+001
 20
4.8977242E+001
 40
1.2
  1
CONCERNING
  3
CONCERNING
  2
CONCERNING
 70
0
  0
ATTDEF
  8
1
  6
CONTINUOUS
 62
2
 10
2.2008212E+001
 20
4.1947167E+001
 40
1.2
  1
SCALE
  3
SCALE
  2
SCALE
 70
0
  0
ATTDEF
  8
1
  6
CONTINUOUS
 62
2
 10
7.5484735E+001
 20
1.307686E+001
 40
1.2
  1
SUPERSEDES
  3
SUPERSEDES
  2
SUPERSEDES
 70
0
  0
ATTDEF
  8
1
  6
CONTINUOUS
 62
2
 10
1.2698039E+002
 20
1.3098592E+001
 40
1.2
  1
SUPERSEDED BY
  3
SUPERSEDED BY
  2
SUPERSEDEDBY
 70
0
  0
ATTDEF
  8
1
  6
CONTINUOUS
 62
2
 10
1.6431118E+002
 20
5.1969809E+001
 40
1.4
  1
WEIGHT
  3
WEIGHT
  2
WEIGHT
 70
0
  0
ATTDEF
  8
1
  6
CONTINUOUS
 62
2
 10
-1.6704262E+002
 20
1.7416293E+001
 40
1.4
  1
WORKING ORDER
  3
WORKING ORDER
  2
WORKINGORDER
 70
0
  0
ATTDEF
  8
1
  6
CONTINUOUS
 62
2
 10
-1.3566534E+002
 20
1.7533852E+001
 40
1.4
  1
WORK
  3
WORK
  2
WORK
 70
0
  0
ATTDEF
  8
1
  6
CONTINUOUS
 62
2
 10
-9.0283768E+001
 20
1.7511327E+001
 40
1.4
  1
TOOL
  3
TOOL
  2
TOOL
 70
0
  0
ATTDEF
  8
1
  6
CONTINUOUS
 62
2
 10
-5.7559495E+001
 20
1.7543489E+001
 40
1.4
  1
MACHINE
  3
MACHINE
  2
MACHINE
 70
0
  0
ATTDEF
  8
1
  6
CONTINUOUS
 62
2
 10
-1.7979079E+001
 20
1.7518527E+001
 40
1.4
  1
NOTE
  3
NOTE
  2
NOTE
 70
0
  0
POINT
  8
Drafting_Hidden_Entities
  6
CONTINUOUS
 62
1
 10
0.0
 20
0.0
  0
ENDBLK
  0
BLOCK
  2
TITL_ATTR
 10
0.0
 20
0.0
 70
0
  0
ATTDEF
  8
1
  6
CONTINUOUS
 62
2
 10
1.3108574E+002
 20
2.9920835E+001
 40
3.0
  1
DRAW_DOKAR
  3
DRAW_DOKAR
  2
DRAW_DOKAR
 70
0
  0
ATTDEF
  8
1
  6
CONTINUOUS
 62
2
 10
1.3031353E+002
 20
1.6986219E+001
 40
3.0
  1
DRAW_DOKNR
  3
DRAW_DOKNR
  2
DRAW_DOKNR
 70
0
  0
ATTDEF
  8
1
  6
CONTINUOUS
 62
2
 10
1.3093742E+002
 20
3.8868199E+001
 40
3.0
  1
DRAT_DKTXT
  3
DRAT_DKTXT
  2
DRAT_DKTXT
 70
0
  0
ATTDEF
  8
1
  6
CONTINUOUS
 62
2
 10
1.888278E+002
 20
1.6875239E+001
 40
3.0
  1
SAP_DirVersion
  3
SAP_DirVersion
  2
SAP_DirVersion
 70
0
  0
ATTDEF
  8
1
  6
CONTINUOUS
 62
2
 10
8.9158658E+001
 20
3.8166563E+001
 40
3.0
  1
TBL_DEPARTMENT
  3
TBL_DEPARTMENT
  2
TBL_DEPARTMENT
 70
0
  0
ATTDEF
  8
1
  6
CONTINUOUS
 62
2
 10
1.5397309E+002
 20
2.9872013E+001
 40
3.0
  1
TBL_DISTRIBUTION
  3
TBL_DISTRIBUTION
  2
TBL_DISTRIBUTION
 70
0
  0
ATTDEF
  8
1
  6
CONTINUOUS
 62
2
 10
8.894907E+001
 20
2.2708995E+001
 40
3.0
  1
TBL_CHECKED
  3
TBL_CHECKED
  2
TBL_CHECKED
 70
0
  0
ATTDEF
  8
1
  6
CONTINUOUS
 62
2
 10
8.8918612E+001
 20
1.6300721E+001
 40
3.0
  1
TBL_APPROVED
  3
TBL_APPROVED
  2
TBL_APPROVED
 70
0
  0
ATTDEF
  8
1
  6
CONTINUOUS
 62
2
 10
8.9605497E+001
 20
3.3307365E+001
 40
2.0
  1
TBL_DRAWN
  3
TBL_DRAWN
  2
TBL_DRAWN
 70
0
  0
ATTDEF
  8
1
  6
CONTINUOUS
 62
2
 10
8.9572198E+001
 20
2.8978942E+001
 40
2.0
  1
TBL_DATE
  3
TBL_DATE
  2
TBL_DATE
 70
0
  0
ATTDEF
  8
1
  6
CONTINUOUS
 62
2
 10
2.2301927E+001
 20
8.546631
 40
3.0
  1
TC ITEM ID
  3
TC ITEM ID
  2
TCITEMID
 70
0
  0
ATTDEF
  8
1
  6
CONTINUOUS
 62
2
 10
1.771688E+002
 20
2.9867977E+001
 40
3.0
  1
DOCFORMAT
  3
DOCFORMAT
  2
DOCFORMAT
 70
0
  0
ATTDEF
  8
1
  6
CONTINUOUS
 62
2
 10
3.0605983E+001
 20
5.4415576E+001
 40
3.0
  1
TBL_BLN1
  3
TBL_BLN1
  2
TBL_BLN1
 70
0
  0
ATTDEF
  8
1
  6
CONTINUOUS
 62
2
 10
1.0184021E+002
 20
5.4440921E+001
 40
3.0
  1
TBL_BLN2
  3
TBL_BLN2
  2
TBL_BLN2
 70
0
  0
ATTDEF
  8
1
  6
CONTINUOUS
 62
2
 10
3.3840624E+001
 20
4.5229983E+001
 40
3.0
  1
TBL_TOLERANCE
  3
TBL_TOLERANCE
  2
TBL_TOLERANCE
 70
0
  0
ATTDEF
  8
1
  6
CONTINUOUS
 62
2
 10
8.9173514E+001
 20
4.5211038E+001
 40
3.0
  1
TBL_CONCERNING
  3
TBL_CONCERNING
  2
TBL_CONCERNING
 70
0
  0
ATTDEF
  8
1
  6
CONTINUOUS
 62
2
 10
3.3599865E+001
 20
3.8644805E+001
 40
3.0
  1
TBL_SCALE
  3
TBL_SCALE
  2
TBL_SCALE
 70
0
  0
ATTDEF
  8
1
  6
CONTINUOUS
 62
2
 10
8.9553267E+001
 20
1.0006901E+001
 40
2.0
  1
TBL_SUPERSEDES
  3
TBL_SUPERSEDES
  2
TBL_SUPERSEDES
 70
0
  0
ATTDEF
  8
1
  6
CONTINUOUS
 62
2
 10
1.3163441E+002
 20
9.989403
 40
2.0
  1
TBL_SUPERSEDESBY
  3
TBL_SUPERSEDESBY
  2
TBL_SUPERSEDESBY
 70
0
  0
ATTDEF
  8
1
  6
CONTINUOUS
 62
2
 10
1.6187669E+002
 20
5.4367117E+001
 40
3.0
  1
TBL_WEIGHT
  3
TBL_WEIGHT
  2
TBL_WEIGHT
 70
0
  0
ATTDEF
  8
1
  6
CONTINUOUS
 62
2
 10
-1.685E+002
 20
2.4E+001
 40
3.0
  1
TBL_WORKINGORDER
  3
TBL_WORKINGORDER
  2
TBL_WORKINGORDER
 70
0
  0
ATTDEF
  8
1
  6
CONTINUOUS
 62
2
 10
-1.4625764E+002
 20
2.3983388E+001
 40
3.0
  1
TBL_WORK
  3
TBL_WORK
  2
TBL_WORK
 70
0
  0
ATTDEF
  8
1
  6
CONTINUOUS
 62
2
 10
-1.0309388E+002
 20
2.3991044E+001
 40
3.0
  1
TBL_TOOL
  3
TBL_TOOL
  2
TBL_TOOL
 70
0
  0
ATTDEF
  8
1
  6
CONTINUOUS
 62
2
 10
-6.8653877E+001
 20
2.3956549E+001
 40
3.0
  1
TBL_MACHINE
  3
TBL_MACHINE
  2
TBL_MACHINE
 70
0
  0
ATTDEF
  8
1
  6
CONTINUOUS
 62
2
 10
-3.388177E+001
 20
2.4114653E+001
 40
3.0
  1
TBL_NOTE
  3
TBL_NOTE
  2
TBL_NOTE
 70
0
  0
POINT
  8
Drafting_Hidden_Entities
  6
CONTINUOUS
 62
1
 10
0.0
 20
0.0
  0
ENDBLK
  0
BLOCK
  2
CHNG_TEXT
 10
0.0
 20
0.0
 70
0
  0
ATTDEF
  8
3
  6
CONTINUOUS
 62
2
 10
1.7077825E+001
 20
3.2244845E+001
 40
3.0
  1
blanco
 50
9.0E+001
  3
blanco
  2
blanco
 70
1
  0
ATTDEF
  8
3
  6
CONTINUOUS
 62
2
 10
1.6952276E+001
 20
3.8444272E+001
 40
3.0
  1
TBL_REVISIONCMNT
 50
9.0E+001
  3
TBL_REVISIONCMNT
  2
TBL_REVISIONCMNT
 70
0
  0
POINT
  8
Drafting_Hidden_Entities
  6
CONTINUOUS
 62
1
 10
0.0
 20
0.0
  0
ENDBLK
  0
BLOCK
  2
_AH1
 70
0
 10
0.0
 20
0.0
  3
_AH1
  0
LINE
  8
0
  6
CONTINUOUS
 62
0
 10
-1.0
 20
1.66667E-001
 11
0.0
 21
0.0
  0
LINE
  8
0
  6
CONTINUOUS
 62
0
 10
0.0
 20
0.0
 11
-1.0
 21
-1.66667E-001
  0
LINE
  8
0
  6
CONTINUOUS
 62
0
 10
-1.0
 20
1.66667E-001
 11
-1.0
 21
-1.66667E-001
  0
LINE
  8
0
  6
CONTINUOUS
 62
0
 10
0.0
 20
0.0
 11
-1.0
 21
0.0
  0
ENDBLK
  0
BLOCK
  2
_AH2
 70
0
 10
0.0
 20
0.0
  3
_AH2
  0
LINE
  8
0
  6
CONTINUOUS
 62
0
 10
-1.0
 20
1.66667E-001
 11
0.0
 21
0.0
  0
LINE
  8
0
  6
CONTINUOUS
 62
0
 10
0.0
 20
0.0
 11
-1.0
 21
-1.66667E-001
  0
LINE
  8
0
  6
CONTINUOUS
 62
0
 10
0.0
 20
0.0
 11
-1.0
 21
0.0
  0
ENDBLK
  0
BLOCK
  2
*D1266
  3
*D
 10
0.0
 20
0.0
 70
65
  0
LINE
  8
2
  6
CONTINUOUS
 62
1
 10
4.2199965E+002
 20
1.3767896E+002
 11
4.5896727E+002
 21
1.3767896E+002
  0
LINE
  8
2
  6
CONTINUOUS
 62
1
 10
4.2199965E+002
 20
1.7367896E+002
 11
4.5896727E+002
 21
1.7367896E+002
  0
LINE
  8
2
  6
CONTINUOUS
 62
1
 10
4.5596727E+002
 20
1.3767896E+002
 11
4.5596727E+002
 21
1.5567896E+002
  0
LINE
  8
2
  6
CONTINUOUS
 62
1
 10
4.5596727E+002
 20
1.7367896E+002
 11
4.5596727E+002
 21
1.5567896E+002
  0
INSERT
  2
_AH1
  8
2
 62
1
 10
4.5596727E+002
 20
1.3767896E+002
 41
3.0
 42
3.0
 43
3.0
 50
2.7E+002
  0
INSERT
  2
_AH1
  8
2
 62
1
 10
4.5596727E+002
 20
1.7367896E+002
 41
3.0
 42
3.0
 43
3.0
 50
9.0E+001
  0
TEXT
  8
2
  6
CONTINUOUS
 62
1
 10
4.5396627E+002
 20
1.5267896E+002
 40
3.0
  1
36
 50
9.0E+001
  0
ENDBLK
  0
BLOCK
  2
*D1267
  3
*D
 10
0.0
 20
0.0
 70
65
  0
LINE
  8
2
  6
CONTINUOUS
 62
1
 10
4.2799965E+002
 20
1.7967896E+002
 11
4.6843195E+002
 21
1.7967896E+002
  0
LINE
  8
2
  6
CONTINUOUS
 62
1
 10
4.2799965E+002
 20
1.3167896E+002
 11
4.6843195E+002
 21
1.3167896E+002
  0
LINE
  8
2
  6
CONTINUOUS
 62
1
 10
4.6543195E+002
 20
1.7967896E+002
 11
4.6543195E+002
 21
1.5567896E+002
  0
LINE
  8
2
  6
CONTINUOUS
 62
1
 10
4.6543195E+002
 20
1.3167896E+002
 11
4.6543195E+002
 21
1.5567896E+002
  0
INSERT
  2
_AH1
  8
2
 62
1
 10
4.6543195E+002
 20
1.7967896E+002
 41
3.0
 42
3.0
 43
3.0
 50
9.0E+001
  0
INSERT
  2
_AH1
  8
2
 62
1
 10
4.6543195E+002
 20
1.3167896E+002
 41
3.0
 42
3.0
 43
3.0
 50
2.7E+002
  0
TEXT
  8
2
  6
CONTINUOUS
 62
1
 10
4.6343095E+002
 20
1.5267896E+002
 40
3.0
  1
48
 50
9.0E+001
  0
ENDBLK
  0
BLOCK
  2
*D1268
  3
*D
 10
0.0
 20
0.0
 70
65
  0
LINE
  8
2
  6
CONTINUOUS
 62
1
 10
4.1739965E+002
 20
1.7827896E+002
 11
4.1739965E+002
 21
2.0582653E+002
  0
LINE
  8
2
  6
CONTINUOUS
 62
1
 10
3.8139965E+002
 20
1.7827896E+002
 11
3.8139965E+002
 21
2.0582653E+002
  0
LINE
  8
2
  6
CONTINUOUS
 62
1
 10
4.1739965E+002
 20
2.0282653E+002
 11
3.9939965E+002
 21
2.0282653E+002
  0
LINE
  8
2
  6
CONTINUOUS
 62
1
 10
3.8139965E+002
 20
2.0282653E+002
 11
3.9939965E+002
 21
2.0282653E+002
  0
INSERT
  2
_AH1
  8
2
 62
1
 10
4.1739965E+002
 20
2.0282653E+002
 41
3.0
 42
3.0
 43
3.0
 50
0.0
  0
INSERT
  2
_AH1
  8
2
 62
1
 10
3.8139965E+002
 20
2.0282653E+002
 41
3.0
 42
3.0
 43
3.0
 50
1.8E+002
  0
TEXT
  8
2
  6
CONTINUOUS
 62
1
 10
3.9639965E+002
 20
2.0482753E+002
 40
3.0
  1
36
 50
3.6E+002
  0
ENDBLK
  0
BLOCK
  2
*D1269
  3
*D
 10
0.0
 20
0.0
 70
65
  0
LINE
  8
2
  6
CONTINUOUS
 62
1
 10
4.2339965E+002
 20
1.8367896E+002
 11
4.2339965E+002
 21
2.189066E+002
  0
LINE
  8
2
  6
CONTINUOUS
 62
1
 10
3.7539965E+002
 20
1.8427896E+002
 11
3.7539965E+002
 21
2.189066E+002
  0
LINE
  8
2
  6
CONTINUOUS
 62
1
 10
4.2339965E+002
 20
2.159066E+002
 11
3.9939965E+002
 21
2.159066E+002
  0
LINE
  8
2
  6
CONTINUOUS
 62
1
 10
3.7539965E+002
 20
2.159066E+002
 11
3.9939965E+002
 21
2.159066E+002
  0
INSERT
  2
_AH1
  8
2
 62
1
 10
4.2339965E+002
 20
2.159066E+002
 41
3.0
 42
3.0
 43
3.0
 50
0.0
  0
INSERT
  2
_AH1
  8
2
 62
1
 10
3.7539965E+002
 20
2.159066E+002
 41
3.0
 42
3.0
 43
3.0
 50
1.8E+002
  0
TEXT
  8
2
  6
CONTINUOUS
 62
1
 10
3.9639965E+002
 20
2.179076E+002
 40
3.0
  1
48
 50
3.6E+002
  0
ENDBLK
  0
BLOCK
  2
*D1270
  3
*D
 10
0.0
 20
0.0
 70
65
  0
LINE
  8
3
  6
CONTINUOUS
 62
1
 10
4.3189966E+002
 20
3.4034286E+002
 11
4.3189966E+002
 21
3.7140827E+002
  0
LINE
  8
3
  6
CONTINUOUS
 62
1
 10
3.6689966E+002
 20
3.4034286E+002
 11
3.6689966E+002
 21
3.7140827E+002
  0
LINE
  8
3
  6
CONTINUOUS
 62
1
 10
4.3189966E+002
 20
3.6840827E+002
 11
3.9939966E+002
 21
3.6840827E+002
  0
LINE
  8
3
  6
CONTINUOUS
 62
1
 10
3.6689966E+002
 20
3.6840827E+002
 11
3.9939966E+002
 21
3.6840827E+002
  0
INSERT
  2
_AH1
  8
3
 62
1
 10
4.3189966E+002
 20
3.6840827E+002
 41
3.0
 42
3.0
 43
3.0
 50
0.0
  0
INSERT
  2
_AH1
  8
3
 62
1
 10
3.6689966E+002
 20
3.6840827E+002
 41
3.0
 42
3.0
 43
3.0
 50
1.8E+002
  0
TEXT
  8
3
  6
CONTINUOUS
 62
1
 10
3.9639966E+002
 20
3.7040927E+002
 40
3.0
  1
65
 50
3.6E+002
  0
ENDBLK
  0
BLOCK
  2
*D1271
  3
*D
 10
0.0
 20
0.0
 70
65
  0
LINE
  8
4
  6
CONTINUOUS
 62
1
 10
2.9529946E+002
 20
1.8702897E+002
 11
2.9529946E+002
 21
2.199073E+002
  0
LINE
  8
4
  6
CONTINUOUS
 62
1
 10
2.2614946E+002
 20
1.8467896E+002
 11
2.2614946E+002
 21
2.199073E+002
  0
LINE
  8
4
  6
CONTINUOUS
 62
1
 10
2.9529946E+002
 20
2.169073E+002
 11
2.6072446E+002
 21
2.169073E+002
  0
LINE
  8
4
  6
CONTINUOUS
 62
1
 10
2.2614946E+002
 20
2.169073E+002
 11
2.6072446E+002
 21
2.169073E+002
  0
INSERT
  2
_AH1
  8
4
 62
1
 10
2.9529946E+002
 20
2.169073E+002
 41
3.0
 42
3.0
 43
3.0
 50
0.0
  0
INSERT
  2
_AH1
  8
4
 62
1
 10
2.2614946E+002
 20
2.169073E+002
 41
3.0
 42
3.0
 43
3.0
 50
1.8E+002
  0
TEXT
  8
4
  6
CONTINUOUS
 62
1
 10
2.5472446E+002
 20
2.189083E+002
 40
3.0
  1
69,2
 50
3.6E+002
  0
ENDBLK
  0
BLOCK
  2
*D1272
  3
*D
 10
0.0
 20
0.0
 70
65
  0
LINE
  8
5
  6
CONTINUOUS
 62
1
 10
7.3627592E+001
 20
1.9187896E+002
 11
4.1888472E+001
 21
1.9187896E+002
  0
LINE
  8
5
  6
CONTINUOUS
 62
1
 10
7.3627592E+001
 20
1.1947896E+002
 11
4.1888472E+001
 21
1.1947896E+002
  0
LINE
  8
5
  6
CONTINUOUS
 62
1
 10
4.4888472E+001
 20
1.9187896E+002
 11
4.4888472E+001
 21
1.5567896E+002
  0
LINE
  8
5
  6
CONTINUOUS
 62
1
 10
4.4888472E+001
 20
1.1947896E+002
 11
4.4888472E+001
 21
1.5567896E+002
  0
INSERT
  2
_AH1
  8
5
 62
1
 10
4.4888472E+001
 20
1.9187896E+002
 41
3.0
 42
3.0
 43
3.0
 50
9.0E+001
  0
INSERT
  2
_AH1
  8
5
 62
1
 10
4.4888472E+001
 20
1.1947896E+002
 41
3.0
 42
3.0
 43
3.0
 50
2.7E+002
  0
TEXT
  8
5
  6
CONTINUOUS
 62
1
 10
4.2887472E+001
 20
1.4967896E+002
 40
3.0
  1
72,4
 50
9.0E+001
  0
ENDBLK
  0
ENDSEC
  0
SECTION
  2
ENTITIES
  0
LINE
  8
2
  6
CONTINUOUS
 62
40
 10
4.2364965E+002
 20
1.6977896E+002
 11
4.2364965E+002
 21
1.6557896E+002
  0
LINE
  8
2
  6
CONTINUOUS
 62
40
 10
4.2364965E+002
 20
1.4577896E+002
 11
4.2364965E+002
 21
1.4157896E+002
  0
LINE
  8
2
  6
CONTINUOUS
 62
40
 10
3.7314965E+002
 20
1.6977896E+002
 11
3.7564965E+002
 21
1.6977896E+002
  0
LINE
  8
2
  6
CONTINUOUS
 62
40
 10
3.7414965E+002
 20
1.6977896E+002
 11
3.7414965E+002
 21
1.6557896E+002
  0
LINE
  8
2
  6
CONTINUOUS
 62
40
 10
3.7564965E+002
 20
1.6557896E+002
 11
3.7314965E+002
 21
1.6557896E+002
  0
LINE
  8
2
  6
CONTINUOUS
 62
40
 10
3.7564965E+002
 20
1.4577896E+002
 11
3.7314965E+002
 21
1.4577896E+002
  0
LINE
  8
2
  6
CONTINUOUS
 62
40
 10
3.7414965E+002
 20
1.4157896E+002
 11
3.7414965E+002
 21
1.4577896E+002
  0
LINE
  8
2
  6
CONTINUOUS
 62
40
 10
3.7314965E+002
 20
1.4157896E+002
 11
3.7564965E+002
 21
1.4157896E+002
  0
LINE
  8
2
  6
CONTINUOUS
 62
40
 10
4.0139965E+002
 20
1.8217896E+002
 11
4.0339965E+002
 21
1.8217896E+002
  0
LINE
  8
2
  6
CONTINUOUS
 62
40
 10
4.0339965E+002
 20
1.8217896E+002
 11
3.9939965E+002
 21
1.8617896E+002
  0
LINE
  8
2
  6
CONTINUOUS
 62
40
 10
3.9939965E+002
 20
1.8617896E+002
 11
3.9539965E+002
 21
1.8217896E+002
  0
LINE
  8
2
  6
CONTINUOUS
 62
40
 10
3.9539965E+002
 20
1.8217896E+002
 11
3.9739965E+002
 21
1.8217896E+002
  0
LINE
  8
2
  6
CONTINUOUS
 62
40
 10
3.9739965E+002
 20
1.8217896E+002
 11
3.9739965E+002
 21
1.7617896E+002
  0
LINE
  8
2
  6
CONTINUOUS
 62
40
 10
3.9739965E+002
 20
1.7617896E+002
 11
4.0139965E+002
 21
1.7617896E+002
  0
LINE
  8
2
  6
CONTINUOUS
 62
40
 10
4.0139965E+002
 20
1.7617896E+002
 11
4.0139965E+002
 21
1.8217896E+002
  0
LINE
  8
2
  6
CONTINUOUS
 62
40
 10
3.7564965E+002
 20
1.4157896E+002
 11
3.7564965E+002
 21
1.4577896E+002
  0
LINE
  8
2
  6
CONTINUOUS
 62
40
 10
3.7564965E+002
 20
1.6977896E+002
 11
3.7564965E+002
 21
1.6557896E+002
  0
LINE
  8
2
  6
CONTINUOUS
 62
40
 10
4.2314965E+002
 20
1.6557896E+002
 11
4.2314965E+002
 21
1.6977896E+002
  0
ARC
  8
2
  6
CONTINUOUS
 62
40
 10
4.2839965E+002
 20
1.8467896E+002
 40
3.5
 50
0.0
 51
9.0E+001
  0
LINE
  8
2
  6
CONTINUOUS
 62
40
 10
4.3189965E+002
 20
1.8467896E+002
 11
4.3189965E+002
 21
1.2667896E+002
  0
ARC
  8
2
  6
CONTINUOUS
 62
40
 10
4.2839965E+002
 20
1.2667896E+002
 40
3.5
 50
2.7E+002
 51
3.6E+002
  0
LINE
  8
2
  6
CONTINUOUS
 62
40
 10
4.2839965E+002
 20
1.2317896E+002
 11
3.7039965E+002
 21
1.2317896E+002
  0
ARC
  8
2
  6
CONTINUOUS
 62
40
 10
3.7039965E+002
 20
1.2667896E+002
 40
3.5
 50
1.8E+002
 51
2.7E+002
  0
LINE
  8
2
  6
CONTINUOUS
 62
40
 10
3.6689965E+002
 20
1.2667896E+002
 11
3.6689965E+002
 21
1.8467896E+002
  0
ARC
  8
2
  6
CONTINUOUS
 62
40
 10
3.7039965E+002
 20
1.8467896E+002
 40
3.5
 50
9.0E+001
 51
1.8E+002
  0
LINE
  8
2
  6
CONTINUOUS
 62
40
 10
3.7039965E+002
 20
1.8817896E+002
 11
4.2839965E+002
 21
1.8817896E+002
  0
LINE
  8
2
  6
CONTINUOUS
 62
40
 10
4.2564965E+002
 20
1.6977896E+002
 11
4.2564965E+002
 21
1.6557896E+002
  0
LINE
  8
2
  6
CONTINUOUS
 62
40
 10
3.7314965E+002
 20
1.6557896E+002
 11
3.7314965E+002
 21
1.6977896E+002
  0
LINE
  8
2
  6
CONTINUOUS
 62
40
 10
3.7314965E+002
 20
1.4577896E+002
 11
3.7314965E+002
 21
1.4157896E+002
  0
LINE
  8
2
  6
CONTINUOUS
 62
40
 10
4.2564965E+002
 20
1.4157896E+002
 11
4.2564965E+002
 21
1.4577896E+002
  0
CIRCLE
  8
2
  6
CONTINUOUS
 62
40
 10
3.9939965E+002
 20
1.5567896E+002
 40
5.1
  0
CIRCLE
  8
2
  6
CONTINUOUS
 62
40
 10
3.9939965E+002
 20
1.5567896E+002
 40
7.5
  0
CIRCLE
  8
2
  6
CONTINUOUS
 62
40
 10
4.2339965E+002
 20
1.7967896E+002
 40
1.6
  0
CIRCLE
  8
2
  6
CONTINUOUS
 62
40
 10
4.1739965E+002
 20
1.7367896E+002
 40
1.6
  0
CIRCLE
  8
2
  6
CONTINUOUS
 62
40
 10
4.2339965E+002
 20
1.3167896E+002
 40
1.6
  0
CIRCLE
  8
2
  6
CONTINUOUS
 62
40
 10
4.1739965E+002
 20
1.3767896E+002
 40
1.6
  0
CIRCLE
  8
2
  6
CONTINUOUS
 62
40
 10
3.7539965E+002
 20
1.3167896E+002
 40
1.6
  0
CIRCLE
  8
2
  6
CONTINUOUS
 62
40
 10
3.8139965E+002
 20
1.3767896E+002
 40
1.6
  0
CIRCLE
  8
2
  6
CONTINUOUS
 62
40
 10
3.8139965E+002
 20
1.7367896E+002
 40
1.6
  0
CIRCLE
  8
2
  6
CONTINUOUS
 62
40
 10
3.7539965E+002
 20
1.7967896E+002
 40
1.6
  0
LINE
  8
2
  6
CONTINUOUS
 62
40
 10
4.2314965E+002
 20
1.4577896E+002
 11
4.2314965E+002
 21
1.4157896E+002
  0
LINE
  8
2
  6
CONTINUOUS
 62
40
 10
4.2314965E+002
 20
1.6977896E+002
 11
4.2564965E+002
 21
1.6977896E+002
  0
LINE
  8
2
  6
CONTINUOUS
 62
40
 10
4.2314965E+002
 20
1.4157896E+002
 11
4.2564965E+002
 21
1.4157896E+002
  0
LINE
  8
2
  6
CONTINUOUS
 62
40
 10
4.2464965E+002
 20
1.4577896E+002
 11
4.2464965E+002
 21
1.4157896E+002
  0
LINE
  8
2
  6
CONTINUOUS
 62
40
 10
4.2564965E+002
 20
1.4577896E+002
 11
4.2314965E+002
 21
1.4577896E+002
  0
LINE
  8
2
  6
CONTINUOUS
 62
40
 10
4.2564965E+002
 20
1.6557896E+002
 11
4.2314965E+002
 21
1.6557896E+002
  0
LINE
  8
2
  6
CONTINUOUS
 62
40
 10
4.2464965E+002
 20
1.6557896E+002
 11
4.2464965E+002
 21
1.6977896E+002
  0
LINE
  8
2
  6
CONTINUOUS
 62
40
 10
3.7514965E+002
 20
1.4157896E+002
 11
3.7514965E+002
 21
1.4577896E+002
  0
LINE
  8
2
  6
CONTINUOUS
 62
40
 10
3.7514965E+002
 20
1.6557896E+002
 11
3.7514965E+002
 21
1.6977896E+002
  0
LINE
  8
2
  6
CONTINUOUS
 62
3
 10
3.7039965E+002
 20
1.8817896E+002
 11
3.7039965E+002
 21
1.8787896E+002
  0
LINE
  8
2
  6
CONTINUOUS
 62
3
 10
3.7039965E+002
 20
1.8787896E+002
 11
4.2839965E+002
 21
1.8787896E+002
  0
LINE
  8
2
  6
CONTINUOUS
 62
3
 10
4.2839965E+002
 20
1.8817896E+002
 11
4.2839965E+002
 21
1.8787896E+002
  0
LINE
  8
2
  6
CONTINUOUS
 62
3
 10
3.6689965E+002
 20
1.8467896E+002
 11
3.6719965E+002
 21
1.8467896E+002
  0
ARC
  8
2
  6
CONTINUOUS
 62
3
 10
3.7039965E+002
 20
1.8467896E+002
 40
3.2
 50
9.0E+001
 51
1.8E+002
  0
LINE
  8
2
  6
CONTINUOUS
 62
3
 10
3.6689965E+002
 20
1.2667896E+002
 11
3.6719965E+002
 21
1.2667896E+002
  0
LINE
  8
2
  6
CONTINUOUS
 62
3
 10
3.6719965E+002
 20
1.2667896E+002
 11
3.6719965E+002
 21
1.8467896E+002
  0
LINE
  8
2
  6
CONTINUOUS
 62
3
 10
3.7039965E+002
 20
1.2317896E+002
 11
3.7039965E+002
 21
1.2347896E+002
  0
ARC
  8
2
  6
CONTINUOUS
 62
3
 10
3.7039965E+002
 20
1.2667896E+002
 40
3.2
 50
1.8E+002
 51
2.7E+002
  0
LINE
  8
2
  6
CONTINUOUS
 62
3
 10
4.2839965E+002
 20
1.2347896E+002
 11
4.2839965E+002
 21
1.2317896E+002
  0
LINE
  8
2
  6
CONTINUOUS
 62
3
 10
4.2839965E+002
 20
1.2347896E+002
 11
3.7039965E+002
 21
1.2347896E+002
  0
LINE
  8
2
  6
CONTINUOUS
 62
3
 10
4.3159965E+002
 20
1.2667896E+002
 11
4.3189965E+002
 21
1.2667896E+002
  0
ARC
  8
2
  6
CONTINUOUS
 62
3
 10
4.2839965E+002
 20
1.2667896E+002
 40
3.2
 50
2.7E+002
 51
3.6E+002
  0
LINE
  8
2
  6
CONTINUOUS
 62
3
 10
4.3189965E+002
 20
1.8467896E+002
 11
4.3159965E+002
 21
1.8467896E+002
  0
LINE
  8
2
  6
CONTINUOUS
 62
3
 10
4.3159965E+002
 20
1.8467896E+002
 11
4.3159965E+002
 21
1.2667896E+002
  0
ARC
  8
2
  6
CONTINUOUS
 62
3
 10
4.2839965E+002
 20
1.8467896E+002
 40
3.2
 50
0.0
 51
9.0E+001
  0
LINE
  8
2
  6
CONTINUOUS
 62
40
 10
3.7384965E+002
 20
1.6977896E+002
 11
3.7384965E+002
 21
1.6557896E+002
  0
LINE
  8
2
  6
CONTINUOUS
 62
40
 10
3.7384965E+002
 20
1.4157896E+002
 11
3.7384965E+002
 21
1.4577896E+002
  0
LINE
  8
2
  6
CONTINUOUS
 62
40
 10
4.2494965E+002
 20
1.4577896E+002
 11
4.2494965E+002
 21
1.4157896E+002
  0
LINE
  8
2
  6
CONTINUOUS
 62
40
 10
4.2494965E+002
 20
1.6557896E+002
 11
4.2494965E+002
 21
1.6977896E+002
  0
CIRCLE
  8
2
  6
CONTINUOUS
 62
3
 10
3.9939965E+002
 20
1.5567896E+002
 40
7.8
  0
CIRCLE
  8
2
  6
CONTINUOUS
 62
3
 10
4.2339965E+002
 20
1.7967896E+002
 40
1.9
  0
CIRCLE
  8
2
  6
CONTINUOUS
 62
3
 10
4.1739965E+002
 20
1.7367896E+002
 40
1.9
  0
CIRCLE
  8
2
  6
CONTINUOUS
 62
3
 10
4.2339965E+002
 20
1.3167896E+002
 40
1.9
  0
CIRCLE
  8
2
  6
CONTINUOUS
 62
3
 10
4.1739965E+002
 20
1.3767896E+002
 40
1.9
  0
CIRCLE
  8
2
  6
CONTINUOUS
 62
3
 10
3.7539965E+002
 20
1.3167896E+002
 40
1.9
  0
CIRCLE
  8
2
  6
CONTINUOUS
 62
3
 10
3.8139965E+002
 20
1.3767896E+002
 40
1.9
  0
CIRCLE
  8
2
  6
CONTINUOUS
 62
3
 10
3.8139965E+002
 20
1.7367896E+002
 40
1.9
  0
CIRCLE
  8
2
  6
CONTINUOUS
 62
3
 10
3.7539965E+002
 20
1.7967896E+002
 40
1.9
  0
LINE
  8
2
  6
CONTINUOUS
 62
40
 10
4.2564965E+002
 20
1.2317896E+002
 11
4.2564965E+002
 21
1.1997896E+002
  0
LINE
  8
2
  6
CONTINUOUS
 62
40
 10
4.2564965E+002
 20
1.9137896E+002
 11
4.2564965E+002
 21
1.8817896E+002
  0
LINE
  8
2
  6
CONTINUOUS
 62
40
 10
3.7314965E+002
 20
1.8817896E+002
 11
3.7314965E+002
 21
1.9137896E+002
  0
LINE
  8
2
  6
CONTINUOUS
 62
40
 10
3.7314965E+002
 20
1.1997896E+002
 11
3.7314965E+002
 21
1.2317896E+002
  0
ARC
  8
2
  6
CONTINUOUS
 62
40
 10
4.2514965E+002
 20
1.1997896E+002
 40
5.0E-001
 50
2.7E+002
 51
3.6E+002
  0
ARC
  8
2
  6
CONTINUOUS
 62
40
 10
4.2514965E+002
 20
1.9137896E+002
 40
5.0E-001
 50
0.0
 51
9.0E+001
  0
ARC
  8
2
  6
CONTINUOUS
 62
40
 10
3.7364965E+002
 20
1.9137896E+002
 40
5.0E-001
 50
9.0E+001
 51
1.8E+002
  0
LINE
  8
2
  6
CONTINUOUS
 62
40
 10
3.7364965E+002
 20
1.9187896E+002
 11
4.2514965E+002
 21
1.9187896E+002
  0
LINE
  8
2
  6
CONTINUOUS
 62
40
 10
4.2514965E+002
 20
1.1947896E+002
 11
3.7364965E+002
 21
1.1947896E+002
  0
ARC
  8
2
  6
CONTINUOUS
 62
40
 10
3.7364965E+002
 20
1.1997896E+002
 40
5.0E-001
 50
1.8E+002
 51
2.7E+002
  0
POLYLINE
  8
2
  6
CONTINUOUS
 62
3
 66
1
 40
0.0
 41
0.0
 70
2
  0
VERTEX
  8
2
 42
0.0
 10
3.7364965E+002
 20
1.1995279E+002
 70
0
  0
VERTEX
  8
2
 42
-7.30825E-004
 10
3.7363558E+002
 20
1.1995282E+002
 70
1
  0
VERTEX
  8
2
 42
-7.4758E-004
 10
3.7362157E+002
 20
1.1995288E+002
 70
0
  0
VERTEX
  8
2
 42
-7.427037E-004
 10
3.7360761E+002
 20
1.1995299E+002
 70
1
  0
VERTEX
  8
2
 42
-7.14178E-004
 10
3.7359372E+002
 20
1.1995313E+002
 70
0
  0
VERTEX
  8
2
 42
-6.960463E-004
 10
3.7357989E+002
 20
1.1995332E+002
 70
1
  0
VERTEX
  8
2
 42
-6.809212E-004
 10
3.7356614E+002
 20
1.1995354E+002
 70
0
  0
VERTEX
  8
2
 42
-6.68186E-004
 10
3.7355248E+002
 20
1.199538E+002
 70
1
  0
VERTEX
  8
2
 42
-6.51782E-004
 10
3.7353891E+002
 20
1.1995409E+002
 70
0
  0
VERTEX
  8
2
 42
-6.396736E-004
 10
3.7352544E+002
 20
1.1995441E+002
 70
1
  0
VERTEX
  8
2
 42
-6.254986E-004
 10
3.7351208E+002
 20
1.1995477E+002
 70
0
  0
VERTEX
  8
2
 42
-6.150983E-004
 10
3.7349883E+002
 20
1.1995516E+002
 70
1
  0
VERTEX
  8
2
 42
-6.021812E-004
 10
3.734857E+002
 20
1.1995557E+002
 70
0
  0
VERTEX
  8
2
 42
-5.931461E-004
 10
3.7347271E+002
 20
1.1995601E+002
 70
1
  0
VERTEX
  8
2
 42
-5.816616E-004
 10
3.7345985E+002
 20
1.1995648E+002
 70
0
  0
VERTEX
  8
2
 42
-5.740389E-004
 10
3.7344713E+002
 20
1.1995697E+002
 70
1
  0
VERTEX
  8
2
 42
-5.639118E-004
 10
3.7343457E+002
 20
1.1995749E+002
 70
0
  0
VERTEX
  8
2
 42
-5.57685E-004
 10
3.7342217E+002
 20
1.1995802E+002
 70
1
  0
VERTEX
  8
2
 42
-5.48934E-004
 10
3.7340993E+002
 20
1.1995858E+002
 70
0
  0
VERTEX
  8
2
 42
-5.441544E-004
 10
3.7339786E+002
 20
1.1995915E+002
 70
1
  0
VERTEX
  8
2
 42
-5.368377E-004
 10
3.7338598E+002
 20
1.1995975E+002
 70
0
  0
VERTEX
  8
2
 42
-5.335607E-004
 10
3.7337428E+002
 20
1.1996035E+002
 70
1
  0
VERTEX
  8
2
 42
-5.277274E-004
 10
3.7336278E+002
 20
1.1996098E+002
 70
0
  0
VERTEX
  8
2
 42
-5.26156E-004
 10
3.7335149E+002
 20
1.1996161E+002
 70
1
  0
VERTEX
  8
2
 42
-5.220372E-004
 10
3.733404E+002
 20
1.1996226E+002
 70
0
  0
VERTEX
  8
2
 42
-5.222076E-004
 10
3.7332954E+002
 20
1.1996292E+002
 70
1
  0
VERTEX
  8
2
 42
-5.20054E-004
 10
3.7331889E+002
 20
1.1996358E+002
 70
0
  0
VERTEX
  8
2
 42
-5.2248E-004
 10
3.7330849E+002
 20
1.1996426E+002
 70
1
  0
VERTEX
  8
2
 42
-5.210103E-004
 10
3.7329831E+002
 20
1.1996493E+002
 70
0
  0
VERTEX
  8
2
 42
-5.325438E-004
 10
3.7328839E+002
 20
1.1996562E+002
 70
1
  0
VERTEX
  8
2
 42
-5.633846E-004
 10
3.7327878E+002
 20
1.199663E+002
 70
0
  0
VERTEX
  8
2
 42
-5.924102E-004
 10
3.7326956E+002
 20
1.1996698E+002
 70
1
  0
VERTEX
  8
2
 42
-5.961924E-004
 10
3.7326073E+002
 20
1.1996765E+002
 70
0
  0
VERTEX
  8
2
 42
-6.088006E-004
 10
3.7325228E+002
 20
1.1996831E+002
 70
1
  0
VERTEX
  8
2
 42
-6.164554E-004
 10
3.7324421E+002
 20
1.1996896E+002
 70
0
  0
VERTEX
  8
2
 42
-6.31842E-004
 10
3.7323652E+002
 20
1.199696E+002
 70
1
  0
VERTEX
  8
2
 42
-6.383777E-004
 10
3.7322919E+002
 20
1.1997023E+002
 70
0
  0
VERTEX
  8
2
 42
-6.542306E-004
 10
3.7322223E+002
 20
1.1997085E+002
 70
1
  0
VERTEX
  8
2
 42
-6.612366E-004
 10
3.7321562E+002
 20
1.1997145E+002
 70
0
  0
VERTEX
  8
2
 42
-6.784782E-004
 10
3.7320936E+002
 20
1.1997204E+002
 70
1
  0
VERTEX
  8
2
 42
-6.853687E-004
 10
3.7320345E+002
 20
1.1997261E+002
 70
0
  0
VERTEX
  8
2
 42
-7.03912E-004
 10
3.7319788E+002
 20
1.1997316E+002
 70
1
  0
VERTEX
  8
2
 42
-7.107364E-004
 10
3.7319265E+002
 20
1.199737E+002
 70
0
  0
VERTEX
  8
2
 42
-7.309212E-004
 10
3.7318775E+002
 20
1.1997422E+002
 70
1
  0
VERTEX
  8
2
 42
-7.376079E-004
 10
3.7318316E+002
 20
1.1997471E+002
 70
0
  0
VERTEX
  8
2
 42
-7.59554E-004
 10
3.7317891E+002
 20
1.1997519E+002
 70
1
  0
VERTEX
  8
2
 42
-7.654557E-004
 10
3.7317496E+002
 20
1.1997564E+002
 70
0
  0
VERTEX
  8
2
 42
-7.901926E-004
 10
3.7317132E+002
 20
1.1997607E+002
 70
1
  0
VERTEX
  8
2
 42
-7.968397E-004
 10
3.7316799E+002
 20
1.1997647E+002
 70
0
  0
VERTEX
  8
2
 42
-8.225732E-004
 10
3.7316495E+002
 20
1.1997685E+002
 70
1
  0
VERTEX
  8
2
 42
-8.223338E-004
 10
3.7316221E+002
 20
1.199772E+002
 70
0
  0
VERTEX
  8
2
 42
-8.595556E-004
 10
3.7315975E+002
 20
1.1997752E+002
 70
1
  0
VERTEX
  8
2
 42
-8.786722E-004
 10
3.7315757E+002
 20
1.1997781E+002
 70
0
  0
VERTEX
  8
2
 42
-8.926033E-004
 10
3.7315567E+002
 20
1.1997807E+002
 70
1
  0
VERTEX
  8
2
 42
-8.33743E-004
 10
3.7315405E+002
 20
1.199783E+002
 70
0
  0
VERTEX
  8
2
 42
-9.667623E-004
 10
3.7315271E+002
 20
1.199785E+002
 70
1
  0
VERTEX
  8
2
 42
-1.089547E-003
 10
3.7315158E+002
 20
1.1997867E+002
 70
0
  0
VERTEX
  8
2
 42
-1.2385737E-003
 10
3.7315056E+002
 20
1.1997882E+002
 70
1
  0
VERTEX
  8
2
 42
-1.7876696E-003
 10
3.7314966E+002
 20
1.1997897E+002
 70
0
  0
SEQEND
  0
LINE
  8
2
  6
CONTINUOUS
 62
3
 10
3.7364965E+002
 20
1.199528E+002
 11
3.7364965E+002
 21
1.2317896E+002
  0
LINE
  8
2
  6
CONTINUOUS
 62
3
 10
4.2514965E+002
 20
1.199528E+002
 11
3.7364965E+002
 21
1.199528E+002
  0
LINE
  8
2
  6
CONTINUOUS
 62
3
 10
4.2514965E+002
 20
1.2317896E+002
 11
4.2514965E+002
 21
1.199528E+002
  0
LINE
  8
2
  6
CONTINUOUS
 62
3
 10
3.7364965E+002
 20
1.8817896E+002
 11
3.7364965E+002
 21
1.9140513E+002
  0
LINE
  8
2
  6
CONTINUOUS
 62
3
 10
3.7364965E+002
 20
1.9140513E+002
 11
4.2514965E+002
 21
1.9140513E+002
  0
LINE
  8
2
  6
CONTINUOUS
 62
3
 10
4.2514965E+002
 20
1.9140513E+002
 11
4.2514965E+002
 21
1.8817896E+002
  0
POLYLINE
  8
2
  6
CONTINUOUS
 62
3
 66
1
 40
0.0
 41
0.0
 70
2
  0
VERTEX
  8
2
 42
0.0
 10
3.7314966E+002
 20
1.9137897E+002
 70
0
  0
VERTEX
  8
2
 42
-1.2395042E-002
 10
3.7314978E+002
 20
1.9137899E+002
 70
1
  0
VERTEX
  8
2
 42
-6.105762E-004
 10
3.7315013E+002
 20
1.9137904E+002
 70
0
  0
VERTEX
  8
2
 42
-5.311004E-004
 10
3.7315073E+002
 20
1.9137914E+002
 70
1
  0
VERTEX
  8
2
 42
-9.543748E-004
 10
3.7315158E+002
 20
1.9137927E+002
 70
0
  0
VERTEX
  8
2
 42
-9.490253E-004
 10
3.7315268E+002
 20
1.9137943E+002
 70
1
  0
VERTEX
  8
2
 42
-9.211032E-004
 10
3.7315405E+002
 20
1.9137963E+002
 70
0
  0
VERTEX
  8
2
 42
-8.733654E-004
 10
3.7315568E+002
 20
1.9137986E+002
 70
1
  0
VERTEX
  8
2
 42
-8.858692E-004
 10
3.7315757E+002
 20
1.9138012E+002
 70
0
  0
VERTEX
  8
2
 42
-8.532727E-004
 10
3.7315975E+002
 20
1.9138041E+002
 70
1
  0
VERTEX
  8
2
 42
-8.515129E-004
 10
3.7316221E+002
 20
1.9138074E+002
 70
0
  0
VERTEX
  8
2
 42
-8.214561E-004
 10
3.7316495E+002
 20
1.9138108E+002
 70
1
  0
VERTEX
  8
2
 42
-8.184851E-004
 10
3.7316799E+002
 20
1.9138146E+002
 70
0
  0
VERTEX
  8
2
 42
-7.921003E-004
 10
3.7317132E+002
 20
1.9138186E+002
 70
1
  0
VERTEX
  8
2
 42
-7.87198E-004
 10
3.7317496E+002
 20
1.9138229E+002
 70
0
  0
VERTEX
  8
2
 42
-7.63345E-004
 10
3.7317891E+002
 20
1.9138274E+002
 70
1
  0
VERTEX
  8
2
 42
-7.575629E-004
 10
3.7318316E+002
 20
1.9138322E+002
 70
0
  0
VERTEX
  8
2
 42
-7.35857E-004
 10
3.7318775E+002
 20
1.9138371E+002
 70
1
  0
VERTEX
  8
2
 42
-7.295179E-004
 10
3.7319265E+002
 20
1.9138423E+002
 70
0
  0
VERTEX
  8
2
 42
-7.09586E-004
 10
3.7319788E+002
 20
1.9138476E+002
 70
1
  0
VERTEX
  8
2
 42
-7.029376E-004
 10
3.7320345E+002
 20
1.9138532E+002
 70
0
  0
VERTEX
  8
2
 42
-6.845509E-004
 10
3.7320936E+002
 20
1.9138589E+002
 70
1
  0
VERTEX
  8
2
 42
-6.778062E-004
 10
3.7321562E+002
 20
1.9138648E+002
 70
0
  0
VERTEX
  8
2
 42
-6.606842E-004
 10
3.7322223E+002
 20
1.9138708E+002
 70
1
  0
VERTEX
  8
2
 42
-6.537826E-004
 10
3.7322919E+002
 20
1.9138769E+002
 70
0
  0
VERTEX
  8
2
 42
-6.380168E-004
 10
3.7323652E+002
 20
1.9138832E+002
 70
1
  0
VERTEX
  8
2
 42
-6.315611E-004
 10
3.7324421E+002
 20
1.9138897E+002
 70
0
  0
VERTEX
  8
2
 42
-6.162411E-004
 10
3.7325228E+002
 20
1.9138962E+002
 70
1
  0
VERTEX
  8
2
 42
-6.08649E-004
 10
3.7326073E+002
 20
1.9139028E+002
 70
0
  0
VERTEX
  8
2
 42
-5.960898E-004
 10
3.7326956E+002
 20
1.9139095E+002
 70
1
  0
VERTEX
  8
2
 42
-5.923523E-004
 10
3.7327878E+002
 20
1.9139163E+002
 70
0
  0
VERTEX
  8
2
 42
-5.63373E-004
 10
3.7328839E+002
 20
1.9139231E+002
 70
1
  0
VERTEX
  8
2
 42
-5.325902E-004
 10
3.7329831E+002
 20
1.9139299E+002
 70
0
  0
VERTEX
  8
2
 42
-5.211102E-004
 10
3.7330849E+002
 20
1.9139367E+002
 70
1
  0
VERTEX
  8
2
 42
-5.226437E-004
 10
3.7331889E+002
 20
1.9139435E+002
 70
0
  0
VERTEX
  8
2
 42
-5.202736E-004
 10
3.7332954E+002
 20
1.9139501E+002
 70
1
  0
VERTEX
  8
2
 42
-5.224919E-004
 10
3.733404E+002
 20
1.9139567E+002
 70
0
  0
VERTEX
  8
2
 42
-5.223554E-004
 10
3.7335149E+002
 20
1.9139632E+002
 70
1
  0
VERTEX
  8
2
 42
-5.264954E-004
 10
3.7336278E+002
 20
1.9139695E+002
 70
0
  0
VERTEX
  8
2
 42
-5.28152E-004
 10
3.7337428E+002
 20
1.9139757E+002
 70
1
  0
VERTEX
  8
2
 42
-5.341419E-004
 10
3.7338598E+002
 20
1.9139818E+002
 70
0
  0
VERTEX
  8
2
 42
-5.37308E-004
 10
3.7339786E+002
 20
1.9139877E+002
 70
1
  0
VERTEX
  8
2
 42
-5.442943E-004
 10
3.7340993E+002
 20
1.9139935E+002
 70
0
  0
VERTEX
  8
2
 42
-5.49637E-004
 10
3.7342217E+002
 20
1.9139991E+002
 70
1
  0
VERTEX
  8
2
 42
-5.59731E-004
 10
3.7343457E+002
 20
1.9140044E+002
 70
0
  0
VERTEX
  8
2
 42
-5.641731E-004
 10
3.7344714E+002
 20
1.9140096E+002
 70
1
  0
VERTEX
  8
2
 42
-5.69928E-004
 10
3.7345985E+002
 20
1.9140145E+002
 70
0
  0
VERTEX
  8
2
 42
-5.838326E-004
 10
3.734727E+002
 20
1.9140191E+002
 70
1
  0
VERTEX
  8
2
 42
-6.100503E-004
 10
3.734857E+002
 20
1.9140236E+002
 70
0
  0
VERTEX
  8
2
 42
-5.981148E-004
 10
3.7349886E+002
 20
1.9140277E+002
 70
1
  0
VERTEX
  8
2
 42
-5.63285E-004
 10
3.7351208E+002
 20
1.9140316E+002
 70
0
  0
VERTEX
  8
2
 42
-6.434104E-004
 10
3.7352533E+002
 20
1.9140351E+002
 70
1
  0
VERTEX
  8
2
 42
-8.012506E-004
 10
3.7353891E+002
 20
1.9140384E+002
 70
0
  0
VERTEX
  8
2
 42
-5.995203E-004
 10
3.7355292E+002
 20
1.9140413E+002
 70
1
  0
VERTEX
  8
2
 42
-1.650004E-004
 10
3.7356614E+002
 20
1.9140438E+002
 70
0
  0
VERTEX
  8
2
 42
-9.068882E-004
 10
3.7357814E+002
 20
1.914046E+002
 70
1
  0
VERTEX
  8
2
 42
-1.6314357E-003
 10
3.7359372E+002
 20
1.9140479E+002
 70
0
  0
VERTEX
  8
2
 42
-7.917028E-004
 10
3.7361788E+002
 20
1.9140496E+002
 70
1
  0
VERTEX
  8
2
 42
-4.108596E-004
 10
3.7364965E+002
 20
1.9140512E+002
 70
0
  0
SEQEND
  0
POLYLINE
  8
2
  6
CONTINUOUS
 62
3
 66
1
 40
0.0
 41
0.0
 70
2
  0
VERTEX
  8
2
 42
0.0
 10
4.2514965E+002
 20
1.9140512E+002
 70
0
  0
VERTEX
  8
2
 42
-7.319911E-004
 10
4.2516372E+002
 20
1.914051E+002
 70
1
  0
VERTEX
  8
2
 42
-7.487879E-004
 10
4.2517773E+002
 20
1.9140504E+002
 70
0
  0
VERTEX
  8
2
 42
-7.43904E-004
 10
4.2519169E+002
 20
1.9140493E+002
 70
1
  0
VERTEX
  8
2
 42
-7.15314E-004
 10
4.2520559E+002
 20
1.9140479E+002
 70
0
  0
VERTEX
  8
2
 42
-6.971407E-004
 10
4.2521941E+002
 20
1.914046E+002
 70
1
  0
VERTEX
  8
2
 42
-6.819792E-004
 10
4.2523316E+002
 20
1.9140438E+002
 70
0
  0
VERTEX
  8
2
 42
-6.69212E-004
 10
4.2524682E+002
 20
1.9140413E+002
 70
1
  0
VERTEX
  8
2
 42
-6.527654E-004
 10
4.252604E+002
 20
1.9140384E+002
 70
0
  0
VERTEX
  8
2
 42
-6.406231E-004
 10
4.2527386E+002
 20
1.9140351E+002
 70
1
  0
VERTEX
  8
2
 42
-6.264077E-004
 10
4.2528723E+002
 20
1.9140316E+002
 70
0
  0
VERTEX
  8
2
 42
-6.159744E-004
 10
4.2530048E+002
 20
1.9140277E+002
 70
1
  0
VERTEX
  8
2
 42
-6.030163E-004
 10
4.253136E+002
 20
1.9140236E+002
 70
0
  0
VERTEX
  8
2
 42
-5.939478E-004
 10
4.253266E+002
 20
1.9140191E+002
 70
1
  0
VERTEX
  8
2
 42
-5.824219E-004
 10
4.2533946E+002
 20
1.9140145E+002
 70
0
  0
VERTEX
  8
2
 42
-5.74765E-004
 10
4.2535217E+002
 20
1.9140096E+002
 70
1
  0
VERTEX
  8
2
 42
-5.645957E-004
 10
4.2536474E+002
 20
1.9140044E+002
 70
0
  0
VERTEX
  8
2
 42
-5.583339E-004
 10
4.2537714E+002
 20
1.9139991E+002
 70
1
  0
VERTEX
  8
2
 42
-5.495389E-004
 10
4.2538938E+002
 20
1.9139935E+002
 70
0
  0
VERTEX
  8
2
 42
-5.447224E-004
 10
4.2540145E+002
 20
1.9139877E+002
 70
1
  0
VERTEX
  8
2
 42
-5.373596E-004
 10
4.2541333E+002
 20
1.9139818E+002
 70
0
  0
VERTEX
  8
2
 42
-5.340432E-004
 10
4.2542502E+002
 20
1.9139757E+002
 70
1
  0
VERTEX
  8
2
 42
-5.281609E-004
 10
4.2543653E+002
 20
1.9139695E+002
 70
0
  0
VERTEX
  8
2
 42
-5.265466E-004
 10
4.2544782E+002
 20
1.9139632E+002
 70
1
  0
VERTEX
  8
2
 42
-5.223742E-004
 10
4.2545891E+002
 20
1.9139567E+002
 70
0
  0
VERTEX
  8
2
 42
-5.22497E-004
 10
4.2546977E+002
 20
1.9139501E+002
 70
1
  0
VERTEX
  8
2
 42
-5.202851E-004
 10
4.2548042E+002
 20
1.9139435E+002
 70
0
  0
VERTEX
  8
2
 42
-5.226562E-004
 10
4.2549082E+002
 20
1.9139367E+002
 70
1
  0
VERTEX
  8
2
 42
-5.211168E-004
 10
4.25501E+002
 20
1.9139299E+002
 70
0
  0
VERTEX
  8
2
 42
-5.325924E-004
 10
4.2551092E+002
 20
1.9139231E+002
 70
1
  0
VERTEX
  8
2
 42
-5.63372E-004
 10
4.2552053E+002
 20
1.9139163E+002
 70
0
  0
VERTEX
  8
2
 42
-5.92348E-004
 10
4.2552975E+002
 20
1.9139095E+002
 70
1
  0
VERTEX
  8
2
 42
-5.960813E-004
 10
4.2553858E+002
 20
1.9139028E+002
 70
0
  0
VERTEX
  8
2
 42
-6.086359E-004
 10
4.2554703E+002
 20
1.9138962E+002
 70
1
  0
VERTEX
  8
2
 42
-6.162218E-004
 10
4.255551E+002
 20
1.9138897E+002
 70
0
  0
VERTEX
  8
2
 42
-6.315349E-004
 10
4.2556279E+002
 20
1.9138832E+002
 70
1
  0
VERTEX
  8
2
 42
-6.379818E-004
 10
4.2557012E+002
 20
1.9138769E+002
 70
0
  0
VERTEX
  8
2
 42
-6.53737E-004
 10
4.2557708E+002
 20
1.9138708E+002
 70
1
  0
VERTEX
  8
2
 42
-6.606248E-004
 10
4.2558369E+002
 20
1.9138648E+002
 70
0
  0
VERTEX
  8
2
 42
-6.77733E-004
 10
4.2558995E+002
 20
1.9138589E+002
 70
1
  0
VERTEX
  8
2
 42
-6.844633E-004
 10
4.2559586E+002
 20
1.9138532E+002
 70
0
  0
VERTEX
  8
2
 42
-7.02822E-004
 10
4.2560143E+002
 20
1.9138476E+002
 70
1
  0
VERTEX
  8
2
 42
-7.094263E-004
 10
4.2560666E+002
 20
1.9138423E+002
 70
0
  0
VERTEX
  8
2
 42
-7.29347E-004
 10
4.2561156E+002
 20
1.9138371E+002
 70
1
  0
VERTEX
  8
2
 42
-7.357131E-004
 10
4.2561615E+002
 20
1.9138322E+002
 70
0
  0
VERTEX
  8
2
 42
-7.572792E-004
 10
4.256204E+002
 20
1.9138274E+002
 70
1
  0
VERTEX
  8
2
 42
-7.627348E-004
 10
4.2562435E+002
 20
1.9138229E+002
 70
0
  0
VERTEX
  8
2
 42
-7.868543E-004
 10
4.2562799E+002
 20
1.9138186E+002
 70
1
  0
VERTEX
  8
2
 42
-7.926701E-004
 10
4.2563132E+002
 20
1.9138146E+002
 70
0
  0
VERTEX
  8
2
 42
-8.175652E-004
 10
4.2563436E+002
 20
1.9138108E+002
 70
1
  0
VERTEX
  8
2
 42
-8.165949E-004
 10
4.2563711E+002
 20
1.9138074E+002
 70
0
  0
VERTEX
  8
2
 42
-8.515607E-004
 10
4.2563956E+002
 20
1.9138041E+002
 70
1
  0
VERTEX
  8
2
 42
-8.66032E-004
 10
4.2564174E+002
 20
1.9138012E+002
 70
0
  0
VERTEX
  8
2
 42
-8.793497E-004
 10
4.2564364E+002
 20
1.9137986E+002
 70
1
  0
VERTEX
  8
2
 42
-8.281602E-004
 10
4.2564527E+002
 20
1.9137963E+002
 70
0
  0
VERTEX
  8
2
 42
-9.393192E-004
 10
4.256466E+002
 20
1.9137944E+002
 70
1
  0
VERTEX
  8
2
 42
-9.8479E-004
 10
4.2564774E+002
 20
1.9137927E+002
 70
0
  0
VERTEX
  8
2
 42
-1.087525E-003
 10
4.2564876E+002
 20
1.9137911E+002
 70
1
  0
VERTEX
  8
2
 42
-1.6071286E-003
 10
4.2564966E+002
 20
1.9137897E+002
 70
0
  0
SEQEND
  0
LINE
  8
2
  6
CONTINUOUS
 62
3
 10
4.2514965E+002
 20
1.9187896E+002
 11
4.2514965E+002
 21
1.9140513E+002
  0
LINE
  8
2
  6
CONTINUOUS
 62
3
 10
3.7364965E+002
 20
1.9140513E+002
 11
3.7364965E+002
 21
1.9187896E+002
  0
LINE
  8
2
  6
CONTINUOUS
 62
3
 10
3.7364965E+002
 20
1.1947896E+002
 11
3.7364965E+002
 21
1.199528E+002
  0
LINE
  8
2
  6
CONTINUOUS
 62
3
 10
4.2514965E+002
 20
1.199528E+002
 11
4.2514965E+002
 21
1.1947896E+002
  0
POLYLINE
  8
2
  6
CONTINUOUS
 62
40
 66
1
 40
0.0
 41
0.0
 70
2
  0
VERTEX
  8
2
 42
0.0
 10
4.2514965E+002
 20
1.1947896E+002
 70
0
  0
VERTEX
  8
2
 42
4.968111E-003
 10
4.2515976E+002
 20
1.1947906E+002
 70
1
  0
VERTEX
  8
2
 42
5.0008199E-003
 10
4.2516985E+002
 20
1.1947937E+002
 70
0
  0
VERTEX
  8
2
 42
5.0085054E-003
 10
4.2517991E+002
 20
1.1947988E+002
 70
1
  0
VERTEX
  8
2
 42
4.9924366E-003
 10
4.2518995E+002
 20
1.1948058E+002
 70
0
  0
VERTEX
  8
2
 42
4.9863942E-003
 10
4.2519995E+002
 20
1.1948149E+002
 70
1
  0
VERTEX
  8
2
 42
4.9820164E-003
 10
4.2520991E+002
 20
1.194826E+002
 70
0
  0
VERTEX
  8
2
 42
4.9791869E-003
 10
4.2521984E+002
 20
1.194839E+002
 70
1
  0
VERTEX
  8
2
 42
4.9729808E-003
 10
4.2522973E+002
 20
1.194854E+002
 70
0
  0
VERTEX
  8
2
 42
4.9698106E-003
 10
4.2523957E+002
 20
1.194871E+002
 70
1
  0
VERTEX
  8
2
 42
4.9649671E-003
 10
4.2524937E+002
 20
1.1948898E+002
 70
0
  0
VERTEX
  8
2
 42
4.9623841E-003
 10
4.2525912E+002
 20
1.1949107E+002
 70
1
  0
VERTEX
  8
2
 42
4.9583614E-003
 10
4.2526882E+002
 20
1.1949334E+002
 70
0
  0
VERTEX
  8
2
 42
4.9562964E-003
 10
4.2527846E+002
 20
1.1949581E+002
 70
1
  0
VERTEX
  8
2
 42
4.9533059E-003
 10
4.2528805E+002
 20
1.1949846E+002
 70
0
  0
VERTEX
  8
2
 42
4.9519066E-003
 10
4.2529757E+002
 20
1.1950131E+002
 70
1
  0
VERTEX
  8
2
 42
4.9500794E-003
 10
4.2530704E+002
 20
1.1950434E+002
 70
0
  0
VERTEX
  8
2
 42
4.949275E-003
 10
4.2531644E+002
 20
1.1950756E+002
 70
1
  0
VERTEX
  8
2
 42
4.9483348E-003
 10
4.2532578E+002
 20
1.1951097E+002
 70
0
  0
VERTEX
  8
2
 42
4.9486053E-003
 10
4.2533504E+002
 20
1.1951456E+002
 70
1
  0
VERTEX
  8
2
 42
4.9497514E-003
 10
4.2534423E+002
 20
1.1951833E+002
 70
0
  0
VERTEX
  8
2
 42
4.9494858E-003
 10
4.2535334E+002
 20
1.1952229E+002
 70
1
  0
VERTEX
  8
2
 42
4.948505E-003
 10
4.2536238E+002
 20
1.1952643E+002
 70
0
  0
VERTEX
  8
2
 42
4.9534902E-003
 10
4.2537133E+002
 20
1.1953075E+002
 70
1
  0
VERTEX
  8
2
 42
4.9651497E-003
 10
4.253802E+002
 20
1.1953524E+002
 70
0
  0
VERTEX
  8
2
 42
4.9547758E-003
 10
4.2538898E+002
 20
1.1953992E+002
 70
1
  0
VERTEX
  8
2
 42
4.9278579E-003
 10
4.2539767E+002
 20
1.1954477E+002
 70
0
  0
VERTEX
  8
2
 42
4.9738451E-003
 10
4.2540627E+002
 20
1.195498E+002
 70
1
  0
VERTEX
  8
2
 42
5.0810784E-003
 10
4.2541478E+002
 20
1.1955501E+002
 70
0
  0
VERTEX
  8
2
 42
4.937888E-003
 10
4.254232E+002
 20
1.195604E+002
 70
1
  0
VERTEX
  8
2
 42
4.6108534E-003
 10
4.254315E+002
 20
1.1956594E+002
 70
0
  0
VERTEX
  8
2
 42
5.1002901E-003
 10
4.2543964E+002
 20
1.1957161E+002
 70
1
  0
VERTEX
  8
2
 42
6.1009811E-003
 10
4.254478E+002
 20
1.1957755E+002
 70
0
  0
VERTEX
  8
2
 42
4.6180668E-003
 10
4.2545601E+002
 20
1.1958385E+002
 70
1
  0
VERTEX
  8
2
 42
1.5470833E-003
 10
4.2546366E+002
 20
1.1958985E+002
 70
0
  0
VERTEX
  8
2
 42
6.5537849E-003
 10
4.2547053E+002
 20
1.1959536E+002
 70
1
  0
VERTEX
  8
2
 42
1.1314231E-002
 10
4.2547907E+002
 20
1.1960282E+002
 70
0
  0
VERTEX
  8
2
 42
5.5027724E-003
 10
4.2549188E+002
 20
1.1961478E+002
 70
1
  0
VERTEX
  8
2
 42
2.8986726E-003
 10
4.2550843E+002
 20
1.1963072E+002
 70
0
  0
SEQEND
  0
POLYLINE
  8
2
  6
CONTINUOUS
 62
40
 66
1
 40
0.0
 41
0.0
 70
2
  0
VERTEX
  8
2
 42
0.0
 10
4.2557126E+002
 20
1.1971003E+002
 70
0
  0
VERTEX
  8
2
 42
3.615721E-003
 10
4.2557502E+002
 20
1.1971601E+002
 70
1
  0
VERTEX
  8
2
 42
3.622999E-003
 10
4.255787E+002
 20
1.1972204E+002
 70
0
  0
VERTEX
  8
2
 42
3.6182777E-003
 10
4.2558228E+002
 20
1.1972812E+002
 70
1
  0
VERTEX
  8
2
 42
3.6027506E-003
 10
4.2558578E+002
 20
1.1973425E+002
 70
0
  0
VERTEX
  8
2
 42
3.5919884E-003
 10
4.2558918E+002
 20
1.1974043E+002
 70
1
  0
VERTEX
  8
2
 42
3.5826079E-003
 10
4.255925E+002
 20
1.1974666E+002
 70
0
  0
VERTEX
  8
2
 42
3.5739609E-003
 10
4.2559573E+002
 20
1.1975294E+002
 70
1
  0
VERTEX
  8
2
 42
3.5642004E-003
 10
4.2559887E+002
 20
1.1975927E+002
 70
0
  0
VERTEX
  8
2
 42
3.5559164E-003
 10
4.2560191E+002
 20
1.1976564E+002
 70
1
  0
VERTEX
  8
2
 42
3.5473027E-003
 10
4.2560487E+002
 20
1.1977205E+002
 70
0
  0
VERTEX
  8
2
 42
3.5398241E-003
 10
4.2560773E+002
 20
1.1977851E+002
 70
1
  0
VERTEX
  8
2
 42
3.532075E-003
 10
4.2561051E+002
 20
1.19785E+002
 70
0
  0
VERTEX
  8
2
 42
3.5253499E-003
 10
4.2561319E+002
 20
1.1979154E+002
 70
1
  0
VERTEX
  8
2
 42
3.518552E-003
 10
4.2561578E+002
 20
1.1979812E+002
 70
0
  0
VERTEX
  8
2
 42
3.5126529E-003
 10
4.2561828E+002
 20
1.1980474E+002
 70
1
  0
VERTEX
  8
2
 42
3.5068819E-003
 10
4.2562068E+002
 20
1.1981139E+002
 70
0
  0
VERTEX
  8
2
 42
3.5017428E-003
 10
4.2562299E+002
 20
1.1981808E+002
 70
1
  0
VERTEX
  8
2
 42
3.4967904E-003
 10
4.2562521E+002
 20
1.198248E+002
 70
0
  0
VERTEX
  8
2
 42
3.4927459E-003
 10
4.2562733E+002
 20
1.1983155E+002
 70
1
  0
VERTEX
  8
2
 42
3.4894542E-003
 10
4.2562937E+002
 20
1.1983834E+002
 70
0
  0
VERTEX
  8
2
 42
3.4853759E-003
 10
4.256313E+002
 20
1.1984516E+002
 70
1
  0
VERTEX
  8
2
 42
3.4808078E-003
 10
4.2563314E+002
 20
1.1985201E+002
 70
0
  0
VERTEX
  8
2
 42
3.4807701E-003
 10
4.2563489E+002
 20
1.1985888E+002
 70
1
  0
VERTEX
  8
2
 42
3.4852466E-003
 10
4.2563654E+002
 20
1.1986579E+002
 70
0
  0
VERTEX
  8
2
 42
3.4748829E-003
 10
4.2563809E+002
 20
1.1987272E+002
 70
1
  0
VERTEX
  8
2
 42
3.452812E-003
 10
4.2563955E+002
 20
1.1987967E+002
 70
0
  0
VERTEX
  8
2
 42
3.4821086E-003
 10
4.2564091E+002
 20
1.1988665E+002
 70
1
  0
VERTEX
  8
2
 42
3.5534468E-003
 10
4.2564217E+002
 20
1.1989365E+002
 70
0
  0
VERTEX
  8
2
 42
3.4518513E-003
 10
4.2564334E+002
 20
1.1990069E+002
 70
1
  0
VERTEX
  8
2
 42
3.2225353E-003
 10
4.2564441E+002
 20
1.1990771E+002
 70
0
  0
VERTEX
  8
2
 42
3.5602041E-003
 10
4.2564538E+002
 20
1.1991472E+002
 70
1
  0
VERTEX
  8
2
 42
4.2513746E-003
 10
4.2564625E+002
 20
1.1992185E+002
 70
0
  0
VERTEX
  8
2
 42
3.2227778E-003
 10
4.2564703E+002
 20
1.1992917E+002
 70
1
  0
VERTEX
  8
2
 42
1.0924656E-003
 10
4.256477E+002
 20
1.1993606E+002
 70
0
  0
VERTEX
  8
2
 42
4.5611362E-003
 10
4.2564826E+002
 20
1.1994229E+002
 70
1
  0
VERTEX
  8
2
 42
7.8683699E-003
 10
4.2564876E+002
 20
1.1995032E+002
 70
0
  0
VERTEX
  8
2
 42
3.83974E-003
 10
4.2564922E+002
 20
1.1996271E+002
 70
1
  0
VERTEX
  8
2
 42
2.0291118E-003
 10
4.2564966E+002
 20
1.1997897E+002
 70
0
  0
SEQEND
  0
POLYLINE
  8
2
  6
CONTINUOUS
 62
3
 66
1
 40
0.0
 41
0.0
 70
2
  0
VERTEX
  8
2
 42
0.0
 10
4.2564966E+002
 20
1.1997897E+002
 70
0
  0
VERTEX
  8
2
 42
-1.5483545E-002
 10
4.2564954E+002
 20
1.1997895E+002
 70
1
  0
VERTEX
  8
2
 42
-8.81942E-004
 10
4.2564918E+002
 20
1.1997889E+002
 70
0
  0
VERTEX
  8
2
 42
-6.245864E-004
 10
4.2564858E+002
 20
1.199788E+002
 70
1
  0
VERTEX
  8
2
 42
-1.002247E-003
 10
4.2564774E+002
 20
1.1997867E+002
 70
0
  0
VERTEX
  8
2
 42
-9.773104E-004
 10
4.2564663E+002
 20
1.199785E+002
 70
1
  0
VERTEX
  8
2
 42
-9.399261E-004
 10
4.2564527E+002
 20
1.199783E+002
 70
0
  0
VERTEX
  8
2
 42
-8.865356E-004
 10
4.2564364E+002
 20
1.1997807E+002
 70
1
  0
VERTEX
  8
2
 42
-8.956258E-004
 10
4.2564174E+002
 20
1.1997781E+002
 70
0
  0
VERTEX
  8
2
 42
-8.606689E-004
 10
4.2563956E+002
 20
1.1997752E+002
 70
1
  0
VERTEX
  8
2
 42
-8.573112E-004
 10
4.2563711E+002
 20
1.199772E+002
 70
0
  0
VERTEX
  8
2
 42
-8.260571E-004
 10
4.2563436E+002
 20
1.1997685E+002
 70
1
  0
VERTEX
  8
2
 42
-8.222124E-004
 10
4.2563132E+002
 20
1.1997647E+002
 70
0
  0
VERTEX
  8
2
 42
-7.951409E-004
 10
4.2562799E+002
 20
1.1997607E+002
 70
1
  0
VERTEX
  8
2
 42
-7.897103E-004
 10
4.2562435E+002
 20
1.1997564E+002
 70
0
  0
VERTEX
  8
2
 42
-7.654293E-004
 10
4.256204E+002
 20
1.1997519E+002
 70
1
  0
VERTEX
  8
2
 42
-7.593044E-004
 10
4.2561615E+002
 20
1.1997471E+002
 70
0
  0
VERTEX
  8
2
 42
-7.373156E-004
 10
4.2561156E+002
 20
1.1997422E+002
 70
1
  0
VERTEX
  8
2
 42
-7.307418E-004
 10
4.2560666E+002
 20
1.199737E+002
 70
0
  0
VERTEX
  8
2
 42
-7.106141E-004
 10
4.2560143E+002
 20
1.1997316E+002
 70
1
  0
VERTEX
  8
2
 42
-7.037986E-004
 10
4.2559586E+002
 20
1.1997261E+002
 70
0
  0
VERTEX
  8
2
 42
-6.852719E-004
 10
4.2558995E+002
 20
1.1997204E+002
 70
1
  0
VERTEX
  8
2
 42
-6.784043E-004
 10
4.2558369E+002
 20
1.1997145E+002
 70
0
  0
VERTEX
  8
2
 42
-6.611794E-004
 10
4.2557708E+002
 20
1.1997085E+002
 70
1
  0
VERTEX
  8
2
 42
-6.54185E-004
 10
4.2557012E+002
 20
1.1997023E+002
 70
0
  0
VERTEX
  8
2
 42
-6.383421E-004
 10
4.2556279E+002
 20
1.199696E+002
 70
1
  0
VERTEX
  8
2
 42
-6.318156E-004
 10
4.255551E+002
 20
1.1996896E+002
 70
0
  0
VERTEX
  8
2
 42
-6.164362E-004
 10
4.2554703E+002
 20
1.1996831E+002
 70
1
  0
VERTEX
  8
2
 42
-6.087874E-004
 10
4.2553858E+002
 20
1.1996765E+002
 70
0
  0
VERTEX
  8
2
 42
-5.96184E-004
 10
4.2552975E+002
 20
1.1996698E+002
 70
1
  0
VERTEX
  8
2
 42
-5.924054E-004
 10
4.2552053E+002
 20
1.199663E+002
 70
0
  0
VERTEX
  8
2
 42
-5.633838E-004
 10
4.2551092E+002
 20
1.1996562E+002
 70
1
  0
VERTEX
  8
2
 42
-5.325476E-004
 10
4.25501E+002
 20
1.1996493E+002
 70
0
  0
VERTEX
  8
2
 42
-5.210164E-004
 10
4.2549082E+002
 20
1.1996426E+002
 70
1
  0
VERTEX
  8
2
 42
-5.224873E-004
 10
4.2548042E+002
 20
1.1996358E+002
 70
0
  0
VERTEX
  8
2
 42
-5.200671E-004
 10
4.2546977E+002
 20
1.1996292E+002
 70
1
  0
VERTEX
  8
2
 42
-5.222319E-004
 10
4.2545891E+002
 20
1.1996226E+002
 70
0
  0
VERTEX
  8
2
 42
-5.220508E-004
 10
4.2544782E+002
 20
1.1996161E+002
 70
1
  0
VERTEX
  8
2
 42
-5.261402E-004
 10
4.2543653E+002
 20
1.1996098E+002
 70
0
  0
VERTEX
  8
2
 42
-5.27755E-004
 10
4.2542502E+002
 20
1.1996035E+002
 70
1
  0
VERTEX
  8
2
 42
-5.336969E-004
 10
4.2541333E+002
 20
1.1995975E+002
 70
0
  0
VERTEX
  8
2
 42
-5.368236E-004
 10
4.2540145E+002
 20
1.1995915E+002
 70
1
  0
VERTEX
  8
2
 42
-5.437642E-004
 10
4.2538938E+002
 20
1.1995858E+002
 70
0
  0
VERTEX
  8
2
 42
-5.490676E-004
 10
4.2537714E+002
 20
1.1995802E+002
 70
1
  0
VERTEX
  8
2
 42
-5.591142E-004
 10
4.2536474E+002
 20
1.1995749E+002
 70
0
  0
VERTEX
  8
2
 42
-5.635208E-004
 10
4.2535217E+002
 20
1.1995697E+002
 70
1
  0
VERTEX
  8
2
 42
-5.69237E-004
 10
4.2533946E+002
 20
1.1995648E+002
 70
0
  0
VERTEX
  8
2
 42
-5.830938E-004
 10
4.2532661E+002
 20
1.1995601E+002
 70
1
  0
VERTEX
  8
2
 42
-6.092431E-004
 10
4.253136E+002
 20
1.1995557E+002
 70
0
  0
VERTEX
  8
2
 42
-5.973E-004
 10
4.2530045E+002
 20
1.1995516E+002
 70
1
  0
VERTEX
  8
2
 42
-5.624988E-004
 10
4.2528723E+002
 20
1.1995477E+002
 70
0
  0
VERTEX
  8
2
 42
-6.424748E-004
 10
4.2527398E+002
 20
1.1995441E+002
 70
1
  0
VERTEX
  8
2
 42
-8.00033E-004
 10
4.252604E+002
 20
1.1995409E+002
 70
0
  0
VERTEX
  8
2
 42
-5.986028E-004
 10
4.2524638E+002
 20
1.199538E+002
 70
1
  0
VERTEX
  8
2
 42
-1.647817E-004
 10
4.2523316E+002
 20
1.1995354E+002
 70
0
  0
VERTEX
  8
2
 42
-9.054262E-004
 10
4.2522116E+002
 20
1.1995332E+002
 70
1
  0
VERTEX
  8
2
 42
-1.6286967E-003
 10
4.2520559E+002
 20
1.1995313E+002
 70
0
  0
VERTEX
  8
2
 42
-7.903567E-004
 10
4.2518142E+002
 20
1.1995296E+002
 70
1
  0
VERTEX
  8
2
 42
-4.101622E-004
 10
4.2514965E+002
 20
1.1995279E+002
 70
0
  0
SEQEND
  0
POLYLINE
  8
2
  6
CONTINUOUS
 62
40
 66
1
 40
0.0
 41
0.0
 70
2
  0
VERTEX
  8
2
 42
0.0
 10
3.9876614E+002
 20
1.6073946E+002
 70
0
  0
VERTEX
  8
2
 42
-3.8744E-005
 10
3.9879782E+002
 20
1.6073956E+002
 70
1
  0
VERTEX
  8
2
 42
-3.8744E-005
 10
3.9882949E+002
 20
1.6073965E+002
 70
0
  0
VERTEX
  8
2
 42
-3.8744E-005
 10
3.9886117E+002
 20
1.6073974E+002
 70
1
  0
VERTEX
  8
2
 42
-3.8744E-005
 10
3.9889284E+002
 20
1.6073982E+002
 70
0
  0
VERTEX
  8
2
 42
-3.8744E-005
 10
3.9892452E+002
 20
1.607399E+002
 70
1
  0
VERTEX
  8
2
 42
-3.8744E-005
 10
3.989562E+002
 20
1.6073997E+002
 70
0
  0
VERTEX
  8
2
 42
-3.8744E-005
 10
3.9898787E+002
 20
1.6074003E+002
 70
1
  0
VERTEX
  8
2
 42
-3.8744E-005
 10
3.9901955E+002
 20
1.607401E+002
 70
0
  0
VERTEX
  8
2
 42
-3.8744E-005
 10
3.9905122E+002
 20
1.6074015E+002
 70
1
  0
VERTEX
  8
2
 42
-3.8744E-005
 10
3.990829E+002
 20
1.607402E+002
 70
0
  0
VERTEX
  8
2
 42
-3.8744E-005
 10
3.9911457E+002
 20
1.6074025E+002
 70
1
  0
VERTEX
  8
2
 42
-3.8744E-005
 10
3.9914625E+002
 20
1.6074029E+002
 70
0
  0
VERTEX
  8
2
 42
-3.8744E-005
 10
3.9917792E+002
 20
1.6074033E+002
 70
1
  0
VERTEX
  8
2
 42
-3.87439E-005
 10
3.992096E+002
 20
1.6074036E+002
 70
0
  0
VERTEX
  8
2
 42
-3.8744E-005
 10
3.9924128E+002
 20
1.6074039E+002
 70
1
  0
VERTEX
  8
2
 42
-3.87444E-005
 10
3.9927295E+002
 20
1.6074041E+002
 70
0
  0
VERTEX
  8
2
 42
-3.87439E-005
 10
3.9930463E+002
 20
1.6074043E+002
 70
1
  0
VERTEX
  8
2
 42
-3.87422E-005
 10
3.993363E+002
 20
1.6074044E+002
 70
0
  0
VERTEX
  8
2
 42
-3.87444E-005
 10
3.9936798E+002
 20
1.6074045E+002
 70
1
  0
VERTEX
  8
2
 42
-3.875E-005
 10
3.9939965E+002
 20
1.6074045E+002
 70
0
  0
VERTEX
  8
2
 42
-3.87422E-005
 10
3.9943133E+002
 20
1.6074045E+002
 70
1
  0
VERTEX
  8
2
 42
-3.87224E-005
 10
3.9946301E+002
 20
1.6074044E+002
 70
0
  0
VERTEX
  8
2
 42
-3.875E-005
 10
3.9949468E+002
 20
1.6074043E+002
 70
1
  0
VERTEX
  8
2
 42
-3.8819E-005
 10
3.9952636E+002
 20
1.6074041E+002
 70
0
  0
VERTEX
  8
2
 42
-3.87224E-005
 10
3.9955804E+002
 20
1.6074039E+002
 70
1
  0
VERTEX
  8
2
 42
-3.84862E-005
 10
3.9958971E+002
 20
1.6074036E+002
 70
0
  0
VERTEX
  8
2
 42
-3.88198E-005
 10
3.9962137E+002
 20
1.6074033E+002
 70
1
  0
VERTEX
  8
2
 42
-3.96062E-005
 10
3.9965306E+002
 20
1.6074029E+002
 70
0
  0
VERTEX
  8
2
 42
-3.84811E-005
 10
3.996848E+002
 20
1.6074025E+002
 70
1
  0
VERTEX
  8
2
 42
-3.5932E-005
 10
3.9971641E+002
 20
1.607402E+002
 70
0
  0
VERTEX
  8
2
 42
-3.96572E-005
 10
3.9974783E+002
 20
1.6074015E+002
 70
1
  0
VERTEX
  8
2
 42
-4.72697E-005
 10
3.9977976E+002
 20
1.607401E+002
 70
0
  0
VERTEX
  8
2
 42
-3.58828E-005
 10
3.9981244E+002
 20
1.6074003E+002
 70
1
  0
VERTEX
  8
2
 42
-1.23229E-005
 10
3.9984311E+002
 20
1.6073997E+002
 70
0
  0
VERTEX
  8
2
 42
-5.06087E-005
 10
3.9987085E+002
 20
1.6073991E+002
 70
1
  0
VERTEX
  8
2
 42
-8.70812E-005
 10
3.9990647E+002
 20
1.6073982E+002
 70
0
  0
VERTEX
  8
2
 42
-4.25799E-005
 10
3.9996132E+002
 20
1.6073967E+002
 70
1
  0
VERTEX
  8
2
 42
-2.25651E-005
 10
4.0003317E+002
 20
1.6073946E+002
 70
0
  0
SEQEND
  0
LINE
  8
2
  6
CONTINUOUS
 62
3
 10
3.756309E+002
 20
1.6977896E+002
 11
3.756309E+002
 21
1.6557896E+002
  0
LINE
  8
2
  6
CONTINUOUS
 62
3
 10
3.756309E+002
 20
1.4577896E+002
 11
3.756309E+002
 21
1.4157896E+002
  0
LINE
  8
2
  6
CONTINUOUS
 62
40
 10
3.9522871E+002
 20
1.586138E+002
 11
3.9595768E+002
 21
1.5930564E+002
  0
ARC
  8
2
  6
CONTINUOUS
 62
40
 10
4.0160965E+002
 20
1.5009896E+002
 40
1.0017081
 50
1.1160638E+002
 51
1.3525815E+002
  0
ARC
  8
2
  6
CONTINUOUS
 62
40
 10
4.0497965E+002
 20
1.5788896E+002
 40
1.0017081
 50
2.016064E+002
 51
2.2525815E+002
  0
ARC
  8
2
  6
CONTINUOUS
 62
40
 10
4.0497965E+002
 20
1.5346896E+002
 40
1.0017081
 50
1.3474185E+002
 51
1.583936E+002
  0
LINE
  8
2
  6
CONTINUOUS
 62
40
 10
3.9939965E+002
 20
1.6067896E+002
 11
3.9839467E+002
 21
1.6067896E+002
  0
LINE
  8
2
  6
CONTINUOUS
 62
40
 10
4.0023696E+002
 20
1.6067896E+002
 11
3.9939965E+002
 21
1.6067896E+002
  0
ARC
  8
2
  6
CONTINUOUS
 62
40
 10
4.0490802E+002
 20
1.5806191E+002
 40
1.0017081
 50
1.7974185E+002
 51
2.0339359E+002
  0
ARC
  8
2
  6
CONTINUOUS
 62
40
 10
4.0490802E+002
 20
1.5329601E+002
 40
1.0017081
 50
1.5660639E+002
 51
1.8025815E+002
  0
LINE
  8
2
  6
CONTINUOUS
 62
40
 10
4.0194965E+002
 20
1.5312896E+002
 11
3.9785055E+002
 21
1.5312896E+002
  0
LINE
  8
2
  6
CONTINUOUS
 62
40
 10
4.0194965E+002
 20
1.5822896E+002
 11
4.0194965E+002
 21
1.5312896E+002
  0
LINE
  8
2
  6
CONTINUOUS
 62
40
 10
3.9684965E+002
 20
1.5822896E+002
 11
4.0194965E+002
 21
1.5822896E+002
  0
LINE
  8
2
  6
CONTINUOUS
 62
40
 10
3.9785055E+002
 20
1.5312896E+002
 11
3.9684965E+002
 21
1.5412896E+002
  0
LINE
  8
2
  6
CONTINUOUS
 62
40
 10
3.9684965E+002
 20
1.5412896E+002
 11
3.9684965E+002
 21
1.5822896E+002
  0
LINE
  8
2
  6
CONTINUOUS
 62
40
 10
3.9539965E+002
 20
1.5366059E+002
 11
3.9539965E+002
 21
1.5267896E+002
  0
LINE
  8
2
  6
CONTINUOUS
 62
40
 10
3.9539965E+002
 20
1.5867896E+002
 11
3.9539965E+002
 21
1.5769734E+002
  0
LINE
  8
2
  6
CONTINUOUS
 62
40
 10
3.9539965E+002
 20
1.5769734E+002
 11
3.9539965E+002
 21
1.5366059E+002
  0
ARC
  8
2
  6
CONTINUOUS
 62
40
 10
4.017826E+002
 20
1.501706E+002
 40
1.0017081
 50
8.9741845E+001
 51
1.1339361E+002
  0
ARC
  8
2
  6
CONTINUOUS
 62
40
 10
3.9884965E+002
 20
1.6007896E+002
 40
5.0E-001
 50
1.8503969E+002
 51
2.7E+002
  0
ARC
  8
2
  6
CONTINUOUS
 62
40
 10
3.9884965E+002
 20
1.6007896E+002
 40
5.0E-001
 50
1.8E+002
 51
1.8503969E+002
  0
LINE
  8
2
  6
CONTINUOUS
 62
40
 10
3.9994965E+002
 20
1.5957896E+002
 11
3.9884965E+002
 21
1.5957896E+002
  0
ARC
  8
2
  6
CONTINUOUS
 62
40
 10
3.9994965E+002
 20
1.6007896E+002
 40
5.0E-001
 50
3.5496242E+002
 51
3.6E+002
  0
ARC
  8
2
  6
CONTINUOUS
 62
40
 10
3.9994965E+002
 20
1.6007896E+002
 40
5.0E-001
 50
2.7E+002
 51
3.5496242E+002
  0
LINE
  8
2
  6
CONTINUOUS
 62
40
 10
4.0044965E+002
 20
1.6056747E+002
 11
4.0044965E+002
 21
1.6007896E+002
  0
LINE
  8
2
  6
CONTINUOUS
 62
40
 10
3.9834965E+002
 20
1.6007896E+002
 11
3.9834965E+002
 21
1.6056747E+002
  0
LINE
  8
2
  6
CONTINUOUS
 62
40
 10
4.0428816E+002
 20
1.5462896E+002
 11
4.0379965E+002
 21
1.5462896E+002
  0
LINE
  8
2
  6
CONTINUOUS
 62
40
 10
4.0379965E+002
 20
1.5672896E+002
 11
4.0428816E+002
 21
1.5672896E+002
  0
ARC
  8
2
  6
CONTINUOUS
 62
40
 10
4.0379965E+002
 20
1.5622896E+002
 40
5.0E-001
 50
9.5039694E+001
 51
1.8E+002
  0
ARC
  8
2
  6
CONTINUOUS
 62
40
 10
4.0379965E+002
 20
1.5622896E+002
 40
5.0E-001
 50
9.0E+001
 51
9.5039694E+001
  0
LINE
  8
2
  6
CONTINUOUS
 62
40
 10
4.0329965E+002
 20
1.5512896E+002
 11
4.0329965E+002
 21
1.5622896E+002
  0
ARC
  8
2
  6
CONTINUOUS
 62
40
 10
4.0379965E+002
 20
1.5512896E+002
 40
5.0E-001
 50
2.6495723E+002
 51
2.7E+002
  0
ARC
  8
2
  6
CONTINUOUS
 62
40
 10
4.0379965E+002
 20
1.5512896E+002
 40
5.0E-001
 50
1.8E+002
 51
2.6495723E+002
  0
LINE
  8
2
  6
CONTINUOUS
 62
40
 10
3.9834965E+002
 20
1.5079046E+002
 11
3.9834965E+002
 21
1.5127896E+002
  0
LINE
  8
2
  6
CONTINUOUS
 62
40
 10
4.0044965E+002
 20
1.5127896E+002
 11
4.0044965E+002
 21
1.5079046E+002
  0
ARC
  8
2
  6
CONTINUOUS
 62
40
 10
3.9994965E+002
 20
1.5127896E+002
 40
5.0E-001
 50
5.0397497
 51
9.0E+001
  0
ARC
  8
2
  6
CONTINUOUS
 62
40
 10
3.9994965E+002
 20
1.5127896E+002
 40
5.0E-001
 50
0.0
 51
5.0397497
  0
LINE
  8
2
  6
CONTINUOUS
 62
40
 10
3.9884965E+002
 20
1.5177896E+002
 11
3.9994965E+002
 21
1.5177896E+002
  0
ARC
  8
2
  6
CONTINUOUS
 62
40
 10
3.9884965E+002
 20
1.5127896E+002
 40
5.0E-001
 50
1.7496029E+002
 51
1.8E+002
  0
ARC
  8
2
  6
CONTINUOUS
 62
40
 10
3.9884965E+002
 20
1.5127896E+002
 40
5.0E-001
 50
9.0E+001
 51
1.7496029E+002
  0
ARC
  8
2
  6
CONTINUOUS
 62
40
 10
3.9939965E+002
 20
1.5567896E+002
 40
5.0
 50
2.5787765E+002
 51
2.6368468E+002
  0
ARC
  8
2
  6
CONTINUOUS
 62
40
 10
3.9939965E+002
 20
1.5567896E+002
 40
5.0
 50
2.168699E+002
 51
2.5787765E+002
  0
ARC
  8
2
  6
CONTINUOUS
 62
40
 10
3.9939965E+002
 20
1.5567896E+002
 40
5.0
 50
1.431301E+002
 51
2.168699E+002
  0
ARC
  8
2
  6
CONTINUOUS
 62
40
 10
3.9939965E+002
 20
1.5567896E+002
 40
5.0
 50
1.0212235E+002
 51
1.431301E+002
  0
POLYLINE
  8
2
  6
CONTINUOUS
 62
40
 66
1
 40
0.0
 41
0.0
 70
2
  0
VERTEX
  8
2
 42
0.0
 10
3.9834965E+002
 20
1.6056746E+002
 70
0
  0
VERTEX
  8
2
 42
-5.6830151E-003
 10
3.9835009E+002
 20
1.6056756E+002
 70
1
  0
VERTEX
  8
2
 42
-4.010309E-004
 10
3.9835134E+002
 20
1.6056784E+002
 70
0
  0
VERTEX
  8
2
 42
-2.797806E-004
 10
3.9835343E+002
 20
1.605683E+002
 70
1
  0
VERTEX
  8
2
 42
-4.537966E-004
 10
3.9835631E+002
 20
1.6056892E+002
 70
0
  0
VERTEX
  8
2
 42
-4.610926E-004
 10
3.9835999E+002
 20
1.6056972E+002
 70
1
  0
VERTEX
  8
2
 42
-4.61921E-004
 10
3.9836442E+002
 20
1.6057067E+002
 70
0
  0
VERTEX
  8
2
 42
-4.544864E-004
 10
3.9836962E+002
 20
1.6057177E+002
 70
1
  0
VERTEX
  8
2
 42
-4.783819E-004
 10
3.9837554E+002
 20
1.6057302E+002
 70
0
  0
VERTEX
  8
2
 42
-4.801203E-004
 10
3.9838219E+002
 20
1.605744E+002
 70
1
  0
VERTEX
  8
2
 42
-4.986878E-004
 10
3.9838952E+002
 20
1.6057591E+002
 70
0
  0
VERTEX
  8
2
 42
-5.020072E-004
 10
3.9839756E+002
 20
1.6057755E+002
 70
1
  0
VERTEX
  8
2
 42
-5.211842E-004
 10
3.9840624E+002
 20
1.6057931E+002
 70
0
  0
VERTEX
  8
2
 42
-5.267353E-004
 10
3.9841558E+002
 20
1.6058117E+002
 70
1
  0
VERTEX
  8
2
 42
-5.45813E-004
 10
3.9842555E+002
 20
1.6058314E+002
 70
0
  0
VERTEX
  8
2
 42
-5.530307E-004
 10
3.9843613E+002
 20
1.6058521E+002
 70
1
  0
VERTEX
  8
2
 42
-5.725637E-004
 10
3.9844731E+002
 20
1.6058736E+002
 70
0
  0
VERTEX
  8
2
 42
-5.813437E-004
 10
3.9845907E+002
 20
1.605896E+002
 70
1
  0
VERTEX
  8
2
 42
-6.014271E-004
 10
3.9847138E+002
 20
1.6059192E+002
 70
0
  0
VERTEX
  8
2
 42
-6.118401E-004
 10
3.9848425E+002
 20
1.6059431E+002
 70
1
  0
VERTEX
  8
2
 42
-6.329983E-004
 10
3.9849764E+002
 20
1.6059675E+002
 70
0
  0
VERTEX
  8
2
 42
-6.446371E-004
 10
3.9851155E+002
 20
1.6059926E+002
 70
1
  0
VERTEX
  8
2
 42
-6.660397E-004
 10
3.9852594E+002
 20
1.6060182E+002
 70
0
  0
VERTEX
  8
2
 42
-6.804122E-004
 10
3.9854081E+002
 20
1.6060441E+002
 70
1
  0
VERTEX
  8
2
 42
-7.057193E-004
 10
3.9855613E+002
 20
1.6060705E+002
 70
0
  0
VERTEX
  8
2
 42
-7.18019E-004
 10
3.9857191E+002
 20
1.6060971E+002
 70
1
  0
VERTEX
  8
2
 42
-7.358208E-004
 10
3.985881E+002
 20
1.606124E+002
 70
0
  0
VERTEX
  8
2
 42
-7.626981E-004
 10
3.9860469E+002
 20
1.606151E+002
 70
1
  0
VERTEX
  8
2
 42
-8.115954E-004
 10
3.9862169E+002
 20
1.6061781E+002
 70
0
  0
VERTEX
  8
2
 42
-7.981832E-004
 10
3.9863909E+002
 20
1.6062053E+002
 70
1
  0
VERTEX
  8
2
 42
-7.53836E-004
 10
3.9865677E+002
 20
1.6062324E+002
 70
0
  0
VERTEX
  8
2
 42
-8.815023E-004
 10
3.9867466E+002
 20
1.6062592E+002
 70
1
  0
VERTEX
  8
2
 42
-1.1277532E-003
 10
3.9869319E+002
 20
1.6062862E+002
 70
0
  0
VERTEX
  8
2
 42
-8.288199E-004
 10
3.9871251E+002
 20
1.6063135E+002
 70
1
  0
VERTEX
  8
2
 42
-1.852469E-004
 10
3.9873084E+002
 20
1.606339E+002
 70
0
  0
VERTEX
  8
2
 42
-1.3092824E-003
 10
3.9874756E+002
 20
1.606362E+002
 70
1
  0
VERTEX
  8
2
 42
-2.3920711E-003
 10
3.9876955E+002
 20
1.6063903E+002
 70
0
  0
VERTEX
  8
2
 42
-1.1428558E-003
 10
3.9880407E+002
 20
1.6064322E+002
 70
1
  0
VERTEX
  8
2
 42
-5.824366E-004
 10
3.9884966E+002
 20
1.6064862E+002
 70
0
  0
SEQEND
  0
ARC
  8
2
  6
CONTINUOUS
 62
40
 10
3.9939965E+002
 20
1.5567896E+002
 40
5.0
 50
8.3684684E+001
 51
9.6315316E+001
  0
POLYLINE
  8
2
  6
CONTINUOUS
 62
40
 66
1
 40
0.0
 41
0.0
 70
2
  0
VERTEX
  8
2
 42
0.0
 10
3.9994966E+002
 20
1.6064862E+002
 70
0
  0
VERTEX
  8
2
 42
-1.0545772E-003
 10
3.9996998E+002
 20
1.6064632E+002
 70
1
  0
VERTEX
  8
2
 42
-1.1001493E-003
 10
3.9999011E+002
 20
1.6064395E+002
 70
0
  0
VERTEX
  8
2
 42
-1.0957281E-003
 10
4.0001004E+002
 20
1.6064152E+002
 70
1
  0
VERTEX
  8
2
 42
-1.034959E-003
 10
4.0002976E+002
 20
1.6063903E+002
 70
0
  0
VERTEX
  8
2
 42
-9.983781E-004
 10
4.0004924E+002
 20
1.6063649E+002
 70
1
  0
VERTEX
  8
2
 42
-9.68227E-004
 10
4.0006848E+002
 20
1.606339E+002
 70
0
  0
VERTEX
  8
2
 42
-9.436217E-004
 10
4.0008744E+002
 20
1.6063127E+002
 70
1
  0
VERTEX
  8
2
 42
-9.093968E-004
 10
4.0010612E+002
 20
1.6062862E+002
 70
0
  0
VERTEX
  8
2
 42
-8.85248E-004
 10
4.0012449E+002
 20
1.6062594E+002
 70
1
  0
VERTEX
  8
2
 42
-8.552104E-004
 10
4.0014255E+002
 20
1.6062324E+002
 70
0
  0
VERTEX
  8
2
 42
-8.34069E-004
 10
4.0016026E+002
 20
1.6062053E+002
 70
1
  0
VERTEX
  8
2
 42
-8.05753E-004
 10
4.0017763E+002
 20
1.6061781E+002
 70
0
  0
VERTEX
  8
2
 42
-7.866648E-004
 10
4.0019461E+002
 20
1.606151E+002
 70
1
  0
VERTEX
  8
2
 42
-7.603547E-004
 10
4.0021121E+002
 20
1.606124E+002
 70
0
  0
VERTEX
  8
2
 42
-7.433073E-004
 10
4.002274E+002
 20
1.6060971E+002
 70
1
  0
VERTEX
  8
2
 42
-7.186252E-004
 10
4.0024318E+002
 20
1.6060705E+002
 70
0
  0
VERTEX
  8
2
 42
-7.03409E-004
 10
4.002585E+002
 20
1.6060442E+002
 70
1
  0
VERTEX
  8
2
 42
-6.801712E-004
 10
4.0027338E+002
 20
1.6060182E+002
 70
0
  0
VERTEX
  8
2
 42
-6.666721E-004
 10
4.0028776E+002
 20
1.6059926E+002
 70
1
  0
VERTEX
  8
2
 42
-6.446727E-004
 10
4.0030167E+002
 20
1.6059676E+002
 70
0
  0
VERTEX
  8
2
 42
-6.327829E-004
 10
4.0031506E+002
 20
1.6059431E+002
 70
1
  0
VERTEX
  8
2
 42
-6.118028E-004
 10
4.0032793E+002
 20
1.6059192E+002
 70
0
  0
VERTEX
  8
2
 42
-6.01498E-004
 10
4.0034024E+002
 20
1.605896E+002
 70
1
  0
VERTEX
  8
2
 42
-5.814332E-004
 10
4.00352E+002
 20
1.6058736E+002
 70
0
  0
VERTEX
  8
2
 42
-5.725722E-004
 10
4.0036318E+002
 20
1.6058521E+002
 70
1
  0
VERTEX
  8
2
 42
-5.528761E-004
 10
4.0037377E+002
 20
1.6058314E+002
 70
0
  0
VERTEX
  8
2
 42
-5.459656E-004
 10
4.0038373E+002
 20
1.6058117E+002
 70
1
  0
VERTEX
  8
2
 42
-5.276381E-004
 10
4.0039307E+002
 20
1.6057931E+002
 70
0
  0
VERTEX
  8
2
 42
-5.211277E-004
 10
4.0040176E+002
 20
1.6057755E+002
 70
1
  0
VERTEX
  8
2
 42
-4.994713E-004
 10
4.0040979E+002
 20
1.6057592E+002
 70
0
  0
VERTEX
  8
2
 42
-4.997684E-004
 10
4.0041712E+002
 20
1.605744E+002
 70
1
  0
VERTEX
  8
2
 42
-4.897518E-004
 10
4.0042378E+002
 20
1.6057302E+002
 70
0
  0
VERTEX
  8
2
 42
-4.758904E-004
 10
4.0042972E+002
 20
1.6057177E+002
 70
1
  0
VERTEX
  8
2
 42
-4.265343E-004
 10
4.0043489E+002
 20
1.6057067E+002
 70
0
  0
VERTEX
  8
2
 42
-4.7532E-004
 10
4.0043922E+002
 20
1.6056974E+002
 70
1
  0
VERTEX
  8
2
 42
-5.153551E-004
 10
4.0044301E+002
 20
1.6056893E+002
 70
0
  0
VERTEX
  8
2
 42
-5.588653E-004
 10
4.0044649E+002
 20
1.6056816E+002
 70
1
  0
VERTEX
  8
2
 42
-7.563161E-004
 10
4.0044966E+002
 20
1.6056746E+002
 70
0
  0
SEQEND
  0
ARC
  8
2
  6
CONTINUOUS
 62
40
 10
3.9939965E+002
 20
1.5567896E+002
 40
5.0
 50
1.2122352E+001
 51
7.7877648E+001
  0
ARC
  8
2
  6
CONTINUOUS
 62
40
 10
3.9939965E+002
 20
1.5567896E+002
 40
5.0
 50
6.3153156
 51
1.2122352E+001
  0
ARC
  8
2
  6
CONTINUOUS
 62
40
 10
3.9939965E+002
 20
1.5567896E+002
 40
5.0
 50
3.5368468E+002
 51
3.6631532E+002
  0
POLYLINE
  8
2
  6
CONTINUOUS
 62
40
 66
1
 40
0.0
 41
0.0
 70
2
  0
VERTEX
  8
2
 42
0.0
 10
4.0436932E+002
 20
1.5512896E+002
 70
0
  0
VERTEX
  8
2
 42
-1.0541366E-003
 10
4.0436702E+002
 20
1.5510864E+002
 70
1
  0
VERTEX
  8
2
 42
-1.0996923E-003
 10
4.0436465E+002
 20
1.5508851E+002
 70
0
  0
VERTEX
  8
2
 42
-1.09527E-003
 10
4.0436222E+002
 20
1.5506858E+002
 70
1
  0
VERTEX
  8
2
 42
-1.0345176E-003
 10
4.0435973E+002
 20
1.5504886E+002
 70
0
  0
VERTEX
  8
2
 42
-9.979454E-004
 10
4.0435718E+002
 20
1.5502937E+002
 70
1
  0
VERTEX
  8
2
 42
-9.67801E-004
 10
4.043546E+002
 20
1.5501014E+002
 70
0
  0
VERTEX
  8
2
 42
-9.432004E-004
 10
4.0435197E+002
 20
1.5499118E+002
 70
1
  0
VERTEX
  8
2
 42
-9.089832E-004
 10
4.0434931E+002
 20
1.549725E+002
 70
0
  0
VERTEX
  8
2
 42
-8.848386E-004
 10
4.0434663E+002
 20
1.5495413E+002
 70
1
  0
VERTEX
  8
2
 42
-8.548068E-004
 10
4.0434393E+002
 20
1.5493607E+002
 70
0
  0
VERTEX
  8
2
 42
-8.336677E-004
 10
4.0434122E+002
 20
1.5491836E+002
 70
1
  0
VERTEX
  8
2
 42
-8.053559E-004
 10
4.0433851E+002
 20
1.5490099E+002
 70
0
  0
VERTEX
  8
2
 42
-7.862684E-004
 10
4.043358E+002
 20
1.5488401E+002
 70
1
  0
VERTEX
  8
2
 42
-7.599608E-004
 10
4.0433309E+002
 20
1.548674E+002
 70
0
  0
VERTEX
  8
2
 42
-7.429121E-004
 10
4.0433041E+002
 20
1.5485122E+002
 70
1
  0
VERTEX
  8
2
 42
-7.182303E-004
 10
4.0432774E+002
 20
1.5483544E+002
 70
0
  0
VERTEX
  8
2
 42
-7.030101E-004
 10
4.0432511E+002
 20
1.5482012E+002
 70
1
  0
VERTEX
  8
2
 42
-6.797699E-004
 10
4.0432251E+002
 20
1.5480524E+002
 70
0
  0
VERTEX
  8
2
 42
-6.662636E-004
 10
4.0431996E+002
 20
1.5479086E+002
 70
1
  0
VERTEX
  8
2
 42
-6.442578E-004
 10
4.0431745E+002
 20
1.5477695E+002
 70
0
  0
VERTEX
  8
2
 42
-6.323562E-004
 10
4.04315E+002
 20
1.5476356E+002
 70
1
  0
VERTEX
  8
2
 42
-6.113648E-004
 10
4.0431261E+002
 20
1.5475069E+002
 70
0
  0
VERTEX
  8
2
 42
-6.010416E-004
 10
4.043103E+002
 20
1.5473838E+002
 70
1
  0
VERTEX
  8
2
 42
-5.809569E-004
 10
4.0430806E+002
 20
1.5472662E+002
 70
0
  0
VERTEX
  8
2
 42
-5.720683E-004
 10
4.043059E+002
 20
1.5471545E+002
 70
1
  0
VERTEX
  8
2
 42
-5.523434E-004
 10
4.0430384E+002
 20
1.5470486E+002
 70
0
  0
VERTEX
  8
2
 42
-5.453847E-004
 10
4.0430187E+002
 20
1.546949E+002
 70
1
  0
VERTEX
  8
2
 42
-5.26993E-004
 10
4.043E+002
 20
1.5468555E+002
 70
0
  0
VERTEX
  8
2
 42
-5.204239E-004
 10
4.0429825E+002
 20
1.5467687E+002
 70
1
  0
VERTEX
  8
2
 42
-4.987302E-004
 10
4.0429661E+002
 20
1.5466884E+002
 70
0
  0
VERTEX
  8
2
 42
-4.988322E-004
 10
4.042951E+002
 20
1.5466151E+002
 70
1
  0
VERTEX
  8
2
 42
-4.884007E-004
 10
4.0429371E+002
 20
1.5465485E+002
 70
0
  0
VERTEX
  8
2
 42
-4.745718E-004
 10
4.0429246E+002
 20
1.5464891E+002
 70
1
  0
VERTEX
  8
2
 42
-4.260246E-004
 10
4.0429137E+002
 20
1.5464374E+002
 70
0
  0
VERTEX
  8
2
 42
-4.72824E-004
 10
4.0429044E+002
 20
1.5463941E+002
 70
1
  0
VERTEX
  8
2
 42
-5.06213E-004
 10
4.0428962E+002
 20
1.5463562E+002
 70
0
  0
VERTEX
  8
2
 42
-5.465943E-004
 10
4.0428886E+002
 20
1.5463214E+002
 70
1
  0
VERTEX
  8
2
 42
-7.432797E-004
 10
4.0428816E+002
 20
1.5462897E+002
 70
0
  0
SEQEND
  0
ARC
  8
2
  6
CONTINUOUS
 62
40
 10
3.9939965E+002
 20
1.5567896E+002
 40
5.0
 50
3.3660641E+002
 51
3.4787765E+002
  0
ARC
  8
2
  6
CONTINUOUS
 62
40
 10
3.9939965E+002
 20
1.5567896E+002
 40
5.0
 50
2.8212235E+002
 51
3.3660641E+002
  0
POLYLINE
  8
2
  6
CONTINUOUS
 62
40
 66
1
 40
0.0
 41
0.0
 70
2
  0
VERTEX
  8
2
 42
0.0
 10
4.0044966E+002
 20
1.5079045E+002
 70
0
  0
VERTEX
  8
2
 42
-4.5843484E-003
 10
4.0044922E+002
 20
1.5079035E+002
 70
1
  0
VERTEX
  8
2
 42
-2.895748E-004
 10
4.0044798E+002
 20
1.5079008E+002
 70
0
  0
VERTEX
  8
2
 42
-2.410996E-004
 10
4.0044589E+002
 20
1.5078962E+002
 70
1
  0
VERTEX
  8
2
 42
-4.340186E-004
 10
4.0044301E+002
 20
1.50789E+002
 70
0
  0
VERTEX
  8
2
 42
-4.492126E-004
 10
4.0043933E+002
 20
1.507882E+002
 70
1
  0
VERTEX
  8
2
 42
-4.53855E-004
 10
4.0043489E+002
 20
1.5078725E+002
 70
0
  0
VERTEX
  8
2
 42
-4.487007E-004
 10
4.0042969E+002
 20
1.5078615E+002
 70
1
  0
VERTEX
  8
2
 42
-4.739777E-004
 10
4.0042378E+002
 20
1.5078491E+002
 70
0
  0
VERTEX
  8
2
 42
-4.76669E-004
 10
4.0041712E+002
 20
1.5078352E+002
 70
1
  0
VERTEX
  8
2
 42
-4.958801E-004
 10
4.0040979E+002
 20
1.5078201E+002
 70
0
  0
VERTEX
  8
2
 42
-4.99684E-004
 10
4.0040176E+002
 20
1.5078037E+002
 70
1
  0
VERTEX
  8
2
 42
-5.192109E-004
 10
4.0039307E+002
 20
1.5077862E+002
 70
0
  0
VERTEX
  8
2
 42
-5.2504E-004
 10
4.0038373E+002
 20
1.5077675E+002
 70
1
  0
VERTEX
  8
2
 42
-5.443277E-004
 10
4.0037377E+002
 20
1.5077478E+002
 70
0
  0
VERTEX
  8
2
 42
-5.517188E-004
 10
4.0036318E+002
 20
1.5077272E+002
 70
1
  0
VERTEX
  8
2
 42
-5.713864E-004
 10
4.00352E+002
 20
1.5077056E+002
 70
0
  0
VERTEX
  8
2
 42
-5.802812E-004
 10
4.0034024E+002
 20
1.5076832E+002
 70
1
  0
VERTEX
  8
2
 42
-6.004553E-004
 10
4.0032793E+002
 20
1.5076601E+002
 70
0
  0
VERTEX
  8
2
 42
-6.109476E-004
 10
4.0031506E+002
 20
1.5076362E+002
 70
1
  0
VERTEX
  8
2
 42
-6.321688E-004
 10
4.0030167E+002
 20
1.5076117E+002
 70
0
  0
VERTEX
  8
2
 42
-6.438641E-004
 10
4.0028776E+002
 20
1.5075866E+002
 70
1
  0
VERTEX
  8
2
 42
-6.65312E-004
 10
4.0027338E+002
 20
1.5075611E+002
 70
0
  0
VERTEX
  8
2
 42
-6.79725E-004
 10
4.002585E+002
 20
1.5075351E+002
 70
1
  0
VERTEX
  8
2
 42
-7.050633E-004
 10
4.0024318E+002
 20
1.5075088E+002
 70
0
  0
VERTEX
  8
2
 42
-7.17395E-004
 10
4.002274E+002
 20
1.5074821E+002
 70
1
  0
VERTEX
  8
2
 42
-7.352241E-004
 10
4.0021121E+002
 20
1.5074553E+002
 70
0
  0
VERTEX
  8
2
 42
-7.62118E-004
 10
4.0019462E+002
 20
1.5074282E+002
 70
1
  0
VERTEX
  8
2
 42
-8.1102E-004
 10
4.0017763E+002
 20
1.5074011E+002
 70
0
  0
VERTEX
  8
2
 42
-7.976423E-004
 10
4.0016022E+002
 20
1.5073739E+002
 70
1
  0
VERTEX
  8
2
 42
-7.533446E-004
 10
4.0014255E+002
 20
1.5073469E+002
 70
0
  0
VERTEX
  8
2
 42
-8.809662E-004
 10
4.0012465E+002
 20
1.50732E+002
 70
1
  0
VERTEX
  8
2
 42
-1.1271179E-003
 10
4.0010612E+002
 20
1.507293E+002
 70
0
  0
VERTEX
  8
2
 42
-8.28356E-004
 10
4.000868E+002
 20
1.5072657E+002
 70
1
  0
VERTEX
  8
2
 42
-1.851098E-004
 10
4.0006848E+002
 20
1.5072402E+002
 70
0
  0
VERTEX
  8
2
 42
-1.3086174E-003
 10
4.0005176E+002
 20
1.5072172E+002
 70
1
  0
VERTEX
  8
2
 42
-2.390938E-003
 10
4.0002976E+002
 20
1.5071889E+002
 70
0
  0
VERTEX
  8
2
 42
-1.1423224E-003
 10
3.9999525E+002
 20
1.507147E+002
 70
1
  0
VERTEX
  8
2
 42
-5.821624E-004
 10
3.9994966E+002
 20
1.507093E+002
 70
0
  0
SEQEND
  0
ARC
  8
2
  6
CONTINUOUS
 62
40
 10
3.9939965E+002
 20
1.5567896E+002
 40
5.0
 50
2.6368468E+002
 51
2.7631532E+002
  0
ARC
  8
2
  6
CONTINUOUS
 62
40
 10
3.9939965E+002
 20
1.5567896E+002
 40
4.480385
 50
2.8352814E+002
 51
3.4647178E+002
  0
ARC
  8
2
  6
CONTINUOUS
 62
40
 10
3.9939965E+002
 20
1.5567896E+002
 40
4.480385
 50
2.0677527E+002
 51
2.5647183E+002
  0
ARC
  8
2
  6
CONTINUOUS
 62
40
 10
3.9939965E+002
 20
1.5567896E+002
 40
4.4803851
 50
1.0352817E+002
 51
1.5322472E+002
  0
ARC
  8
2
  6
CONTINUOUS
 62
40
 10
3.9939965E+002
 20
1.5567896E+002
 40
4.4803851
 50
1.3528227E+001
 51
7.6471861E+001
  0
LINE
  8
2
  6
CONTINUOUS
 62
3
 10
3.9994965E+002
 20
1.6064862E+002
 11
3.9994965E+002
 21
1.6007896E+002
  0
LINE
  8
2
  6
CONTINUOUS
 62
3
 10
3.9994965E+002
 20
1.6007896E+002
 11
3.9884965E+002
 21
1.6007896E+002
  0
LINE
  8
2
  6
CONTINUOUS
 62
3
 10
3.9884965E+002
 20
1.6007896E+002
 11
3.9884965E+002
 21
1.6064862E+002
  0
LINE
  8
2
  6
CONTINUOUS
 62
3
 10
4.0436931E+002
 20
1.5512896E+002
 11
4.0379965E+002
 21
1.5512896E+002
  0
LINE
  8
2
  6
CONTINUOUS
 62
3
 10
4.0379965E+002
 20
1.5512896E+002
 11
4.0379965E+002
 21
1.5622896E+002
  0
LINE
  8
2
  6
CONTINUOUS
 62
3
 10
4.0379965E+002
 20
1.5622896E+002
 11
4.0436931E+002
 21
1.5622896E+002
  0
LINE
  8
2
  6
CONTINUOUS
 62
3
 10
3.9884965E+002
 20
1.5070931E+002
 11
3.9884965E+002
 21
1.5127896E+002
  0
LINE
  8
2
  6
CONTINUOUS
 62
3
 10
3.9884965E+002
 20
1.5127896E+002
 11
3.9994965E+002
 21
1.5127896E+002
  0
LINE
  8
2
  6
CONTINUOUS
 62
3
 10
3.9994965E+002
 20
1.5127896E+002
 11
3.9994965E+002
 21
1.5070931E+002
  0
LINE
  8
2
  6
CONTINUOUS
 62
3
 10
3.9994965E+002
 20
1.6007896E+002
 11
4.0044965E+002
 21
1.6007896E+002
  0
LINE
  8
2
  6
CONTINUOUS
 62
3
 10
3.9994965E+002
 20
1.6007896E+002
 11
3.9994965E+002
 21
1.5957896E+002
  0
LINE
  8
2
  6
CONTINUOUS
 62
3
 10
3.9884965E+002
 20
1.6007896E+002
 11
3.9884965E+002
 21
1.5957896E+002
  0
LINE
  8
2
  6
CONTINUOUS
 62
3
 10
3.9884965E+002
 20
1.6007896E+002
 11
3.9834965E+002
 21
1.6007896E+002
  0
LINE
  8
2
  6
CONTINUOUS
 62
3
 10
4.0379965E+002
 20
1.5512896E+002
 11
4.0379965E+002
 21
1.5462896E+002
  0
LINE
  8
2
  6
CONTINUOUS
 62
3
 10
4.0379965E+002
 20
1.5512896E+002
 11
4.0329965E+002
 21
1.5512896E+002
  0
LINE
  8
2
  6
CONTINUOUS
 62
3
 10
4.0379965E+002
 20
1.5622896E+002
 11
4.0329965E+002
 21
1.5622896E+002
  0
LINE
  8
2
  6
CONTINUOUS
 62
3
 10
4.0379965E+002
 20
1.5622896E+002
 11
4.0379965E+002
 21
1.5672896E+002
  0
LINE
  8
2
  6
CONTINUOUS
 62
3
 10
3.9884965E+002
 20
1.5127896E+002
 11
3.9834965E+002
 21
1.5127896E+002
  0
LINE
  8
2
  6
CONTINUOUS
 62
3
 10
3.9884965E+002
 20
1.5127896E+002
 11
3.9884965E+002
 21
1.5177896E+002
  0
LINE
  8
2
  6
CONTINUOUS
 62
3
 10
3.9994965E+002
 20
1.5127896E+002
 11
3.9994965E+002
 21
1.5177896E+002
  0
LINE
  8
2
  6
CONTINUOUS
 62
3
 10
3.9994965E+002
 20
1.5127896E+002
 11
4.0044965E+002
 21
1.5127896E+002
  0
LINE
  8
3
  6
CONTINUOUS
 62
40
 10
4.2129966E+002
 20
2.7149286E+002
 11
4.1249966E+002
 21
2.7149286E+002
  0
LINE
  8
3
  6
CONTINUOUS
 62
40
 10
4.1079966E+002
 20
2.9359286E+002
 11
4.1079966E+002
 21
3.0709286E+002
  0
LINE
  8
3
  6
CONTINUOUS
 62
40
 10
4.2364966E+002
 20
3.1149286E+002
 11
4.2364966E+002
 21
2.7649286E+002
  0
LINE
  8
3
  6
CONTINUOUS
 62
40
 10
4.087444E+002
 20
3.0309286E+002
 11
4.0844966E+002
 21
3.0199286E+002
  0
LINE
  8
3
  6
CONTINUOUS
 62
40
 10
4.0844966E+002
 20
3.0199286E+002
 11
4.0784966E+002
 21
3.0199286E+002
  0
LINE
  8
3
  6
CONTINUOUS
 62
40
 10
4.0784966E+002
 20
3.0199286E+002
 11
4.0755491E+002
 21
3.0309286E+002
  0
LINE
  8
3
  6
CONTINUOUS
 62
40
 10
4.0714966E+002
 20
2.7649286E+002
 11
3.9164966E+002
 21
2.7649286E+002
  0
LINE
  8
3
  6
CONTINUOUS
 62
40
 10
4.0714966E+002
 20
3.0309286E+002
 11
4.0714966E+002
 21
2.7649286E+002
  0
LINE
  8
3
  6
CONTINUOUS
 62
40
 10
4.0379966E+002
 20
2.7149286E+002
 11
3.9499966E+002
 21
2.7149286E+002
  0
LINE
  8
3
  6
CONTINUOUS
 62
40
 10
4.0549966E+002
 20
3.0709286E+002
 11
4.0549966E+002
 21
2.9359286E+002
  0
LINE
  8
3
  6
CONTINUOUS
 62
40
 10
4.0549966E+002
 20
2.9359286E+002
 11
4.0547466E+002
 21
2.9359286E+002
  0
LINE
  8
3
  6
CONTINUOUS
 62
40
 10
4.0379966E+002
 20
2.9359286E+002
 11
3.9499966E+002
 21
2.9359286E+002
  0
LINE
  8
3
  6
CONTINUOUS
 62
40
 10
3.9332466E+002
 20
2.9359286E+002
 11
3.9329966E+002
 21
2.9359286E+002
  0
LINE
  8
3
  6
CONTINUOUS
 62
40
 10
3.9329966E+002
 20
2.9359286E+002
 11
3.9329966E+002
 21
3.0709286E+002
  0
LINE
  8
3
  6
CONTINUOUS
 62
40
 10
3.9164966E+002
 20
2.7649286E+002
 11
3.9164966E+002
 21
3.0309286E+002
  0
LINE
  8
3
  6
CONTINUOUS
 62
40
 10
3.912444E+002
 20
3.0309286E+002
 11
3.9094966E+002
 21
3.0199286E+002
  0
LINE
  8
3
  6
CONTINUOUS
 62
40
 10
3.9094966E+002
 20
3.0199286E+002
 11
3.9034966E+002
 21
3.0199286E+002
  0
LINE
  8
3
  6
CONTINUOUS
 62
40
 10
3.9034966E+002
 20
3.0199286E+002
 11
3.9005491E+002
 21
3.0309286E+002
  0
LINE
  8
3
  6
CONTINUOUS
 62
40
 10
3.8964966E+002
 20
2.7649286E+002
 11
3.7514966E+002
 21
2.7649286E+002
  0
LINE
  8
3
  6
CONTINUOUS
 62
40
 10
3.8964966E+002
 20
3.0309286E+002
 11
3.8964966E+002
 21
2.7649286E+002
  0
LINE
  8
3
  6
CONTINUOUS
 62
40
 10
3.8629966E+002
 20
2.7149286E+002
 11
3.7749966E+002
 21
2.7149286E+002
  0
LINE
  8
3
  6
CONTINUOUS
 62
40
 10
3.7579966E+002
 20
2.9359286E+002
 11
3.7579966E+002
 21
3.0709286E+002
  0
LINE
  8
3
  6
CONTINUOUS
 62
40
 10
3.8799966E+002
 20
2.9359286E+002
 11
3.8797466E+002
 21
2.9359286E+002
  0
LINE
  8
3
  6
CONTINUOUS
 62
40
 10
3.8629966E+002
 20
2.9359286E+002
 11
3.7749966E+002
 21
2.9359286E+002
  0
LINE
  8
3
  6
CONTINUOUS
 62
40
 10
3.7582466E+002
 20
2.9359286E+002
 11
3.7579966E+002
 21
2.9359286E+002
  0
LINE
  8
3
  6
CONTINUOUS
 62
40
 10
3.8799966E+002
 20
3.0709286E+002
 11
3.8799966E+002
 21
2.9359286E+002
  0
LINE
  8
3
  6
CONTINUOUS
 62
40
 10
3.7334966E+002
 20
2.7349286E+002
 11
3.7334966E+002
 21
2.7359286E+002
  0
ARC
  8
3
  6
CONTINUOUS
 62
40
 10
3.7364966E+002
 20
2.7399286E+002
 40
5.0E-001
 50
1.8E+002
 51
2.7E+002
  0
ARC
  8
3
  6
CONTINUOUS
 62
40
 10
4.2514966E+002
 20
2.7399286E+002
 40
5.0E-001
 50
2.7E+002
 51
3.6E+002
  0
LINE
  8
3
  6
CONTINUOUS
 62
40
 10
4.2544966E+002
 20
2.7349286E+002
 11
4.2544966E+002
 21
2.7360412E+002
  0
LINE
  8
3
  6
CONTINUOUS
 62
40
 10
4.2564966E+002
 20
3.1149286E+002
 11
4.2564966E+002
 21
2.7399286E+002
  0
LINE
  8
3
  6
CONTINUOUS
 62
40
 10
4.2564966E+002
 20
2.7399286E+002
 11
4.2564966E+002
 21
2.7349286E+002
  0
LINE
  8
3
  6
CONTINUOUS
 62
40
 10
3.7314966E+002
 20
2.7349286E+002
 11
3.7314966E+002
 21
2.7399286E+002
  0
LINE
  8
3
  6
CONTINUOUS
 62
40
 10
3.7314966E+002
 20
2.7399286E+002
 11
3.7314966E+002
 21
3.1149286E+002
  0
LINE
  8
3
  6
CONTINUOUS
 62
40
 10
3.7514966E+002
 20
2.7649286E+002
 11
3.7514966E+002
 21
3.1149286E+002
  0
LINE
  8
3
  6
CONTINUOUS
 62
40
 10
3.7314966E+002
 20
3.1149286E+002
 11
3.7364966E+002
 21
3.1149286E+002
  0
LINE
  8
3
  6
CONTINUOUS
 62
40
 10
3.7364966E+002
 20
3.1149286E+002
 11
3.7514966E+002
 21
3.1149286E+002
  0
LINE
  8
3
  6
CONTINUOUS
 62
40
 10
4.2364966E+002
 20
3.1149286E+002
 11
4.2514966E+002
 21
3.1149286E+002
  0
LINE
  8
3
  6
CONTINUOUS
 62
40
 10
4.2514966E+002
 20
3.1149286E+002
 11
4.2564966E+002
 21
3.1149286E+002
  0
LINE
  8
3
  6
CONTINUOUS
 62
40
 10
4.0914966E+002
 20
2.7649286E+002
 11
4.0914966E+002
 21
3.0309286E+002
  0
LINE
  8
3
  6
CONTINUOUS
 62
40
 10
4.2364966E+002
 20
2.7649286E+002
 11
4.0914966E+002
 21
2.7649286E+002
  0
LINE
  8
3
  6
CONTINUOUS
 62
40
 10
4.2299966E+002
 20
2.9359286E+002
 11
4.2297466E+002
 21
2.9359286E+002
  0
LINE
  8
3
  6
CONTINUOUS
 62
40
 10
4.2129966E+002
 20
2.9359286E+002
 11
4.1249966E+002
 21
2.9359286E+002
  0
LINE
  8
3
  6
CONTINUOUS
 62
40
 10
4.1082466E+002
 20
2.9359286E+002
 11
4.1079966E+002
 21
2.9359286E+002
  0
LINE
  8
3
  6
CONTINUOUS
 62
40
 10
4.2299966E+002
 20
3.0709286E+002
 11
4.2299966E+002
 21
2.9359286E+002
  0
LINE
  8
3
  6
CONTINUOUS
 62
40
 10
4.2514966E+002
 20
2.7349286E+002
 11
3.7364966E+002
 21
2.7349286E+002
  0
LINE
  8
3
  6
CONTINUOUS
 62
40
 10
3.7364966E+002
 20
2.7349286E+002
 11
3.7334966E+002
 21
2.7349286E+002
  0
LINE
  8
3
  6
CONTINUOUS
 62
40
 10
3.7334966E+002
 20
2.7349286E+002
 11
3.7314966E+002
 21
2.7349286E+002
  0
LINE
  8
3
  6
CONTINUOUS
 62
40
 10
4.2564966E+002
 20
2.7349286E+002
 11
4.2544966E+002
 21
2.7349286E+002
  0
LINE
  8
3
  6
CONTINUOUS
 62
40
 10
4.2544966E+002
 20
2.7349286E+002
 11
4.2514966E+002
 21
2.7349286E+002
  0
ARC
  8
3
  6
CONTINUOUS
 62
40
 10
4.1189966E+002
 20
2.7319286E+002
 40
3.0E-001
 50
0.0
 51
9.0E+001
  0
LINE
  8
3
  6
CONTINUOUS
 62
3
 10
4.2159966E+002
 20
2.7319286E+002
 11
4.1219966E+002
 21
2.7319286E+002
  0
POLYLINE
  8
3
  6
CONTINUOUS
 62
40
 66
1
 40
0.0
 41
0.0
 70
2
  0
VERTEX
  8
3
 42
0.0
 10
4.2159965E+002
 20
2.7319287E+002
 70
0
  0
VERTEX
  8
3
 42
-1.2803604E-002
 10
4.2159998E+002
 20
2.7320716E+002
 70
1
  0
VERTEX
  8
3
 42
-1.2156506E-002
 10
4.2160103E+002
 20
2.7322165E+002
 70
0
  0
VERTEX
  8
3
 42
-1.1974494E-002
 10
4.2160283E+002
 20
2.7323634E+002
 70
1
  0
VERTEX
  8
3
 42
-1.2481107E-002
 10
4.2160537E+002
 20
2.7325117E+002
 70
0
  0
VERTEX
  8
3
 42
-1.2720064E-002
 10
4.2160873E+002
 20
2.7326609E+002
 70
1
  0
VERTEX
  8
3
 42
-1.2875676E-002
 10
4.2161289E+002
 20
2.7328101E+002
 70
0
  0
VERTEX
  8
3
 42
-1.2977166E-002
 10
4.2161791E+002
 20
2.7329589E+002
 70
1
  0
VERTEX
  8
3
 42
-1.3184334E-002
 10
4.2162375E+002
 20
2.7331066E+002
 70
0
  0
VERTEX
  8
3
 42
-1.3294046E-002
 10
4.2163045E+002
 20
2.7332524E+002
 70
1
  0
VERTEX
  8
3
 42
-1.3438551E-002
 10
4.2163798E+002
 20
2.7333958E+002
 70
0
  0
VERTEX
  8
3
 42
-1.3510725E-002
 10
4.2164635E+002
 20
2.7335358E+002
 70
1
  0
VERTEX
  8
3
 42
-1.3608575E-002
 10
4.2165551E+002
 20
2.733672E+002
 70
0
  0
VERTEX
  8
3
 42
-1.3662595E-002
 10
4.2166546E+002
 20
2.7338034E+002
 70
1
  0
VERTEX
  8
3
 42
-1.3732326E-002
 10
4.2167614E+002
 20
2.7339297E+002
 70
0
  0
VERTEX
  8
3
 42
-1.3722586E-002
 10
4.2168753E+002
 20
2.7340499E+002
 70
1
  0
VERTEX
  8
3
 42
-1.3658854E-002
 10
4.2169955E+002
 20
2.7341638E+002
 70
0
  0
VERTEX
  8
3
 42
-1.3732276E-002
 10
4.2171217E+002
 20
2.7342706E+002
 70
1
  0
VERTEX
  8
3
 42
-1.389715E-002
 10
4.2172532E+002
 20
2.7343701E+002
 70
0
  0
VERTEX
  8
3
 42
-1.3543379E-002
 10
4.2173897E+002
 20
2.7344617E+002
 70
1
  0
VERTEX
  8
3
 42
-1.2726042E-002
 10
4.2175294E+002
 20
2.7345454E+002
 70
0
  0
VERTEX
  8
3
 42
-1.3685905E-002
 10
4.2176716E+002
 20
2.7346206E+002
 70
1
  0
VERTEX
  8
3
 42
-1.5725079E-002
 10
4.2178186E+002
 20
2.7346877E+002
 70
0
  0
VERTEX
  8
3
 42
-1.2375645E-002
 10
4.2179709E+002
 20
2.7347463E+002
 70
1
  0
VERTEX
  8
3
 42
-5.391883E-003
 10
4.2181151E+002
 20
2.7347962E+002
 70
0
  0
VERTEX
  8
3
 42
-1.6184991E-002
 10
4.2182466E+002
 20
2.7348369E+002
 70
1
  0
VERTEX
  8
3
 42
-2.7065926E-002
 10
4.2184135E+002
 20
2.7348714E+002
 70
0
  0
VERTEX
  8
3
 42
-1.3867741E-002
 10
4.2186669E+002
 20
2.734902E+002
 70
1
  0
VERTEX
  8
3
 42
-7.6242962E-003
 10
4.2189966E+002
 20
2.7349286E+002
 70
0
  0
SEQEND
  0
LINE
  8
3
  6
CONTINUOUS
 62
3
 10
4.1219966E+002
 20
2.7179286E+002
 11
4.2159966E+002
 21
2.7179286E+002
  0
LINE
  8
3
  6
CONTINUOUS
 62
40
 10
4.2159966E+002
 20
2.7179286E+002
 11
4.2159966E+002
 21
2.7319287E+002
  0
LINE
  8
3
  6
CONTINUOUS
 62
40
 10
4.1219966E+002
 20
2.7179286E+002
 11
4.1219966E+002
 21
2.7319287E+002
  0
ARC
  8
3
  6
CONTINUOUS
 62
40
 10
4.1249966E+002
 20
2.7179286E+002
 40
3.0E-001
 50
1.8E+002
 51
2.7E+002
  0
POLYLINE
  8
3
  6
CONTINUOUS
 62
40
 66
1
 40
0.0
 41
0.0
 70
2
  0
VERTEX
  8
3
 42
0.0
 10
4.2129966E+002
 20
2.7149287E+002
 70
0
  0
VERTEX
  8
3
 42
1.2803037E-002
 10
4.2131395E+002
 20
2.714932E+002
 70
1
  0
VERTEX
  8
3
 42
1.2156053E-002
 10
4.2132844E+002
 20
2.7149425E+002
 70
0
  0
VERTEX
  8
3
 42
1.1974135E-002
 10
4.2134313E+002
 20
2.7149604E+002
 70
1
  0
VERTEX
  8
3
 42
1.2480828E-002
 10
4.2135796E+002
 20
2.7149859E+002
 70
0
  0
VERTEX
  8
3
 42
1.2719885E-002
 10
4.2137287E+002
 20
2.7150194E+002
 70
1
  0
VERTEX
  8
3
 42
1.2875601E-002
 10
4.213878E+002
 20
2.7150611E+002
 70
0
  0
VERTEX
  8
3
 42
1.2977203E-002
 10
4.2140268E+002
 20
2.7151112E+002
 70
1
  0
VERTEX
  8
3
 42
1.3184483E-002
 10
4.2141745E+002
 20
2.7151696E+002
 70
0
  0
VERTEX
  8
3
 42
1.3294314E-002
 10
4.2143203E+002
 20
2.7152366E+002
 70
1
  0
VERTEX
  8
3
 42
1.3438932E-002
 10
4.2144637E+002
 20
2.7153119E+002
 70
0
  0
VERTEX
  8
3
 42
1.3511222E-002
 10
4.2146037E+002
 20
2.7153956E+002
 70
1
  0
VERTEX
  8
3
 42
1.3609179E-002
 10
4.2147399E+002
 20
2.7154872E+002
 70
0
  0
VERTEX
  8
3
 42
1.3663303E-002
 10
4.2148713E+002
 20
2.7155867E+002
 70
1
  0
VERTEX
  8
3
 42
1.3733128E-002
 10
4.2149976E+002
 20
2.7156935E+002
 70
0
  0
VERTEX
  8
3
 42
1.3723473E-002
 10
4.2151178E+002
 20
2.7158074E+002
 70
1
  0
VERTEX
  8
3
 42
1.3659806E-002
 10
4.2152317E+002
 20
2.7159276E+002
 70
0
  0
VERTEX
  8
3
 42
1.3733294E-002
 10
4.2153385E+002
 20
2.7160538E+002
 70
1
  0
VERTEX
  8
3
 42
1.3898229E-002
 10
4.215438E+002
 20
2.7161853E+002
 70
0
  0
VERTEX
  8
3
 42
1.3544466E-002
 10
4.2155296E+002
 20
2.7163217E+002
 70
1
  0
VERTEX
  8
3
 42
1.2727082E-002
 10
4.2156133E+002
 20
2.7164615E+002
 70
0
  0
VERTEX
  8
3
 42
1.3687031E-002
 10
4.2156885E+002
 20
2.7166037E+002
 70
1
  0
VERTEX
  8
3
 42
1.5726367E-002
 10
4.2157556E+002
 20
2.7167507E+002
 70
0
  0
VERTEX
  8
3
 42
1.2376639E-002
 10
4.2158142E+002
 20
2.7169029E+002
 70
1
  0
VERTEX
  8
3
 42
5.3923083E-003
 10
4.2158641E+002
 20
2.7170472E+002
 70
0
  0
VERTEX
  8
3
 42
1.6186241E-002
 10
4.2159048E+002
 20
2.7171786E+002
 70
1
  0
VERTEX
  8
3
 42
2.7067833E-002
 10
4.2159393E+002
 20
2.7173455E+002
 70
0
  0
VERTEX
  8
3
 42
1.3868605E-002
 10
4.2159699E+002
 20
2.7175989E+002
 70
1
  0
VERTEX
  8
3
 42
7.624736E-003
 10
4.2159965E+002
 20
2.7179286E+002
 70
0
  0
SEQEND
  0
LINE
  8
3
  6
CONTINUOUS
 62
3
 10
4.2514966E+002
 20
2.7399286E+002
 11
4.2514966E+002
 21
3.1149286E+002
  0
LINE
  8
3
  6
CONTINUOUS
 62
3
 10
4.2564966E+002
 20
2.7399286E+002
 11
4.2514966E+002
 21
2.7399286E+002
  0
LINE
  8
3
  6
CONTINUOUS
 62
3
 10
3.7364966E+002
 20
2.7399286E+002
 11
3.7314966E+002
 21
2.7399286E+002
  0
LINE
  8
3
  6
CONTINUOUS
 62
3
 10
3.7364966E+002
 20
3.1149286E+002
 11
3.7364966E+002
 21
2.7399286E+002
  0
ARC
  8
3
  6
CONTINUOUS
 62
40
 10
3.9439966E+002
 20
2.7319286E+002
 40
3.0E-001
 50
0.0
 51
9.0E+001
  0
LINE
  8
3
  6
CONTINUOUS
 62
3
 10
4.0409966E+002
 20
2.7319286E+002
 11
3.9469966E+002
 21
2.7319286E+002
  0
POLYLINE
  8
3
  6
CONTINUOUS
 62
40
 66
1
 40
0.0
 41
0.0
 70
2
  0
VERTEX
  8
3
 42
0.0
 10
4.0409966E+002
 20
2.7319287E+002
 70
0
  0
VERTEX
  8
3
 42
-1.2803334E-002
 10
4.0409999E+002
 20
2.7320716E+002
 70
1
  0
VERTEX
  8
3
 42
-1.2156294E-002
 10
4.0410104E+002
 20
2.7322165E+002
 70
0
  0
VERTEX
  8
3
 42
-1.1974331E-002
 10
4.0410284E+002
 20
2.7323634E+002
 70
1
  0
VERTEX
  8
3
 42
-1.2480986E-002
 10
4.0410538E+002
 20
2.7325117E+002
 70
0
  0
VERTEX
  8
3
 42
-1.2719995E-002
 10
4.0410874E+002
 20
2.7326609E+002
 70
1
  0
VERTEX
  8
3
 42
-1.2875661E-002
 10
4.041129E+002
 20
2.7328101E+002
 70
0
  0
VERTEX
  8
3
 42
-1.2977208E-002
 10
4.0411791E+002
 20
2.7329589E+002
 70
1
  0
VERTEX
  8
3
 42
-1.3184433E-002
 10
4.0412375E+002
 20
2.7331066E+002
 70
0
  0
VERTEX
  8
3
 42
-1.3294206E-002
 10
4.0413045E+002
 20
2.7332524E+002
 70
1
  0
VERTEX
  8
3
 42
-1.3438768E-002
 10
4.0413798E+002
 20
2.7333958E+002
 70
0
  0
VERTEX
  8
3
 42
-1.3511001E-002
 10
4.0414635E+002
 20
2.7335358E+002
 70
1
  0
VERTEX
  8
3
 42
-1.3608904E-002
 10
4.0415551E+002
 20
2.733672E+002
 70
0
  0
VERTEX
  8
3
 42
-1.3662976E-002
 10
4.0416546E+002
 20
2.7338034E+002
 70
1
  0
VERTEX
  8
3
 42
-1.3732753E-002
 10
4.0417614E+002
 20
2.7339297E+002
 70
0
  0
VERTEX
  8
3
 42
-1.3723054E-002
 10
4.0418753E+002
 20
2.7340499E+002
 70
1
  0
VERTEX
  8
3
 42
-1.3659353E-002
 10
4.0419955E+002
 20
2.7341638E+002
 70
0
  0
VERTEX
  8
3
 42
-1.3732807E-002
 10
4.0421217E+002
 20
2.7342706E+002
 70
1
  0
VERTEX
  8
3
 42
-1.389771E-002
 10
4.0422532E+002
 20
2.7343701E+002
 70
0
  0
VERTEX
  8
3
 42
-1.354394E-002
 10
4.0423897E+002
 20
2.7344617E+002
 70
1
  0
VERTEX
  8
3
 42
-1.2726576E-002
 10
4.0425294E+002
 20
2.7345454E+002
 70
0
  0
VERTEX
  8
3
 42
-1.3686481E-002
 10
4.0426716E+002
 20
2.7346206E+002
 70
1
  0
VERTEX
  8
3
 42
-1.5725734E-002
 10
4.0428186E+002
 20
2.7346877E+002
 70
0
  0
VERTEX
  8
3
 42
-1.2376147E-002
 10
4.0429708E+002
 20
2.7347463E+002
 70
1
  0
VERTEX
  8
3
 42
-5.3920976E-003
 10
4.0431151E+002
 20
2.7347962E+002
 70
0
  0
VERTEX
  8
3
 42
-1.6185619E-002
 10
4.0432465E+002
 20
2.7348369E+002
 70
1
  0
VERTEX
  8
3
 42
-2.7066875E-002
 10
4.0434135E+002
 20
2.7348714E+002
 70
0
  0
VERTEX
  8
3
 42
-1.3868166E-002
 10
4.0436668E+002
 20
2.734902E+002
 70
1
  0
VERTEX
  8
3
 42
-7.6245112E-003
 10
4.0439965E+002
 20
2.7349286E+002
 70
0
  0
SEQEND
  0
LINE
  8
3
  6
CONTINUOUS
 62
3
 10
3.9469966E+002
 20
2.7179286E+002
 11
4.0409966E+002
 21
2.7179286E+002
  0
LINE
  8
3
  6
CONTINUOUS
 62
40
 10
4.0409966E+002
 20
2.7179286E+002
 11
4.0409966E+002
 21
2.7319287E+002
  0
LINE
  8
3
  6
CONTINUOUS
 62
40
 10
3.9469966E+002
 20
2.7179286E+002
 11
3.9469966E+002
 21
2.7319287E+002
  0
ARC
  8
3
  6
CONTINUOUS
 62
40
 10
3.9499966E+002
 20
2.7179286E+002
 40
3.0E-001
 50
1.8E+002
 51
2.7E+002
  0
POLYLINE
  8
3
  6
CONTINUOUS
 62
40
 66
1
 40
0.0
 41
0.0
 70
2
  0
VERTEX
  8
3
 42
0.0
 10
4.0379965E+002
 20
2.7149287E+002
 70
0
  0
VERTEX
  8
3
 42
1.2802725E-002
 10
4.0381395E+002
 20
2.714932E+002
 70
1
  0
VERTEX
  8
3
 42
1.2155717E-002
 10
4.0382843E+002
 20
2.7149425E+002
 70
0
  0
VERTEX
  8
3
 42
1.1973769E-002
 10
4.0384312E+002
 20
2.7149604E+002
 70
1
  0
VERTEX
  8
3
 42
1.2480412E-002
 10
4.0385796E+002
 20
2.7149859E+002
 70
0
  0
VERTEX
  8
3
 42
1.271943E-002
 10
4.0387287E+002
 20
2.7150194E+002
 70
1
  0
VERTEX
  8
3
 42
1.2875114E-002
 10
4.038878E+002
 20
2.7150611E+002
 70
0
  0
VERTEX
  8
3
 42
1.297669E-002
 10
4.0390268E+002
 20
2.7151112E+002
 70
1
  0
VERTEX
  8
3
 42
1.3183945E-002
 10
4.0391745E+002
 20
2.7151696E+002
 70
0
  0
VERTEX
  8
3
 42
1.3293759E-002
 10
4.0393203E+002
 20
2.7152366E+002
 70
1
  0
VERTEX
  8
3
 42
1.3438367E-002
 10
4.0394637E+002
 20
2.7153119E+002
 70
0
  0
VERTEX
  8
3
 42
1.3510655E-002
 10
4.0396037E+002
 20
2.7153956E+002
 70
1
  0
VERTEX
  8
3
 42
1.3608616E-002
 10
4.0397399E+002
 20
2.7154872E+002
 70
0
  0
VERTEX
  8
3
 42
1.3662754E-002
 10
4.0398713E+002
 20
2.7155867E+002
 70
1
  0
VERTEX
  8
3
 42
1.3732597E-002
 10
4.0399976E+002
 20
2.7156935E+002
 70
0
  0
VERTEX
  8
3
 42
1.3722971E-002
 10
4.0401178E+002
 20
2.7158074E+002
 70
1
  0
VERTEX
  8
3
 42
1.365934E-002
 10
4.0402317E+002
 20
2.7159276E+002
 70
0
  0
VERTEX
  8
3
 42
1.3732867E-002
 10
4.0403385E+002
 20
2.7160538E+002
 70
1
  0
VERTEX
  8
3
 42
1.3897842E-002
 10
4.040438E+002
 20
2.7161853E+002
 70
0
  0
VERTEX
  8
3
 42
1.3544139E-002
 10
4.0405297E+002
 20
2.7163217E+002
 70
1
  0
VERTEX
  8
3
 42
1.2726822E-002
 10
4.0406134E+002
 20
2.7164615E+002
 70
0
  0
VERTEX
  8
3
 42
1.3686807E-002
 10
4.0406886E+002
 20
2.7166037E+002
 70
1
  0
VERTEX
  8
3
 42
1.5726181E-002
 10
4.0407556E+002
 20
2.7167507E+002
 70
0
  0
VERTEX
  8
3
 42
1.2376554E-002
 10
4.0408143E+002
 20
2.7169029E+002
 70
1
  0
VERTEX
  8
3
 42
5.3922871E-003
 10
4.0408642E+002
 20
2.7170472E+002
 70
0
  0
VERTEX
  8
3
 42
1.6186221E-002
 10
4.0409049E+002
 20
2.7171786E+002
 70
1
  0
VERTEX
  8
3
 42
2.7068014E-002
 10
4.0409394E+002
 20
2.7173455E+002
 70
0
  0
VERTEX
  8
3
 42
1.3868793E-002
 10
4.04097E+002
 20
2.7175989E+002
 70
1
  0
VERTEX
  8
3
 42
7.6248642E-003
 10
4.0409966E+002
 20
2.7179286E+002
 70
0
  0
SEQEND
  0
ARC
  8
3
  6
CONTINUOUS
 62
40
 10
3.7689966E+002
 20
2.7319286E+002
 40
3.0E-001
 50
0.0
 51
9.0E+001
  0
LINE
  8
3
  6
CONTINUOUS
 62
3
 10
3.8659966E+002
 20
2.7319286E+002
 11
3.7719966E+002
 21
2.7319286E+002
  0
POLYLINE
  8
3
  6
CONTINUOUS
 62
40
 66
1
 40
0.0
 41
0.0
 70
2
  0
VERTEX
  8
3
 42
0.0
 10
3.8659965E+002
 20
2.7319287E+002
 70
0
  0
VERTEX
  8
3
 42
-1.2803773E-002
 10
3.8659999E+002
 20
2.7320716E+002
 70
1
  0
VERTEX
  8
3
 42
-1.215668E-002
 10
3.8660104E+002
 20
2.7322165E+002
 70
0
  0
VERTEX
  8
3
 42
-1.1974676E-002
 10
3.8660283E+002
 20
2.7323634E+002
 70
1
  0
VERTEX
  8
3
 42
-1.2481308E-002
 10
3.8660537E+002
 20
2.7325117E+002
 70
0
  0
VERTEX
  8
3
 42
-1.2720277E-002
 10
3.8660873E+002
 20
2.7326609E+002
 70
1
  0
VERTEX
  8
3
 42
-1.2875898E-002
 10
3.866129E+002
 20
2.7328101E+002
 70
0
  0
VERTEX
  8
3
 42
-1.2977395E-002
 10
3.8661791E+002
 20
2.7329589E+002
 70
1
  0
VERTEX
  8
3
 42
-1.3184568E-002
 10
3.8662375E+002
 20
2.7331066E+002
 70
0
  0
VERTEX
  8
3
 42
-1.3294282E-002
 10
3.8663045E+002
 20
2.7332524E+002
 70
1
  0
VERTEX
  8
3
 42
-1.3438786E-002
 10
3.8663798E+002
 20
2.7333958E+002
 70
0
  0
VERTEX
  8
3
 42
-1.3510956E-002
 10
3.8664635E+002
 20
2.7335358E+002
 70
1
  0
VERTEX
  8
3
 42
-1.3608798E-002
 10
3.8665551E+002
 20
2.733672E+002
 70
0
  0
VERTEX
  8
3
 42
-1.3662807E-002
 10
3.8666546E+002
 20
2.7338034E+002
 70
1
  0
VERTEX
  8
3
 42
-1.3732525E-002
 10
3.8667614E+002
 20
2.7339297E+002
 70
0
  0
VERTEX
  8
3
 42
-1.3722768E-002
 10
3.8668753E+002
 20
2.7340499E+002
 70
1
  0
VERTEX
  8
3
 42
-1.3659016E-002
 10
3.8669956E+002
 20
2.7341638E+002
 70
0
  0
VERTEX
  8
3
 42
-1.3732418E-002
 10
3.8671217E+002
 20
2.7342706E+002
 70
1
  0
VERTEX
  8
3
 42
-1.3897271E-002
 10
3.8672533E+002
 20
2.7343701E+002
 70
0
  0
VERTEX
  8
3
 42
-1.3543472E-002
 10
3.8673897E+002
 20
2.7344617E+002
 70
1
  0
VERTEX
  8
3
 42
-1.2726108E-002
 10
3.8675295E+002
 20
2.7345454E+002
 70
0
  0
VERTEX
  8
3
 42
-1.368595E-002
 10
3.8676717E+002
 20
2.7346206E+002
 70
1
  0
VERTEX
  8
3
 42
-1.5725099E-002
 10
3.8678187E+002
 20
2.7346877E+002
 70
0
  0
VERTEX
  8
3
 42
-1.2375633E-002
 10
3.8679709E+002
 20
2.7347463E+002
 70
1
  0
VERTEX
  8
3
 42
-5.3918717E-003
 10
3.8681152E+002
 20
2.7347962E+002
 70
0
  0
VERTEX
  8
3
 42
-1.6184939E-002
 10
3.8682466E+002
 20
2.7348369E+002
 70
1
  0
VERTEX
  8
3
 42
-2.706575E-002
 10
3.8684136E+002
 20
2.7348714E+002
 70
0
  0
VERTEX
  8
3
 42
-1.3867614E-002
 10
3.8686669E+002
 20
2.734902E+002
 70
1
  0
VERTEX
  8
3
 42
-7.624217E-003
 10
3.8689966E+002
 20
2.7349286E+002
 70
0
  0
SEQEND
  0
LINE
  8
3
  6
CONTINUOUS
 62
3
 10
3.7719966E+002
 20
2.7179286E+002
 11
3.8659966E+002
 21
2.7179286E+002
  0
LINE
  8
3
  6
CONTINUOUS
 62
40
 10
3.8659966E+002
 20
2.7179286E+002
 11
3.8659966E+002
 21
2.7319287E+002
  0
LINE
  8
3
  6
CONTINUOUS
 62
40
 10
3.7719966E+002
 20
2.7179286E+002
 11
3.7719966E+002
 21
2.7319287E+002
  0
ARC
  8
3
  6
CONTINUOUS
 62
40
 10
3.7749966E+002
 20
2.7179286E+002
 40
3.0E-001
 50
1.8E+002
 51
2.7E+002
  0
POLYLINE
  8
3
  6
CONTINUOUS
 62
40
 66
1
 40
0.0
 41
0.0
 70
2
  0
VERTEX
  8
3
 42
0.0
 10
3.8629966E+002
 20
2.7149287E+002
 70
0
  0
VERTEX
  8
3
 42
1.2803191E-002
 10
3.8631396E+002
 20
2.714932E+002
 70
1
  0
VERTEX
  8
3
 42
1.2156182E-002
 10
3.8632844E+002
 20
2.7149425E+002
 70
0
  0
VERTEX
  8
3
 42
1.1974245E-002
 10
3.8634313E+002
 20
2.7149604E+002
 70
1
  0
VERTEX
  8
3
 42
1.2480924E-002
 10
3.8635797E+002
 20
2.7149859E+002
 70
0
  0
VERTEX
  8
3
 42
1.2719961E-002
 10
3.8637288E+002
 20
2.7150194E+002
 70
1
  0
VERTEX
  8
3
 42
1.2875656E-002
 10
3.863878E+002
 20
2.7150611E+002
 70
0
  0
VERTEX
  8
3
 42
1.2977234E-002
 10
3.8640268E+002
 20
2.7151112E+002
 70
1
  0
VERTEX
  8
3
 42
1.318449E-002
 10
3.8641745E+002
 20
2.7151696E+002
 70
0
  0
VERTEX
  8
3
 42
1.3294296E-002
 10
3.8643204E+002
 20
2.7152366E+002
 70
1
  0
VERTEX
  8
3
 42
1.3438889E-002
 10
3.8644637E+002
 20
2.7153119E+002
 70
0
  0
VERTEX
  8
3
 42
1.3511152E-002
 10
3.8646037E+002
 20
2.7153956E+002
 70
1
  0
VERTEX
  8
3
 42
1.3609085E-002
 10
3.8647399E+002
 20
2.7154872E+002
 70
0
  0
VERTEX
  8
3
 42
1.3663184E-002
 10
3.8648713E+002
 20
2.7155867E+002
 70
1
  0
VERTEX
  8
3
 42
1.3732986E-002
 10
3.8649976E+002
 20
2.7156935E+002
 70
0
  0
VERTEX
  8
3
 42
1.372331E-002
 10
3.8651178E+002
 20
2.7158074E+002
 70
1
  0
VERTEX
  8
3
 42
1.3659625E-002
 10
3.8652317E+002
 20
2.7159276E+002
 70
0
  0
VERTEX
  8
3
 42
1.3733095E-002
 10
3.8653385E+002
 20
2.7160538E+002
 70
1
  0
VERTEX
  8
3
 42
1.3898013E-002
 10
3.865438E+002
 20
2.7161853E+002
 70
0
  0
VERTEX
  8
3
 42
1.3544243E-002
 10
3.8655296E+002
 20
2.7163217E+002
 70
1
  0
VERTEX
  8
3
 42
1.2726865E-002
 10
3.8656133E+002
 20
2.7164615E+002
 70
0
  0
VERTEX
  8
3
 42
1.3686792E-002
 10
3.8656885E+002
 20
2.7166037E+002
 70
1
  0
VERTEX
  8
3
 42
1.5726088E-002
 10
3.8657556E+002
 20
2.7167507E+002
 70
0
  0
VERTEX
  8
3
 42
1.2376419E-002
 10
3.8658142E+002
 20
2.7169029E+002
 70
1
  0
VERTEX
  8
3
 42
5.392213E-003
 10
3.8658641E+002
 20
2.7170472E+002
 70
0
  0
VERTEX
  8
3
 42
1.6185957E-002
 10
3.8659048E+002
 20
2.7171786E+002
 70
1
  0
VERTEX
  8
3
 42
2.7067384E-002
 10
3.8659393E+002
 20
2.7173455E+002
 70
0
  0
VERTEX
  8
3
 42
1.3868393E-002
 10
3.86597E+002
 20
2.7175989E+002
 70
1
  0
VERTEX
  8
3
 42
7.624626E-003
 10
3.8659965E+002
 20
2.7179286E+002
 70
0
  0
SEQEND
  0
LINE
  8
3
  6
CONTINUOUS
 62
3
 10
3.7364966E+002
 20
2.7349286E+002
 11
3.7364966E+002
 21
2.7399286E+002
  0
LINE
  8
3
  6
CONTINUOUS
 62
3
 10
4.2514966E+002
 20
2.7399286E+002
 11
4.2514966E+002
 21
2.7349286E+002
  0
LINE
  8
3
  6
CONTINUOUS
 62
3
 10
3.7364966E+002
 20
2.7399286E+002
 11
4.2514966E+002
 21
2.7399286E+002
  0
POLYLINE
  8
3
  6
CONTINUOUS
 62
40
 66
1
 40
0.0
 41
0.0
 70
2
  0
VERTEX
  8
3
 42
0.0
 10
4.214174E+002
 20
2.7151693E+002
 70
0
  0
VERTEX
  8
3
 42
3.9306639E-003
 10
4.214217E+002
 20
2.7151881E+002
 70
1
  0
VERTEX
  8
3
 42
3.8974444E-003
 10
4.2142597E+002
 20
2.7152075E+002
 70
0
  0
VERTEX
  8
3
 42
3.888331E-003
 10
4.2143022E+002
 20
2.7152277E+002
 70
1
  0
VERTEX
  8
3
 42
3.9139234E-003
 10
4.2143446E+002
 20
2.7152485E+002
 70
0
  0
VERTEX
  8
3
 42
3.9264314E-003
 10
4.2143867E+002
 20
2.7152701E+002
 70
1
  0
VERTEX
  8
3
 42
3.9345653E-003
 10
4.2144286E+002
 20
2.7152925E+002
 70
0
  0
VERTEX
  8
3
 42
3.940237E-003
 10
4.2144702E+002
 20
2.7153155E+002
 70
1
  0
VERTEX
  8
3
 42
3.9515037E-003
 10
4.2145115E+002
 20
2.7153392E+002
 70
0
  0
VERTEX
  8
3
 42
3.9583639E-003
 10
4.2145525E+002
 20
2.7153637E+002
 70
1
  0
VERTEX
  8
3
 42
3.968E-003
 10
4.2145932E+002
 20
2.7153888E+002
 70
0
  0
VERTEX
  8
3
 42
3.9726524E-003
 10
4.2146336E+002
 20
2.7154146E+002
 70
1
  0
VERTEX
  8
3
 42
3.9787996E-003
 10
4.2146736E+002
 20
2.7154412E+002
 70
0
  0
VERTEX
  8
3
 42
3.98644E-003
 10
4.2147133E+002
 20
2.7154684E+002
 70
1
  0
VERTEX
  8
3
 42
4.0004538E-003
 10
4.2147525E+002
 20
2.7154962E+002
 70
0
  0
VERTEX
  8
3
 42
3.9944964E-003
 10
4.2147914E+002
 20
2.7155248E+002
 70
1
  0
VERTEX
  8
3
 42
3.9758173E-003
 10
4.2148299E+002
 20
2.715554E+002
 70
0
  0
VERTEX
  8
3
 42
4.0134081E-003
 10
4.2148678E+002
 20
2.7155838E+002
 70
1
  0
VERTEX
  8
3
 42
4.0989772E-003
 10
4.2149054E+002
 20
2.7156143E+002
 70
0
  0
VERTEX
  8
3
 42
3.985332E-003
 10
4.2149426E+002
 20
2.7156454E+002
 70
1
  0
VERTEX
  8
3
 42
3.7252854E-003
 10
4.2149791E+002
 20
2.7156771E+002
 70
0
  0
VERTEX
  8
3
 42
4.111374E-003
 10
4.215015E+002
 20
2.7157091E+002
 70
1
  0
VERTEX
  8
3
 42
4.899929E-003
 10
4.2150508E+002
 20
2.7157423E+002
 70
0
  0
VERTEX
  8
3
 42
3.724295E-003
 10
4.2150869E+002
 20
2.715777E+002
 70
1
  0
VERTEX
  8
3
 42
1.290299E-003
 10
4.2151204E+002
 20
2.7158098E+002
 70
0
  0
VERTEX
  8
3
 42
5.2445548E-003
 10
4.2151505E+002
 20
2.7158399E+002
 70
1
  0
VERTEX
  8
3
 42
9.0228417E-003
 10
4.2151878E+002
 20
2.7158796E+002
 70
0
  0
VERTEX
  8
3
 42
4.4180242E-003
 10
4.2152435E+002
 20
2.7159423E+002
 70
1
  0
VERTEX
  8
3
 42
2.3415738E-003
 10
4.2153155E+002
 20
2.7160253E+002
 70
0
  0
SEQEND
  0
LINE
  8
3
  6
CONTINUOUS
 62
40
 10
3.9499965E+002
 20
2.9499286E+002
 11
4.0379965E+002
 21
2.9499286E+002
  0
LINE
  8
3
  6
CONTINUOUS
 62
40
 10
4.0374966E+002
 20
2.9593068E+002
 11
4.0374966E+002
 21
2.9499286E+002
  0
LINE
  8
3
  6
CONTINUOUS
 62
40
 10
3.9504966E+002
 20
2.9499286E+002
 11
3.9504966E+002
 21
2.9593068E+002
  0
LINE
  8
3
  6
CONTINUOUS
 62
40
 10
3.9854966E+002
 20
2.9499286E+002
 11
3.9504966E+002
 21
2.9593068E+002
  0
LINE
  8
3
  6
CONTINUOUS
 62
40
 10
4.0374966E+002
 20
2.9593068E+002
 11
4.0024966E+002
 21
2.9499286E+002
  0
LINE
  8
3
  6
CONTINUOUS
 62
40
 10
3.7749966E+002
 20
2.9499286E+002
 11
3.8629966E+002
 21
2.9499286E+002
  0
LINE
  8
3
  6
CONTINUOUS
 62
40
 10
3.8624966E+002
 20
2.9593068E+002
 11
3.8624966E+002
 21
2.9499286E+002
  0
LINE
  8
3
  6
CONTINUOUS
 62
40
 10
3.7754966E+002
 20
2.9499286E+002
 11
3.7754966E+002
 21
2.9593068E+002
  0
LINE
  8
3
  6
CONTINUOUS
 62
40
 10
3.8104966E+002
 20
2.9499286E+002
 11
3.7754966E+002
 21
2.9593068E+002
  0
LINE
  8
3
  6
CONTINUOUS
 62
40
 10
3.8624966E+002
 20
2.9593068E+002
 11
3.8274966E+002
 21
2.9499286E+002
  0
LINE
  8
3
  6
CONTINUOUS
 62
40
 10
4.1249966E+002
 20
2.9499286E+002
 11
4.2129966E+002
 21
2.9499286E+002
  0
LINE
  8
3
  6
CONTINUOUS
 62
40
 10
4.2124966E+002
 20
2.9593068E+002
 11
4.2124966E+002
 21
2.9499286E+002
  0
LINE
  8
3
  6
CONTINUOUS
 62
40
 10
4.1254966E+002
 20
2.9499286E+002
 11
4.1254966E+002
 21
2.9593068E+002
  0
LINE
  8
3
  6
CONTINUOUS
 62
40
 10
4.1604966E+002
 20
2.9499286E+002
 11
4.1254966E+002
 21
2.9593068E+002
  0
LINE
  8
3
  6
CONTINUOUS
 62
40
 10
4.2124966E+002
 20
2.9593068E+002
 11
4.1774966E+002
 21
2.9499286E+002
  0
LINE
  8
3
  6
CONTINUOUS
 62
40
 10
3.8188966E+002
 20
3.0509287E+002
 11
3.8188966E+002
 21
3.0490998E+002
  0
LINE
  8
3
  6
CONTINUOUS
 62
40
 10
3.8190966E+002
 20
3.0490998E+002
 11
3.8190966E+002
 21
3.0509287E+002
  0
ARC
  8
3
  6
CONTINUOUS
 62
40
 10
3.8370966E+002
 20
3.0660998E+002
 40
1.8
 50
2.3780588E+002
 51
2.65E+002
  0
ARC
  8
3
  6
CONTINUOUS
 62
40
 10
3.8008966E+002
 20
3.0660998E+002
 40
1.8
 50
2.75E+002
 51
3.0255831E+002
  0
LINE
  8
3
  6
CONTINUOUS
 62
40
 10
3.8068127E+002
 20
3.0490998E+002
 11
3.8188966E+002
 21
3.0490998E+002
  0
LINE
  8
3
  6
CONTINUOUS
 62
40
 10
3.8068127E+002
 20
3.0490998E+002
 11
3.8054196E+002
 21
3.0490998E+002
  0
LINE
  8
3
  6
CONTINUOUS
 62
40
 10
3.8325735E+002
 20
3.0490998E+002
 11
3.8311805E+002
 21
3.0490998E+002
  0
LINE
  8
3
  6
CONTINUOUS
 62
40
 10
3.8311805E+002
 20
3.0490998E+002
 11
3.8190966E+002
 21
3.0490998E+002
  0
LINE
  8
3
  6
CONTINUOUS
 62
40
 10
3.8556626E+002
 20
3.0464067E+002
 11
3.8543577E+002
 21
3.0465209E+002
  0
LINE
  8
3
  6
CONTINUOUS
 62
40
 10
3.8543577E+002
 20
3.0465209E+002
 11
3.8477188E+002
 21
3.0471017E+002
  0
LINE
  8
3
  6
CONTINUOUS
 62
40
 10
3.8477188E+002
 20
3.0471017E+002
 11
3.8410799E+002
 21
3.0476826E+002
  0
LINE
  8
3
  6
CONTINUOUS
 62
40
 10
3.8410799E+002
 20
3.0476826E+002
 11
3.8364386E+002
 21
3.0480886E+002
  0
LINE
  8
3
  6
CONTINUOUS
 62
40
 10
3.8364386E+002
 20
3.0480886E+002
 11
3.8355278E+002
 21
3.0481683E+002
  0
LINE
  8
3
  6
CONTINUOUS
 62
40
 10
3.8024654E+002
 20
3.0481683E+002
 11
3.8015546E+002
 21
3.0480886E+002
  0
LINE
  8
3
  6
CONTINUOUS
 62
40
 10
3.8015546E+002
 20
3.0480886E+002
 11
3.7969132E+002
 21
3.0476826E+002
  0
LINE
  8
3
  6
CONTINUOUS
 62
40
 10
3.7902743E+002
 20
3.0471017E+002
 11
3.7902743E+002
 21
3.0471017E+002
  0
LINE
  8
3
  6
CONTINUOUS
 62
40
 10
3.7969132E+002
 20
3.0476826E+002
 11
3.7902743E+002
 21
3.0471017E+002
  0
LINE
  8
3
  6
CONTINUOUS
 62
40
 10
3.7902743E+002
 20
3.0471017E+002
 11
3.7836355E+002
 21
3.0465209E+002
  0
LINE
  8
3
  6
CONTINUOUS
 62
40
 10
3.7836355E+002
 20
3.0465209E+002
 11
3.7823306E+002
 21
3.0464067E+002
  0
LINE
  8
3
  6
CONTINUOUS
 62
40
 10
3.8015546E+002
 20
3.0480886E+002
 11
3.8013803E+002
 21
3.050081E+002
  0
LINE
  8
3
  6
CONTINUOUS
 62
40
 10
3.8364386E+002
 20
3.0480886E+002
 11
3.8364386E+002
 21
3.0480886E+002
  0
LINE
  8
3
  6
CONTINUOUS
 62
40
 10
3.8366129E+002
 20
3.050081E+002
 11
3.8364386E+002
 21
3.0480886E+002
  0
LINE
  8
3
  6
CONTINUOUS
 62
40
 10
3.8013803E+002
 20
3.050081E+002
 11
3.8008966E+002
 21
3.0500387E+002
  0
LINE
  8
3
  6
CONTINUOUS
 62
40
 10
3.8008966E+002
 20
3.0500387E+002
 11
3.8008966E+002
 21
3.0509286E+002
  0
LINE
  8
3
  6
CONTINUOUS
 62
40
 10
3.8410799E+002
 20
3.0476826E+002
 11
3.8377605E+002
 21
3.0504825E+002
  0
LINE
  8
3
  6
CONTINUOUS
 62
40
 10
3.8377605E+002
 20
3.0504825E+002
 11
3.8370966E+002
 21
3.0500387E+002
  0
LINE
  8
3
  6
CONTINUOUS
 62
40
 10
3.8370966E+002
 20
3.0500387E+002
 11
3.8370966E+002
 21
3.0509286E+002
  0
LINE
  8
3
  6
CONTINUOUS
 62
40
 10
3.8543577E+002
 20
3.0465209E+002
 11
3.8523403E+002
 21
3.0482226E+002
  0
LINE
  8
3
  6
CONTINUOUS
 62
40
 10
3.8510382E+002
 20
3.0493209E+002
 11
3.8477188E+002
 21
3.0471017E+002
  0
LINE
  8
3
  6
CONTINUOUS
 62
40
 10
3.8002327E+002
 20
3.0504825E+002
 11
3.7969132E+002
 21
3.0476826E+002
  0
LINE
  8
3
  6
CONTINUOUS
 62
40
 10
3.7902743E+002
 20
3.0471017E+002
 11
3.7869549E+002
 21
3.0493209E+002
  0
LINE
  8
3
  6
CONTINUOUS
 62
40
 10
3.7867533E+002
 20
3.0491508E+002
 11
3.7836355E+002
 21
3.0465209E+002
  0
LINE
  8
3
  6
CONTINUOUS
 62
40
 10
3.8008966E+002
 20
3.0500387E+002
 11
3.8002327E+002
 21
3.0504825E+002
  0
LINE
  8
3
  6
CONTINUOUS
 62
40
 10
3.8370966E+002
 20
3.0500387E+002
 11
3.8366129E+002
 21
3.050081E+002
  0
LINE
  8
3
  6
CONTINUOUS
 62
40
 10
3.9938966E+002
 20
3.0509287E+002
 11
3.9938966E+002
 21
3.0490998E+002
  0
LINE
  8
3
  6
CONTINUOUS
 62
40
 10
3.9940966E+002
 20
3.0490998E+002
 11
3.9940966E+002
 21
3.0509287E+002
  0
ARC
  8
3
  6
CONTINUOUS
 62
40
 10
4.0120966E+002
 20
3.0660998E+002
 40
1.8
 50
2.374417E+002
 51
2.65E+002
  0
ARC
  8
3
  6
CONTINUOUS
 62
40
 10
3.9758966E+002
 20
3.0660998E+002
 40
1.8
 50
2.75E+002
 51
3.0255831E+002
  0
LINE
  8
3
  6
CONTINUOUS
 62
40
 10
3.9818127E+002
 20
3.0490998E+002
 11
3.9938966E+002
 21
3.0490998E+002
  0
LINE
  8
3
  6
CONTINUOUS
 62
40
 10
3.9818127E+002
 20
3.0490998E+002
 11
3.9804196E+002
 21
3.0490998E+002
  0
LINE
  8
3
  6
CONTINUOUS
 62
40
 10
4.0075735E+002
 20
3.0490998E+002
 11
4.0061805E+002
 21
3.0490998E+002
  0
LINE
  8
3
  6
CONTINUOUS
 62
40
 10
4.0061805E+002
 20
3.0490998E+002
 11
3.9940966E+002
 21
3.0490998E+002
  0
LINE
  8
3
  6
CONTINUOUS
 62
40
 10
4.0306626E+002
 20
3.0464067E+002
 11
4.0293577E+002
 21
3.0465209E+002
  0
LINE
  8
3
  6
CONTINUOUS
 62
40
 10
4.0293576E+002
 20
3.0465209E+002
 11
4.0227188E+002
 21
3.0471017E+002
  0
LINE
  8
3
  6
CONTINUOUS
 62
40
 10
4.0227188E+002
 20
3.0471017E+002
 11
4.0160799E+002
 21
3.0476826E+002
  0
LINE
  8
3
  6
CONTINUOUS
 62
40
 10
4.0227189E+002
 20
3.0471017E+002
 11
4.0227188E+002
 21
3.0471017E+002
  0
LINE
  8
3
  6
CONTINUOUS
 62
40
 10
4.0160799E+002
 20
3.0476826E+002
 11
4.0114386E+002
 21
3.0480886E+002
  0
LINE
  8
3
  6
CONTINUOUS
 62
40
 10
4.0114386E+002
 20
3.0480886E+002
 11
4.0105278E+002
 21
3.0481683E+002
  0
LINE
  8
3
  6
CONTINUOUS
 62
40
 10
3.9774654E+002
 20
3.0481683E+002
 11
3.9765546E+002
 21
3.0480886E+002
  0
LINE
  8
3
  6
CONTINUOUS
 62
40
 10
3.9765546E+002
 20
3.0480886E+002
 11
3.9719132E+002
 21
3.0476826E+002
  0
LINE
  8
3
  6
CONTINUOUS
 62
40
 10
3.9652743E+002
 20
3.0471017E+002
 11
3.9652743E+002
 21
3.0471017E+002
  0
LINE
  8
3
  6
CONTINUOUS
 62
40
 10
3.9719132E+002
 20
3.0476826E+002
 11
3.9652743E+002
 21
3.0471017E+002
  0
LINE
  8
3
  6
CONTINUOUS
 62
40
 10
3.9652743E+002
 20
3.0471017E+002
 11
3.9586354E+002
 21
3.0465209E+002
  0
LINE
  8
3
  6
CONTINUOUS
 62
40
 10
3.9586355E+002
 20
3.0465209E+002
 11
3.9573306E+002
 21
3.0464067E+002
  0
LINE
  8
3
  6
CONTINUOUS
 62
40
 10
3.9765546E+002
 20
3.0480886E+002
 11
3.9763803E+002
 21
3.050081E+002
  0
LINE
  8
3
  6
CONTINUOUS
 62
40
 10
4.0116129E+002
 20
3.050081E+002
 11
4.0114386E+002
 21
3.0480886E+002
  0
LINE
  8
3
  6
CONTINUOUS
 62
40
 10
3.9763803E+002
 20
3.050081E+002
 11
3.9758966E+002
 21
3.0500387E+002
  0
LINE
  8
3
  6
CONTINUOUS
 62
40
 10
3.9758966E+002
 20
3.0500387E+002
 11
3.9758966E+002
 21
3.0509286E+002
  0
LINE
  8
3
  6
CONTINUOUS
 62
40
 10
4.0160799E+002
 20
3.0476826E+002
 11
4.0127605E+002
 21
3.0504825E+002
  0
LINE
  8
3
  6
CONTINUOUS
 62
40
 10
4.0127605E+002
 20
3.0504825E+002
 11
4.0120966E+002
 21
3.0500387E+002
  0
LINE
  8
3
  6
CONTINUOUS
 62
40
 10
4.0120966E+002
 20
3.0500387E+002
 11
4.0120966E+002
 21
3.0509286E+002
  0
LINE
  8
3
  6
CONTINUOUS
 62
40
 10
4.0293577E+002
 20
3.0465209E+002
 11
4.02734E+002
 21
3.0482228E+002
  0
LINE
  8
3
  6
CONTINUOUS
 62
40
 10
4.0260382E+002
 20
3.0493209E+002
 11
4.0227188E+002
 21
3.0471017E+002
  0
LINE
  8
3
  6
CONTINUOUS
 62
40
 10
3.9752327E+002
 20
3.0504825E+002
 11
3.9719132E+002
 21
3.0476826E+002
  0
LINE
  8
3
  6
CONTINUOUS
 62
40
 10
3.9652743E+002
 20
3.0471017E+002
 11
3.9619549E+002
 21
3.0493209E+002
  0
LINE
  8
3
  6
CONTINUOUS
 62
40
 10
3.9606529E+002
 20
3.0482226E+002
 11
3.9586355E+002
 21
3.0465209E+002
  0
LINE
  8
3
  6
CONTINUOUS
 62
40
 10
3.9758966E+002
 20
3.0500387E+002
 11
3.9752327E+002
 21
3.0504825E+002
  0
LINE
  8
3
  6
CONTINUOUS
 62
40
 10
4.0120966E+002
 20
3.0500387E+002
 11
4.0116129E+002
 21
3.050081E+002
  0
LINE
  8
3
  6
CONTINUOUS
 62
40
 10
4.1688966E+002
 20
3.0509287E+002
 11
4.1688966E+002
 21
3.0490998E+002
  0
LINE
  8
3
  6
CONTINUOUS
 62
40
 10
4.1690966E+002
 20
3.0490998E+002
 11
4.1690966E+002
 21
3.0509287E+002
  0
ARC
  8
3
  6
CONTINUOUS
 62
40
 10
4.1870966E+002
 20
3.0660998E+002
 40
1.8
 50
2.3780618E+002
 51
2.65E+002
  0
ARC
  8
3
  6
CONTINUOUS
 62
40
 10
4.1508966E+002
 20
3.0660998E+002
 40
1.8
 50
2.75E+002
 51
3.0222678E+002
  0
LINE
  8
3
  6
CONTINUOUS
 62
40
 10
4.1568127E+002
 20
3.0490998E+002
 11
4.1688966E+002
 21
3.0490998E+002
  0
LINE
  8
3
  6
CONTINUOUS
 62
40
 10
4.1568127E+002
 20
3.0490998E+002
 11
4.1554196E+002
 21
3.0490998E+002
  0
LINE
  8
3
  6
CONTINUOUS
 62
40
 10
4.1825736E+002
 20
3.0490998E+002
 11
4.1811805E+002
 21
3.0490998E+002
  0
LINE
  8
3
  6
CONTINUOUS
 62
40
 10
4.1811805E+002
 20
3.0490998E+002
 11
4.1690966E+002
 21
3.0490998E+002
  0
LINE
  8
3
  6
CONTINUOUS
 62
40
 10
4.2050192E+002
 20
3.046463E+002
 11
4.2043577E+002
 21
3.0465209E+002
  0
LINE
  8
3
  6
CONTINUOUS
 62
40
 10
4.2043577E+002
 20
3.0465209E+002
 11
4.1977188E+002
 21
3.0471017E+002
  0
LINE
  8
3
  6
CONTINUOUS
 62
40
 10
4.1977188E+002
 20
3.0471017E+002
 11
4.1910799E+002
 21
3.0476826E+002
  0
LINE
  8
3
  6
CONTINUOUS
 62
40
 10
4.1910799E+002
 20
3.0476826E+002
 11
4.1864386E+002
 21
3.0480886E+002
  0
LINE
  8
3
  6
CONTINUOUS
 62
40
 10
4.1864386E+002
 20
3.0480886E+002
 11
4.1855278E+002
 21
3.0481683E+002
  0
LINE
  8
3
  6
CONTINUOUS
 62
40
 10
4.1524654E+002
 20
3.0481683E+002
 11
4.1515546E+002
 21
3.0480886E+002
  0
LINE
  8
3
  6
CONTINUOUS
 62
40
 10
4.1515546E+002
 20
3.0480886E+002
 11
4.1469132E+002
 21
3.0476826E+002
  0
LINE
  8
3
  6
CONTINUOUS
 62
40
 10
4.1469132E+002
 20
3.0476826E+002
 11
4.1402743E+002
 21
3.0471017E+002
  0
LINE
  8
3
  6
CONTINUOUS
 62
40
 10
4.1402743E+002
 20
3.0471017E+002
 11
4.1336355E+002
 21
3.0465209E+002
  0
LINE
  8
3
  6
CONTINUOUS
 62
40
 10
4.1336355E+002
 20
3.0465209E+002
 11
4.1323306E+002
 21
3.0464067E+002
  0
LINE
  8
3
  6
CONTINUOUS
 62
40
 10
4.1515546E+002
 20
3.0480886E+002
 11
4.1513803E+002
 21
3.050081E+002
  0
LINE
  8
3
  6
CONTINUOUS
 62
40
 10
4.1866129E+002
 20
3.050081E+002
 11
4.1864386E+002
 21
3.0480886E+002
  0
LINE
  8
3
  6
CONTINUOUS
 62
40
 10
4.1513803E+002
 20
3.050081E+002
 11
4.1508966E+002
 21
3.0500387E+002
  0
LINE
  8
3
  6
CONTINUOUS
 62
40
 10
4.1508966E+002
 20
3.0500387E+002
 11
4.1508966E+002
 21
3.0509286E+002
  0
LINE
  8
3
  6
CONTINUOUS
 62
40
 10
4.1910799E+002
 20
3.0476826E+002
 11
4.1877605E+002
 21
3.0504825E+002
  0
LINE
  8
3
  6
CONTINUOUS
 62
40
 10
4.1877605E+002
 20
3.0504825E+002
 11
4.1870966E+002
 21
3.0500387E+002
  0
LINE
  8
3
  6
CONTINUOUS
 62
40
 10
4.1870966E+002
 20
3.0500387E+002
 11
4.1870966E+002
 21
3.0509286E+002
  0
LINE
  8
3
  6
CONTINUOUS
 62
40
 10
4.2043577E+002
 20
3.0465209E+002
 11
4.2023401E+002
 21
3.0482228E+002
  0
LINE
  8
3
  6
CONTINUOUS
 62
40
 10
4.2010382E+002
 20
3.0493209E+002
 11
4.1977188E+002
 21
3.0471017E+002
  0
LINE
  8
3
  6
CONTINUOUS
 62
40
 10
4.1502327E+002
 20
3.0504825E+002
 11
4.1469132E+002
 21
3.0476826E+002
  0
LINE
  8
3
  6
CONTINUOUS
 62
40
 10
4.1402743E+002
 20
3.0471017E+002
 11
4.1369549E+002
 21
3.0493209E+002
  0
LINE
  8
3
  6
CONTINUOUS
 62
40
 10
4.1356531E+002
 20
3.0482228E+002
 11
4.1336355E+002
 21
3.0465209E+002
  0
LINE
  8
3
  6
CONTINUOUS
 62
40
 10
4.1508966E+002
 20
3.0500387E+002
 11
4.1502327E+002
 21
3.0504825E+002
  0
LINE
  8
3
  6
CONTINUOUS
 62
40
 10
4.1870966E+002
 20
3.0500387E+002
 11
4.1866129E+002
 21
3.050081E+002
  0
LINE
  8
3
  6
CONTINUOUS
 62
40
 10
4.2564966E+002
 20
3.2664286E+002
 11
4.2564966E+002
 21
3.3714286E+002
  0
ARC
  8
3
  6
CONTINUOUS
 62
40
 10
3.6719966E+002
 20
3.4034286E+002
 40
3.0E-001
 50
9.0E+001
 51
1.8E+002
  0
ARC
  8
3
  6
CONTINUOUS
 62
40
 10
4.3159966E+002
 20
3.4034286E+002
 40
3.0E-001
 50
0.0
 51
9.0E+001
  0
LINE
  8
3
  6
CONTINUOUS
 62
40
 10
4.3189966E+002
 20
3.4034286E+002
 11
4.3189966E+002
 21
3.3794286E+002
  0
LINE
  8
3
  6
CONTINUOUS
 62
40
 10
3.6689966E+002
 20
3.3794286E+002
 11
3.6689966E+002
 21
3.4034286E+002
  0
ARC
  8
3
  6
CONTINUOUS
 62
40
 10
4.3159966E+002
 20
3.3794286E+002
 40
3.0E-001
 50
2.7E+002
 51
3.6E+002
  0
ARC
  8
3
  6
CONTINUOUS
 62
40
 10
3.6719966E+002
 20
3.3794286E+002
 40
3.0E-001
 50
1.8E+002
 51
2.7E+002
  0
ARC
  8
3
  6
CONTINUOUS
 62
40
 10
3.7264966E+002
 20
3.3714286E+002
 40
5.0E-001
 50
0.0
 51
9.0E+001
  0
ARC
  8
3
  6
CONTINUOUS
 62
40
 10
4.2614966E+002
 20
3.3714286E+002
 40
5.0E-001
 50
9.0E+001
 51
1.8E+002
  0
LINE
  8
3
  6
CONTINUOUS
 62
40
 10
3.6719966E+002
 20
3.3764286E+002
 11
3.7039966E+002
 21
3.3764286E+002
  0
LINE
  8
3
  6
CONTINUOUS
 62
40
 10
3.7039966E+002
 20
3.3764286E+002
 11
4.2839966E+002
 21
3.3764286E+002
  0
LINE
  8
3
  6
CONTINUOUS
 62
40
 10
4.2839966E+002
 20
3.3764286E+002
 11
4.3159966E+002
 21
3.3764286E+002
  0
LINE
  8
3
  6
CONTINUOUS
 62
40
 10
4.2839966E+002
 20
3.4064286E+002
 11
3.7039966E+002
 21
3.4064286E+002
  0
LINE
  8
3
  6
CONTINUOUS
 62
40
 10
3.7039966E+002
 20
3.4064286E+002
 11
3.6719966E+002
 21
3.4064286E+002
  0
LINE
  8
3
  6
CONTINUOUS
 62
40
 10
4.3159966E+002
 20
3.4064286E+002
 11
4.2839966E+002
 21
3.4064286E+002
  0
LINE
  8
3
  6
CONTINUOUS
 62
40
 10
3.7314966E+002
 20
3.3714286E+002
 11
3.7314966E+002
 21
3.2664286E+002
  0
LINE
  8
3
  6
CONTINUOUS
 62
3
 10
3.7039966E+002
 20
3.4034286E+002
 11
3.6689966E+002
 21
3.4034286E+002
  0
LINE
  8
3
  6
CONTINUOUS
 62
3
 10
3.7039966E+002
 20
3.4034286E+002
 11
3.7039966E+002
 21
3.4064286E+002
  0
LINE
  8
3
  6
CONTINUOUS
 62
3
 10
4.2839966E+002
 20
3.4034286E+002
 11
3.7039966E+002
 21
3.4034286E+002
  0
LINE
  8
3
  6
CONTINUOUS
 62
3
 10
4.2839966E+002
 20
3.4064286E+002
 11
4.2839966E+002
 21
3.4034286E+002
  0
LINE
  8
3
  6
CONTINUOUS
 62
3
 10
4.3189966E+002
 20
3.4034286E+002
 11
4.2839966E+002
 21
3.4034286E+002
  0
LINE
  8
3
  6
CONTINUOUS
 62
3
 10
4.2839966E+002
 20
3.4034286E+002
 11
4.2839966E+002
 21
3.3794286E+002
  0
LINE
  8
3
  6
CONTINUOUS
 62
3
 10
4.2839966E+002
 20
3.3794286E+002
 11
4.3189966E+002
 21
3.3794286E+002
  0
LINE
  8
3
  6
CONTINUOUS
 62
3
 10
3.7039966E+002
 20
3.4034286E+002
 11
3.7039966E+002
 21
3.3794286E+002
  0
LINE
  8
3
  6
CONTINUOUS
 62
3
 10
3.7039966E+002
 20
3.3794286E+002
 11
4.2839966E+002
 21
3.3794286E+002
  0
LINE
  8
3
  6
CONTINUOUS
 62
3
 10
3.6689966E+002
 20
3.3794286E+002
 11
3.7039966E+002
 21
3.3794286E+002
  0
LINE
  8
3
  6
CONTINUOUS
 62
3
 10
4.2839966E+002
 20
3.3794286E+002
 11
4.2839966E+002
 21
3.3764286E+002
  0
LINE
  8
3
  6
CONTINUOUS
 62
3
 10
3.7039966E+002
 20
3.3794286E+002
 11
3.7039966E+002
 21
3.3764286E+002
  0
LINE
  8
3
  6
CONTINUOUS
 62
3
 10
4.2514966E+002
 20
3.3714286E+002
 11
4.2514966E+002
 21
3.2664286E+002
  0
LINE
  8
3
  6
CONTINUOUS
 62
3
 10
4.2514966E+002
 20
3.3714286E+002
 11
4.2564966E+002
 21
3.3714286E+002
  0
LINE
  8
3
  6
CONTINUOUS
 62
3
 10
3.7364966E+002
 20
3.2664286E+002
 11
3.7364966E+002
 21
3.3714286E+002
  0
LINE
  8
3
  6
CONTINUOUS
 62
3
 10
3.7364966E+002
 20
3.3714286E+002
 11
4.2514966E+002
 21
3.3714286E+002
  0
LINE
  8
3
  6
CONTINUOUS
 62
3
 10
3.7314966E+002
 20
3.3714286E+002
 11
3.7364966E+002
 21
3.3714286E+002
  0
LINE
  8
3
  6
CONTINUOUS
 62
3
 10
3.7364966E+002
 20
3.3714286E+002
 11
3.7364966E+002
 21
3.3764286E+002
  0
LINE
  8
3
  6
CONTINUOUS
 62
3
 10
4.2514966E+002
 20
3.3764286E+002
 11
4.2514966E+002
 21
3.3714286E+002
  0
LINE
  8
3
  6
CONTINUOUS
 62
40
 10
4.2564966E+002
 20
3.2664286E+002
 11
4.2564966E+002
 21
3.1756734E+002
  0
LINE
  8
3
  6
CONTINUOUS
 62
40
 10
4.2564966E+002
 20
3.1756734E+002
 11
4.2564966E+002
 21
3.1656872E+002
  0
LINE
  8
3
  6
CONTINUOUS
 62
40
 10
4.2564966E+002
 20
3.1656872E+002
 11
4.2564966E+002
 21
3.1624104E+002
  0
LINE
  8
3
  6
CONTINUOUS
 62
40
 10
4.2564966E+002
 20
3.1624104E+002
 11
4.2564966E+002
 21
3.1159286E+002
  0
LINE
  8
3
  6
CONTINUOUS
 62
40
 10
4.2564966E+002
 20
3.1159286E+002
 11
4.2564966E+002
 21
3.1149286E+002
  0
LINE
  8
3
  6
CONTINUOUS
 62
40
 10
4.2564966E+002
 20
3.2664286E+002
 11
4.2514966E+002
 21
3.2664286E+002
  0
LINE
  8
3
  6
CONTINUOUS
 62
40
 10
4.2514966E+002
 20
3.2664286E+002
 11
3.7364966E+002
 21
3.2664286E+002
  0
LINE
  8
3
  6
CONTINUOUS
 62
40
 10
3.7364966E+002
 20
3.2664286E+002
 11
3.7314966E+002
 21
3.2664286E+002
  0
LINE
  8
3
  6
CONTINUOUS
 62
40
 10
3.7314966E+002
 20
3.1149286E+002
 11
3.7314966E+002
 21
3.1159286E+002
  0
LINE
  8
3
  6
CONTINUOUS
 62
40
 10
3.7314966E+002
 20
3.1159286E+002
 11
3.7314966E+002
 21
3.1624104E+002
  0
LINE
  8
3
  6
CONTINUOUS
 62
40
 10
3.7314966E+002
 20
3.1624104E+002
 11
3.7314966E+002
 21
3.1656872E+002
  0
LINE
  8
3
  6
CONTINUOUS
 62
40
 10
3.7314966E+002
 20
3.1656872E+002
 11
3.7314966E+002
 21
3.1756734E+002
  0
LINE
  8
3
  6
CONTINUOUS
 62
40
 10
3.7314966E+002
 20
3.1756734E+002
 11
3.7314966E+002
 21
3.2664286E+002
  0
LINE
  8
3
  6
CONTINUOUS
 62
40
 10
4.087176E+002
 20
3.0309287E+002
 11
4.0871761E+002
 21
3.0309286E+002
  0
LINE
  8
3
  6
CONTINUOUS
 62
40
 10
4.0844966E+002
 20
3.0209286E+002
 11
4.0871761E+002
 21
3.0309286E+002
  0
LINE
  8
3
  6
CONTINUOUS
 62
40
 10
4.0784966E+002
 20
3.0209286E+002
 11
4.0844966E+002
 21
3.0209286E+002
  0
ARC
  8
3
  6
CONTINUOUS
 62
40
 10
3.9699966E+002
 20
3.0309286E+002
 40
2.0
 50
9.0E+001
 51
1.8E+002
  0
LINE
  8
3
  6
CONTINUOUS
 62
40
 10
3.9499966E+002
 20
2.9359286E+002
 11
3.9332466E+002
 21
2.9359286E+002
  0
LINE
  8
3
  6
CONTINUOUS
 62
40
 10
4.0547466E+002
 20
2.9359286E+002
 11
4.0379966E+002
 21
2.9359286E+002
  0
LINE
  8
3
  6
CONTINUOUS
 62
40
 10
4.0379966E+002
 20
2.9359286E+002
 11
4.0379966E+002
 21
3.0309286E+002
  0
ARC
  8
3
  6
CONTINUOUS
 62
40
 10
4.0179966E+002
 20
3.0309286E+002
 40
2.0
 50
0.0
 51
9.0E+001
  0
LINE
  8
3
  6
CONTINUOUS
 62
40
 10
4.0179966E+002
 20
3.0509286E+002
 11
3.9699966E+002
 21
3.0509286E+002
  0
LINE
  8
3
  6
CONTINUOUS
 62
40
 10
3.9499966E+002
 20
3.0309286E+002
 11
3.9499966E+002
 21
2.9359286E+002
  0
LINE
  8
3
  6
CONTINUOUS
 62
40
 10
3.9164966E+002
 20
3.1289427E+002
 11
4.0714966E+002
 21
3.1289427E+002
  0
LINE
  8
3
  6
CONTINUOUS
 62
40
 10
3.9094966E+002
 20
3.0209286E+002
 11
3.9121761E+002
 21
3.0309286E+002
  0
LINE
  8
3
  6
CONTINUOUS
 62
40
 10
3.9034966E+002
 20
3.0209286E+002
 11
3.9094966E+002
 21
3.0209286E+002
  0
LINE
  8
3
  6
CONTINUOUS
 62
40
 10
3.9008171E+002
 20
3.0309286E+002
 11
3.9034966E+002
 21
3.0209286E+002
  0
LINE
  8
3
  6
CONTINUOUS
 62
40
 10
3.8964966E+002
 20
3.0309286E+002
 11
3.9008171E+002
 21
3.0309286E+002
  0
LINE
  8
3
  6
CONTINUOUS
 62
40
 10
3.9121761E+002
 20
3.0309286E+002
 11
3.9164966E+002
 21
3.0309286E+002
  0
ARC
  8
3
  6
CONTINUOUS
 62
40
 10
3.8429966E+002
 20
3.0309286E+002
 40
2.0
 50
0.0
 51
9.0E+001
  0
LINE
  8
3
  6
CONTINUOUS
 62
40
 10
3.8629966E+002
 20
2.9359286E+002
 11
3.8629966E+002
 21
3.0309286E+002
  0
LINE
  8
3
  6
CONTINUOUS
 62
40
 10
3.8797466E+002
 20
2.9359286E+002
 11
3.8629966E+002
 21
2.9359286E+002
  0
LINE
  8
3
  6
CONTINUOUS
 62
40
 10
4.2364966E+002
 20
3.1289427E+002
 11
4.2364966E+002
 21
3.1159286E+002
  0
LINE
  8
3
  6
CONTINUOUS
 62
40
 10
4.0914966E+002
 20
3.1289427E+002
 11
4.2364966E+002
 21
3.1289427E+002
  0
ARC
  8
3
  6
CONTINUOUS
 62
40
 10
4.1449966E+002
 20
3.0309286E+002
 40
2.0
 50
9.0E+001
 51
1.8E+002
  0
LINE
  8
3
  6
CONTINUOUS
 62
40
 10
4.1082466E+002
 20
3.0709286E+002
 11
4.0914966E+002
 21
3.0709286E+002
  0
LINE
  8
3
  6
CONTINUOUS
 62
40
 10
3.8964966E+002
 20
3.0709286E+002
 11
3.8797466E+002
 21
3.0709286E+002
  0
LINE
  8
3
  6
CONTINUOUS
 62
40
 10
4.0714966E+002
 20
3.0709286E+002
 11
4.0547466E+002
 21
3.0709286E+002
  0
LINE
  8
3
  6
CONTINUOUS
 62
40
 10
3.9332466E+002
 20
3.0709286E+002
 11
3.9164966E+002
 21
3.0709286E+002
  0
LINE
  8
3
  6
CONTINUOUS
 62
40
 10
4.1249966E+002
 20
2.9359286E+002
 11
4.1082466E+002
 21
2.9359286E+002
  0
LINE
  8
3
  6
CONTINUOUS
 62
40
 10
4.2297466E+002
 20
2.9359286E+002
 11
4.2129966E+002
 21
2.9359286E+002
  0
LINE
  8
3
  6
CONTINUOUS
 62
40
 10
4.2129966E+002
 20
2.9359286E+002
 11
4.2129966E+002
 21
3.0309286E+002
  0
ARC
  8
3
  6
CONTINUOUS
 62
40
 10
4.1929966E+002
 20
3.0309286E+002
 40
2.0
 50
0.0
 51
9.0E+001
  0
LINE
  8
3
  6
CONTINUOUS
 62
40
 10
4.1929966E+002
 20
3.0509286E+002
 11
4.1449966E+002
 21
3.0509286E+002
  0
LINE
  8
3
  6
CONTINUOUS
 62
40
 10
4.1249966E+002
 20
3.0309286E+002
 11
4.1249966E+002
 21
2.9359286E+002
  0
LINE
  8
3
  6
CONTINUOUS
 62
40
 10
4.2464966E+002
 20
3.1149285E+002
 11
4.2464966E+002
 21
3.1159286E+002
  0
LINE
  8
3
  6
CONTINUOUS
 62
40
 10
3.7404966E+002
 20
3.1149285E+002
 11
3.7404966E+002
 21
3.1159286E+002
  0
LINE
  8
3
  6
CONTINUOUS
 62
40
 10
3.7514966E+002
 20
3.1289427E+002
 11
3.8964966E+002
 21
3.1289427E+002
  0
LINE
  8
3
  6
CONTINUOUS
 62
40
 10
3.7514966E+002
 20
3.1159286E+002
 11
3.7514966E+002
 21
3.1289427E+002
  0
LINE
  8
3
  6
CONTINUOUS
 62
40
 10
3.7414966E+002
 20
3.1159286E+002
 11
3.7414966E+002
 21
3.1149285E+002
  0
ARC
  8
3
  6
CONTINUOUS
 62
40
 10
3.7949966E+002
 20
3.0309286E+002
 40
2.0
 50
9.0E+001
 51
1.8E+002
  0
LINE
  8
3
  6
CONTINUOUS
 62
40
 10
3.7749966E+002
 20
2.9359286E+002
 11
3.7582466E+002
 21
2.9359286E+002
  0
LINE
  8
3
  6
CONTINUOUS
 62
40
 10
3.7749966E+002
 20
3.0309286E+002
 11
3.7749966E+002
 21
2.9359286E+002
  0
LINE
  8
3
  6
CONTINUOUS
 62
40
 10
3.8429966E+002
 20
3.0509286E+002
 11
3.7949966E+002
 21
3.0509286E+002
  0
LINE
  8
3
  6
CONTINUOUS
 62
40
 10
3.7759966E+002
 20
3.0371736E+002
 11
3.7759966E+002
 21
2.9591728E+002
  0
LINE
  8
3
  6
CONTINUOUS
 62
40
 10
3.8312288E+002
 20
2.9509286E+002
 11
3.8067644E+002
 21
2.9509286E+002
  0
LINE
  8
3
  6
CONTINUOUS
 62
40
 10
3.8619966E+002
 20
3.0364275E+002
 11
3.8619966E+002
 21
2.9591728E+002
  0
LINE
  8
3
  6
CONTINUOUS
 62
40
 10
3.9164966E+002
 20
3.0309286E+002
 11
3.9164966E+002
 21
3.1289427E+002
  0
LINE
  8
3
  6
CONTINUOUS
 62
40
 10
3.9509966E+002
 20
3.0371736E+002
 11
3.9509966E+002
 21
2.9591729E+002
  0
LINE
  8
3
  6
CONTINUOUS
 62
40
 10
4.0062286E+002
 20
2.9509286E+002
 11
3.9817645E+002
 21
2.9509286E+002
  0
LINE
  8
3
  6
CONTINUOUS
 62
40
 10
4.0369966E+002
 20
3.036427E+002
 11
4.0369966E+002
 21
2.9591729E+002
  0
LINE
  8
3
  6
CONTINUOUS
 62
40
 10
4.0714966E+002
 20
3.1289427E+002
 11
4.0714966E+002
 21
3.0309286E+002
  0
LINE
  8
3
  6
CONTINUOUS
 62
40
 10
4.0714966E+002
 20
3.0309286E+002
 11
4.0758171E+002
 21
3.0309286E+002
  0
LINE
  8
3
  6
CONTINUOUS
 62
40
 10
4.0871761E+002
 20
3.0309286E+002
 11
4.0914966E+002
 21
3.0309286E+002
  0
LINE
  8
3
  6
CONTINUOUS
 62
40
 10
4.0758171E+002
 20
3.0309286E+002
 11
4.0784966E+002
 21
3.0209286E+002
  0
LINE
  8
3
  6
CONTINUOUS
 62
40
 10
4.1259966E+002
 20
2.9591728E+002
 11
4.1259966E+002
 21
3.0364278E+002
  0
LINE
  8
3
  6
CONTINUOUS
 62
40
 10
4.1812286E+002
 20
2.9509286E+002
 11
4.1567645E+002
 21
2.9509286E+002
  0
LINE
  8
3
  6
CONTINUOUS
 62
40
 10
4.2119966E+002
 20
2.9591729E+002
 11
4.2119966E+002
 21
3.0364278E+002
  0
LINE
  8
3
  6
CONTINUOUS
 62
40
 10
3.7314966E+002
 20
3.1159286E+002
 11
3.7364966E+002
 21
3.1159286E+002
  0
LINE
  8
3
  6
CONTINUOUS
 62
40
 10
3.7364966E+002
 20
3.1159286E+002
 11
3.7514966E+002
 21
3.1159286E+002
  0
LINE
  8
3
  6
CONTINUOUS
 62
40
 10
4.2474966E+002
 20
3.1149285E+002
 11
4.2474966E+002
 21
3.1159286E+002
  0
LINE
  8
3
  6
CONTINUOUS
 62
40
 10
4.2514966E+002
 20
3.1159286E+002
 11
4.2564966E+002
 21
3.1159286E+002
  0
LINE
  8
3
  6
CONTINUOUS
 62
40
 10
4.2364966E+002
 20
3.1159286E+002
 11
4.2514966E+002
 21
3.1159286E+002
  0
LINE
  8
3
  6
CONTINUOUS
 62
40
 10
3.7582466E+002
 20
3.0709286E+002
 11
3.7514966E+002
 21
3.0709286E+002
  0
LINE
  8
3
  6
CONTINUOUS
 62
40
 10
4.2364966E+002
 20
3.0709286E+002
 11
4.2297466E+002
 21
3.0709286E+002
  0
LINE
  8
3
  6
CONTINUOUS
 62
40
 10
3.8964966E+002
 20
3.1289427E+002
 11
3.8964966E+002
 21
3.0309286E+002
  0
LINE
  8
3
  6
CONTINUOUS
 62
40
 10
4.0914966E+002
 20
3.0309286E+002
 11
4.0914966E+002
 21
3.1289427E+002
  0
POLYLINE
  8
3
  6
CONTINUOUS
 62
3
 66
1
 40
0.0
 41
0.0
 70
2
  0
VERTEX
  8
3
 42
0.0
 10
4.2514966E+002
 20
3.1624104E+002
 70
0
  0
VERTEX
  8
3
 42
-3.714361E-004
 10
4.2516373E+002
 20
3.1624103E+002
 70
1
  0
VERTEX
  8
3
 42
-3.843606E-004
 10
4.2517774E+002
 20
3.16241E+002
 70
0
  0
VERTEX
  8
3
 42
-3.77623E-004
 10
4.251917E+002
 20
3.1624094E+002
 70
1
  0
VERTEX
  8
3
 42
-3.489339E-004
 10
4.2520559E+002
 20
3.1624087E+002
 70
0
  0
VERTEX
  8
3
 42
-3.29017E-004
 10
4.2521942E+002
 20
3.1624077E+002
 70
1
  0
VERTEX
  8
3
 42
-3.114647E-004
 10
4.2523317E+002
 20
3.1624066E+002
 70
0
  0
VERTEX
  8
3
 42
-2.954382E-004
 10
4.2524683E+002
 20
3.1624054E+002
 70
1
  0
VERTEX
  8
3
 42
-2.75518E-004
 10
4.252604E+002
 20
3.162404E+002
 70
0
  0
VERTEX
  8
3
 42
-2.588084E-004
 10
4.2527387E+002
 20
3.1624024E+002
 70
1
  0
VERTEX
  8
3
 42
-2.396386E-004
 10
4.2528723E+002
 20
3.1624008E+002
 70
0
  0
VERTEX
  8
3
 42
-2.231211E-004
 10
4.2530048E+002
 20
3.162399E+002
 70
1
  0
VERTEX
  8
3
 42
-2.036154E-004
 10
4.2531361E+002
 20
3.1623971E+002
 70
0
  0
VERTEX
  8
3
 42
-1.86762E-004
 10
4.253266E+002
 20
3.1623952E+002
 70
1
  0
VERTEX
  8
3
 42
-1.66868E-004
 10
4.2533946E+002
 20
3.1623931E+002
 70
0
  0
VERTEX
  8
3
 42
-1.494698E-004
 10
4.2535218E+002
 20
3.1623911E+002
 70
1
  0
VERTEX
  8
3
 42
-1.288263E-004
 10
4.2536474E+002
 20
3.1623889E+002
 70
0
  0
VERTEX
  8
3
 42
-1.10542E-004
 10
4.2537715E+002
 20
3.1623868E+002
 70
1
  0
VERTEX
  8
3
 42
-8.88117E-005
 10
4.2538939E+002
 20
3.1623846E+002
 70
0
  0
VERTEX
  8
3
 42
-6.92458E-005
 10
4.2540145E+002
 20
3.1623824E+002
 70
1
  0
VERTEX
  8
3
 42
-4.59566E-005
 10
4.2541333E+002
 20
3.1623802E+002
 70
0
  0
VERTEX
  8
3
 42
-2.46688E-005
 10
4.2542503E+002
 20
3.1623781E+002
 70
1
  0
VERTEX
  8
3
 42
5.843E-007
 10
4.2543653E+002
 20
3.1623759E+002
 70
0
  0
VERTEX
  8
3
 42
2.4377E-005
 10
4.2544782E+002
 20
3.1623738E+002
 70
1
  0
VERTEX
  8
3
 42
5.28387E-005
 10
4.2545891E+002
 20
3.1623718E+002
 70
0
  0
VERTEX
  8
3
 42
7.92129E-005
 10
4.2546978E+002
 20
3.1623698E+002
 70
1
  0
VERTEX
  8
3
 42
1.095692E-004
 10
4.2548042E+002
 20
3.162368E+002
 70
0
  0
VERTEX
  8
3
 42
1.42457E-004
 10
4.2549083E+002
 20
3.1623662E+002
 70
1
  0
VERTEX
  8
3
 42
1.84679E-004
 10
4.25501E+002
 20
3.1623645E+002
 70
0
  0
VERTEX
  8
3
 42
2.050453E-004
 10
4.2551092E+002
 20
3.1623629E+002
 70
1
  0
VERTEX
  8
3
 42
2.073583E-004
 10
4.2552054E+002
 20
3.1623615E+002
 70
0
  0
VERTEX
  8
3
 42
2.300853E-004
 10
4.2552975E+002
 20
3.1623602E+002
 70
1
  0
VERTEX
  8
3
 42
2.717161E-004
 10
4.2553859E+002
 20
3.162359E+002
 70
0
  0
VERTEX
  8
3
 42
3.169642E-004
 10
4.2554703E+002
 20
3.162358E+002
 70
1
  0
VERTEX
  8
3
 42
3.696267E-004
 10
4.255551E+002
 20
3.1623572E+002
 70
0
  0
VERTEX
  8
3
 42
4.282432E-004
 10
4.2556279E+002
 20
3.1623565E+002
 70
1
  0
VERTEX
  8
3
 42
4.958877E-004
 10
4.2557012E+002
 20
3.162356E+002
 70
0
  0
VERTEX
  8
3
 42
5.725191E-004
 10
4.2557708E+002
 20
3.1623557E+002
 70
1
  0
VERTEX
  8
3
 42
6.609914E-004
 10
4.255837E+002
 20
3.1623555E+002
 70
0
  0
VERTEX
  8
3
 42
7.632624E-004
 10
4.2558995E+002
 20
3.1623555E+002
 70
1
  0
VERTEX
  8
3
 42
8.815428E-004
 10
4.2559586E+002
 20
3.1623557E+002
 70
0
  0
VERTEX
  8
3
 42
1.020535E-003
 10
4.2560143E+002
 20
3.1623562E+002
 70
1
  0
VERTEX
  8
3
 42
1.1813866E-003
 10
4.2560667E+002
 20
3.1623568E+002
 70
0
  0
VERTEX
  8
3
 42
1.3770994E-003
 10
4.2561157E+002
 20
3.1623576E+002
 70
1
  0
VERTEX
  8
3
 42
1.6086793E-003
 10
4.2561615E+002
 20
3.1623587E+002
 70
0
  0
VERTEX
  8
3
 42
1.8861884E-003
 10
4.256204E+002
 20
3.16236E+002
 70
1
  0
VERTEX
  8
3
 42
2.2047584E-003
 10
4.2562435E+002
 20
3.1623615E+002
 70
0
  0
VERTEX
  8
3
 42
2.6494144E-003
 10
4.2562799E+002
 20
3.1623632E+002
 70
1
  0
VERTEX
  8
3
 42
3.2390131E-003
 10
4.2563133E+002
 20
3.1623652E+002
 70
0
  0
VERTEX
  8
3
 42
3.8300929E-003
 10
4.2563436E+002
 20
3.1623675E+002
 70
1
  0
VERTEX
  8
3
 42
4.3283826E-003
 10
4.2563711E+002
 20
3.16237E+002
 70
0
  0
VERTEX
  8
3
 42
5.9081096E-003
 10
4.2563956E+002
 20
3.1623727E+002
 70
1
  0
VERTEX
  8
3
 42
9.119312E-003
 10
4.2564174E+002
 20
3.1623758E+002
 70
0
  0
VERTEX
  8
3
 42
9.3864117E-003
 10
4.2564365E+002
 20
3.1623792E+002
 70
1
  0
VERTEX
  8
3
 42
3.980808E-003
 10
4.2564527E+002
 20
3.1623827E+002
 70
0
  0
VERTEX
  8
3
 42
1.8678719E-002
 10
4.256466E+002
 20
3.1623859E+002
 70
1
  0
VERTEX
  8
3
 42
6.3308092E-002
 10
4.2564774E+002
 20
3.1623907E+002
 70
0
  0
VERTEX
  8
3
 42
6.4540465E-002
 10
4.2564876E+002
 20
3.162399E+002
 70
1
  0
VERTEX
  8
3
 42
4.8736075E-002
 10
4.2564966E+002
 20
3.1624104E+002
 70
0
  0
SEQEND
  0
LINE
  8
3
  6
CONTINUOUS
 62
3
 10
4.2514966E+002
 20
3.1159286E+002
 11
4.2514966E+002
 21
3.1624104E+002
  0
LINE
  8
3
  6
CONTINUOUS
 62
3
 10
3.7364966E+002
 20
3.1706803E+002
 11
3.7364966E+002
 21
3.1756734E+002
  0
LINE
  8
3
  6
CONTINUOUS
 62
3
 10
3.7364966E+002
 20
3.1756734E+002
 11
3.7314966E+002
 21
3.1756734E+002
  0
POLYLINE
  8
3
  6
CONTINUOUS
 62
3
 66
1
 40
0.0
 41
0.0
 70
2
  0
VERTEX
  8
3
 42
0.0
 10
3.7314966E+002
 20
3.1656871E+002
 70
0
  0
VERTEX
  8
3
 42
-1.2820748E-002
 10
3.7315021E+002
 20
3.1659251E+002
 70
1
  0
VERTEX
  8
3
 42
-1.2172668E-002
 10
3.7315196E+002
 20
3.1661662E+002
 70
0
  0
VERTEX
  8
3
 42
-1.1990145E-002
 10
3.7315496E+002
 20
3.1664107E+002
 70
1
  0
VERTEX
  8
3
 42
-1.2496995E-002
 10
3.7315919E+002
 20
3.1666576E+002
 70
0
  0
VERTEX
  8
3
 42
-1.273562E-002
 10
3.7316479E+002
 20
3.1669057E+002
 70
1
  0
VERTEX
  8
3
 42
-1.2890634E-002
 10
3.7317173E+002
 20
3.1671542E+002
 70
0
  0
VERTEX
  8
3
 42
-1.2991241E-002
 10
3.7318008E+002
 20
3.1674018E+002
 70
1
  0
VERTEX
  8
3
 42
-1.3197491E-002
 10
3.7318981E+002
 20
3.1676477E+002
 70
0
  0
VERTEX
  8
3
 42
-1.3305946E-002
 10
3.7320098E+002
 20
3.1678904E+002
 70
1
  0
VERTEX
  8
3
 42
-1.3449106E-002
 10
3.7321353E+002
 20
3.168129E+002
 70
0
  0
VERTEX
  8
3
 42
-1.3519653E-002
 10
3.7322748E+002
 20
3.1683621E+002
 70
1
  0
VERTEX
  8
3
 42
-1.3615826E-002
 10
3.7324274E+002
 20
3.1685887E+002
 70
0
  0
VERTEX
  8
3
 42
-1.3667953E-002
 10
3.7325933E+002
 20
3.1688075E+002
 70
1
  0
VERTEX
  8
3
 42
-1.3735788E-002
 10
3.7327713E+002
 20
3.1690176E+002
 70
0
  0
VERTEX
  8
3
 42
-1.3723993E-002
 10
3.7329612E+002
 20
3.1692177E+002
 70
1
  0
VERTEX
  8
3
 42
-1.3658285E-002
 10
3.7331615E+002
 20
3.1694073E+002
 70
0
  0
VERTEX
  8
3
 42
-1.3729649E-002
 10
3.7333718E+002
 20
3.169585E+002
 70
1
  0
VERTEX
  8
3
 42
-1.389251E-002
 10
3.733591E+002
 20
3.1697507E+002
 70
0
  0
VERTEX
  8
3
 42
-1.3536901E-002
 10
3.7338185E+002
 20
3.1699032E+002
 70
1
  0
VERTEX
  8
3
 42
-1.2718348E-002
 10
3.7340514E+002
 20
3.1700425E+002
 70
0
  0
VERTEX
  8
3
 42
-1.3675945E-002
 10
3.7342884E+002
 20
3.1701676E+002
 70
1
  0
VERTEX
  8
3
 42
-1.5711666E-002
 10
3.7345333E+002
 20
3.1702793E+002
 70
0
  0
VERTEX
  8
3
 42
-1.2363622E-002
 10
3.734787E+002
 20
3.1703769E+002
 70
1
  0
VERTEX
  8
3
 42
-5.3863141E-003
 10
3.7350275E+002
 20
3.1704599E+002
 70
0
  0
VERTEX
  8
3
 42
-1.6167422E-002
 10
3.7352466E+002
 20
3.1705277E+002
 70
1
  0
VERTEX
  8
3
 42
-2.7033105E-002
 10
3.7355248E+002
 20
3.1705851E+002
 70
0
  0
VERTEX
  8
3
 42
-1.3849846E-002
 10
3.7359471E+002
 20
3.1706361E+002
 70
1
  0
VERTEX
  8
3
 42
-7.6142723E-003
 10
3.7364966E+002
 20
3.1706803E+002
 70
0
  0
SEQEND
  0
POLYLINE
  8
3
  6
CONTINUOUS
 62
3
 66
1
 40
0.0
 41
0.0
 70
2
  0
VERTEX
  8
3
 42
0.0
 10
3.7364966E+002
 20
3.1674036E+002
 70
0
  0
VERTEX
  8
3
 42
6.8612952E-003
 10
3.7363559E+002
 20
3.1674016E+002
 70
1
  0
VERTEX
  8
3
 42
6.9242691E-003
 10
3.7362158E+002
 20
3.1673958E+002
 70
0
  0
VERTEX
  8
3
 42
6.938173E-003
 10
3.7360762E+002
 20
3.167386E+002
 70
1
  0
VERTEX
  8
3
 42
6.9101338E-003
 10
3.7359372E+002
 20
3.1673724E+002
 70
0
  0
VERTEX
  8
3
 42
6.9007648E-003
 10
3.735799E+002
 20
3.167355E+002
 70
1
  0
VERTEX
  8
3
 42
6.8945539E-003
 10
3.7356615E+002
 20
3.1673338E+002
 70
0
  0
VERTEX
  8
3
 42
6.8909896E-003
 10
3.7355249E+002
 20
3.1673088E+002
 70
1
  0
VERTEX
  8
3
 42
6.882975E-003
 10
3.7353892E+002
 20
3.1672802E+002
 70
0
  0
VERTEX
  8
3
 42
6.879911E-003
 10
3.7352545E+002
 20
3.1672477E+002
 70
1
  0
VERTEX
  8
3
 42
6.875457E-003
 10
3.7351208E+002
 20
3.1672117E+002
 70
0
  0
VERTEX
  8
3
 42
6.8742769E-003
 10
3.7349884E+002
 20
3.1671719E+002
 70
1
  0
VERTEX
  8
3
 42
6.872671E-003
 10
3.7348571E+002
 20
3.1671286E+002
 70
0
  0
VERTEX
  8
3
 42
6.8733854E-003
 10
3.7347271E+002
 20
3.1670816E+002
 70
1
  0
VERTEX
  8
3
 42
6.8749092E-003
 10
3.7345985E+002
 20
3.1670312E+002
 70
0
  0
VERTEX
  8
3
 42
6.8776166E-003
 10
3.7344714E+002
 20
3.1669771E+002
 70
1
  0
VERTEX
  8
3
 42
6.8822977E-003
 10
3.7343457E+002
 20
3.1669196E+002
 70
0
  0
VERTEX
  8
3
 42
6.8868501E-003
 10
3.7342217E+002
 20
3.1668585E+002
 70
1
  0
VERTEX
  8
3
 42
6.8943547E-003
 10
3.7340993E+002
 20
3.166794E+002
 70
0
  0
VERTEX
  8
3
 42
6.9008233E-003
 10
3.7339787E+002
 20
3.1667261E+002
 70
1
  0
VERTEX
  8
3
 42
6.911578E-003
 10
3.7338598E+002
 20
3.1666548E+002
 70
0
  0
VERTEX
  8
3
 42
6.9186647E-003
 10
3.7337429E+002
 20
3.1665801E+002
 70
1
  0
VERTEX
  8
3
 42
6.9299234E-003
 10
3.7336278E+002
 20
3.1665021E+002
 70
0
  0
VERTEX
  8
3
 42
6.9405062E-003
 10
3.7335149E+002
 20
3.1664208E+002
 70
1
  0
VERTEX
  8
3
 42
6.959507E-003
 10
3.733404E+002
 20
3.1663362E+002
 70
0
  0
VERTEX
  8
3
 42
6.9618441E-003
 10
3.7332954E+002
 20
3.1662483E+002
 70
1
  0
VERTEX
  8
3
 42
6.9634928E-003
 10
3.7331889E+002
 20
3.1661572E+002
 70
0
  0
VERTEX
  8
3
 42
6.9930562E-003
 10
3.7330849E+002
 20
3.166063E+002
 70
1
  0
VERTEX
  8
3
 42
7.048714E-003
 10
3.7329831E+002
 20
3.1659655E+002
 70
0
  0
VERTEX
  8
3
 42
6.9611331E-003
 10
3.7328839E+002
 20
3.1658648E+002
 70
1
  0
VERTEX
  8
3
 42
6.8742349E-003
 10
3.7327878E+002
 20
3.1657618E+002
 70
0
  0
VERTEX
  8
3
 42
6.893849E-003
 10
3.7326956E+002
 20
3.1656573E+002
 70
1
  0
VERTEX
  8
3
 42
6.8308858E-003
 10
3.7326073E+002
 20
3.1655515E+002
 70
0
  0
VERTEX
  8
3
 42
6.8018004E-003
 10
3.7325228E+002
 20
3.1654444E+002
 70
1
  0
VERTEX
  8
3
 42
6.7580637E-003
 10
3.7324421E+002
 20
3.1653362E+002
 70
0
  0
VERTEX
  8
3
 42
6.7315086E-003
 10
3.7323652E+002
 20
3.1652269E+002
 70
1
  0
VERTEX
  8
3
 42
6.6680291E-003
 10
3.7322919E+002
 20
3.1651167E+002
 70
0
  0
VERTEX
  8
3
 42
6.627658E-003
 10
3.7322223E+002
 20
3.1650055E+002
 70
1
  0
VERTEX
  8
3
 42
6.5589119E-003
 10
3.7321562E+002
 20
3.1648936E+002
 70
0
  0
VERTEX
  8
3
 42
6.5126677E-003
 10
3.7320937E+002
 20
3.164781E+002
 70
1
  0
VERTEX
  8
3
 42
6.4382069E-003
 10
3.7320345E+002
 20
3.1646678E+002
 70
0
  0
VERTEX
  8
3
 42
6.385243E-003
 10
3.7319789E+002
 20
3.164554E+002
 70
1
  0
VERTEX
  8
3
 42
6.3044071E-003
 10
3.7319265E+002
 20
3.1644398E+002
 70
0
  0
VERTEX
  8
3
 42
6.253022E-003
 10
3.7318775E+002
 20
3.1643253E+002
 70
1
  0
VERTEX
  8
3
 42
6.1821409E-003
 10
3.7318317E+002
 20
3.1642105E+002
 70
0
  0
VERTEX
  8
3
 42
6.1145274E-003
 10
3.7317891E+002
 20
3.1640955E+002
 70
1
  0
VERTEX
  8
3
 42
6.005746E-003
 10
3.7317496E+002
 20
3.1639804E+002
 70
0
  0
VERTEX
  8
3
 42
5.99417E-003
 10
3.7317133E+002
 20
3.1638654E+002
 70
1
  0
VERTEX
  8
3
 42
6.0203171E-003
 10
3.7316799E+002
 20
3.1637504E+002
 70
0
  0
VERTEX
  8
3
 42
5.8252789E-003
 10
3.7316495E+002
 20
3.1636354E+002
 70
1
  0
VERTEX
  8
3
 42
5.4217497E-003
 10
3.7316221E+002
 20
3.1635211E+002
 70
0
  0
VERTEX
  8
3
 42
5.8608663E-003
 10
3.7315976E+002
 20
3.1634078E+002
 70
1
  0
VERTEX
  8
3
 42
6.8066362E-003
 10
3.7315757E+002
 20
3.1632933E+002
 70
0
  0
VERTEX
  8
3
 42
5.2677282E-003
 10
3.7315567E+002
 20
3.1631767E+002
 70
1
  0
VERTEX
  8
3
 42
2.0703713E-003
 10
3.7315405E+002
 20
3.1630675E+002
 70
0
  0
VERTEX
  8
3
 42
7.109663E-003
 10
3.7315272E+002
 20
3.1629691E+002
 70
1
  0
VERTEX
  8
3
 42
1.2111339E-002
 10
3.7315158E+002
 20
3.1628447E+002
 70
0
  0
VERTEX
  8
3
 42
6.1007666E-003
 10
3.7315056E+002
 20
3.1626559E+002
 70
1
  0
VERTEX
  8
3
 42
3.3148481E-003
 10
3.7314966E+002
 20
3.1624104E+002
 70
0
  0
SEQEND
  0
LINE
  8
3
  6
CONTINUOUS
 62
3
 10
3.7364966E+002
 20
3.1674036E+002
 11
3.7364966E+002
 21
3.1706803E+002
  0
LINE
  8
3
  6
CONTINUOUS
 62
3
 10
4.2514966E+002
 20
3.1674036E+002
 11
3.7364966E+002
 21
3.1674036E+002
  0
LINE
  8
3
  6
CONTINUOUS
 62
3
 10
3.7364966E+002
 20
3.1706803E+002
 11
4.2514966E+002
 21
3.1706803E+002
  0
LINE
  8
3
  6
CONTINUOUS
 62
3
 10
4.2514966E+002
 20
3.1706803E+002
 11
4.2514966E+002
 21
3.1674036E+002
  0
LINE
  8
3
  6
CONTINUOUS
 62
3
 10
3.7364966E+002
 20
3.1756734E+002
 11
4.2514966E+002
 21
3.1756734E+002
  0
LINE
  8
3
  6
CONTINUOUS
 62
3
 10
4.2514966E+002
 20
3.1756734E+002
 11
4.2514966E+002
 21
3.1706803E+002
  0
LINE
  8
3
  6
CONTINUOUS
 62
3
 10
3.7364966E+002
 20
3.2664286E+002
 11
3.7364966E+002
 21
3.1756734E+002
  0
LINE
  8
3
  6
CONTINUOUS
 62
3
 10
4.2514966E+002
 20
3.1756734E+002
 11
4.2514966E+002
 21
3.2664286E+002
  0
LINE
  8
3
  6
CONTINUOUS
 62
40
 10
3.9332466E+002
 20
2.9359286E+002
 11
3.9332466E+002
 21
3.0709286E+002
  0
LINE
  8
3
  6
CONTINUOUS
 62
40
 10
4.0547466E+002
 20
3.0709286E+002
 11
4.0547466E+002
 21
2.9359286E+002
  0
LINE
  8
3
  6
CONTINUOUS
 62
40
 10
3.8797466E+002
 20
3.0709286E+002
 11
3.8797466E+002
 21
2.9359286E+002
  0
LINE
  8
3
  6
CONTINUOUS
 62
40
 10
4.1082466E+002
 20
2.9359286E+002
 11
4.1082466E+002
 21
3.0709286E+002
  0
LINE
  8
3
  6
CONTINUOUS
 62
40
 10
4.2297466E+002
 20
3.0709286E+002
 11
4.2297466E+002
 21
2.9359286E+002
  0
LINE
  8
3
  6
CONTINUOUS
 62
40
 10
3.7582466E+002
 20
2.9359286E+002
 11
3.7582466E+002
 21
3.0709286E+002
  0
LINE
  8
3
  6
CONTINUOUS
 62
3
 10
4.2514966E+002
 20
3.1624104E+002
 11
3.7364966E+002
 21
3.1624104E+002
  0
LINE
  8
3
  6
CONTINUOUS
 62
3
 10
3.7364966E+002
 20
3.1624104E+002
 11
3.7364966E+002
 21
3.1159286E+002
  0
POLYLINE
  8
3
  6
CONTINUOUS
 62
3
 66
1
 40
0.0
 41
0.0
 70
2
  0
VERTEX
  8
3
 42
0.0
 10
3.7314966E+002
 20
3.1624104E+002
 70
0
  0
VERTEX
  8
3
 42
1.105367E-001
 10
3.7314978E+002
 20
3.162405E+002
 70
1
  0
VERTEX
  8
3
 42
8.6823412E-002
 10
3.7315013E+002
 20
3.1623999E+002
 70
0
  0
VERTEX
  8
3
 42
5.7116577E-002
 10
3.7315073E+002
 20
3.1623952E+002
 70
1
  0
VERTEX
  8
3
 42
3.7664095E-002
 10
3.7315158E+002
 20
3.1623907E+002
 70
0
  0
VERTEX
  8
3
 42
2.4988218E-002
 10
3.7315269E+002
 20
3.1623865E+002
 70
1
  0
VERTEX
  8
3
 42
1.7583175E-002
 10
3.7315405E+002
 20
3.1623827E+002
 70
0
  0
VERTEX
  8
3
 42
1.269826E-002
 10
3.7315568E+002
 20
3.1623791E+002
 70
1
  0
VERTEX
  8
3
 42
9.6103276E-003
 10
3.7315757E+002
 20
3.1623758E+002
 70
0
  0
VERTEX
  8
3
 42
7.3838089E-003
 10
3.7315975E+002
 20
3.1623727E+002
 70
1
  0
VERTEX
  8
3
 42
5.8594909E-003
 10
3.7316221E+002
 20
3.16237E+002
 70
0
  0
VERTEX
  8
3
 42
4.6908197E-003
 10
3.7316495E+002
 20
3.1623675E+002
 70
1
  0
VERTEX
  8
3
 42
3.8422969E-003
 10
3.7316799E+002
 20
3.1623652E+002
 70
0
  0
VERTEX
  8
3
 42
3.1628482E-003
 10
3.7317133E+002
 20
3.1623632E+002
 70
1
  0
VERTEX
  8
3
 42
2.6470903E-003
 10
3.7317496E+002
 20
3.1623615E+002
 70
0
  0
VERTEX
  8
3
 42
2.2215499E-003
 10
3.7317891E+002
 20
3.16236E+002
 70
1
  0
VERTEX
  8
3
 42
1.8869402E-003
 10
3.7318317E+002
 20
3.1623587E+002
 70
0
  0
VERTEX
  8
3
 42
1.605132E-003
 10
3.7318775E+002
 20
3.1623576E+002
 70
1
  0
VERTEX
  8
3
 42
1.3770231E-003
 10
3.7319265E+002
 20
3.1623568E+002
 70
0
  0
VERTEX
  8
3
 42
1.1822389E-003
 10
3.7319789E+002
 20
3.1623562E+002
 70
1
  0
VERTEX
  8
3
 42
1.0205933E-003
 10
3.7320345E+002
 20
3.1623557E+002
 70
0
  0
VERTEX
  8
3
 42
8.813757E-004
 10
3.7320936E+002
 20
3.1623555E+002
 70
1
  0
VERTEX
  8
3
 42
7.632634E-004
 10
3.7321562E+002
 20
3.1623555E+002
 70
0
  0
VERTEX
  8
3
 42
6.610368E-004
 10
3.7322223E+002
 20
3.1623557E+002
 70
1
  0
VERTEX
  8
3
 42
5.72522E-004
 10
3.7322919E+002
 20
3.162356E+002
 70
0
  0
VERTEX
  8
3
 42
4.958777E-004
 10
3.7323652E+002
 20
3.1623565E+002
 70
1
  0
VERTEX
  8
3
 42
4.282414E-004
 10
3.7324421E+002
 20
3.1623572E+002
 70
0
  0
VERTEX
  8
3
 42
3.696271E-004
 10
3.7325228E+002
 20
3.162358E+002
 70
1
  0
VERTEX
  8
3
 42
3.169628E-004
 10
3.7326073E+002
 20
3.162359E+002
 70
0
  0
VERTEX
  8
3
 42
2.717143E-004
 10
3.7326956E+002
 20
3.1623602E+002
 70
1
  0
VERTEX
  8
3
 42
2.300848E-004
 10
3.7327878E+002
 20
3.1623615E+002
 70
0
  0
VERTEX
  8
3
 42
2.073581E-004
 10
3.7328839E+002
 20
3.1623629E+002
 70
1
  0
VERTEX
  8
3
 42
2.050446E-004
 10
3.7329831E+002
 20
3.1623645E+002
 70
0
  0
VERTEX
  8
3
 42
1.84678E-004
 10
3.7330849E+002
 20
3.1623662E+002
 70
1
  0
VERTEX
  8
3
 42
1.424558E-004
 10
3.7331889E+002
 20
3.162368E+002
 70
0
  0
VERTEX
  8
3
 42
1.095664E-004
 10
3.7332954E+002
 20
3.1623698E+002
 70
1
  0
VERTEX
  8
3
 42
7.92066E-005
 10
3.733404E+002
 20
3.1623718E+002
 70
0
  0
VERTEX
  8
3
 42
5.28351E-005
 10
3.7335149E+002
 20
3.1623738E+002
 70
1
  0
VERTEX
  8
3
 42
2.4383E-005
 10
3.7336278E+002
 20
3.1623759E+002
 70
0
  0
VERTEX
  8
3
 42
5.766E-007
 10
3.7337429E+002
 20
3.1623781E+002
 70
1
  0
VERTEX
  8
3
 42
-2.47156E-005
 10
3.7338598E+002
 20
3.1623802E+002
 70
0
  0
VERTEX
  8
3
 42
-4.5952E-005
 10
3.7339786E+002
 20
3.1623824E+002
 70
1
  0
VERTEX
  8
3
 42
-6.9098E-005
 10
3.7340993E+002
 20
3.1623846E+002
 70
0
  0
VERTEX
  8
3
 42
-8.88578E-005
 10
3.7342217E+002
 20
3.1623868E+002
 70
1
  0
VERTEX
  8
3
 42
-1.111116E-004
 10
3.7343457E+002
 20
3.1623889E+002
 70
0
  0
VERTEX
  8
3
 42
-1.286811E-004
 10
3.7344714E+002
 20
3.1623911E+002
 70
1
  0
VERTEX
  8
3
 42
-1.47453E-004
 10
3.7345985E+002
 20
3.1623931E+002
 70
0
  0
VERTEX
  8
3
 42
-1.674346E-004
 10
3.734727E+002
 20
3.1623952E+002
 70
1
  0
VERTEX
  8
3
 42
-1.938326E-004
 10
3.7348571E+002
 20
3.1623971E+002
 70
0
  0
VERTEX
  8
3
 42
-2.015778E-004
 10
3.7349886E+002
 20
3.162399E+002
 70
1
  0
VERTEX
  8
3
 42
-1.990741E-004
 10
3.7351208E+002
 20
3.1624008E+002
 70
0
  0
VERTEX
  8
3
 42
-2.470872E-004
 10
3.7352533E+002
 20
3.1624024E+002
 70
1
  0
VERTEX
  8
3
 42
-3.348203E-004
 10
3.7353891E+002
 20
3.162404E+002
 70
0
  0
VERTEX
  8
3
 42
-2.511647E-004
 10
3.7355293E+002
 20
3.1624054E+002
 70
1
  0
VERTEX
  8
3
 42
-4.88067E-005
 10
3.7356615E+002
 20
3.1624066E+002
 70
0
  0
VERTEX
  8
3
 42
-4.189949E-004
 10
3.7357815E+002
 20
3.1624077E+002
 70
1
  0
VERTEX
  8
3
 42
-8.01026E-004
 10
3.7359372E+002
 20
3.1624087E+002
 70
0
  0
VERTEX
  8
3
 42
-3.914147E-004
 10
3.7361789E+002
 20
3.1624096E+002
 70
1
  0
VERTEX
  8
3
 42
-2.007854E-004
 10
3.7364966E+002
 20
3.1624104E+002
 70
0
  0
SEQEND
  0
LINE
  8
3
  6
CONTINUOUS
 62
3
 10
3.7364966E+002
 20
3.1624104E+002
 11
3.7364966E+002
 21
3.1674036E+002
  0
LINE
  8
3
  6
CONTINUOUS
 62
3
 10
4.2514966E+002
 20
3.1674036E+002
 11
4.2514966E+002
 21
3.1624104E+002
  0
POLYLINE
  8
3
  6
CONTINUOUS
 62
40
 66
1
 40
0.0
 41
0.0
 70
2
  0
VERTEX
  8
3
 42
0.0
 10
4.2564966E+002
 20
3.1624104E+002
 70
0
  0
VERTEX
  8
3
 42
6.4594E-005
 10
4.2564966E+002
 20
3.1624137E+002
 70
1
  0
VERTEX
  8
3
 42
6.69252E-005
 10
4.2564966E+002
 20
3.1624169E+002
 70
0
  0
VERTEX
  8
3
 42
6.93151E-005
 10
4.2564966E+002
 20
3.16242E+002
 70
1
  0
VERTEX
  8
3
 42
7.13998E-005
 10
4.2564966E+002
 20
3.1624231E+002
 70
0
  0
VERTEX
  8
3
 42
7.3667E-005
 10
4.2564965E+002
 20
3.1624262E+002
 70
1
  0
VERTEX
  8
3
 42
7.58689E-005
 10
4.2564965E+002
 20
3.1624292E+002
 70
0
  0
VERTEX
  8
3
 42
7.82042E-005
 10
4.2564965E+002
 20
3.1624321E+002
 70
1
  0
VERTEX
  8
3
 42
8.03569E-005
 10
4.2564965E+002
 20
3.162435E+002
 70
0
  0
VERTEX
  8
3
 42
8.26613E-005
 10
4.2564965E+002
 20
3.1624379E+002
 70
1
  0
VERTEX
  8
3
 42
8.47817E-005
 10
4.2564965E+002
 20
3.1624407E+002
 70
0
  0
VERTEX
  8
3
 42
8.70453E-005
 10
4.2564964E+002
 20
3.1624434E+002
 70
1
  0
VERTEX
  8
3
 42
8.90826E-005
 10
4.2564964E+002
 20
3.1624462E+002
 70
0
  0
VERTEX
  8
3
 42
9.12609E-005
 10
4.2564964E+002
 20
3.1624488E+002
 70
1
  0
VERTEX
  8
3
 42
9.31799E-005
 10
4.2564964E+002
 20
3.1624515E+002
 70
0
  0
VERTEX
  8
3
 42
9.5234E-005
 10
4.2564964E+002
 20
3.1624541E+002
 70
1
  0
VERTEX
  8
3
 42
9.69914E-005
 10
4.2564963E+002
 20
3.1624566E+002
 70
0
  0
VERTEX
  8
3
 42
9.88733E-005
 10
4.2564963E+002
 20
3.1624591E+002
 70
1
  0
VERTEX
  8
3
 42
1.004176E-004
 10
4.2564963E+002
 20
3.1624616E+002
 70
0
  0
VERTEX
  8
3
 42
1.020878E-004
 10
4.2564963E+002
 20
3.1624641E+002
 70
1
  0
VERTEX
  8
3
 42
1.033923E-004
 10
4.2564962E+002
 20
3.1624665E+002
 70
0
  0
VERTEX
  8
3
 42
1.047723E-004
 10
4.2564962E+002
 20
3.1624689E+002
 70
1
  0
VERTEX
  8
3
 42
1.057102E-004
 10
4.2564962E+002
 20
3.1624713E+002
 70
0
  0
VERTEX
  8
3
 42
1.0686E-004
 10
4.2564961E+002
 20
3.1624736E+002
 70
1
  0
VERTEX
  8
3
 42
1.076661E-004
 10
4.2564961E+002
 20
3.162476E+002
 70
0
  0
VERTEX
  8
3
 42
1.081512E-004
 10
4.2564961E+002
 20
3.1624783E+002
 70
1
  0
VERTEX
  8
3
 42
1.078E-004
 10
4.2564961E+002
 20
3.1624805E+002
 70
0
  0
VERTEX
  8
3
 42
1.089532E-004
 10
4.256496E+002
 20
3.1624828E+002
 70
1
  0
VERTEX
  8
3
 42
1.107492E-004
 10
4.256496E+002
 20
3.162485E+002
 70
0
  0
VERTEX
  8
3
 42
1.07802E-004
 10
4.256496E+002
 20
3.1624872E+002
 70
1
  0
VERTEX
  8
3
 42
1.007177E-004
 10
4.2564959E+002
 20
3.1624894E+002
 70
0
  0
VERTEX
  8
3
 42
1.095566E-004
 10
4.2564959E+002
 20
3.1624916E+002
 70
1
  0
VERTEX
  8
3
 42
1.275521E-004
 10
4.2564959E+002
 20
3.1624938E+002
 70
0
  0
VERTEX
  8
3
 42
9.77979E-005
 10
4.2564958E+002
 20
3.162496E+002
 70
1
  0
VERTEX
  8
3
 42
3.78528E-005
 10
4.2564958E+002
 20
3.1624981E+002
 70
0
  0
VERTEX
  8
3
 42
1.317402E-004
 10
4.2564958E+002
 20
3.1625E+002
 70
1
  0
VERTEX
  8
3
 42
2.177733E-004
 10
4.2564957E+002
 20
3.1625024E+002
 70
0
  0
VERTEX
  8
3
 42
1.064207E-004
 10
4.2564957E+002
 20
3.1625061E+002
 70
1
  0
VERTEX
  8
3
 42
5.72056E-005
 10
4.2564956E+002
 20
3.1625109E+002
 70
0
  0
SEQEND
  0
POLYLINE
  8
3
  6
CONTINUOUS
 62
40
 66
1
 40
0.0
 41
0.0
 70
2
  0
VERTEX
  8
3
 42
0.0
 10
4.2564966E+002
 20
3.1624104E+002
 70
0
  0
VERTEX
  8
3
 42
1.085201E-004
 10
4.2564966E+002
 20
3.1624129E+002
 70
1
  0
VERTEX
  8
3
 42
1.083966E-004
 10
4.2564966E+002
 20
3.1624154E+002
 70
0
  0
VERTEX
  8
3
 42
1.084244E-004
 10
4.2564966E+002
 20
3.1624179E+002
 70
1
  0
VERTEX
  8
3
 42
1.086253E-004
 10
4.2564966E+002
 20
3.1624204E+002
 70
0
  0
VERTEX
  8
3
 42
1.087581E-004
 10
4.2564966E+002
 20
3.1624229E+002
 70
1
  0
VERTEX
  8
3
 42
1.088739E-004
 10
4.2564966E+002
 20
3.1624254E+002
 70
0
  0
VERTEX
  8
3
 42
1.08977E-004
 10
4.2564966E+002
 20
3.1624279E+002
 70
1
  0
VERTEX
  8
3
 42
1.091109E-004
 10
4.2564965E+002
 20
3.1624304E+002
 70
0
  0
VERTEX
  8
3
 42
1.09218E-004
 10
4.2564965E+002
 20
3.1624329E+002
 70
1
  0
VERTEX
  8
3
 42
1.09344E-004
 10
4.2564965E+002
 20
3.1624354E+002
 70
0
  0
VERTEX
  8
3
 42
1.09447E-004
 10
4.2564965E+002
 20
3.1624379E+002
 70
1
  0
VERTEX
  8
3
 42
1.095717E-004
 10
4.2564965E+002
 20
3.1624404E+002
 70
0
  0
VERTEX
  8
3
 42
1.096722E-004
 10
4.2564965E+002
 20
3.1624429E+002
 70
1
  0
VERTEX
  8
3
 42
1.097936E-004
 10
4.2564965E+002
 20
3.1624455E+002
 70
0
  0
VERTEX
  8
3
 42
1.09892E-004
 10
4.2564964E+002
 20
3.162448E+002
 70
1
  0
VERTEX
  8
3
 42
1.100122E-004
 10
4.2564964E+002
 20
3.1624505E+002
 70
0
  0
VERTEX
  8
3
 42
1.101059E-004
 10
4.2564964E+002
 20
3.162453E+002
 70
1
  0
VERTEX
  8
3
 42
1.102176E-004
 10
4.2564964E+002
 20
3.1624555E+002
 70
0
  0
VERTEX
  8
3
 42
1.103166E-004
 10
4.2564963E+002
 20
3.162458E+002
 70
1
  0
VERTEX
  8
3
 42
1.104464E-004
 10
4.2564963E+002
 20
3.1624605E+002
 70
0
  0
VERTEX
  8
3
 42
1.10514E-004
 10
4.2564963E+002
 20
3.162463E+002
 70
1
  0
VERTEX
  8
3
 42
1.105674E-004
 10
4.2564963E+002
 20
3.1624655E+002
 70
0
  0
VERTEX
  8
3
 42
1.107344E-004
 10
4.2564962E+002
 20
3.1624681E+002
 70
1
  0
VERTEX
  8
3
 42
1.110427E-004
 10
4.2564962E+002
 20
3.1624706E+002
 70
0
  0
VERTEX
  8
3
 42
1.10848E-004
 10
4.2564962E+002
 20
3.1624731E+002
 70
1
  0
VERTEX
  8
3
 42
1.102699E-004
 10
4.2564961E+002
 20
3.1624756E+002
 70
0
  0
VERTEX
  8
3
 42
1.11317E-004
 10
4.2564961E+002
 20
3.1624781E+002
 70
1
  0
VERTEX
  8
3
 42
1.13696E-004
 10
4.2564961E+002
 20
3.1624806E+002
 70
0
  0
VERTEX
  8
3
 42
1.105193E-004
 10
4.256496E+002
 20
3.1624832E+002
 70
1
  0
VERTEX
  8
3
 42
1.032398E-004
 10
4.256496E+002
 20
3.1624857E+002
 70
0
  0
VERTEX
  8
3
 42
1.140997E-004
 10
4.256496E+002
 20
3.1624882E+002
 70
1
  0
VERTEX
  8
3
 42
1.362353E-004
 10
4.2564959E+002
 20
3.1624907E+002
 70
0
  0
VERTEX
  8
3
 42
1.033466E-004
 10
4.2564959E+002
 20
3.1624933E+002
 70
1
  0
VERTEX
  8
3
 42
3.52118E-005
 10
4.2564958E+002
 20
3.1624958E+002
 70
0
  0
VERTEX
  8
3
 42
1.461576E-004
 10
4.2564958E+002
 20
3.162498E+002
 70
1
  0
VERTEX
  8
3
 42
2.518382E-004
 10
4.2564958E+002
 20
3.1625008E+002
 70
0
  0
VERTEX
  8
3
 42
1.230353E-004
 10
4.2564957E+002
 20
3.1625052E+002
 70
1
  0
VERTEX
  8
3
 42
6.51307E-005
 10
4.2564956E+002
 20
3.1625109E+002
 70
0
  0
SEQEND
  0
POLYLINE
  8
3
  6
CONTINUOUS
 62
3
 66
1
 40
0.0
 41
0.0
 70
2
  0
VERTEX
  8
3
 42
0.0
 10
4.2564956E+002
 20
3.1625109E+002
 70
0
  0
VERTEX
  8
3
 42
5.5685683E-003
 10
4.2564922E+002
 20
3.1626173E+002
 70
1
  0
VERTEX
  8
3
 42
5.4032884E-003
 10
4.2564865E+002
 20
3.1627246E+002
 70
0
  0
VERTEX
  8
3
 42
5.3463101E-003
 10
4.2564784E+002
 20
3.1628329E+002
 70
1
  0
VERTEX
  8
3
 42
5.4322333E-003
 10
4.2564678E+002
 20
3.1629421E+002
 70
0
  0
VERTEX
  8
3
 42
5.4711134E-003
 10
4.2564547E+002
 20
3.163052E+002
 70
1
  0
VERTEX
  8
3
 42
5.5052244E-003
 10
4.2564391E+002
 20
3.1631627E+002
 70
0
  0
VERTEX
  8
3
 42
5.5319054E-003
 10
4.2564208E+002
 20
3.163274E+002
 70
1
  0
VERTEX
  8
3
 42
5.5920634E-003
 10
4.2563999E+002
 20
3.1633858E+002
 70
0
  0
VERTEX
  8
3
 42
5.6326874E-003
 10
4.2563762E+002
 20
3.1634981E+002
 70
1
  0
VERTEX
  8
3
 42
5.6961904E-003
 10
4.2563498E+002
 20
3.1636108E+002
 70
0
  0
VERTEX
  8
3
 42
5.741674E-003
 10
4.2563206E+002
 20
3.1637237E+002
 70
1
  0
VERTEX
  8
3
 42
5.8122792E-003
 10
4.2562885E+002
 20
3.1638368E+002
 70
0
  0
VERTEX
  8
3
 42
5.86273E-003
 10
4.2562534E+002
 20
3.16395E+002
 70
1
  0
VERTEX
  8
3
 42
5.937179E-003
 10
4.2562154E+002
 20
3.1640633E+002
 70
0
  0
VERTEX
  8
3
 42
5.9902292E-003
 10
4.2561744E+002
 20
3.1641765E+002
 70
1
  0
VERTEX
  8
3
 42
6.0670172E-003
 10
4.2561303E+002
 20
3.1642896E+002
 70
0
  0
VERTEX
  8
3
 42
6.1208036E-003
 10
4.256083E+002
 20
3.1644024E+002
 70
1
  0
VERTEX
  8
3
 42
6.1977748E-003
 10
4.2560326E+002
 20
3.164515E+002
 70
0
  0
VERTEX
  8
3
 42
6.2502971E-003
 10
4.2559789E+002
 20
3.1646271E+002
 70
1
  0
VERTEX
  8
3
 42
6.3255882E-003
 10
4.255922E+002
 20
3.1647388E+002
 70
0
  0
VERTEX
  8
3
 42
6.3744507E-003
 10
4.2558617E+002
 20
3.1648498E+002
 70
1
  0
VERTEX
  8
3
 42
6.4453384E-003
 10
4.2557981E+002
 20
3.1649603E+002
 70
0
  0
VERTEX
  8
3
 42
6.489283E-003
 10
4.2557309E+002
 20
3.16507E+002
 70
1
  0
VERTEX
  8
3
 42
6.5551889E-003
 10
4.2556604E+002
 20
3.1651789E+002
 70
0
  0
VERTEX
  8
3
 42
6.5895937E-003
 10
4.2555862E+002
 20
3.1652869E+002
 70
1
  0
VERTEX
  8
3
 42
6.6451438E-003
 10
4.2555085E+002
 20
3.1653939E+002
 70
0
  0
VERTEX
  8
3
 42
6.6742723E-003
 10
4.2554271E+002
 20
3.1654998E+002
 70
1
  0
VERTEX
  8
3
 42
6.7196108E-003
 10
4.2553421E+002
 20
3.1656046E+002
 70
0
  0
VERTEX
  8
3
 42
6.7316623E-003
 10
4.2552532E+002
 20
3.1657082E+002
 70
1
  0
VERTEX
  8
3
 42
6.7990512E-003
 10
4.2551607E+002
 20
3.1658104E+002
 70
0
  0
VERTEX
  8
3
 42
6.8025357E-003
 10
4.2550646E+002
 20
3.1659107E+002
 70
1
  0
VERTEX
  8
3
 42
6.8669239E-003
 10
4.2549657E+002
 20
3.1660086E+002
 70
0
  0
VERTEX
  8
3
 42
6.9387769E-003
 10
4.2548645E+002
 20
3.1661032E+002
 70
1
  0
VERTEX
  8
3
 42
6.8803169E-003
 10
4.2547612E+002
 20
3.1661947E+002
 70
0
  0
VERTEX
  8
3
 42
6.8458371E-003
 10
4.2546555E+002
 20
3.1662831E+002
 70
1
  0
VERTEX
  8
3
 42
6.847744E-003
 10
4.2545477E+002
 20
3.1663684E+002
 70
0
  0
VERTEX
  8
3
 42
6.8475384E-003
 10
4.2544378E+002
 20
3.1664504E+002
 70
1
  0
VERTEX
  8
3
 42
6.8277581E-003
 10
4.2543259E+002
 20
3.1665294E+002
 70
0
  0
VERTEX
  8
3
 42
6.8172534E-003
 10
4.254212E+002
 20
3.166605E+002
 70
1
  0
VERTEX
  8
3
 42
6.8081149E-003
 10
4.2540963E+002
 20
3.1666775E+002
 70
0
  0
VERTEX
  8
3
 42
6.8003473E-003
 10
4.2539788E+002
 20
3.1667467E+002
 70
1
  0
VERTEX
  8
3
 42
6.7867314E-003
 10
4.2538595E+002
 20
3.1668126E+002
 70
0
  0
VERTEX
  8
3
 42
6.7853182E-003
 10
4.2537386E+002
 20
3.1668751E+002
 70
1
  0
VERTEX
  8
3
 42
6.7904368E-003
 10
4.2536161E+002
 20
3.1669343E+002
 70
0
  0
VERTEX
  8
3
 42
6.769628E-003
 10
4.253492E+002
 20
3.1669901E+002
 70
1
  0
VERTEX
  8
3
 42
6.7242351E-003
 10
4.2533666E+002
 20
3.1670425E+002
 70
0
  0
VERTEX
  8
3
 42
6.779802E-003
 10
4.2532397E+002
 20
3.1670915E+002
 70
1
  0
VERTEX
  8
3
 42
6.916672E-003
 10
4.2531115E+002
 20
3.167137E+002
 70
0
  0
VERTEX
  8
3
 42
6.7192781E-003
 10
4.2529818E+002
 20
3.167179E+002
 70
1
  0
VERTEX
  8
3
 42
6.271742E-003
 10
4.2528515E+002
 20
3.1672176E+002
 70
0
  0
VERTEX
  8
3
 42
6.9283837E-003
 10
4.2527209E+002
 20
3.1672525E+002
 70
1
  0
VERTEX
  8
3
 42
8.279373E-003
 10
4.2525871E+002
 20
3.167284E+002
 70
0
  0
VERTEX
  8
3
 42
6.2710276E-003
 10
4.252449E+002
 20
3.1673119E+002
 70
1
  0
VERTEX
  8
3
 42
2.1065122E-003
 10
4.2523188E+002
 20
3.167336E+002
 70
0
  0
VERTEX
  8
3
 42
8.885592E-003
 10
4.2522006E+002
 20
3.167356E+002
 70
1
  0
VERTEX
  8
3
 42
1.5353576E-002
 10
4.2520473E+002
 20
3.1673734E+002
 70
0
  0
VERTEX
  8
3
 42
7.4657161E-003
 10
4.2518093E+002
 20
3.1673893E+002
 70
1
  0
VERTEX
  8
3
 42
3.9283311E-003
 10
4.2514966E+002
 20
3.1674036E+002
 70
0
  0
SEQEND
  0
POLYLINE
  8
3
  6
CONTINUOUS
 62
3
 66
1
 40
0.0
 41
0.0
 70
2
  0
VERTEX
  8
3
 42
0.0
 10
4.2514966E+002
 20
3.1706803E+002
 70
0
  0
VERTEX
  8
3
 42
-1.278594E-002
 10
4.2517349E+002
 20
3.1706748E+002
 70
1
  0
VERTEX
  8
3
 42
-1.2139912E-002
 10
4.2519763E+002
 20
3.1706573E+002
 70
0
  0
VERTEX
  8
3
 42
-1.1958479E-002
 10
4.2522212E+002
 20
3.1706274E+002
 70
1
  0
VERTEX
  8
3
 42
-1.246491E-002
 10
4.2524684E+002
 20
3.1705851E+002
 70
0
  0
VERTEX
  8
3
 42
-1.270427E-002
 10
4.2527169E+002
 20
3.1705292E+002
 70
1
  0
VERTEX
  8
3
 42
-1.2860555E-002
 10
4.2529657E+002
 20
3.1704599E+002
 70
0
  0
VERTEX
  8
3
 42
-1.2963011E-002
 10
4.2532137E+002
 20
3.1703765E+002
 70
1
  0
VERTEX
  8
3
 42
-1.3171179E-002
 10
4.2534598E+002
 20
3.1702793E+002
 70
0
  0
VERTEX
  8
3
 42
-1.3282239E-002
 10
4.2537029E+002
 20
3.1701677E+002
 70
1
  0
VERTEX
  8
3
 42
-1.3428176E-002
 10
4.2539418E+002
 20
3.1700425E+002
 70
0
  0
VERTEX
  8
3
 42
-1.3502068E-002
 10
4.2541752E+002
 20
3.1699032E+002
 70
1
  0
VERTEX
  8
3
 42
-1.3601679E-002
 10
4.2544021E+002
 20
3.1697507E+002
 70
0
  0
VERTEX
  8
3
 42
-1.3657679E-002
 10
4.2546212E+002
 20
3.169585E+002
 70
1
  0
VERTEX
  8
3
 42
-1.3729386E-002
 10
4.2548316E+002
 20
3.1694073E+002
 70
0
  0
VERTEX
  8
3
 42
-1.3721778E-002
 10
4.255032E+002
 20
3.1692177E+002
 70
1
  0
VERTEX
  8
3
 42
-1.3660084E-002
 10
4.2552219E+002
 20
3.1690176E+002
 70
0
  0
VERTEX
  8
3
 42
-1.3735629E-002
 10
4.2553998E+002
 20
3.1688076E+002
 70
1
  0
VERTEX
  8
3
 42
-1.3902578E-002
 10
4.2555657E+002
 20
3.1685887E+002
 70
0
  0
VERTEX
  8
3
 42
-1.3550668E-002
 10
4.2557184E+002
 20
3.1683616E+002
 70
1
  0
VERTEX
  8
3
 42
-1.2734528E-002
 10
4.2558579E+002
 20
3.168129E+002
 70
0
  0
VERTEX
  8
3
 42
-1.3696741E-002
 10
4.2559832E+002
 20
3.1678923E+002
 70
1
  0
VERTEX
  8
3
 42
-1.5739518E-002
 10
4.256095E+002
 20
3.1676477E+002
 70
0
  0
VERTEX
  8
3
 42
-1.2388477E-002
 10
4.2561927E+002
 20
3.1673943E+002
 70
1
  0
VERTEX
  8
3
 42
-5.3978033E-003
 10
4.2562759E+002
 20
3.1671542E+002
 70
0
  0
VERTEX
  8
3
 42
-1.6203607E-002
 10
4.2563438E+002
 20
3.1669354E+002
 70
1
  0
VERTEX
  8
3
 42
-2.7100409E-002
 10
4.2564013E+002
 20
3.1666576E+002
 70
0
  0
VERTEX
  8
3
 42
-1.3886421E-002
 10
4.2564523E+002
 20
3.1662358E+002
 70
1
  0
VERTEX
  8
3
 42
-7.634729E-003
 10
4.2564966E+002
 20
3.1656871E+002
 70
0
  0
SEQEND
  0
LINE
  8
3
  6
CONTINUOUS
 62
3
 10
4.2564966E+002
 20
3.1756734E+002
 11
4.2514966E+002
 21
3.1756734E+002
  0
LINE
  8
3
  6
CONTINUOUS
 62
40
 10
3.7314966E+002
 20
3.1984286E+002
 11
3.7294966E+002
 21
3.1984286E+002
  0
LINE
  8
3
  6
CONTINUOUS
 62
40
 10
3.7294966E+002
 20
3.1984286E+002
 11
3.7294966E+002
 21
3.1854286E+002
  0
LINE
  8
3
  6
CONTINUOUS
 62
40
 10
3.7314966E+002
 20
3.2104286E+002
 11
3.7303091E+002
 21
3.2104286E+002
  0
LINE
  8
3
  6
CONTINUOUS
 62
40
 10
3.7303091E+002
 20
3.2104286E+002
 11
3.7303091E+002
 21
3.1984286E+002
  0
LINE
  8
4
  6
CONTINUOUS
 62
40
 10
2.9529946E+002
 20
1.3312897E+002
 11
2.9529946E+002
 21
1.2432897E+002
  0
LINE
  8
4
  6
CONTINUOUS
 62
40
 10
2.5909946E+002
 20
1.4577896E+002
 11
2.5909946E+002
 21
1.4157896E+002
  0
LINE
  8
4
  6
CONTINUOUS
 62
40
 10
2.5909946E+002
 20
1.4157896E+002
 11
2.5529946E+002
 21
1.4157896E+002
  0
LINE
  8
4
  6
CONTINUOUS
 62
40
 10
2.9529946E+002
 20
1.7822933E+002
 11
2.9529946E+002
 21
1.7822897E+002
  0
ARC
  8
4
  6
CONTINUOUS
 62
40
 10
2.9279946E+002
 20
1.9137896E+002
 40
5.0E-001
 50
0.0
 51
9.0E+001
  0
ARC
  8
4
  6
CONTINUOUS
 62
40
 10
2.9279946E+002
 20
1.1997896E+002
 40
5.0E-001
 50
2.7E+002
 51
3.6E+002
  0
LINE
  8
4
  6
CONTINUOUS
 62
40
 10
2.9169946E+002
 20
1.4722896E+002
 11
2.9169946E+002
 21
1.4382896E+002
  0
LINE
  8
4
  6
CONTINUOUS
 62
40
 10
2.9209946E+002
 20
1.4382896E+002
 11
2.8769946E+002
 21
1.4382896E+002
  0
LINE
  8
4
  6
CONTINUOUS
 62
40
 10
2.8769946E+002
 20
1.4722896E+002
 11
2.9209946E+002
 21
1.4722896E+002
  0
LINE
  8
4
  6
CONTINUOUS
 62
40
 10
2.8769946E+002
 20
1.4382896E+002
 11
2.8769946E+002
 21
1.4722896E+002
  0
LINE
  8
4
  6
CONTINUOUS
 62
40
 10
2.6719946E+002
 20
1.4652896E+002
 11
2.6814946E+002
 21
1.4652896E+002
  0
LINE
  8
4
  6
CONTINUOUS
 62
40
 10
2.6719946E+002
 20
1.4452896E+002
 11
2.6719946E+002
 21
1.4652896E+002
  0
LINE
  8
4
  6
CONTINUOUS
 62
40
 10
2.6814946E+002
 20
1.4452896E+002
 11
2.6719946E+002
 21
1.4452896E+002
  0
LINE
  8
4
  6
CONTINUOUS
 62
40
 10
2.6814946E+002
 20
1.4382896E+002
 11
2.6814946E+002
 21
1.4452896E+002
  0
LINE
  8
4
  6
CONTINUOUS
 62
40
 10
2.8474946E+002
 20
1.4382896E+002
 11
2.6814946E+002
 21
1.4382896E+002
  0
LINE
  8
4
  6
CONTINUOUS
 62
40
 10
2.8474946E+002
 20
1.4452896E+002
 11
2.8474946E+002
 21
1.4382896E+002
  0
LINE
  8
4
  6
CONTINUOUS
 62
40
 10
2.8569946E+002
 20
1.4452896E+002
 11
2.8474946E+002
 21
1.4452896E+002
  0
LINE
  8
4
  6
CONTINUOUS
 62
40
 10
2.8569946E+002
 20
1.4652896E+002
 11
2.8569946E+002
 21
1.4452896E+002
  0
LINE
  8
4
  6
CONTINUOUS
 62
40
 10
2.8474946E+002
 20
1.4652896E+002
 11
2.8569946E+002
 21
1.4652896E+002
  0
LINE
  8
4
  6
CONTINUOUS
 62
40
 10
2.8474946E+002
 20
1.4722896E+002
 11
2.8474946E+002
 21
1.4652896E+002
  0
LINE
  8
4
  6
CONTINUOUS
 62
40
 10
2.6814946E+002
 20
1.4722896E+002
 11
2.8474946E+002
 21
1.4722896E+002
  0
LINE
  8
4
  6
CONTINUOUS
 62
40
 10
2.6814946E+002
 20
1.4652896E+002
 11
2.6814946E+002
 21
1.4722896E+002
  0
LINE
  8
4
  6
CONTINUOUS
 62
40
 10
2.6519946E+002
 20
1.4722896E+002
 11
2.6519946E+002
 21
1.4382896E+002
  0
LINE
  8
4
  6
CONTINUOUS
 62
40
 10
2.6129946E+002
 20
1.4722896E+002
 11
2.6519946E+002
 21
1.4722896E+002
  0
LINE
  8
4
  6
CONTINUOUS
 62
40
 10
2.6519946E+002
 20
1.4382896E+002
 11
2.6129946E+002
 21
1.4382896E+002
  0
LINE
  8
4
  6
CONTINUOUS
 62
40
 10
2.6129946E+002
 20
1.4382896E+002
 11
2.6129946E+002
 21
1.4722896E+002
  0
LINE
  8
4
  6
CONTINUOUS
 62
40
 10
2.8079946E+002
 20
1.5397896E+002
 11
2.6809946E+002
 21
1.5397896E+002
  0
LINE
  8
4
  6
CONTINUOUS
 62
40
 10
2.8079946E+002
 20
1.5737896E+002
 11
2.8079946E+002
 21
1.5397896E+002
  0
LINE
  8
4
  6
CONTINUOUS
 62
40
 10
2.6809946E+002
 20
1.5737896E+002
 11
2.8079946E+002
 21
1.5737896E+002
  0
LINE
  8
4
  6
CONTINUOUS
 62
40
 10
2.6809946E+002
 20
1.5397896E+002
 11
2.6809946E+002
 21
1.5737896E+002
  0
LINE
  8
4
  6
CONTINUOUS
 62
40
 10
2.6129946E+002
 20
1.6412896E+002
 11
2.6129946E+002
 21
1.6752896E+002
  0
LINE
  8
4
  6
CONTINUOUS
 62
40
 10
2.9169946E+002
 20
1.6752896E+002
 11
2.9169946E+002
 21
1.6412896E+002
  0
LINE
  8
4
  6
CONTINUOUS
 62
40
 10
2.9209946E+002
 20
1.6412896E+002
 11
2.8769946E+002
 21
1.6412896E+002
  0
LINE
  8
4
  6
CONTINUOUS
 62
40
 10
2.8769946E+002
 20
1.6752896E+002
 11
2.9209946E+002
 21
1.6752896E+002
  0
LINE
  8
4
  6
CONTINUOUS
 62
40
 10
2.8769946E+002
 20
1.6412896E+002
 11
2.8769946E+002
 21
1.6752896E+002
  0
LINE
  8
4
  6
CONTINUOUS
 62
40
 10
2.8474946E+002
 20
1.6482896E+002
 11
2.8474946E+002
 21
1.6412896E+002
  0
LINE
  8
4
  6
CONTINUOUS
 62
40
 10
2.8569946E+002
 20
1.6482896E+002
 11
2.8474946E+002
 21
1.6482896E+002
  0
LINE
  8
4
  6
CONTINUOUS
 62
40
 10
2.8569946E+002
 20
1.6682896E+002
 11
2.8569946E+002
 21
1.6482896E+002
  0
LINE
  8
4
  6
CONTINUOUS
 62
40
 10
2.8474946E+002
 20
1.6682896E+002
 11
2.8569946E+002
 21
1.6682896E+002
  0
LINE
  8
4
  6
CONTINUOUS
 62
40
 10
2.8474946E+002
 20
1.6752896E+002
 11
2.8474946E+002
 21
1.6682896E+002
  0
LINE
  8
4
  6
CONTINUOUS
 62
40
 10
2.6814946E+002
 20
1.6752896E+002
 11
2.8474946E+002
 21
1.6752896E+002
  0
LINE
  8
4
  6
CONTINUOUS
 62
40
 10
2.6814946E+002
 20
1.6682896E+002
 11
2.6814946E+002
 21
1.6752896E+002
  0
LINE
  8
4
  6
CONTINUOUS
 62
40
 10
2.6719946E+002
 20
1.6682896E+002
 11
2.6814946E+002
 21
1.6682896E+002
  0
LINE
  8
4
  6
CONTINUOUS
 62
40
 10
2.6719946E+002
 20
1.6482896E+002
 11
2.6719946E+002
 21
1.6682896E+002
  0
LINE
  8
4
  6
CONTINUOUS
 62
40
 10
2.6814946E+002
 20
1.6482896E+002
 11
2.6719946E+002
 21
1.6482896E+002
  0
LINE
  8
4
  6
CONTINUOUS
 62
40
 10
2.6814946E+002
 20
1.6412896E+002
 11
2.6814946E+002
 21
1.6482896E+002
  0
LINE
  8
4
  6
CONTINUOUS
 62
40
 10
2.8474946E+002
 20
1.6412896E+002
 11
2.6814946E+002
 21
1.6412896E+002
  0
LINE
  8
4
  6
CONTINUOUS
 62
40
 10
2.6119946E+002
 20
1.6392896E+002
 11
2.6119946E+002
 21
1.6772896E+002
  0
LINE
  8
4
  6
CONTINUOUS
 62
40
 10
2.6119946E+002
 20
1.5885396E+002
 11
2.6119946E+002
 21
1.6265396E+002
  0
LINE
  8
4
  6
CONTINUOUS
 62
40
 10
2.6119946E+002
 20
1.5377896E+002
 11
2.6119946E+002
 21
1.5757896E+002
  0
LINE
  8
4
  6
CONTINUOUS
 62
40
 10
2.6119946E+002
 20
1.4870396E+002
 11
2.6119946E+002
 21
1.5250396E+002
  0
LINE
  8
4
  6
CONTINUOUS
 62
40
 10
2.6119946E+002
 20
1.4362896E+002
 11
2.6119946E+002
 21
1.4742896E+002
  0
LINE
  8
4
  6
CONTINUOUS
 62
40
 10
2.5529946E+002
 20
1.6977896E+002
 11
2.5909946E+002
 21
1.6977896E+002
  0
LINE
  8
4
  6
CONTINUOUS
 62
40
 10
2.5909946E+002
 20
1.6977896E+002
 11
2.5909946E+002
 21
1.6557896E+002
  0
LINE
  8
4
  6
CONTINUOUS
 62
40
 10
2.5909946E+002
 20
1.6557896E+002
 11
2.5529946E+002
 21
1.6557896E+002
  0
LINE
  8
4
  6
CONTINUOUS
 62
40
 10
2.5529946E+002
 20
1.4577896E+002
 11
2.5909946E+002
 21
1.4577896E+002
  0
LINE
  8
4
  6
CONTINUOUS
 62
40
 10
2.5529946E+002
 20
1.9187896E+002
 11
2.9279946E+002
 21
1.9187896E+002
  0
LINE
  8
4
  6
CONTINUOUS
 62
40
 10
2.5529946E+002
 20
1.6977896E+002
 11
2.5529946E+002
 21
1.9137896E+002
  0
LINE
  8
4
  6
CONTINUOUS
 62
40
 10
2.5529946E+002
 20
1.9137896E+002
 11
2.5529946E+002
 21
1.9187896E+002
  0
LINE
  8
4
  6
CONTINUOUS
 62
40
 10
2.5529946E+002
 20
1.4577896E+002
 11
2.5529946E+002
 21
1.6557896E+002
  0
LINE
  8
4
  6
CONTINUOUS
 62
40
 10
2.5529946E+002
 20
1.1947896E+002
 11
2.5529946E+002
 21
1.1997896E+002
  0
LINE
  8
4
  6
CONTINUOUS
 62
40
 10
2.5529946E+002
 20
1.1997896E+002
 11
2.5529946E+002
 21
1.4157896E+002
  0
LINE
  8
4
  6
CONTINUOUS
 62
40
 10
2.9279946E+002
 20
1.1947896E+002
 11
2.5529946E+002
 21
1.1947896E+002
  0
LINE
  8
4
  6
CONTINUOUS
 62
40
 10
2.9529946E+002
 20
1.8702897E+002
 11
2.9529946E+002
 21
1.7822897E+002
  0
LINE
  8
4
  6
CONTINUOUS
 62
40
 10
2.9329946E+002
 20
1.4382896E+002
 11
2.9329946E+002
 21
1.1997896E+002
  0
LINE
  8
4
  6
CONTINUOUS
 62
40
 10
2.9329946E+002
 20
1.9137896E+002
 11
2.9329946E+002
 21
1.6752896E+002
  0
LINE
  8
4
  6
CONTINUOUS
 62
40
 10
2.9329946E+002
 20
1.6752896E+002
 11
2.9329946E+002
 21
1.6412896E+002
  0
LINE
  8
4
  6
CONTINUOUS
 62
40
 10
2.9329946E+002
 20
1.6412896E+002
 11
2.9329946E+002
 21
1.6392896E+002
  0
LINE
  8
4
  6
CONTINUOUS
 62
40
 10
2.9329946E+002
 20
1.6392896E+002
 11
2.9329946E+002
 21
1.6265396E+002
  0
LINE
  8
4
  6
CONTINUOUS
 62
40
 10
2.9329946E+002
 20
1.6265396E+002
 11
2.9329946E+002
 21
1.6245396E+002
  0
LINE
  8
4
  6
CONTINUOUS
 62
40
 10
2.9329946E+002
 20
1.6245396E+002
 11
2.9329946E+002
 21
1.5905396E+002
  0
LINE
  8
4
  6
CONTINUOUS
 62
40
 10
2.9329946E+002
 20
1.5905396E+002
 11
2.9329946E+002
 21
1.5885396E+002
  0
LINE
  8
4
  6
CONTINUOUS
 62
40
 10
2.9329946E+002
 20
1.5885396E+002
 11
2.9329946E+002
 21
1.5757896E+002
  0
LINE
  8
4
  6
CONTINUOUS
 62
40
 10
2.9329946E+002
 20
1.5757896E+002
 11
2.9329946E+002
 21
1.5737896E+002
  0
LINE
  8
4
  6
CONTINUOUS
 62
40
 10
2.9329946E+002
 20
1.5737896E+002
 11
2.9329946E+002
 21
1.5397896E+002
  0
LINE
  8
4
  6
CONTINUOUS
 62
40
 10
2.9329946E+002
 20
1.5397896E+002
 11
2.9329946E+002
 21
1.5377896E+002
  0
LINE
  8
4
  6
CONTINUOUS
 62
40
 10
2.9329946E+002
 20
1.5377896E+002
 11
2.9329946E+002
 21
1.5250396E+002
  0
LINE
  8
4
  6
CONTINUOUS
 62
40
 10
2.9329946E+002
 20
1.5250396E+002
 11
2.9329946E+002
 21
1.5230396E+002
  0
LINE
  8
4
  6
CONTINUOUS
 62
40
 10
2.9329946E+002
 20
1.5230396E+002
 11
2.9329946E+002
 21
1.4890396E+002
  0
LINE
  8
4
  6
CONTINUOUS
 62
40
 10
2.9329946E+002
 20
1.4890396E+002
 11
2.9329946E+002
 21
1.4870396E+002
  0
LINE
  8
4
  6
CONTINUOUS
 62
40
 10
2.9329946E+002
 20
1.4870396E+002
 11
2.9329946E+002
 21
1.4742896E+002
  0
LINE
  8
4
  6
CONTINUOUS
 62
40
 10
2.9329946E+002
 20
1.4742896E+002
 11
2.9329946E+002
 21
1.4722896E+002
  0
LINE
  8
4
  6
CONTINUOUS
 62
40
 10
2.9329946E+002
 20
1.4722896E+002
 11
2.9329946E+002
 21
1.4382896E+002
  0
LINE
  8
4
  6
CONTINUOUS
 62
40
 10
2.6519946E+002
 20
1.6752896E+002
 11
2.6519946E+002
 21
1.6412896E+002
  0
LINE
  8
4
  6
CONTINUOUS
 62
40
 10
2.6519946E+002
 20
1.6412896E+002
 11
2.6129946E+002
 21
1.6412896E+002
  0
LINE
  8
4
  6
CONTINUOUS
 62
40
 10
2.6129946E+002
 20
1.6752896E+002
 11
2.6519946E+002
 21
1.6752896E+002
  0
LINE
  8
4
  6
CONTINUOUS
 62
40
 10
2.9209946E+002
 20
1.4382896E+002
 11
2.9209946E+002
 21
1.4722896E+002
  0
LINE
  8
4
  6
CONTINUOUS
 62
40
 10
2.9209946E+002
 20
1.6412896E+002
 11
2.9209946E+002
 21
1.6752896E+002
  0
LINE
  8
4
  6
CONTINUOUS
 62
3
 10
2.9359946E+002
 20
1.3342897E+002
 11
2.9359946E+002
 21
1.2402897E+002
  0
POLYLINE
  8
4
  6
CONTINUOUS
 62
40
 66
1
 40
0.0
 41
0.0
 70
2
  0
VERTEX
  8
4
 42
0.0
 10
2.9329947E+002
 20
1.2372897E+002
 70
0
  0
VERTEX
  8
4
 42
-1.2803289E-002
 10
2.932998E+002
 20
1.2374327E+002
 70
1
  0
VERTEX
  8
4
 42
-1.2156289E-002
 10
2.9330085E+002
 20
1.2375775E+002
 70
0
  0
VERTEX
  8
4
 42
-1.1974361E-002
 10
2.9330265E+002
 20
1.2377245E+002
 70
1
  0
VERTEX
  8
4
 42
-1.2481055E-002
 10
2.9330519E+002
 20
1.2378728E+002
 70
0
  0
VERTEX
  8
4
 42
-1.2720104E-002
 10
2.9330855E+002
 20
1.2380219E+002
 70
1
  0
VERTEX
  8
4
 42
-1.2875809E-002
 10
2.9331271E+002
 20
1.2381712E+002
 70
0
  0
VERTEX
  8
4
 42
-1.2977397E-002
 10
2.9331772E+002
 20
1.23832E+002
 70
1
  0
VERTEX
  8
4
 42
-1.3184661E-002
 10
2.9332356E+002
 20
1.2384677E+002
 70
0
  0
VERTEX
  8
4
 42
-1.3294471E-002
 10
2.9333026E+002
 20
1.2386135E+002
 70
1
  0
VERTEX
  8
4
 42
-1.3439068E-002
 10
2.9333779E+002
 20
1.2387568E+002
 70
0
  0
VERTEX
  8
4
 42
-1.3511332E-002
 10
2.9334616E+002
 20
1.2388969E+002
 70
1
  0
VERTEX
  8
4
 42
-1.3609263E-002
 10
2.9335532E+002
 20
1.239033E+002
 70
0
  0
VERTEX
  8
4
 42
-1.3663358E-002
 10
2.9336527E+002
 20
1.2391645E+002
 70
1
  0
VERTEX
  8
4
 42
-1.3733155E-002
 10
2.9337595E+002
 20
1.2392907E+002
 70
0
  0
VERTEX
  8
4
 42
-1.3723468E-002
 10
2.9338734E+002
 20
1.2394109E+002
 70
1
  0
VERTEX
  8
4
 42
-1.3659773E-002
 10
2.9339936E+002
 20
1.2395248E+002
 70
0
  0
VERTEX
  8
4
 42
-1.3733231E-002
 10
2.9341198E+002
 20
1.2396316E+002
 70
1
  0
VERTEX
  8
4
 42
-1.3898136E-002
 10
2.9342513E+002
 20
1.2397311E+002
 70
0
  0
VERTEX
  8
4
 42
-1.3544347E-002
 10
2.9343878E+002
 20
1.2398228E+002
 70
1
  0
VERTEX
  8
4
 42
-1.2726948E-002
 10
2.9345275E+002
 20
1.2399064E+002
 70
0
  0
VERTEX
  8
4
 42
-1.3686864E-002
 10
2.9346697E+002
 20
1.2399816E+002
 70
1
  0
VERTEX
  8
4
 42
-1.5726147E-002
 10
2.9348167E+002
 20
1.2400487E+002
 70
0
  0
VERTEX
  8
4
 42
-1.2376446E-002
 10
2.9349689E+002
 20
1.2401073E+002
 70
1
  0
VERTEX
  8
4
 42
-5.39222E-003
 10
2.9351132E+002
 20
1.2401572E+002
 70
0
  0
VERTEX
  8
4
 42
-1.6185964E-002
 10
2.9352446E+002
 20
1.240198E+002
 70
1
  0
VERTEX
  8
4
 42
-2.7067328E-002
 10
2.9354115E+002
 20
1.2402324E+002
 70
0
  0
VERTEX
  8
4
 42
-1.3868334E-002
 10
2.9356649E+002
 20
1.2402631E+002
 70
1
  0
VERTEX
  8
4
 42
-7.6245857E-003
 10
2.9359946E+002
 20
1.2402896E+002
 70
0
  0
SEQEND
  0
POLYLINE
  8
4
  6
CONTINUOUS
 62
40
 66
1
 40
0.0
 41
0.0
 70
2
  0
VERTEX
  8
4
 42
0.0
 10
2.9359946E+002
 20
1.3342897E+002
 70
0
  0
VERTEX
  8
4
 42
-1.2803628E-002
 10
2.9358516E+002
 20
1.334293E+002
 70
1
  0
VERTEX
  8
4
 42
-1.2156572E-002
 10
2.9357068E+002
 20
1.3343035E+002
 70
0
  0
VERTEX
  8
4
 42
-1.1974601E-002
 10
2.9355599E+002
 20
1.3343214E+002
 70
1
  0
VERTEX
  8
4
 42
-1.2481262E-002
 10
2.9354115E+002
 20
1.3343469E+002
 70
0
  0
VERTEX
  8
4
 42
-1.2720267E-002
 10
2.9352624E+002
 20
1.3343805E+002
 70
1
  0
VERTEX
  8
4
 42
-1.2875923E-002
 10
2.9351132E+002
 20
1.3344221E+002
 70
0
  0
VERTEX
  8
4
 42
-1.2977457E-002
 10
2.9349644E+002
 20
1.3344722E+002
 70
1
  0
VERTEX
  8
4
 42
-1.3184668E-002
 10
2.9348167E+002
 20
1.3345306E+002
 70
0
  0
VERTEX
  8
4
 42
-1.329442E-002
 10
2.9346708E+002
 20
1.3345976E+002
 70
1
  0
VERTEX
  8
4
 42
-1.3438961E-002
 10
2.9345275E+002
 20
1.3346729E+002
 70
0
  0
VERTEX
  8
4
 42
-1.3511166E-002
 10
2.9343875E+002
 20
1.3347566E+002
 70
1
  0
VERTEX
  8
4
 42
-1.3609041E-002
 10
2.9342513E+002
 20
1.3348482E+002
 70
0
  0
VERTEX
  8
4
 42
-1.3663081E-002
 10
2.9341199E+002
 20
1.3349477E+002
 70
1
  0
VERTEX
  8
4
 42
-1.3732827E-002
 10
2.9339936E+002
 20
1.3350545E+002
 70
0
  0
VERTEX
  8
4
 42
-1.3723093E-002
 10
2.9338734E+002
 20
1.3351685E+002
 70
1
  0
VERTEX
  8
4
 42
-1.3659358E-002
 10
2.9337595E+002
 20
1.3352887E+002
 70
0
  0
VERTEX
  8
4
 42
-1.3732776E-002
 10
2.9336527E+002
 20
1.3354149E+002
 70
1
  0
VERTEX
  8
4
 42
-1.3897645E-002
 10
2.9335532E+002
 20
1.3355464E+002
 70
0
  0
VERTEX
  8
4
 42
-1.3543842E-002
 10
2.9334616E+002
 20
1.3356828E+002
 70
1
  0
VERTEX
  8
4
 42
-1.2726456E-002
 10
2.9333779E+002
 20
1.3358226E+002
 70
0
  0
VERTEX
  8
4
 42
-1.3686322E-002
 10
2.9333027E+002
 20
1.3359648E+002
 70
1
  0
VERTEX
  8
4
 42
-1.5725517E-002
 10
2.9332356E+002
 20
1.3361118E+002
 70
0
  0
VERTEX
  8
4
 42
-1.2375951E-002
 10
2.933177E+002
 20
1.336264E+002
 70
1
  0
VERTEX
  8
4
 42
-5.3920058E-003
 10
2.9331271E+002
 20
1.3364083E+002
 70
0
  0
VERTEX
  8
4
 42
-1.6185329E-002
 10
2.9330864E+002
 20
1.3365397E+002
 70
1
  0
VERTEX
  8
4
 42
-2.7066325E-002
 10
2.9330519E+002
 20
1.3367067E+002
 70
0
  0
VERTEX
  8
4
 42
-1.3867863E-002
 10
2.9330213E+002
 20
1.33696E+002
 70
1
  0
VERTEX
  8
4
 42
-7.624341E-003
 10
2.9329947E+002
 20
1.3372897E+002
 70
0
  0
SEQEND
  0
LINE
  8
4
  6
CONTINUOUS
 62
3
 10
2.9499946E+002
 20
1.2402897E+002
 11
2.9499946E+002
 21
1.3342897E+002
  0
LINE
  8
4
  6
CONTINUOUS
 62
40
 10
2.9359946E+002
 20
1.2402897E+002
 11
2.9499947E+002
 21
1.2402897E+002
  0
LINE
  8
4
  6
CONTINUOUS
 62
40
 10
2.9499947E+002
 20
1.3342897E+002
 11
2.9359946E+002
 21
1.3342897E+002
  0
POLYLINE
  8
4
  6
CONTINUOUS
 62
40
 66
1
 40
0.0
 41
0.0
 70
2
  0
VERTEX
  8
4
 42
0.0
 10
2.9499947E+002
 20
1.2402896E+002
 70
0
  0
VERTEX
  8
4
 42
1.2803424E-002
 10
2.9501376E+002
 20
1.240293E+002
 70
1
  0
VERTEX
  8
4
 42
1.2156384E-002
 10
2.9502825E+002
 20
1.2403035E+002
 70
0
  0
VERTEX
  8
4
 42
1.1974423E-002
 10
2.9504294E+002
 20
1.2403214E+002
 70
1
  0
VERTEX
  8
4
 42
1.2481085E-002
 10
2.9505777E+002
 20
1.2403468E+002
 70
0
  0
VERTEX
  8
4
 42
1.2720098E-002
 10
2.9507268E+002
 20
1.2403804E+002
 70
1
  0
VERTEX
  8
4
 42
1.2875766E-002
 10
2.9508761E+002
 20
1.2404221E+002
 70
0
  0
VERTEX
  8
4
 42
1.2977314E-002
 10
2.9510249E+002
 20
1.2404722E+002
 70
1
  0
VERTEX
  8
4
 42
1.3184539E-002
 10
2.9511726E+002
 20
1.2405306E+002
 70
0
  0
VERTEX
  8
4
 42
1.329431E-002
 10
2.9513184E+002
 20
1.2405976E+002
 70
1
  0
VERTEX
  8
4
 42
1.343887E-002
 10
2.9514618E+002
 20
1.2406729E+002
 70
0
  0
VERTEX
  8
4
 42
1.3511097E-002
 10
2.9516018E+002
 20
1.2407566E+002
 70
1
  0
VERTEX
  8
4
 42
1.3608995E-002
 10
2.951738E+002
 20
1.2408482E+002
 70
0
  0
VERTEX
  8
4
 42
1.366306E-002
 10
2.9518694E+002
 20
1.2409477E+002
 70
1
  0
VERTEX
  8
4
 42
1.3732829E-002
 10
2.9519956E+002
 20
1.2410545E+002
 70
0
  0
VERTEX
  8
4
 42
1.372312E-002
 10
2.9521159E+002
 20
1.2411684E+002
 70
1
  0
VERTEX
  8
4
 42
1.3659409E-002
 10
2.9522298E+002
 20
1.2412887E+002
 70
0
  0
VERTEX
  8
4
 42
1.3732852E-002
 10
2.9523365E+002
 20
1.2414148E+002
 70
1
  0
VERTEX
  8
4
 42
1.3897743E-002
 10
2.9524361E+002
 20
1.2415464E+002
 70
0
  0
VERTEX
  8
4
 42
1.354396E-002
 10
2.9525277E+002
 20
1.2416828E+002
 70
1
  0
VERTEX
  8
4
 42
1.2726585E-002
 10
2.9526114E+002
 20
1.2418226E+002
 70
0
  0
VERTEX
  8
4
 42
1.3686478E-002
 10
2.9526866E+002
 20
1.2419648E+002
 70
1
  0
VERTEX
  8
4
 42
1.5725717E-002
 10
2.9527537E+002
 20
1.2421118E+002
 70
0
  0
VERTEX
  8
4
 42
1.2376122E-002
 10
2.9528123E+002
 20
1.242264E+002
 70
1
  0
VERTEX
  8
4
 42
5.3920833E-003
 10
2.9528622E+002
 20
1.2424083E+002
 70
0
  0
VERTEX
  8
4
 42
1.6185569E-002
 10
2.9529029E+002
 20
1.2425397E+002
 70
1
  0
VERTEX
  8
4
 42
2.7066754E-002
 10
2.9529374E+002
 20
1.2427066E+002
 70
0
  0
VERTEX
  8
4
 42
1.3868089E-002
 10
2.952968E+002
 20
1.24296E+002
 70
1
  0
VERTEX
  8
4
 42
7.6244651E-003
 10
2.9529945E+002
 20
1.2432897E+002
 70
0
  0
SEQEND
  0
POLYLINE
  8
4
  6
CONTINUOUS
 62
40
 66
1
 40
0.0
 41
0.0
 70
2
  0
VERTEX
  8
4
 42
0.0
 10
2.9529945E+002
 20
1.3312898E+002
 70
0
  0
VERTEX
  8
4
 42
1.2803496E-002
 10
2.9529912E+002
 20
1.3314327E+002
 70
1
  0
VERTEX
  8
4
 42
1.2156486E-002
 10
2.9529807E+002
 20
1.3315776E+002
 70
0
  0
VERTEX
  8
4
 42
1.1974556E-002
 10
2.9529628E+002
 20
1.3317245E+002
 70
1
  0
VERTEX
  8
4
 42
1.2481255E-002
 10
2.9529374E+002
 20
1.3318728E+002
 70
0
  0
VERTEX
  8
4
 42
1.2720304E-002
 10
2.9529038E+002
 20
1.3320219E+002
 70
1
  0
VERTEX
  8
4
 42
1.2876005E-002
 10
2.9528622E+002
 20
1.3321712E+002
 70
0
  0
VERTEX
  8
4
 42
1.2977585E-002
 10
2.952812E+002
 20
1.33232E+002
 70
1
  0
VERTEX
  8
4
 42
1.3184841E-002
 10
2.9527537E+002
 20
1.3324677E+002
 70
0
  0
VERTEX
  8
4
 42
1.3294639E-002
 10
2.9526866E+002
 20
1.3326135E+002
 70
1
  0
VERTEX
  8
4
 42
1.3439222E-002
 10
2.9526114E+002
 20
1.3327568E+002
 70
0
  0
VERTEX
  8
4
 42
1.3511468E-002
 10
2.9525277E+002
 20
1.3328969E+002
 70
1
  0
VERTEX
  8
4
 42
1.3609381E-002
 10
2.9524361E+002
 20
1.333033E+002
 70
0
  0
VERTEX
  8
4
 42
1.3663455E-002
 10
2.9523366E+002
 20
1.3331645E+002
 70
1
  0
VERTEX
  8
4
 42
1.373323E-002
 10
2.9522298E+002
 20
1.3332907E+002
 70
0
  0
VERTEX
  8
4
 42
1.372352E-002
 10
2.9521158E+002
 20
1.3334109E+002
 70
1
  0
VERTEX
  8
4
 42
1.36598E-002
 10
2.9519956E+002
 20
1.3335248E+002
 70
0
  0
VERTEX
  8
4
 42
1.3733233E-002
 10
2.9518695E+002
 20
1.3336316E+002
 70
1
  0
VERTEX
  8
4
 42
1.3898114E-002
 10
2.951738E+002
 20
1.3337312E+002
 70
0
  0
VERTEX
  8
4
 42
1.3544301E-002
 10
2.9516015E+002
 20
1.3338228E+002
 70
1
  0
VERTEX
  8
4
 42
1.2726883E-002
 10
2.9514618E+002
 20
1.3339065E+002
 70
0
  0
VERTEX
  8
4
 42
1.3686772E-002
 10
2.9513196E+002
 20
1.3339817E+002
 70
1
  0
VERTEX
  8
4
 42
1.5726016E-002
 10
2.9511726E+002
 20
1.3340487E+002
 70
0
  0
VERTEX
  8
4
 42
1.2376322E-002
 10
2.9510204E+002
 20
1.3341073E+002
 70
1
  0
VERTEX
  8
4
 42
5.3921614E-003
 10
2.9508761E+002
 20
1.3341573E+002
 70
0
  0
VERTEX
  8
4
 42
1.6185776E-002
 10
2.9507447E+002
 20
1.334198E+002
 70
1
  0
VERTEX
  8
4
 42
2.7066961E-002
 10
2.9505777E+002
 20
1.3342325E+002
 70
0
  0
VERTEX
  8
4
 42
1.3868128E-002
 10
2.9503243E+002
 20
1.3342631E+002
 70
1
  0
VERTEX
  8
4
 42
7.6244684E-003
 10
2.9499947E+002
 20
1.3342897E+002
 70
0
  0
SEQEND
  0
LINE
  8
4
  6
CONTINUOUS
 62
3
 10
2.9279946E+002
 20
1.1997896E+002
 11
2.9279946E+002
 21
1.1947896E+002
  0
LINE
  8
4
  6
CONTINUOUS
 62
3
 10
2.5529946E+002
 20
1.1997896E+002
 11
2.9279946E+002
 21
1.1997896E+002
  0
POLYLINE
  8
4
  6
CONTINUOUS
 62
40
 66
1
 40
0.0
 41
0.0
 70
2
  0
VERTEX
  8
4
 42
0.0
 10
2.9499947E+002
 20
1.7792897E+002
 70
0
  0
VERTEX
  8
4
 42
1.293947E-004
 10
2.9499961E+002
 20
1.7792897E+002
 70
1
  0
VERTEX
  8
4
 42
1.293023E-004
 10
2.9499976E+002
 20
1.7792897E+002
 70
0
  0
VERTEX
  8
4
 42
1.292769E-004
 10
2.949999E+002
 20
1.7792897E+002
 70
1
  0
VERTEX
  8
4
 42
1.29332E-004
 10
2.9500005E+002
 20
1.7792897E+002
 70
0
  0
VERTEX
  8
4
 42
1.293563E-004
 10
2.950002E+002
 20
1.7792897E+002
 70
1
  0
VERTEX
  8
4
 42
1.293758E-004
 10
2.9500034E+002
 20
1.7792897E+002
 70
0
  0
VERTEX
  8
4
 42
1.29385E-004
 10
2.9500049E+002
 20
1.7792897E+002
 70
1
  0
VERTEX
  8
4
 42
1.294072E-004
 10
2.9500063E+002
 20
1.7792897E+002
 70
0
  0
VERTEX
  8
4
 42
1.29429E-004
 10
2.9500078E+002
 20
1.7792897E+002
 70
1
  0
VERTEX
  8
4
 42
1.294729E-004
 10
2.9500093E+002
 20
1.7792897E+002
 70
0
  0
VERTEX
  8
4
 42
1.294602E-004
 10
2.9500107E+002
 20
1.7792897E+002
 70
1
  0
VERTEX
  8
4
 42
1.29419E-004
 10
2.9500122E+002
 20
1.7792897E+002
 70
0
  0
VERTEX
  8
4
 42
1.295254E-004
 10
2.9500137E+002
 20
1.7792898E+002
 70
1
  0
VERTEX
  8
4
 42
1.29783E-004
 10
2.9500151E+002
 20
1.7792898E+002
 70
0
  0
VERTEX
  8
4
 42
1.29472E-004
 10
2.9500166E+002
 20
1.7792898E+002
 70
1
  0
VERTEX
  8
4
 42
1.287043E-004
 10
2.9500181E+002
 20
1.7792898E+002
 70
0
  0
VERTEX
  8
4
 42
1.298379E-004
 10
2.9500195E+002
 20
1.7792898E+002
 70
1
  0
VERTEX
  8
4
 42
1.325029E-004
 10
2.950021E+002
 20
1.7792898E+002
 70
0
  0
VERTEX
  8
4
 42
1.287398E-004
 10
2.9500225E+002
 20
1.7792898E+002
 70
1
  0
VERTEX
  8
4
 42
1.202108E-004
 10
2.9500239E+002
 20
1.7792898E+002
 70
0
  0
VERTEX
  8
4
 42
1.327264E-004
 10
2.9500254E+002
 20
1.7792898E+002
 70
1
  0
VERTEX
  8
4
 42
1.582877E-004
 10
2.9500269E+002
 20
1.7792899E+002
 70
0
  0
VERTEX
  8
4
 42
1.20099E-004
 10
2.9500284E+002
 20
1.7792899E+002
 70
1
  0
VERTEX
  8
4
 42
4.11029E-005
 10
2.9500298E+002
 20
1.7792899E+002
 70
0
  0
VERTEX
  8
4
 42
1.695486E-004
 10
2.9500311E+002
 20
1.7792899E+002
 70
1
  0
VERTEX
  8
4
 42
2.918218E-004
 10
2.9500327E+002
 20
1.7792899E+002
 70
0
  0
VERTEX
  8
4
 42
1.426018E-004
 10
2.9500353E+002
 20
1.77929E+002
 70
1
  0
VERTEX
  8
4
 42
7.5527E-005
 10
2.9500386E+002
 20
1.77929E+002
 70
0
  0
SEQEND
  0
POLYLINE
  8
4
  6
CONTINUOUS
 62
40
 66
1
 40
0.0
 41
0.0
 70
2
  0
VERTEX
  8
4
 42
0.0
 10
2.9500429E+002
 20
1.8732776E+002
 70
0
  0
VERTEX
  8
4
 42
3.3702497E-003
 10
2.9500413E+002
 20
1.8732784E+002
 70
1
  0
VERTEX
  8
4
 42
3.4151363E-003
 10
2.9500397E+002
 20
1.8732792E+002
 70
0
  0
VERTEX
  8
4
 42
3.459418E-003
 10
2.9500381E+002
 20
1.8732799E+002
 70
1
  0
VERTEX
  8
4
 42
3.499046E-003
 10
2.9500365E+002
 20
1.8732806E+002
 70
0
  0
VERTEX
  8
4
 42
3.5406546E-003
 10
2.9500349E+002
 20
1.8732813E+002
 70
1
  0
VERTEX
  8
4
 42
3.580051E-003
 10
2.9500333E+002
 20
1.873282E+002
 70
0
  0
VERTEX
  8
4
 42
3.620377E-003
 10
2.9500317E+002
 20
1.8732826E+002
 70
1
  0
VERTEX
  8
4
 42
3.6576057E-003
 10
2.95003E+002
 20
1.8732832E+002
 70
0
  0
VERTEX
  8
4
 42
3.69616E-003
 10
2.9500284E+002
 20
1.8732838E+002
 70
1
  0
VERTEX
  8
4
 42
3.7321213E-003
 10
2.9500268E+002
 20
1.8732843E+002
 70
0
  0
VERTEX
  8
4
 42
3.767474E-003
 10
2.9500252E+002
 20
1.8732849E+002
 70
1
  0
VERTEX
  8
4
 42
3.7985536E-003
 10
2.9500236E+002
 20
1.8732853E+002
 70
0
  0
VERTEX
  8
4
 42
3.8346823E-003
 10
2.950022E+002
 20
1.8732858E+002
 70
1
  0
VERTEX
  8
4
 42
3.8719068E-003
 10
2.9500204E+002
 20
1.8732863E+002
 70
0
  0
VERTEX
  8
4
 42
3.892812E-003
 10
2.9500188E+002
 20
1.8732867E+002
 70
1
  0
VERTEX
  8
4
 42
3.896178E-003
 10
2.9500172E+002
 20
1.8732871E+002
 70
0
  0
VERTEX
  8
4
 42
3.9568733E-003
 10
2.9500156E+002
 20
1.8732874E+002
 70
1
  0
VERTEX
  8
4
 42
4.0615354E-003
 10
2.950014E+002
 20
1.8732878E+002
 70
0
  0
VERTEX
  8
4
 42
3.9703043E-003
 10
2.9500123E+002
 20
1.8732881E+002
 70
1
  0
VERTEX
  8
4
 42
3.7261591E-003
 10
2.9500107E+002
 20
1.8732884E+002
 70
0
  0
VERTEX
  8
4
 42
4.1302996E-003
 10
2.9500091E+002
 20
1.8732886E+002
 70
1
  0
VERTEX
  8
4
 42
4.9441078E-003
 10
2.9500075E+002
 20
1.8732888E+002
 70
0
  0
VERTEX
  8
4
 42
3.7716674E-003
 10
2.9500059E+002
 20
1.8732891E+002
 70
1
  0
VERTEX
  8
4
 42
1.3028158E-003
 10
2.9500043E+002
 20
1.8732892E+002
 70
0
  0
VERTEX
  8
4
 42
5.3334421E-003
 10
2.9500029E+002
 20
1.8732894E+002
 70
1
  0
VERTEX
  8
4
 42
9.2160338E-003
 10
2.9500011E+002
 20
1.8732895E+002
 70
0
  0
VERTEX
  8
4
 42
4.5198634E-003
 10
2.9499983E+002
 20
1.8732896E+002
 70
1
  0
VERTEX
  8
4
 42
2.3981239E-003
 10
2.9499947E+002
 20
1.8732897E+002
 70
0
  0
SEQEND
  0
POLYLINE
  8
4
  6
CONTINUOUS
 62
40
 66
1
 40
0.0
 41
0.0
 70
2
  0
VERTEX
  8
4
 42
0.0
 10
2.9500297E+002
 20
1.33428E+002
 70
0
  0
VERTEX
  8
4
 42
-4.1646444E-003
 10
2.9500723E+002
 20
1.3342796E+002
 70
1
  0
VERTEX
  8
4
 42
-4.098093E-003
 10
2.9501152E+002
 20
1.3342784E+002
 70
0
  0
VERTEX
  8
4
 42
-4.0884919E-003
 10
2.9501582E+002
 20
1.3342766E+002
 70
1
  0
VERTEX
  8
4
 42
-4.1500372E-003
 10
2.9502014E+002
 20
1.334274E+002
 70
0
  0
VERTEX
  8
4
 42
-4.1835707E-003
 10
2.9502447E+002
 20
1.3342706E+002
 70
1
  0
VERTEX
  8
4
 42
-4.2101086E-003
 10
2.9502882E+002
 20
1.3342666E+002
 70
0
  0
VERTEX
  8
4
 42
-4.230639E-003
 10
2.9503318E+002
 20
1.3342617E+002
 70
1
  0
VERTEX
  8
4
 42
-4.263943E-003
 10
2.9503755E+002
 20
1.3342561E+002
 70
0
  0
VERTEX
  8
4
 42
-4.2861974E-003
 10
2.9504193E+002
 20
1.3342497E+002
 70
1
  0
VERTEX
  8
4
 42
-4.3162807E-003
 10
2.9504632E+002
 20
1.3342425E+002
 70
0
  0
VERTEX
  8
4
 42
-4.3348124E-003
 10
2.9505071E+002
 20
1.3342346E+002
 70
1
  0
VERTEX
  8
4
 42
-4.3603071E-003
 10
2.9505511E+002
 20
1.3342258E+002
 70
0
  0
VERTEX
  8
4
 42
-4.3815051E-003
 10
2.9505951E+002
 20
1.3342162E+002
 70
1
  0
VERTEX
  8
4
 42
-4.4155774E-003
 10
2.9506392E+002
 20
1.3342058E+002
 70
0
  0
VERTEX
  8
4
 42
-4.4194579E-003
 10
2.9506832E+002
 20
1.3341945E+002
 70
1
  0
VERTEX
  8
4
 42
-4.4138323E-003
 10
2.9507273E+002
 20
1.3341824E+002
 70
0
  0
VERTEX
  8
4
 42
-4.468334E-003
 10
2.9507712E+002
 20
1.3341695E+002
 70
1
  0
VERTEX
  8
4
 42
-4.585028E-003
 10
2.9508152E+002
 20
1.3341557E+002
 70
0
  0
VERTEX
  8
4
 42
-4.458984E-003
 10
2.9508592E+002
 20
1.3341411E+002
 70
1
  0
VERTEX
  8
4
 42
-4.1674836E-003
 10
2.9509029E+002
 20
1.3341256E+002
 70
0
  0
VERTEX
  8
4
 42
-4.6300237E-003
 10
2.9509462E+002
 20
1.3341095E+002
 70
1
  0
VERTEX
  8
4
 42
-5.5654607E-003
 10
2.9509901E+002
 20
1.3340921E+002
 70
0
  0
VERTEX
  8
4
 42
-4.193101E-003
 10
2.9510349E+002
 20
1.3340732E+002
 70
1
  0
VERTEX
  8
4
 42
-1.3679504E-003
 10
2.9510768E+002
 20
1.334055E+002
 70
0
  0
VERTEX
  8
4
 42
-5.9965138E-003
 10
2.9511147E+002
 20
1.3340382E+002
 70
1
  0
VERTEX
  8
4
 42
-1.0346651E-002
 10
2.9511628E+002
 20
1.3340145E+002
 70
0
  0
VERTEX
  8
4
 42
-5.002604E-003
 10
2.9512363E+002
 20
1.3339756E+002
 70
1
  0
VERTEX
  8
4
 42
-2.6224259E-003
 10
2.9513321E+002
 20
1.3339231E+002
 70
0
  0
SEQEND
  0
POLYLINE
  8
4
  6
CONTINUOUS
 62
40
 66
1
 40
0.0
 41
0.0
 70
2
  0
VERTEX
  8
4
 42
0.0
 10
2.9529946E+002
 20
1.3312897E+002
 70
0
  0
VERTEX
  8
4
 42
-5.676256E-004
 10
2.9529946E+002
 20
1.3312896E+002
 70
1
  0
VERTEX
  8
4
 42
-6.555701E-004
 10
2.9529946E+002
 20
1.3312895E+002
 70
0
  0
VERTEX
  8
4
 42
-7.707707E-004
 10
2.9529946E+002
 20
1.3312894E+002
 70
1
  0
VERTEX
  8
4
 42
-9.124749E-004
 10
2.9529946E+002
 20
1.3312894E+002
 70
0
  0
VERTEX
  8
4
 42
-1.1060236E-003
 10
2.9529946E+002
 20
1.3312893E+002
 70
1
  0
VERTEX
  8
4
 42
-1.3561959E-003
 10
2.9529946E+002
 20
1.3312893E+002
 70
0
  0
VERTEX
  8
4
 42
-1.7189252E-003
 10
2.9529946E+002
 20
1.3312892E+002
 70
1
  0
VERTEX
  8
4
 42
-2.2234829E-003
 10
2.9529946E+002
 20
1.3312892E+002
 70
0
  0
VERTEX
  8
4
 42
-3.0275931E-003
 10
2.9529946E+002
 20
1.3312891E+002
 70
1
  0
VERTEX
  8
4
 42
-4.29273E-003
 10
2.9529946E+002
 20
1.3312891E+002
 70
0
  0
VERTEX
  8
4
 42
-6.6783993E-003
 10
2.9529946E+002
 20
1.3312891E+002
 70
1
  0
VERTEX
  8
4
 42
-1.1463401E-002
 10
2.9529946E+002
 20
1.331289E+002
 70
0
  0
VERTEX
  8
4
 42
-2.4921107E-002
 10
2.9529946E+002
 20
1.331289E+002
 70
1
  0
VERTEX
  8
4
 42
-8.1308009E-002
 10
2.9529946E+002
 20
1.331289E+002
 70
0
  0
VERTEX
  8
4
 42
-5.3152159E-001
 10
2.9529946E+002
 20
1.331289E+002
 70
1
  0
VERTEX
  8
4
 42
-1.189675E-001
 10
2.9529946E+002
 20
1.331289E+002
 70
0
  0
VERTEX
  8
4
 42
-3.0055699E-002
 10
2.9529946E+002
 20
1.331289E+002
 70
1
  0
VERTEX
  8
4
 42
-1.3549583E-002
 10
2.9529946E+002
 20
1.3312891E+002
 70
0
  0
VERTEX
  8
4
 42
-7.1921192E-003
 10
2.9529946E+002
 20
1.3312891E+002
 70
1
  0
VERTEX
  8
4
 42
-4.3864854E-003
 10
2.9529946E+002
 20
1.3312891E+002
 70
0
  0
VERTEX
  8
4
 42
-3.373116E-003
 10
2.9529946E+002
 20
1.3312891E+002
 70
1
  0
VERTEX
  8
4
 42
-2.8474586E-003
 10
2.9529946E+002
 20
1.3312892E+002
 70
0
  0
VERTEX
  8
4
 42
-1.586425E-003
 10
2.9529946E+002
 20
1.3312892E+002
 70
1
  0
VERTEX
  8
4
 42
-4.718402E-004
 10
2.9529946E+002
 20
1.3312893E+002
 70
0
  0
VERTEX
  8
4
 42
-1.7140489E-003
 10
2.9529946E+002
 20
1.3312893E+002
 70
1
  0
VERTEX
  8
4
 42
-2.0172402E-003
 10
2.9529946E+002
 20
1.3312894E+002
 70
0
  0
VERTEX
  8
4
 42
-7.40442E-004
 10
2.9529946E+002
 20
1.3312896E+002
 70
1
  0
VERTEX
  8
4
 42
-3.485491E-004
 10
2.9529945E+002
 20
1.3312898E+002
 70
0
  0
SEQEND
  0
LINE
  8
4
  6
CONTINUOUS
 62
3
 10
2.9279946E+002
 20
1.9137896E+002
 11
2.5529946E+002
 21
1.9137896E+002
  0
LINE
  8
4
  6
CONTINUOUS
 62
3
 10
2.9279946E+002
 20
1.9187896E+002
 11
2.9279946E+002
 21
1.9137896E+002
  0
LINE
  8
4
  6
CONTINUOUS
 62
3
 10
2.9279946E+002
 20
1.9137896E+002
 11
2.9329946E+002
 21
1.9137896E+002
  0
LINE
  8
4
  6
CONTINUOUS
 62
3
 10
2.9279946E+002
 20
1.6772896E+002
 11
2.9279946E+002
 21
1.9137896E+002
  0
POLYLINE
  8
4
  6
CONTINUOUS
 62
40
 66
1
 40
0.0
 41
0.0
 70
2
  0
VERTEX
  8
4
 42
0.0
 10
2.9279947E+002
 20
1.6772896E+002
 70
0
  0
VERTEX
  8
4
 42
-1.0284796E-002
 10
2.9282422E+002
 20
1.677284E+002
 70
1
  0
VERTEX
  8
4
 42
-1.0939999E-002
 10
2.9284835E+002
 20
1.6772684E+002
 70
0
  0
VERTEX
  8
4
 42
-1.1298346E-002
 10
2.9287183E+002
 20
1.6772425E+002
 70
1
  0
VERTEX
  8
4
 42
-1.1246566E-002
 10
2.928947E+002
 20
1.6772068E+002
 70
0
  0
VERTEX
  8
4
 42
-1.1313227E-002
 10
2.9291692E+002
 20
1.6771616E+002
 70
1
  0
VERTEX
  8
4
 42
-1.136719E-002
 10
2.9293853E+002
 20
1.6771074E+002
 70
0
  0
VERTEX
  8
4
 42
-1.1424925E-002
 10
2.9295949E+002
 20
1.6770443E+002
 70
1
  0
VERTEX
  8
4
 42
-1.1368794E-002
 10
2.9297984E+002
 20
1.676973E+002
 70
0
  0
VERTEX
  8
4
 42
-1.1345699E-002
 10
2.9299954E+002
 20
1.6768934E+002
 70
1
  0
VERTEX
  8
4
 42
-1.1241256E-002
 10
2.9301862E+002
 20
1.6768063E+002
 70
0
  0
VERTEX
  8
4
 42
-1.1163833E-002
 10
2.9303706E+002
 20
1.6767116E+002
 70
1
  0
VERTEX
  8
4
 42
-1.100712E-002
 10
2.9305489E+002
 20
1.67661E+002
 70
0
  0
VERTEX
  8
4
 42
-1.0882548E-002
 10
2.9307207E+002
 20
1.6765016E+002
 70
1
  0
VERTEX
  8
4
 42
-1.0690706E-002
 10
2.9308864E+002
 20
1.676387E+002
 70
0
  0
VERTEX
  8
4
 42
-1.0534469E-002
 10
2.9310457E+002
 20
1.6762661E+002
 70
1
  0
VERTEX
  8
4
 42
-1.0321465E-002
 10
2.9311988E+002
 20
1.6761398E+002
 70
0
  0
VERTEX
  8
4
 42
-1.0147882E-002
 10
2.9313455E+002
 20
1.676008E+002
 70
1
  0
VERTEX
  8
4
 42
-9.927835E-003
 10
2.9314861E+002
 20
1.6758712E+002
 70
0
  0
VERTEX
  8
4
 42
-9.7513763E-003
 10
2.9316202E+002
 20
1.6757298E+002
 70
1
  0
VERTEX
  8
4
 42
-9.5386383E-003
 10
2.9317483E+002
 20
1.6755841E+002
 70
0
  0
VERTEX
  8
4
 42
-9.3691592E-003
 10
2.9318699E+002
 20
1.6754344E+002
 70
1
  0
VERTEX
  8
4
 42
-9.1688313E-003
 10
2.9319854E+002
 20
1.6752811E+002
 70
0
  0
VERTEX
  8
4
 42
-9.0242203E-003
 10
2.9320945E+002
 20
1.6751244E+002
 70
1
  0
VERTEX
  8
4
 42
-8.8656361E-003
 10
2.9321974E+002
 20
1.6749649E+002
 70
0
  0
VERTEX
  8
4
 42
-8.7258532E-003
 10
2.932294E+002
 20
1.6748026E+002
 70
1
  0
VERTEX
  8
4
 42
-8.544306E-003
 10
2.9323845E+002
 20
1.6746382E+002
 70
0
  0
VERTEX
  8
4
 42
-8.516289E-003
 10
2.9324685E+002
 20
1.6744719E+002
 70
1
  0
VERTEX
  8
4
 42
-8.5663328E-003
 10
2.9325465E+002
 20
1.6743039E+002
 70
0
  0
VERTEX
  8
4
 42
-8.3073544E-003
 10
2.9326181E+002
 20
1.6741344E+002
 70
1
  0
VERTEX
  8
4
 42
-7.7568083E-003
 10
2.9326835E+002
 20
1.6739646E+002
 70
0
  0
VERTEX
  8
4
 42
-8.46825E-003
 10
2.9327426E+002
 20
1.6737953E+002
 70
1
  0
VERTEX
  8
4
 42
-1.0011083E-002
 10
2.9327956E+002
 20
1.6736231E+002
 70
0
  0
VERTEX
  8
4
 42
-7.7897618E-003
 10
2.9328424E+002
 20
1.6734473E+002
 70
1
  0
VERTEX
  8
4
 42
-2.9030776E-003
 10
2.9328827E+002
 20
1.6732822E+002
 70
0
  0
VERTEX
  8
4
 42
-1.0857431E-002
 10
2.9329161E+002
 20
1.6731328E+002
 70
1
  0
VERTEX
  8
4
 42
-1.9384349E-002
 10
2.9329449E+002
 20
1.6729444E+002
 70
0
  0
VERTEX
  8
4
 42
-9.9681524E-003
 10
2.9329712E+002
 20
1.6726596E+002
 70
1
  0
VERTEX
  8
4
 42
-5.4080679E-003
 10
2.9329947E+002
 20
1.6722896E+002
 70
0
  0
SEQEND
  0
LINE
  8
4
  6
CONTINUOUS
 62
3
 10
2.9329946E+002
 20
1.1997896E+002
 11
2.9279946E+002
 21
1.1997896E+002
  0
POLYLINE
  8
4
  6
CONTINUOUS
 62
40
 66
1
 40
0.0
 41
0.0
 70
2
  0
VERTEX
  8
4
 42
0.0
 10
2.9329947E+002
 20
1.4412896E+002
 70
0
  0
VERTEX
  8
4
 42
-9.597561E-003
 10
2.9329916E+002
 20
1.4411327E+002
 70
1
  0
VERTEX
  8
4
 42
-9.2512202E-003
 10
2.9329825E+002
 20
1.4409733E+002
 70
0
  0
VERTEX
  8
4
 42
-8.9265247E-003
 10
2.9329672E+002
 20
1.4408112E+002
 70
1
  0
VERTEX
  8
4
 42
-8.734172E-003
 10
2.9329459E+002
 20
1.4406469E+002
 70
0
  0
VERTEX
  8
4
 42
-8.5550082E-003
 10
2.9329184E+002
 20
1.4404808E+002
 70
1
  0
VERTEX
  8
4
 42
-8.4162084E-003
 10
2.9328848E+002
 20
1.4403132E+002
 70
0
  0
VERTEX
  8
4
 42
-8.295002E-003
 10
2.9328449E+002
 20
1.4401446E+002
 70
1
  0
VERTEX
  8
4
 42
-8.241007E-003
 10
2.932799E+002
 20
1.4399752E+002
 70
0
  0
VERTEX
  8
4
 42
-8.190897E-003
 10
2.9327468E+002
 20
1.4398054E+002
 70
1
  0
VERTEX
  8
4
 42
-8.1951544E-003
 10
2.9326885E+002
 20
1.4396356E+002
 70
0
  0
VERTEX
  8
4
 42
-8.1993493E-003
 10
2.9326239E+002
 20
1.4394661E+002
 70
1
  0
VERTEX
  8
4
 42
-8.259162E-003
 10
2.9325532E+002
 20
1.4392973E+002
 70
0
  0
VERTEX
  8
4
 42
-8.3125368E-003
 10
2.9324762E+002
 20
1.4391295E+002
 70
1
  0
VERTEX
  8
4
 42
-8.4194574E-003
 10
2.932393E+002
 20
1.4389631E+002
 70
0
  0
VERTEX
  8
4
 42
-8.5148564E-003
 10
2.9323034E+002
 20
1.4387985E+002
 70
1
  0
VERTEX
  8
4
 42
-8.663288E-003
 10
2.9322077E+002
 20
1.4386359E+002
 70
0
  0
VERTEX
  8
4
 42
-8.7941089E-003
 10
2.9321056E+002
 20
1.4384758E+002
 70
1
  0
VERTEX
  8
4
 42
-8.9765368E-003
 10
2.9319973E+002
 20
1.4383185E+002
 70
0
  0
VERTEX
  8
4
 42
-9.136592E-003
 10
2.9318826E+002
 20
1.4381644E+002
 70
1
  0
VERTEX
  8
4
 42
-9.3483486E-003
 10
2.9317617E+002
 20
1.4380138E+002
 70
0
  0
VERTEX
  8
4
 42
-9.525099E-003
 10
2.9316343E+002
 20
1.4378672E+002
 70
1
  0
VERTEX
  8
4
 42
-9.7462864E-003
 10
2.9315007E+002
 20
1.4377246E+002
 70
0
  0
VERTEX
  8
4
 42
-9.9436581E-003
 10
2.9313606E+002
 20
1.4375868E+002
 70
1
  0
VERTEX
  8
4
 42
-1.02007E-002
 10
2.9312143E+002
 20
1.4374538E+002
 70
0
  0
VERTEX
  8
4
 42
-1.0353743E-002
 10
2.9310614E+002
 20
1.4373262E+002
 70
1
  0
VERTEX
  8
4
 42
-1.0500644E-002
 10
2.9309023E+002
 20
1.4372042E+002
 70
0
  0
VERTEX
  8
4
 42
-1.0779526E-002
 10
2.9307367E+002
 20
1.4370883E+002
 70
1
  0
VERTEX
  8
4
 42
-1.125063E-002
 10
2.9305647E+002
 20
1.4369786E+002
 70
0
  0
VERTEX
  8
4
 42
-1.1001904E-002
 10
2.9303856E+002
 20
1.4368758E+002
 70
1
  0
VERTEX
  8
4
 42
-1.0306076E-002
 10
2.9302013E+002
 20
1.4367799E+002
 70
0
  0
VERTEX
  8
4
 42
-1.1653668E-002
 10
2.9300118E+002
 20
1.4366917E+002
 70
1
  0
VERTEX
  8
4
 42
-1.4292749E-002
 10
2.9298121E+002
 20
1.436611E+002
 70
0
  0
VERTEX
  8
4
 42
-1.0503526E-002
 10
2.9295999E+002
 20
1.4365383E+002
 70
1
  0
VERTEX
  8
4
 42
-2.8837437E-003
 10
2.9293969E+002
 20
1.4364747E+002
 70
0
  0
VERTEX
  8
4
 42
-1.5498322E-002
 10
2.9292102E+002
 20
1.436421E+002
 70
1
  0
VERTEX
  8
4
 42
-2.6426884E-002
 10
2.9289557E+002
 20
1.4363737E+002
 70
0
  0
VERTEX
  8
4
 42
-1.2096437E-002
 10
2.9285446E+002
 20
1.4363298E+002
 70
1
  0
VERTEX
  8
4
 42
-6.0941994E-003
 10
2.9279947E+002
 20
1.4362896E+002
 70
0
  0
SEQEND
  0
LINE
  8
4
  6
CONTINUOUS
 62
3
 10
2.9279946E+002
 20
1.1997896E+002
 11
2.9279946E+002
 21
1.4362896E+002
  0
LINE
  8
4
  6
CONTINUOUS
 62
40
 10
2.9329946E+002
 20
1.4382896E+002
 11
2.9209946E+002
 21
1.4382896E+002
  0
LINE
  8
4
  6
CONTINUOUS
 62
40
 10
2.9279946E+002
 20
1.4362896E+002
 11
2.6119946E+002
 21
1.4362896E+002
  0
LINE
  8
4
  6
CONTINUOUS
 62
40
 10
2.6129946E+002
 20
1.4382896E+002
 11
2.6119946E+002
 21
1.4382896E+002
  0
LINE
  8
4
  6
CONTINUOUS
 62
40
 10
2.6814946E+002
 20
1.4382896E+002
 11
2.6519946E+002
 21
1.4382896E+002
  0
LINE
  8
4
  6
CONTINUOUS
 62
40
 10
2.8769946E+002
 20
1.4382896E+002
 11
2.8474946E+002
 21
1.4382896E+002
  0
LINE
  8
4
  6
CONTINUOUS
 62
40
 10
2.9329946E+002
 20
1.4722896E+002
 11
2.9209946E+002
 21
1.4722896E+002
  0
LINE
  8
4
  6
CONTINUOUS
 62
40
 10
2.6129946E+002
 20
1.4722896E+002
 11
2.6119946E+002
 21
1.4722896E+002
  0
LINE
  8
4
  6
CONTINUOUS
 62
40
 10
2.6814946E+002
 20
1.4722896E+002
 11
2.6519946E+002
 21
1.4722896E+002
  0
LINE
  8
4
  6
CONTINUOUS
 62
40
 10
2.8769946E+002
 20
1.4722896E+002
 11
2.8474946E+002
 21
1.4722896E+002
  0
LINE
  8
4
  6
CONTINUOUS
 62
40
 10
2.6119946E+002
 20
1.4742896E+002
 11
2.9329946E+002
 21
1.4742896E+002
  0
LINE
  8
4
  6
CONTINUOUS
 62
40
 10
2.9329946E+002
 20
1.4870396E+002
 11
2.6119946E+002
 21
1.4870396E+002
  0
LINE
  8
4
  6
CONTINUOUS
 62
40
 10
2.9329946E+002
 20
1.4890396E+002
 11
2.6119946E+002
 21
1.4890396E+002
  0
LINE
  8
4
  6
CONTINUOUS
 62
40
 10
2.9329946E+002
 20
1.5230396E+002
 11
2.6119946E+002
 21
1.5230396E+002
  0
LINE
  8
4
  6
CONTINUOUS
 62
40
 10
2.6119946E+002
 20
1.5250396E+002
 11
2.9329946E+002
 21
1.5250396E+002
  0
LINE
  8
4
  6
CONTINUOUS
 62
40
 10
2.9329946E+002
 20
1.5377896E+002
 11
2.6119946E+002
 21
1.5377896E+002
  0
LINE
  8
4
  6
CONTINUOUS
 62
40
 10
2.6809946E+002
 20
1.5397896E+002
 11
2.6119946E+002
 21
1.5397896E+002
  0
LINE
  8
4
  6
CONTINUOUS
 62
40
 10
2.9329946E+002
 20
1.5397896E+002
 11
2.8079946E+002
 21
1.5397896E+002
  0
LINE
  8
4
  6
CONTINUOUS
 62
40
 10
2.9329946E+002
 20
1.5737896E+002
 11
2.8079946E+002
 21
1.5737896E+002
  0
LINE
  8
4
  6
CONTINUOUS
 62
40
 10
2.6809946E+002
 20
1.5737896E+002
 11
2.6119946E+002
 21
1.5737896E+002
  0
LINE
  8
4
  6
CONTINUOUS
 62
40
 10
2.6119946E+002
 20
1.5757896E+002
 11
2.9329946E+002
 21
1.5757896E+002
  0
LINE
  8
4
  6
CONTINUOUS
 62
40
 10
2.9329946E+002
 20
1.5885396E+002
 11
2.6119946E+002
 21
1.5885396E+002
  0
LINE
  8
4
  6
CONTINUOUS
 62
40
 10
2.9329946E+002
 20
1.5905396E+002
 11
2.6119946E+002
 21
1.5905396E+002
  0
LINE
  8
4
  6
CONTINUOUS
 62
40
 10
2.9329946E+002
 20
1.6245396E+002
 11
2.6119946E+002
 21
1.6245396E+002
  0
LINE
  8
4
  6
CONTINUOUS
 62
40
 10
2.6119946E+002
 20
1.6265396E+002
 11
2.9329946E+002
 21
1.6265396E+002
  0
LINE
  8
4
  6
CONTINUOUS
 62
40
 10
2.9329946E+002
 20
1.6412896E+002
 11
2.9209946E+002
 21
1.6412896E+002
  0
LINE
  8
4
  6
CONTINUOUS
 62
40
 10
2.9329946E+002
 20
1.6392896E+002
 11
2.6119946E+002
 21
1.6392896E+002
  0
LINE
  8
4
  6
CONTINUOUS
 62
40
 10
2.6129946E+002
 20
1.6412896E+002
 11
2.6119946E+002
 21
1.6412896E+002
  0
LINE
  8
4
  6
CONTINUOUS
 62
40
 10
2.6814946E+002
 20
1.6412896E+002
 11
2.6519946E+002
 21
1.6412896E+002
  0
LINE
  8
4
  6
CONTINUOUS
 62
40
 10
2.8769946E+002
 20
1.6412896E+002
 11
2.8474946E+002
 21
1.6412896E+002
  0
LINE
  8
4
  6
CONTINUOUS
 62
40
 10
2.6119946E+002
 20
1.6772896E+002
 11
2.9279946E+002
 21
1.6772896E+002
  0
LINE
  8
4
  6
CONTINUOUS
 62
40
 10
2.9499946E+002
 20
1.7792897E+002
 11
2.9499946E+002
 21
1.7792926E+002
  0
LINE
  8
4
  6
CONTINUOUS
 62
3
 10
2.9499946E+002
 20
1.7792897E+002
 11
2.9499946E+002
 21
1.8732897E+002
  0
LINE
  8
4
  6
CONTINUOUS
 62
40
 10
2.9499946E+002
 20
1.8732868E+002
 11
2.9499946E+002
 21
1.8732897E+002
  0
POLYLINE
  8
4
  6
CONTINUOUS
 62
40
 66
1
 40
0.0
 41
0.0
 70
2
  0
VERTEX
  8
4
 42
0.0
 10
2.9499947E+002
 20
1.7792926E+002
 70
0
  0
VERTEX
  8
4
 42
1.280619E-002
 10
2.9501376E+002
 20
1.779296E+002
 70
1
  0
VERTEX
  8
4
 42
1.2159025E-002
 10
2.9502825E+002
 20
1.7793065E+002
 70
0
  0
VERTEX
  8
4
 42
1.1977012E-002
 10
2.9504294E+002
 20
1.7793244E+002
 70
1
  0
VERTEX
  8
4
 42
1.2483746E-002
 10
2.9505777E+002
 20
1.7793498E+002
 70
0
  0
VERTEX
  8
4
 42
1.2722741E-002
 10
2.9507268E+002
 20
1.7793834E+002
 70
1
  0
VERTEX
  8
4
 42
1.2878346E-002
 10
2.9508761E+002
 20
1.7794251E+002
 70
0
  0
VERTEX
  8
4
 42
1.2979785E-002
 10
2.9510249E+002
 20
1.7794752E+002
 70
1
  0
VERTEX
  8
4
 42
1.3186895E-002
 10
2.9511726E+002
 20
1.7795336E+002
 70
0
  0
VERTEX
  8
4
 42
1.3296493E-002
 10
2.9513184E+002
 20
1.7796006E+002
 70
1
  0
VERTEX
  8
4
 42
1.3440864E-002
 10
2.9514618E+002
 20
1.7796759E+002
 70
0
  0
VERTEX
  8
4
 42
1.3512853E-002
 10
2.9516018E+002
 20
1.7797596E+002
 70
1
  0
VERTEX
  8
4
 42
1.3610501E-002
 10
2.951738E+002
 20
1.7798513E+002
 70
0
  0
VERTEX
  8
4
 42
1.3664276E-002
 10
2.9518694E+002
 20
1.7799508E+002
 70
1
  0
VERTEX
  8
4
 42
1.3733752E-002
 10
2.9519956E+002
 20
1.7800576E+002
 70
0
  0
VERTEX
  8
4
 42
1.3723718E-002
 10
2.9521159E+002
 20
1.7801716E+002
 70
1
  0
VERTEX
  8
4
 42
1.3659688E-002
 10
2.9522298E+002
 20
1.7802918E+002
 70
0
  0
VERTEX
  8
4
 42
1.3732797E-002
 10
2.9523365E+002
 20
1.780418E+002
 70
1
  0
VERTEX
  8
4
 42
1.3897361E-002
 10
2.9524361E+002
 20
1.7805495E+002
 70
0
  0
VERTEX
  8
4
 42
1.354326E-002
 10
2.9525277E+002
 20
1.780686E+002
 70
1
  0
VERTEX
  8
4
 42
1.2725654E-002
 10
2.9526114E+002
 20
1.7808258E+002
 70
0
  0
VERTEX
  8
4
 42
1.3685186E-002
 10
2.9526866E+002
 20
1.780968E+002
 70
1
  0
VERTEX
  8
4
 42
1.5723885E-002
 10
2.9527537E+002
 20
1.7811151E+002
 70
0
  0
VERTEX
  8
4
 42
1.2374416E-002
 10
2.9528123E+002
 20
1.7812673E+002
 70
1
  0
VERTEX
  8
4
 42
5.3912792E-003
 10
2.9528622E+002
 20
1.7814116E+002
 70
0
  0
VERTEX
  8
4
 42
1.6182995E-002
 10
2.9529029E+002
 20
1.7815431E+002
 70
1
  0
VERTEX
  8
4
 42
2.7061776E-002
 10
2.9529374E+002
 20
1.7817101E+002
 70
0
  0
VERTEX
  8
4
 42
1.3865305E-002
 10
2.952968E+002
 20
1.7819635E+002
 70
1
  0
VERTEX
  8
4
 42
7.6228884E-003
 10
2.9529945E+002
 20
1.7822933E+002
 70
0
  0
SEQEND
  0
POLYLINE
  8
4
  6
CONTINUOUS
 62
40
 66
1
 40
0.0
 41
0.0
 70
2
  0
VERTEX
  8
4
 42
0.0
 10
2.9499947E+002
 20
1.8732868E+002
 70
0
  0
VERTEX
  8
4
 42
-1.2791111E-002
 10
2.9501376E+002
 20
1.8732835E+002
 70
1
  0
VERTEX
  8
4
 42
-1.2144816E-002
 10
2.9502825E+002
 20
1.873273E+002
 70
0
  0
VERTEX
  8
4
 42
-1.1963259E-002
 10
2.9504294E+002
 20
1.873255E+002
 70
1
  0
VERTEX
  8
4
 42
-1.2469793E-002
 10
2.9505777E+002
 20
1.8732296E+002
 70
0
  0
VERTEX
  8
4
 42
-1.2709087E-002
 10
2.9507268E+002
 20
1.8731961E+002
 70
1
  0
VERTEX
  8
4
 42
-1.2865224E-002
 10
2.9508761E+002
 20
1.8731545E+002
 70
0
  0
VERTEX
  8
4
 42
-1.2967446E-002
 10
2.9510249E+002
 20
1.8731044E+002
 70
1
  0
VERTEX
  8
4
 42
-1.3175369E-002
 10
2.9511726E+002
 20
1.8730461E+002
 70
0
  0
VERTEX
  8
4
 42
-1.3286079E-002
 10
2.9513184E+002
 20
1.8729791E+002
 70
1
  0
VERTEX
  8
4
 42
-1.3431638E-002
 10
2.9514618E+002
 20
1.8729039E+002
 70
0
  0
VERTEX
  8
4
 42
-1.3505063E-002
 10
2.9516018E+002
 20
1.8728203E+002
 70
1
  0
VERTEX
  8
4
 42
-1.3604189E-002
 10
2.951738E+002
 20
1.8727288E+002
 70
0
  0
VERTEX
  8
4
 42
-1.3659633E-002
 10
2.9518694E+002
 20
1.8726294E+002
 70
1
  0
VERTEX
  8
4
 42
-1.373078E-002
 10
2.9519956E+002
 20
1.8725227E+002
 70
0
  0
VERTEX
  8
4
 42
-1.3722557E-002
 10
2.9521159E+002
 20
1.8724089E+002
 70
1
  0
VERTEX
  8
4
 42
-1.3660267E-002
 10
2.9522298E+002
 20
1.8722888E+002
 70
0
  0
VERTEX
  8
4
 42
-1.3735189E-002
 10
2.9523365E+002
 20
1.8721627E+002
 70
1
  0
VERTEX
  8
4
 42
-1.3901527E-002
 10
2.9524361E+002
 20
1.8720313E+002
 70
0
  0
VERTEX
  8
4
 42
-1.3549041E-002
 10
2.9525277E+002
 20
1.871895E+002
 70
1
  0
VERTEX
  8
4
 42
-1.27325E-002
 10
2.9526114E+002
 20
1.8717554E+002
 70
0
  0
VERTEX
  8
4
 42
-1.3694031E-002
 10
2.9526866E+002
 20
1.8716133E+002
 70
1
  0
VERTEX
  8
4
 42
-1.5735779E-002
 10
2.9527537E+002
 20
1.8714665E+002
 70
0
  0
VERTEX
  8
4
 42
-1.2385064E-002
 10
2.9528123E+002
 20
1.8713144E+002
 70
1
  0
VERTEX
  8
4
 42
-5.396209E-003
 10
2.9528622E+002
 20
1.8711702E+002
 70
0
  0
VERTEX
  8
4
 42
-1.6198541E-002
 10
2.9529029E+002
 20
1.8710389E+002
 70
1
  0
VERTEX
  8
4
 42
-2.7090783E-002
 10
2.9529374E+002
 20
1.8708722E+002
 70
0
  0
VERTEX
  8
4
 42
-1.3881105E-002
 10
2.952968E+002
 20
1.870619E+002
 70
1
  0
VERTEX
  8
4
 42
-7.631735E-003
 10
2.9529945E+002
 20
1.8702896E+002
 70
0
  0
SEQEND
  0
LINE
  8
4
  6
CONTINUOUS
 62
40
 10
2.9359946E+002
 20
1.7792897E+002
 11
2.9499947E+002
 21
1.7792897E+002
  0
LINE
  8
4
  6
CONTINUOUS
 62
3
 10
2.9359946E+002
 20
1.8732897E+002
 11
2.9359946E+002
 21
1.7792897E+002
  0
LINE
  8
4
  6
CONTINUOUS
 62
40
 10
2.9499947E+002
 20
1.8732897E+002
 11
2.9359946E+002
 21
1.8732897E+002
  0
POLYLINE
  8
4
  6
CONTINUOUS
 62
40
 66
1
 40
0.0
 41
0.0
 70
2
  0
VERTEX
  8
4
 42
0.0
 10
2.9329947E+002
 20
1.7762896E+002
 70
0
  0
VERTEX
  8
4
 42
-1.2802813E-002
 10
2.932998E+002
 20
1.7764326E+002
 70
1
  0
VERTEX
  8
4
 42
-1.2155811E-002
 10
2.9330085E+002
 20
1.7765774E+002
 70
0
  0
VERTEX
  8
4
 42
-1.197387E-002
 10
2.9330265E+002
 20
1.7767244E+002
 70
1
  0
VERTEX
  8
4
 42
-1.2480527E-002
 10
2.9330519E+002
 20
1.7768727E+002
 70
0
  0
VERTEX
  8
4
 42
-1.2719554E-002
 10
2.9330855E+002
 20
1.7770218E+002
 70
1
  0
VERTEX
  8
4
 42
-1.2875246E-002
 10
2.9331271E+002
 20
1.7771711E+002
 70
0
  0
VERTEX
  8
4
 42
-1.2976829E-002
 10
2.9331772E+002
 20
1.7773199E+002
 70
1
  0
VERTEX
  8
4
 42
-1.318409E-002
 10
2.9332356E+002
 20
1.7774676E+002
 70
0
  0
VERTEX
  8
4
 42
-1.3293908E-002
 10
2.9333026E+002
 20
1.7776134E+002
 70
1
  0
VERTEX
  8
4
 42
-1.3438518E-002
 10
2.9333779E+002
 20
1.7777568E+002
 70
0
  0
VERTEX
  8
4
 42
-1.3510805E-002
 10
2.9334616E+002
 20
1.7778968E+002
 70
1
  0
VERTEX
  8
4
 42
-1.3608765E-002
 10
2.9335532E+002
 20
1.778033E+002
 70
0
  0
VERTEX
  8
4
 42
-1.3662898E-002
 10
2.9336527E+002
 20
1.7781644E+002
 70
1
  0
VERTEX
  8
4
 42
-1.3732736E-002
 10
2.9337595E+002
 20
1.7782907E+002
 70
0
  0
VERTEX
  8
4
 42
-1.3723102E-002
 10
2.9338734E+002
 20
1.7784109E+002
 70
1
  0
VERTEX
  8
4
 42
-1.3659461E-002
 10
2.9339936E+002
 20
1.7785248E+002
 70
0
  0
VERTEX
  8
4
 42
-1.3732977E-002
 10
2.9341198E+002
 20
1.7786316E+002
 70
1
  0
VERTEX
  8
4
 42
-1.389794E-002
 10
2.9342513E+002
 20
1.7787312E+002
 70
0
  0
VERTEX
  8
4
 42
-1.3544221E-002
 10
2.9343878E+002
 20
1.7788228E+002
 70
1
  0
VERTEX
  8
4
 42
-1.2726886E-002
 10
2.9345275E+002
 20
1.7789065E+002
 70
0
  0
VERTEX
  8
4
 42
-1.3686861E-002
 10
2.9346697E+002
 20
1.7789817E+002
 70
1
  0
VERTEX
  8
4
 42
-1.5726224E-002
 10
2.9348167E+002
 20
1.7790488E+002
 70
0
  0
VERTEX
  8
4
 42
-1.2376571E-002
 10
2.9349689E+002
 20
1.7791074E+002
 70
1
  0
VERTEX
  8
4
 42
-5.3922903E-003
 10
2.9351132E+002
 20
1.7791573E+002
 70
0
  0
VERTEX
  8
4
 42
-1.6186219E-002
 10
2.9352446E+002
 20
1.779198E+002
 70
1
  0
VERTEX
  8
4
 42
-2.7067954E-002
 10
2.9354115E+002
 20
1.7792325E+002
 70
0
  0
VERTEX
  8
4
 42
-1.3868737E-002
 10
2.9356649E+002
 20
1.7792631E+002
 70
1
  0
VERTEX
  8
4
 42
-7.6248269E-003
 10
2.9359946E+002
 20
1.7792897E+002
 70
0
  0
SEQEND
  0
POLYLINE
  8
4
  6
CONTINUOUS
 62
40
 66
1
 40
0.0
 41
0.0
 70
2
  0
VERTEX
  8
4
 42
0.0
 10
2.9359946E+002
 20
1.8732897E+002
 70
0
  0
VERTEX
  8
4
 42
-1.2803181E-002
 10
2.9358516E+002
 20
1.873293E+002
 70
1
  0
VERTEX
  8
4
 42
-1.2156182E-002
 10
2.9357068E+002
 20
1.8733036E+002
 70
0
  0
VERTEX
  8
4
 42
-1.1974253E-002
 10
2.9355599E+002
 20
1.8733215E+002
 70
1
  0
VERTEX
  8
4
 42
-1.248094E-002
 10
2.9354115E+002
 20
1.8733469E+002
 70
0
  0
VERTEX
  8
4
 42
-1.2719987E-002
 10
2.9352624E+002
 20
1.8733805E+002
 70
1
  0
VERTEX
  8
4
 42
-1.2875691E-002
 10
2.9351132E+002
 20
1.8734221E+002
 70
0
  0
VERTEX
  8
4
 42
-1.2977279E-002
 10
2.9349644E+002
 20
1.8734723E+002
 70
1
  0
VERTEX
  8
4
 42
-1.3184544E-002
 10
2.9348167E+002
 20
1.8735306E+002
 70
0
  0
VERTEX
  8
4
 42
-1.3294358E-002
 10
2.9346708E+002
 20
1.8735977E+002
 70
1
  0
VERTEX
  8
4
 42
-1.343896E-002
 10
2.9345275E+002
 20
1.8736729E+002
 70
0
  0
VERTEX
  8
4
 42
-1.351123E-002
 10
2.9343875E+002
 20
1.8737566E+002
 70
1
  0
VERTEX
  8
4
 42
-1.3609169E-002
 10
2.9342513E+002
 20
1.8738482E+002
 70
0
  0
VERTEX
  8
4
 42
-1.3663274E-002
 10
2.9341199E+002
 20
1.8739477E+002
 70
1
  0
VERTEX
  8
4
 42
-1.3733081E-002
 10
2.9339936E+002
 20
1.8740545E+002
 70
0
  0
VERTEX
  8
4
 42
-1.3723407E-002
 10
2.9338734E+002
 20
1.8741684E+002
 70
1
  0
VERTEX
  8
4
 42
-1.3659723E-002
 10
2.9337595E+002
 20
1.8742887E+002
 70
0
  0
VERTEX
  8
4
 42
-1.3733195E-002
 10
2.9336527E+002
 20
1.8744148E+002
 70
1
  0
VERTEX
  8
4
 42
-1.3898113E-002
 10
2.9335532E+002
 20
1.8745463E+002
 70
0
  0
VERTEX
  8
4
 42
-1.3544338E-002
 10
2.9334616E+002
 20
1.8746828E+002
 70
1
  0
VERTEX
  8
4
 42
-1.2726952E-002
 10
2.9333779E+002
 20
1.8748225E+002
 70
0
  0
VERTEX
  8
4
 42
-1.3686881E-002
 10
2.9333027E+002
 20
1.8749647E+002
 70
1
  0
VERTEX
  8
4
 42
-1.5726184E-002
 10
2.9332356E+002
 20
1.8751117E+002
 70
0
  0
VERTEX
  8
4
 42
-1.2376488E-002
 10
2.933177E+002
 20
1.8752639E+002
 70
1
  0
VERTEX
  8
4
 42
-5.3922416E-003
 10
2.9331271E+002
 20
1.8754082E+002
 70
0
  0
VERTEX
  8
4
 42
-1.6186038E-002
 10
2.9330864E+002
 20
1.8755396E+002
 70
1
  0
VERTEX
  8
4
 42
-2.7067489E-002
 10
2.9330519E+002
 20
1.8757066E+002
 70
0
  0
VERTEX
  8
4
 42
-1.3868432E-002
 10
2.9330213E+002
 20
1.8759599E+002
 70
1
  0
VERTEX
  8
4
 42
-7.624643E-003
 10
2.9329947E+002
 20
1.8762896E+002
 70
0
  0
SEQEND
  0
LINE
  8
4
  6
CONTINUOUS
 62
40
 10
2.8769946E+002
 20
1.6752896E+002
 11
2.8474946E+002
 21
1.6752896E+002
  0
LINE
  8
4
  6
CONTINUOUS
 62
40
 10
2.6814946E+002
 20
1.6752896E+002
 11
2.6519946E+002
 21
1.6752896E+002
  0
LINE
  8
4
  6
CONTINUOUS
 62
40
 10
2.6129946E+002
 20
1.6752896E+002
 11
2.6119946E+002
 21
1.6752896E+002
  0
LINE
  8
4
  6
CONTINUOUS
 62
40
 10
2.9329946E+002
 20
1.6752896E+002
 11
2.9209946E+002
 21
1.6752896E+002
  0
LINE
  8
4
  6
CONTINUOUS
 62
40
 10
2.789977E+002
 20
1.5397896E+002
 11
2.789977E+002
 21
1.5737896E+002
  0
LINE
  8
4
  6
CONTINUOUS
 62
40
 10
2.7912893E+002
 20
1.5737896E+002
 11
2.7912893E+002
 21
1.5397896E+002
  0
LINE
  8
4
  6
CONTINUOUS
 62
40
 10
2.4194946E+002
 20
1.3776181E+002
 11
2.4014946E+002
 21
1.3596181E+002
  0
LINE
  8
4
  6
CONTINUOUS
 62
40
 10
2.4014946E+002
 20
1.7539612E+002
 11
2.4194946E+002
 21
1.7359612E+002
  0
LINE
  8
4
  6
CONTINUOUS
 62
40
 10
2.2914947E+002
 20
1.6807896E+002
 11
2.3784946E+002
 21
1.6807896E+002
  0
ARC
  8
4
  6
CONTINUOUS
 62
40
 10
2.2644946E+002
 20
1.8787896E+002
 40
3.0E-001
 50
9.0E+001
 51
1.8E+002
  0
ARC
  8
4
  6
CONTINUOUS
 62
40
 10
2.2644946E+002
 20
1.2347896E+002
 40
3.0E-001
 50
1.8E+002
 51
2.7E+002
  0
LINE
  8
4
  6
CONTINUOUS
 62
40
 10
2.2644946E+002
 20
1.2317896E+002
 11
2.2884946E+002
 21
1.2317896E+002
  0
LINE
  8
4
  6
CONTINUOUS
 62
40
 10
2.2644946E+002
 20
1.8817896E+002
 11
2.2884946E+002
 21
1.8817896E+002
  0
ARC
  8
4
  6
CONTINUOUS
 62
40
 10
2.2884946E+002
 20
1.8787896E+002
 40
3.0E-001
 50
0.0
 51
9.0E+001
  0
ARC
  8
4
  6
CONTINUOUS
 62
40
 10
2.2884946E+002
 20
1.2347896E+002
 40
3.0E-001
 50
2.7E+002
 51
3.6E+002
  0
ARC
  8
4
  6
CONTINUOUS
 62
40
 10
2.2964946E+002
 20
1.8517896E+002
 40
5.0E-001
 50
1.8E+002
 51
2.7E+002
  0
LINE
  8
4
  6
CONTINUOUS
 62
40
 10
2.4014946E+002
 20
1.8467896E+002
 11
2.2964946E+002
 21
1.8467896E+002
  0
LINE
  8
4
  6
CONTINUOUS
 62
40
 10
2.2964946E+002
 20
1.2667896E+002
 11
2.4014946E+002
 21
1.2667896E+002
  0
ARC
  8
4
  6
CONTINUOUS
 62
40
 10
2.2964946E+002
 20
1.2617896E+002
 40
5.0E-001
 50
9.0E+001
 51
1.8E+002
  0
LINE
  8
4
  6
CONTINUOUS
 62
40
 10
2.2914946E+002
 20
1.2347896E+002
 11
2.2914946E+002
 21
1.2667896E+002
  0
LINE
  8
4
  6
CONTINUOUS
 62
40
 10
2.2914946E+002
 20
1.2667896E+002
 11
2.2914946E+002
 21
1.8467896E+002
  0
LINE
  8
4
  6
CONTINUOUS
 62
40
 10
2.2914946E+002
 20
1.8467896E+002
 11
2.2914946E+002
 21
1.8787896E+002
  0
LINE
  8
4
  6
CONTINUOUS
 62
40
 10
2.3784946E+002
 20
1.4577896E+002
 11
2.3784946E+002
 21
1.4157896E+002
  0
LINE
  8
4
  6
CONTINUOUS
 62
40
 10
2.3784946E+002
 20
1.6557896E+002
 11
2.3784946E+002
 21
1.6977896E+002
  0
LINE
  8
4
  6
CONTINUOUS
 62
40
 10
2.2614946E+002
 20
1.8787896E+002
 11
2.2614946E+002
 21
1.8467896E+002
  0
LINE
  8
4
  6
CONTINUOUS
 62
40
 10
2.2614946E+002
 20
1.8467896E+002
 11
2.2614946E+002
 21
1.2667896E+002
  0
LINE
  8
4
  6
CONTINUOUS
 62
40
 10
2.2614946E+002
 20
1.2667896E+002
 11
2.2614946E+002
 21
1.2347896E+002
  0
LINE
  8
4
  6
CONTINUOUS
 62
40
 10
2.3674946E+002
 20
1.4327896E+002
 11
2.3674946E+002
 21
1.4157896E+002
  0
LINE
  8
4
  6
CONTINUOUS
 62
40
 10
2.2914947E+002
 20
1.4327896E+002
 11
2.3784946E+002
 21
1.4327896E+002
  0
LINE
  8
4
  6
CONTINUOUS
 62
40
 10
2.3674946E+002
 20
1.6977896E+002
 11
2.3674946E+002
 21
1.6807896E+002
  0
LINE
  8
4
  6
CONTINUOUS
 62
40
 10
2.2914946E+002
 20
1.6977896E+002
 11
2.2964946E+002
 21
1.6977896E+002
  0
LINE
  8
4
  6
CONTINUOUS
 62
40
 10
2.3833961E+002
 20
1.6977896E+002
 11
2.2964946E+002
 21
1.6977896E+002
  0
LINE
  8
4
  6
CONTINUOUS
 62
40
 10
2.2914946E+002
 20
1.4157896E+002
 11
2.2964946E+002
 21
1.4157896E+002
  0
LINE
  8
4
  6
CONTINUOUS
 62
40
 10
2.2964946E+002
 20
1.4157896E+002
 11
2.3833961E+002
 21
1.4157896E+002
  0
LINE
  8
4
  6
CONTINUOUS
 62
40
 10
2.3833961E+002
 20
1.4577896E+002
 11
2.2964946E+002
 21
1.4577896E+002
  0
LINE
  8
4
  6
CONTINUOUS
 62
40
 10
2.2964946E+002
 20
1.4577896E+002
 11
2.2914946E+002
 21
1.4577896E+002
  0
LINE
  8
4
  6
CONTINUOUS
 62
40
 10
2.2964946E+002
 20
1.6557896E+002
 11
2.3833961E+002
 21
1.6557896E+002
  0
LINE
  8
4
  6
CONTINUOUS
 62
40
 10
2.2964946E+002
 20
1.6557896E+002
 11
2.2914946E+002
 21
1.6557896E+002
  0
LINE
  8
4
  6
CONTINUOUS
 62
40
 10
2.4014946E+002
 20
1.7547896E+002
 11
2.4014946E+002
 21
1.7539612E+002
  0
LINE
  8
4
  6
CONTINUOUS
 62
40
 10
2.4014946E+002
 20
1.3596181E+002
 11
2.4014946E+002
 21
1.3587896E+002
  0
LINE
  8
4
  6
CONTINUOUS
 62
3
 10
2.4014946E+002
 20
1.2717896E+002
 11
2.2964946E+002
 21
1.2717896E+002
  0
LINE
  8
4
  6
CONTINUOUS
 62
3
 10
2.2964946E+002
 20
1.2717896E+002
 11
2.2964946E+002
 21
1.4157896E+002
  0
LINE
  8
4
  6
CONTINUOUS
 62
40
 10
2.3833961E+002
 20
1.4157896E+002
 11
2.3833961E+002
 21
1.4577896E+002
  0
LINE
  8
4
  6
CONTINUOUS
 62
40
 10
2.2964946E+002
 20
1.4577896E+002
 11
2.2964946E+002
 21
1.6557896E+002
  0
LINE
  8
4
  6
CONTINUOUS
 62
40
 10
2.3833961E+002
 20
1.6557896E+002
 11
2.3833961E+002
 21
1.6977896E+002
  0
LINE
  8
4
  6
CONTINUOUS
 62
3
 10
2.2964946E+002
 20
1.6977896E+002
 11
2.2964946E+002
 21
1.8417896E+002
  0
LINE
  8
4
  6
CONTINUOUS
 62
3
 10
2.2964946E+002
 20
1.8417896E+002
 11
2.4014946E+002
 21
1.8417896E+002
  0
LINE
  8
4
  6
CONTINUOUS
 62
3
 10
2.2644946E+002
 20
1.2667896E+002
 11
2.2644946E+002
 21
1.2317896E+002
  0
LINE
  8
4
  6
CONTINUOUS
 62
3
 10
2.2614946E+002
 20
1.2667896E+002
 11
2.2644946E+002
 21
1.2667896E+002
  0
LINE
  8
4
  6
CONTINUOUS
 62
3
 10
2.2644946E+002
 20
1.8467896E+002
 11
2.2644946E+002
 21
1.2667896E+002
  0
LINE
  8
4
  6
CONTINUOUS
 62
3
 10
2.2644946E+002
 20
1.8467896E+002
 11
2.2614946E+002
 21
1.8467896E+002
  0
LINE
  8
4
  6
CONTINUOUS
 62
3
 10
2.2644946E+002
 20
1.8817896E+002
 11
2.2644946E+002
 21
1.8467896E+002
  0
LINE
  8
4
  6
CONTINUOUS
 62
3
 10
2.2644946E+002
 20
1.8467896E+002
 11
2.2884946E+002
 21
1.8467896E+002
  0
LINE
  8
4
  6
CONTINUOUS
 62
3
 10
2.2884946E+002
 20
1.8467896E+002
 11
2.2884946E+002
 21
1.8817896E+002
  0
LINE
  8
4
  6
CONTINUOUS
 62
3
 10
2.2644946E+002
 20
1.2667896E+002
 11
2.2884946E+002
 21
1.2667896E+002
  0
LINE
  8
4
  6
CONTINUOUS
 62
3
 10
2.2884946E+002
 20
1.2667896E+002
 11
2.2884946E+002
 21
1.8467896E+002
  0
LINE
  8
4
  6
CONTINUOUS
 62
3
 10
2.2884946E+002
 20
1.2317896E+002
 11
2.2884946E+002
 21
1.2667896E+002
  0
LINE
  8
4
  6
CONTINUOUS
 62
3
 10
2.2914946E+002
 20
1.8467896E+002
 11
2.2884946E+002
 21
1.8467896E+002
  0
LINE
  8
4
  6
CONTINUOUS
 62
3
 10
2.2884946E+002
 20
1.2667896E+002
 11
2.2914946E+002
 21
1.2667896E+002
  0
LINE
  8
4
  6
CONTINUOUS
 62
3
 10
2.2914946E+002
 20
1.8417896E+002
 11
2.2964946E+002
 21
1.8417896E+002
  0
LINE
  8
4
  6
CONTINUOUS
 62
3
 10
2.2964946E+002
 20
1.8417896E+002
 11
2.2964946E+002
 21
1.8467896E+002
  0
LINE
  8
4
  6
CONTINUOUS
 62
3
 10
2.2964946E+002
 20
1.2667896E+002
 11
2.2964946E+002
 21
1.2717896E+002
  0
LINE
  8
4
  6
CONTINUOUS
 62
3
 10
2.2964946E+002
 20
1.2717896E+002
 11
2.2914946E+002
 21
1.2717896E+002
  0
LINE
  8
4
  6
CONTINUOUS
 62
40
 10
2.4014946E+002
 20
1.8467896E+002
 11
2.4014946E+002
 21
1.8417896E+002
  0
LINE
  8
4
  6
CONTINUOUS
 62
40
 10
2.4014946E+002
 20
1.8417896E+002
 11
2.4014946E+002
 21
1.7547896E+002
  0
LINE
  8
4
  6
CONTINUOUS
 62
40
 10
2.4014946E+002
 20
1.3587896E+002
 11
2.4014946E+002
 21
1.2717896E+002
  0
LINE
  8
4
  6
CONTINUOUS
 62
40
 10
2.4014946E+002
 20
1.2717896E+002
 11
2.4014946E+002
 21
1.2667896E+002
  0
LINE
  8
4
  6
CONTINUOUS
 62
40
 10
2.4014946E+002
 20
1.7547896E+002
 11
2.4194946E+002
 21
1.7367896E+002
  0
LINE
  8
4
  6
CONTINUOUS
 62
40
 10
2.4194946E+002
 20
1.7367896E+002
 11
2.4194946E+002
 21
1.3767896E+002
  0
LINE
  8
4
  6
CONTINUOUS
 62
40
 10
2.4194946E+002
 20
1.3767896E+002
 11
2.4014946E+002
 21
1.3587896E+002
  0
LINE
  8
4
  6
CONTINUOUS
 62
40
 10
2.497243E+002
 20
1.2620513E+002
 11
2.5005197E+002
 21
1.199528E+002
  0
ARC
  8
4
  6
CONTINUOUS
 62
40
 10
2.4922498E+002
 20
1.2617896E+002
 40
5.0E-001
 50
3.0
 51
9.0E+001
  0
LINE
  8
4
  6
CONTINUOUS
 62
40
 10
2.4922498E+002
 20
1.2667896E+002
 11
2.4014946E+002
 21
1.2667896E+002
  0
ARC
  8
4
  6
CONTINUOUS
 62
40
 10
2.4922498E+002
 20
1.8517896E+002
 40
5.0E-001
 50
2.7E+002
 51
3.57E+002
  0
LINE
  8
4
  6
CONTINUOUS
 62
40
 10
2.5005197E+002
 20
1.9140513E+002
 11
2.497243E+002
 21
1.851528E+002
  0
LINE
  8
4
  6
CONTINUOUS
 62
40
 10
2.4014946E+002
 20
1.8467896E+002
 11
2.4922498E+002
 21
1.8467896E+002
  0
ARC
  8
4
  6
CONTINUOUS
 62
40
 10
2.5055128E+002
 20
1.9137896E+002
 40
5.0E-001
 50
9.0E+001
 51
1.77E+002
  0
LINE
  8
4
  6
CONTINUOUS
 62
40
 10
2.5529946E+002
 20
1.2097896E+002
 11
2.5519946E+002
 21
1.2097896E+002
  0
LINE
  8
4
  6
CONTINUOUS
 62
40
 10
2.5519946E+002
 20
1.4157896E+002
 11
2.5529946E+002
 21
1.4157896E+002
  0
LINE
  8
4
  6
CONTINUOUS
 62
40
 10
2.5529946E+002
 20
1.4577896E+002
 11
2.5519946E+002
 21
1.4577896E+002
  0
LINE
  8
4
  6
CONTINUOUS
 62
40
 10
2.5519946E+002
 20
1.6557896E+002
 11
2.5529946E+002
 21
1.6557896E+002
  0
LINE
  8
4
  6
CONTINUOUS
 62
40
 10
2.5529946E+002
 20
1.6977896E+002
 11
2.5519946E+002
 21
1.6977896E+002
  0
LINE
  8
4
  6
CONTINUOUS
 62
40
 10
2.5519946E+002
 20
1.9037896E+002
 11
2.5529946E+002
 21
1.9037896E+002
  0
LINE
  8
4
  6
CONTINUOUS
 62
40
 10
2.5055128E+002
 20
1.9187896E+002
 11
2.5519946E+002
 21
1.9187896E+002
  0
LINE
  8
4
  6
CONTINUOUS
 62
40
 10
2.5519946E+002
 20
1.9187896E+002
 11
2.5529946E+002
 21
1.9187896E+002
  0
LINE
  8
4
  6
CONTINUOUS
 62
40
 10
2.5557934E+002
 20
1.6967896E+002
 11
2.5599946E+002
 21
1.6967896E+002
  0
LINE
  8
4
  6
CONTINUOUS
 62
40
 10
2.5557934E+002
 20
1.6967896E+002
 11
2.5519946E+002
 21
1.6967896E+002
  0
LINE
  8
4
  6
CONTINUOUS
 62
40
 10
2.5599946E+002
 20
1.6967896E+002
 11
2.5599946E+002
 21
1.6567896E+002
  0
LINE
  8
4
  6
CONTINUOUS
 62
40
 10
2.5519946E+002
 20
1.6567896E+002
 11
2.5557934E+002
 21
1.6567896E+002
  0
LINE
  8
4
  6
CONTINUOUS
 62
40
 10
2.5599946E+002
 20
1.6567896E+002
 11
2.5557934E+002
 21
1.6567896E+002
  0
LINE
  8
4
  6
CONTINUOUS
 62
40
 10
2.5557934E+002
 20
1.4567896E+002
 11
2.5599946E+002
 21
1.4567896E+002
  0
LINE
  8
4
  6
CONTINUOUS
 62
40
 10
2.5557934E+002
 20
1.4567896E+002
 11
2.5519946E+002
 21
1.4567896E+002
  0
LINE
  8
4
  6
CONTINUOUS
 62
40
 10
2.5599946E+002
 20
1.4567896E+002
 11
2.5599946E+002
 21
1.4167896E+002
  0
LINE
  8
4
  6
CONTINUOUS
 62
40
 10
2.5519946E+002
 20
1.4167896E+002
 11
2.5557934E+002
 21
1.4167896E+002
  0
LINE
  8
4
  6
CONTINUOUS
 62
40
 10
2.5599946E+002
 20
1.4167896E+002
 11
2.5557934E+002
 21
1.4167896E+002
  0
LINE
  8
4
  6
CONTINUOUS
 62
40
 10
2.5519946E+002
 20
1.1947896E+002
 11
2.5519946E+002
 21
1.1997896E+002
  0
LINE
  8
4
  6
CONTINUOUS
 62
40
 10
2.5519946E+002
 20
1.1997896E+002
 11
2.5519946E+002
 21
1.4167896E+002
  0
LINE
  8
4
  6
CONTINUOUS
 62
40
 10
2.5519946E+002
 20
1.4567896E+002
 11
2.5519946E+002
 21
1.6567896E+002
  0
LINE
  8
4
  6
CONTINUOUS
 62
40
 10
2.5519946E+002
 20
1.9137896E+002
 11
2.5519946E+002
 21
1.9187896E+002
  0
LINE
  8
4
  6
CONTINUOUS
 62
40
 10
2.5519946E+002
 20
1.6967896E+002
 11
2.5519946E+002
 21
1.9137896E+002
  0
LINE
  8
4
  6
CONTINUOUS
 62
40
 10
2.5519946E+002
 20
1.1947896E+002
 11
2.5055128E+002
 21
1.1947896E+002
  0
LINE
  8
4
  6
CONTINUOUS
 62
40
 10
2.5529946E+002
 20
1.1947896E+002
 11
2.5519946E+002
 21
1.1947896E+002
  0
ARC
  8
4
  6
CONTINUOUS
 62
40
 10
2.5055128E+002
 20
1.1997896E+002
 40
5.0E-001
 50
1.83E+002
 51
2.7E+002
  0
LINE
  8
4
  6
CONTINUOUS
 62
40
 10
2.4799946E+002
 20
1.5932896E+002
 11
2.4599946E+002
 21
1.5932896E+002
  0
LINE
  8
4
  6
CONTINUOUS
 62
40
 10
2.4799946E+002
 20
1.6082896E+002
 11
2.4799946E+002
 21
1.5932896E+002
  0
LINE
  8
4
  6
CONTINUOUS
 62
40
 10
2.4599946E+002
 20
1.6082896E+002
 11
2.4799946E+002
 21
1.6082896E+002
  0
LINE
  8
4
  6
CONTINUOUS
 62
40
 10
2.4599946E+002
 20
1.5932896E+002
 11
2.4599946E+002
 21
1.6082896E+002
  0
LINE
  8
4
  6
CONTINUOUS
 62
40
 10
2.4599946E+002
 20
1.5052896E+002
 11
2.4599946E+002
 21
1.5202896E+002
  0
LINE
  8
4
  6
CONTINUOUS
 62
40
 10
2.4799946E+002
 20
1.5052896E+002
 11
2.4599946E+002
 21
1.5052896E+002
  0
LINE
  8
4
  6
CONTINUOUS
 62
40
 10
2.4799946E+002
 20
1.5202896E+002
 11
2.4799946E+002
 21
1.5052896E+002
  0
LINE
  8
4
  6
CONTINUOUS
 62
40
 10
2.4599946E+002
 20
1.5202896E+002
 11
2.4799946E+002
 21
1.5202896E+002
  0
LINE
  8
4
  6
CONTINUOUS
 62
40
 10
2.4549946E+002
 20
1.5817896E+002
 11
2.4899946E+002
 21
1.5817896E+002
  0
LINE
  8
4
  6
CONTINUOUS
 62
40
 10
2.4899946E+002
 20
1.5817896E+002
 11
2.4899946E+002
 21
1.5317896E+002
  0
LINE
  8
4
  6
CONTINUOUS
 62
40
 10
2.4899946E+002
 20
1.5317896E+002
 11
2.4549946E+002
 21
1.5317896E+002
  0
LINE
  8
4
  6
CONTINUOUS
 62
40
 10
2.4549946E+002
 20
1.5317896E+002
 11
2.4549946E+002
 21
1.5817896E+002
  0
LINE
  8
4
  6
CONTINUOUS
 62
3
 10
2.4014946E+002
 20
1.2717896E+002
 11
2.4922498E+002
 21
1.2717896E+002
  0
ARC
  8
4
  6
CONTINUOUS
 62
3
 10
2.4922498E+002
 20
1.2617896E+002
 40
1.0
 50
3.0
 51
9.0E+001
  0
LINE
  8
4
  6
CONTINUOUS
 62
3
 10
2.5022361E+002
 20
1.262313E+002
 11
2.5055128E+002
 21
1.1997896E+002
  0
LINE
  8
4
  6
CONTINUOUS
 62
3
 10
2.5055128E+002
 20
1.1997896E+002
 11
2.5519946E+002
 21
1.1997896E+002
  0
LINE
  8
4
  6
CONTINUOUS
 62
40
 10
2.5557934E+002
 20
1.4167896E+002
 11
2.5557934E+002
 21
1.4567896E+002
  0
LINE
  8
4
  6
CONTINUOUS
 62
40
 10
2.5557934E+002
 20
1.6567896E+002
 11
2.5557934E+002
 21
1.6967896E+002
  0
LINE
  8
4
  6
CONTINUOUS
 62
3
 10
2.5519946E+002
 20
1.9137896E+002
 11
2.5055128E+002
 21
1.9137896E+002
  0
LINE
  8
4
  6
CONTINUOUS
 62
3
 10
2.5055128E+002
 20
1.9137896E+002
 11
2.5022361E+002
 21
1.8512663E+002
  0
ARC
  8
4
  6
CONTINUOUS
 62
3
 10
2.4922498E+002
 20
1.8517896E+002
 40
1.0
 50
2.7E+002
 51
3.57E+002
  0
LINE
  8
4
  6
CONTINUOUS
 62
3
 10
2.4922498E+002
 20
1.8417896E+002
 11
2.4014946E+002
 21
1.8417896E+002
  0
POLYLINE
  8
4
  6
CONTINUOUS
 62
3
 66
1
 40
0.0
 41
0.0
 70
2
  0
VERTEX
  8
4
 42
0.0
 10
2.5055129E+002
 20
1.1947896E+002
 70
0
  0
VERTEX
  8
4
 42
3.0845303E-003
 10
2.505513E+002
 20
1.1947916E+002
 70
1
  0
VERTEX
  8
4
 42
1.490884E-004
 10
2.5055133E+002
 20
1.1947974E+002
 70
0
  0
VERTEX
  8
4
 42
1.678118E-004
 10
2.5055138E+002
 20
1.1948073E+002
 70
1
  0
VERTEX
  8
4
 42
3.394047E-004
 10
2.5055146E+002
 20
1.1948209E+002
 70
0
  0
VERTEX
  8
4
 42
3.5301E-004
 10
2.5055155E+002
 20
1.1948384E+002
 70
1
  0
VERTEX
  8
4
 42
3.54753E-004
 10
2.5055166E+002
 20
1.1948597E+002
 70
0
  0
VERTEX
  8
4
 42
3.47342E-004
 10
2.5055179E+002
 20
1.1948848E+002
 70
1
  0
VERTEX
  8
4
 42
3.630114E-004
 10
2.5055193E+002
 20
1.1949135E+002
 70
0
  0
VERTEX
  8
4
 42
3.602826E-004
 10
2.5055208E+002
 20
1.1949461E+002
 70
1
  0
VERTEX
  8
4
 42
3.698519E-004
 10
2.5055225E+002
 20
1.1949823E+002
 70
0
  0
VERTEX
  8
4
 42
3.672354E-004
 10
2.5055243E+002
 20
1.1950222E+002
 70
1
  0
VERTEX
  8
4
 42
3.760879E-004
 10
2.5055261E+002
 20
1.1950657E+002
 70
0
  0
VERTEX
  8
4
 42
3.743851E-004
 10
2.5055281E+002
 20
1.1951128E+002
 70
1
  0
VERTEX
  8
4
 42
3.822187E-004
 10
2.5055301E+002
 20
1.1951635E+002
 70
0
  0
VERTEX
  8
4
 42
3.810827E-004
 10
2.5055322E+002
 20
1.1952177E+002
 70
1
  0
VERTEX
  8
4
 42
3.883672E-004
 10
2.5055343E+002
 20
1.1952754E+002
 70
0
  0
VERTEX
  8
4
 42
3.877192E-004
 10
2.5055365E+002
 20
1.1953367E+002
 70
1
  0
VERTEX
  8
4
 42
3.945587E-004
 10
2.5055387E+002
 20
1.1954014E+002
 70
0
  0
VERTEX
  8
4
 42
3.94353E-004
 10
2.5055408E+002
 20
1.1954695E+002
 70
1
  0
VERTEX
  8
4
 42
4.009731E-004
 10
2.505543E+002
 20
1.195541E+002
 70
0
  0
VERTEX
  8
4
 42
4.010023E-004
 10
2.5055452E+002
 20
1.1956159E+002
 70
1
  0
VERTEX
  8
4
 42
4.071376E-004
 10
2.5055473E+002
 20
1.1956941E+002
 70
0
  0
VERTEX
  8
4
 42
4.07847E-004
 10
2.5055494E+002
 20
1.1957757E+002
 70
1
  0
VERTEX
  8
4
 42
4.146778E-004
 10
2.5055515E+002
 20
1.1958605E+002
 70
0
  0
VERTEX
  8
4
 42
4.144199E-004
 10
2.5055534E+002
 20
1.1959487E+002
 70
1
  0
VERTEX
  8
4
 42
4.183306E-004
 10
2.5055553E+002
 20
1.1960399E+002
 70
0
  0
VERTEX
  8
4
 42
4.223563E-004
 10
2.5055571E+002
 20
1.1961344E+002
 70
1
  0
VERTEX
  8
4
 42
4.351542E-004
 10
2.5055588E+002
 20
1.1962321E+002
 70
0
  0
VERTEX
  8
4
 42
4.167134E-004
 10
2.5055603E+002
 20
1.196333E+002
 70
1
  0
VERTEX
  8
4
 42
3.843676E-004
 10
2.5055618E+002
 20
1.1964363E+002
 70
0
  0
VERTEX
  8
4
 42
3.738806E-004
 10
2.5055631E+002
 20
1.196541E+002
 70
1
  0
VERTEX
  8
4
 42
3.771527E-004
 10
2.5055642E+002
 20
1.196647E+002
 70
0
  0
VERTEX
  8
4
 42
3.796661E-004
 10
2.5055652E+002
 20
1.1967543E+002
 70
1
  0
VERTEX
  8
4
 42
3.853003E-004
 10
2.5055661E+002
 20
1.1968627E+002
 70
0
  0
VERTEX
  8
4
 42
3.897973E-004
 10
2.5055667E+002
 20
1.1969722E+002
 70
1
  0
VERTEX
  8
4
 42
3.967817E-004
 10
2.5055673E+002
 20
1.1970826E+002
 70
0
  0
VERTEX
  8
4
 42
4.027421E-004
 10
2.5055676E+002
 20
1.1971939E+002
 70
1
  0
VERTEX
  8
4
 42
4.113779E-004
 10
2.5055678E+002
 20
1.1973059E+002
 70
0
  0
VERTEX
  8
4
 42
4.19029E-004
 10
2.5055677E+002
 20
1.1974187E+002
 70
1
  0
VERTEX
  8
4
 42
4.294062E-004
 10
2.5055675E+002
 20
1.1975321E+002
 70
0
  0
VERTEX
  8
4
 42
4.38596E-004
 10
2.5055671E+002
 20
1.197646E+002
 70
1
  0
VERTEX
  8
4
 42
4.503649E-004
 10
2.5055665E+002
 20
1.1977603E+002
 70
0
  0
VERTEX
  8
4
 42
4.618977E-004
 10
2.5055656E+002
 20
1.197875E+002
 70
1
  0
VERTEX
  8
4
 42
4.769546E-004
 10
2.5055646E+002
 20
1.1979899E+002
 70
0
  0
VERTEX
  8
4
 42
4.885966E-004
 10
2.5055633E+002
 20
1.198105E+002
 70
1
  0
VERTEX
  8
4
 42
5.009311E-004
 10
2.5055618E+002
 20
1.1982201E+002
 70
0
  0
VERTEX
  8
4
 42
5.21521E-004
 10
2.50556E+002
 20
1.1983351E+002
 70
1
  0
VERTEX
  8
4
 42
5.531224E-004
 10
2.505558E+002
 20
1.1984502E+002
 70
0
  0
VERTEX
  8
4
 42
5.526396E-004
 10
2.5055558E+002
 20
1.1985652E+002
 70
1
  0
VERTEX
  8
4
 42
5.29594E-004
 10
2.5055533E+002
 20
1.1986796E+002
 70
0
  0
VERTEX
  8
4
 42
6.136869E-004
 10
2.5055506E+002
 20
1.1987928E+002
 70
1
  0
VERTEX
  8
4
 42
7.774147E-004
 10
2.5055475E+002
 20
1.1989074E+002
 70
0
  0
VERTEX
  8
4
 42
5.98306E-004
 10
2.505544E+002
 20
1.1990239E+002
 70
1
  0
VERTEX
  8
4
 42
1.731734E-004
 10
2.5055406E+002
 20
1.199133E+002
 70
0
  0
VERTEX
  8
4
 42
9.181087E-004
 10
2.5055374E+002
 20
1.1992314E+002
 70
1
  0
VERTEX
  8
4
 42
1.7227371E-003
 10
2.5055326E+002
 20
1.1993558E+002
 70
0
  0
VERTEX
  8
4
 42
8.745619E-004
 10
2.5055243E+002
 20
1.1995443E+002
 70
1
  0
VERTEX
  8
4
 42
4.645156E-004
 10
2.5055129E+002
 20
1.1997896E+002
 70
0
  0
SEQEND
  0
LINE
  8
4
  6
CONTINUOUS
 62
3
 10
2.4922498E+002
 20
1.8467896E+002
 11
2.4922498E+002
 21
1.8417896E+002
  0
LINE
  8
4
  6
CONTINUOUS
 62
3
 10
2.5022361E+002
 20
1.8512663E+002
 11
2.497243E+002
 21
1.851528E+002
  0
POLYLINE
  8
4
  6
CONTINUOUS
 62
3
 66
1
 40
0.0
 41
0.0
 70
2
  0
VERTEX
  8
4
 42
0.0
 10
2.5005196E+002
 20
1.9140513E+002
 70
0
  0
VERTEX
  8
4
 42
2.936134E-003
 10
2.5005216E+002
 20
1.9140511E+002
 70
1
  0
VERTEX
  8
4
 42
1.3442E-004
 10
2.5005274E+002
 20
1.9140504E+002
 70
0
  0
VERTEX
  8
4
 42
1.627443E-004
 10
2.5005372E+002
 20
1.9140494E+002
 70
1
  0
VERTEX
  8
4
 42
3.368413E-004
 10
2.5005508E+002
 20
1.9140479E+002
 70
0
  0
VERTEX
  8
4
 42
3.514908E-004
 10
2.5005682E+002
 20
1.9140461E+002
 70
1
  0
VERTEX
  8
4
 42
3.537378E-004
 10
2.5005894E+002
 20
1.9140439E+002
 70
0
  0
VERTEX
  8
4
 42
3.46627E-004
 10
2.5006144E+002
 20
1.9140413E+002
 70
1
  0
VERTEX
  8
4
 42
3.62481E-004
 10
2.5006431E+002
 20
1.9140384E+002
 70
0
  0
VERTEX
  8
4
 42
3.59878E-004
 10
2.5006755E+002
 20
1.9140351E+002
 70
1
  0
VERTEX
  8
4
 42
3.695339E-004
 10
2.5007115E+002
 20
1.9140316E+002
 70
0
  0
VERTEX
  8
4
 42
3.669817E-004
 10
2.5007513E+002
 20
1.9140277E+002
 70
1
  0
VERTEX
  8
4
 42
3.75882E-004
 10
2.5007946E+002
 20
1.9140236E+002
 70
0
  0
VERTEX
  8
4
 42
3.742163E-004
 10
2.5008416E+002
 20
1.9140192E+002
 70
1
  0
VERTEX
  8
4
 42
3.820791E-004
 10
2.5008921E+002
 20
1.9140145E+002
 70
0
  0
VERTEX
  8
4
 42
3.809667E-004
 10
2.5009462E+002
 20
1.9140096E+002
 70
1
  0
VERTEX
  8
4
 42
3.882707E-004
 10
2.5010037E+002
 20
1.9140044E+002
 70
0
  0
VERTEX
  8
4
 42
3.876384E-004
 10
2.5010648E+002
 20
1.9139991E+002
 70
1
  0
VERTEX
  8
4
 42
3.944916E-004
 10
2.5011292E+002
 20
1.9139935E+002
 70
0
  0
VERTEX
  8
4
 42
3.94297E-004
 10
2.5011972E+002
 20
1.9139877E+002
 70
1
  0
VERTEX
  8
4
 42
4.009273E-004
 10
2.5012684E+002
 20
1.9139818E+002
 70
0
  0
VERTEX
  8
4
 42
4.009648E-004
 10
2.5013431E+002
 20
1.9139757E+002
 70
1
  0
VERTEX
  8
4
 42
4.071074E-004
 10
2.5014211E+002
 20
1.9139695E+002
 70
0
  0
VERTEX
  8
4
 42
4.078237E-004
 10
2.5015025E+002
 20
1.9139632E+002
 70
1
  0
VERTEX
  8
4
 42
4.146609E-004
 10
2.5015871E+002
 20
1.9139567E+002
 70
0
  0
VERTEX
  8
4
 42
4.144072E-004
 10
2.501675E+002
 20
1.9139501E+002
 70
1
  0
VERTEX
  8
4
 42
4.183216E-004
 10
2.501766E+002
 20
1.9139435E+002
 70
0
  0
VERTEX
  8
4
 42
4.223534E-004
 10
2.5018603E+002
 20
1.9139367E+002
 70
1
  0
VERTEX
  8
4
 42
4.351602E-004
 10
2.5019578E+002
 20
1.9139299E+002
 70
0
  0
VERTEX
  8
4
 42
4.167243E-004
 10
2.5020585E+002
 20
1.9139231E+002
 70
1
  0
VERTEX
  8
4
 42
3.843824E-004
 10
2.5021615E+002
 20
1.9139163E+002
 70
0
  0
VERTEX
  8
4
 42
3.738917E-004
 10
2.502266E+002
 20
1.9139095E+002
 70
1
  0
VERTEX
  8
4
 42
3.77154E-004
 10
2.5023718E+002
 20
1.9139028E+002
 70
0
  0
VERTEX
  8
4
 42
3.796624E-004
 10
2.5024789E+002
 20
1.9138962E+002
 70
1
  0
VERTEX
  8
4
 42
3.85294E-004
 10
2.5025871E+002
 20
1.9138897E+002
 70
0
  0
VERTEX
  8
4
 42
3.897874E-004
 10
2.5026964E+002
 20
1.9138832E+002
 70
1
  0
VERTEX
  8
4
 42
3.967671E-004
 10
2.5028066E+002
 20
1.9138769E+002
 70
0
  0
VERTEX
  8
4
 42
4.027233E-004
 10
2.5029177E+002
 20
1.9138708E+002
 70
1
  0
VERTEX
  8
4
 42
4.113543E-004
 10
2.5030296E+002
 20
1.9138648E+002
 70
0
  0
VERTEX
  8
4
 42
4.190008E-004
 10
2.5031423E+002
 20
1.9138589E+002
 70
1
  0
VERTEX
  8
4
 42
4.293728E-004
 10
2.5032555E+002
 20
1.9138532E+002
 70
0
  0
VERTEX
  8
4
 42
4.385573E-004
 10
2.5033693E+002
 20
1.9138476E+002
 70
1
  0
VERTEX
  8
4
 42
4.5032E-004
 10
2.5034835E+002
 20
1.9138423E+002
 70
0
  0
VERTEX
  8
4
 42
4.618467E-004
 10
2.503598E+002
 20
1.9138371E+002
 70
1
  0
VERTEX
  8
4
 42
4.768966E-004
 10
2.5037128E+002
 20
1.9138322E+002
 70
0
  0
VERTEX
  8
4
 42
4.885317E-004
 10
2.5038278E+002
 20
1.9138274E+002
 70
1
  0
VERTEX
  8
4
 42
5.008589E-004
 10
2.5039428E+002
 20
1.9138229E+002
 70
0
  0
VERTEX
  8
4
 42
5.214394E-004
 10
2.5040578E+002
 20
1.9138186E+002
 70
1
  0
VERTEX
  8
4
 42
5.53029E-004
 10
2.5041729E+002
 20
1.9138146E+002
 70
0
  0
VERTEX
  8
4
 42
5.525397E-004
 10
2.5042879E+002
 20
1.9138108E+002
 70
1
  0
VERTEX
  8
4
 42
5.294924E-004
 10
2.5044022E+002
 20
1.9138073E+002
 70
0
  0
VERTEX
  8
4
 42
6.135606E-004
 10
2.5045154E+002
 20
1.9138041E+002
 70
1
  0
VERTEX
  8
4
 42
7.772411E-004
 10
2.50463E+002
 20
1.9138012E+002
 70
0
  0
VERTEX
  8
4
 42
5.981651E-004
 10
2.5047466E+002
 20
1.9137986E+002
 70
1
  0
VERTEX
  8
4
 42
1.731357E-004
 10
2.5048557E+002
 20
1.9137962E+002
 70
0
  0
VERTEX
  8
4
 42
9.17874E-004
 10
2.5049542E+002
 20
1.9137943E+002
 70
1
  0
VERTEX
  8
4
 42
1.7222446E-003
 10
2.5050786E+002
 20
1.9137926E+002
 70
0
  0
VERTEX
  8
4
 42
8.742911E-004
 10
2.5052673E+002
 20
1.913791E+002
 70
1
  0
VERTEX
  8
4
 42
4.643674E-004
 10
2.5055129E+002
 20
1.9137896E+002
 70
0
  0
SEQEND
  0
POLYLINE
  8
4
  6
CONTINUOUS
 62
3
 66
1
 40
0.0
 41
0.0
 70
2
  0
VERTEX
  8
4
 42
0.0
 10
2.5055129E+002
 20
1.9137896E+002
 70
0
  0
VERTEX
  8
4
 42
8.494852E-004
 10
2.5055182E+002
 20
1.9138964E+002
 70
1
  0
VERTEX
  8
4
 42
8.437927E-004
 10
2.5055233E+002
 20
1.9140044E+002
 70
0
  0
VERTEX
  8
4
 42
8.163991E-004
 10
2.5055281E+002
 20
1.9141134E+002
 70
1
  0
VERTEX
  8
4
 42
7.695596E-004
 10
2.5055326E+002
 20
1.9142235E+002
 70
0
  0
VERTEX
  8
4
 42
7.339514E-004
 10
2.5055367E+002
 20
1.9143344E+002
 70
1
  0
VERTEX
  8
4
 42
7.035272E-004
 10
2.5055406E+002
 20
1.9144462E+002
 70
0
  0
VERTEX
  8
4
 42
6.759954E-004
 10
2.5055442E+002
 20
1.9145587E+002
 70
1
  0
VERTEX
  8
4
 42
6.473531E-004
 10
2.5055475E+002
 20
1.9146718E+002
 70
0
  0
VERTEX
  8
4
 42
6.23039E-004
 10
2.5055505E+002
 20
1.9147855E+002
 70
1
  0
VERTEX
  8
4
 42
5.987346E-004
 10
2.5055533E+002
 20
1.9148997E+002
 70
0
  0
VERTEX
  8
4
 42
5.779982E-004
 10
2.5055558E+002
 20
1.9150142E+002
 70
1
  0
VERTEX
  8
4
 42
5.56719E-004
 10
2.505558E+002
 20
1.9151291E+002
 70
0
  0
VERTEX
  8
4
 42
5.388462E-004
 10
2.50556E+002
 20
1.9152441E+002
 70
1
  0
VERTEX
  8
4
 42
5.20343E-004
 10
2.5055618E+002
 20
1.9153592E+002
 70
0
  0
VERTEX
  8
4
 42
5.050072E-004
 10
2.5055633E+002
 20
1.9154743E+002
 70
1
  0
VERTEX
  8
4
 42
4.888932E-004
 10
2.5055646E+002
 20
1.9155894E+002
 70
0
  0
VERTEX
  8
4
 42
4.757809E-004
 10
2.5055656E+002
 20
1.9157043E+002
 70
1
  0
VERTEX
  8
4
 42
4.617979E-004
 10
2.5055665E+002
 20
1.915819E+002
 70
0
  0
VERTEX
  8
4
 42
4.506776E-004
 10
2.5055671E+002
 20
1.9159333E+002
 70
1
  0
VERTEX
  8
4
 42
4.38612E-004
 10
2.5055675E+002
 20
1.9160472E+002
 70
0
  0
VERTEX
  8
4
 42
4.293113E-004
 10
2.5055677E+002
 20
1.9161606E+002
 70
1
  0
VERTEX
  8
4
 42
4.190186E-004
 10
2.5055678E+002
 20
1.9162733E+002
 70
0
  0
VERTEX
  8
4
 42
4.114E-004
 10
2.5055676E+002
 20
1.9163854E+002
 70
1
  0
VERTEX
  8
4
 42
4.027428E-004
 10
2.5055673E+002
 20
1.9164967E+002
 70
0
  0
VERTEX
  8
4
 42
3.967748E-004
 10
2.5055667E+002
 20
1.9166071E+002
 70
1
  0
VERTEX
  8
4
 42
3.897973E-004
 10
2.5055661E+002
 20
1.9167166E+002
 70
0
  0
VERTEX
  8
4
 42
3.853031E-004
 10
2.5055652E+002
 20
1.916825E+002
 70
1
  0
VERTEX
  8
4
 42
3.796674E-004
 10
2.5055642E+002
 20
1.9169323E+002
 70
0
  0
VERTEX
  8
4
 42
3.771533E-004
 10
2.5055631E+002
 20
1.9170383E+002
 70
1
  0
VERTEX
  8
4
 42
3.738811E-004
 10
2.5055618E+002
 20
1.917143E+002
 70
0
  0
VERTEX
  8
4
 42
3.843681E-004
 10
2.5055603E+002
 20
1.9172462E+002
 70
1
  0
VERTEX
  8
4
 42
4.167143E-004
 10
2.5055588E+002
 20
1.9173471E+002
 70
0
  0
VERTEX
  8
4
 42
4.351561E-004
 10
2.5055571E+002
 20
1.9174448E+002
 70
1
  0
VERTEX
  8
4
 42
4.223604E-004
 10
2.5055553E+002
 20
1.9175393E+002
 70
0
  0
VERTEX
  8
4
 42
4.183373E-004
 10
2.5055534E+002
 20
1.9176306E+002
 70
1
  0
VERTEX
  8
4
 42
4.1443E-004
 10
2.5055515E+002
 20
1.9177188E+002
 70
0
  0
VERTEX
  8
4
 42
4.146917E-004
 10
2.5055494E+002
 20
1.9178036E+002
 70
1
  0
VERTEX
  8
4
 42
4.078653E-004
 10
2.5055473E+002
 20
1.9178851E+002
 70
0
  0
VERTEX
  8
4
 42
4.071627E-004
 10
2.5055452E+002
 20
1.9179633E+002
 70
1
  0
VERTEX
  8
4
 42
4.010372E-004
 10
2.505543E+002
 20
1.9180383E+002
 70
0
  0
VERTEX
  8
4
 42
4.010136E-004
 10
2.5055408E+002
 20
1.9181097E+002
 70
1
  0
VERTEX
  8
4
 42
3.943948E-004
 10
2.5055387E+002
 20
1.9181779E+002
 70
0
  0
VERTEX
  8
4
 42
3.946259E-004
 10
2.5055365E+002
 20
1.9182426E+002
 70
1
  0
VERTEX
  8
4
 42
3.878368E-004
 10
2.5055343E+002
 20
1.9183038E+002
 70
0
  0
VERTEX
  8
4
 42
3.884574E-004
 10
2.5055322E+002
 20
1.9183615E+002
 70
1
  0
VERTEX
  8
4
 42
3.81068E-004
 10
2.5055301E+002
 20
1.9184158E+002
 70
0
  0
VERTEX
  8
4
 42
3.824086E-004
 10
2.5055281E+002
 20
1.9184664E+002
 70
1
  0
VERTEX
  8
4
 42
3.75077E-004
 10
2.5055261E+002
 20
1.9185136E+002
 70
0
  0
VERTEX
  8
4
 42
3.761896E-004
 10
2.5055243E+002
 20
1.9185571E+002
 70
1
  0
VERTEX
  8
4
 42
3.657736E-004
 10
2.5055225E+002
 20
1.918597E+002
 70
0
  0
VERTEX
  8
4
 42
3.7077E-004
 10
2.5055208E+002
 20
1.9186331E+002
 70
1
  0
VERTEX
  8
4
 42
3.665671E-004
 10
2.5055193E+002
 20
1.9186657E+002
 70
0
  0
VERTEX
  8
4
 42
3.616367E-004
 10
2.5055179E+002
 20
1.9186946E+002
 70
1
  0
VERTEX
  8
4
 42
3.322186E-004
 10
2.5055166E+002
 20
1.9187196E+002
 70
0
  0
VERTEX
  8
4
 42
3.650038E-004
 10
2.5055155E+002
 20
1.9187403E+002
 70
1
  0
VERTEX
  8
4
 42
3.657294E-004
 10
2.5055146E+002
 20
1.9187583E+002
 70
0
  0
VERTEX
  8
4
 42
3.8855E-004
 10
2.5055137E+002
 20
1.9187748E+002
 70
1
  0
VERTEX
  8
4
 42
5.549931E-004
 10
2.5055129E+002
 20
1.9187896E+002
 70
0
  0
SEQEND
  0
POLYLINE
  8
4
  6
CONTINUOUS
 62
3
 66
1
 40
0.0
 41
0.0
 70
2
  0
VERTEX
  8
4
 42
0.0
 10
2.5055129E+002
 20
1.1997896E+002
 70
0
  0
VERTEX
  8
4
 42
8.511361E-004
 10
2.5054059E+002
 20
1.1997894E+002
 70
1
  0
VERTEX
  8
4
 42
8.454422E-004
 10
2.5052978E+002
 20
1.1997888E+002
 70
0
  0
VERTEX
  8
4
 42
8.179876E-004
 10
2.5051887E+002
 20
1.1997879E+002
 70
1
  0
VERTEX
  8
4
 42
7.710298E-004
 10
2.5050786E+002
 20
1.1997866E+002
 70
0
  0
VERTEX
  8
4
 42
7.35333E-004
 10
2.5049675E+002
 20
1.1997849E+002
 70
1
  0
VERTEX
  8
4
 42
7.048323E-004
 10
2.5048557E+002
 20
1.199783E+002
 70
0
  0
VERTEX
  8
4
 42
6.77231E-004
 10
2.5047432E+002
 20
1.1997807E+002
 70
1
  0
VERTEX
  8
4
 42
6.485136E-004
 10
2.50463E+002
 20
1.1997781E+002
 70
0
  0
VERTEX
  8
4
 42
6.241354E-004
 10
2.5045163E+002
 20
1.1997751E+002
 70
1
  0
VERTEX
  8
4
 42
5.99765E-004
 10
2.5044022E+002
 20
1.1997719E+002
 70
0
  0
VERTEX
  8
4
 42
5.789716E-004
 10
2.5042876E+002
 20
1.1997684E+002
 70
1
  0
VERTEX
  8
4
 42
5.576316E-004
 10
2.5041729E+002
 20
1.1997647E+002
 70
0
  0
VERTEX
  8
4
 42
5.397067E-004
 10
2.5040579E+002
 20
1.1997606E+002
 70
1
  0
VERTEX
  8
4
 42
5.211474E-004
 10
2.5039428E+002
 20
1.1997564E+002
 70
0
  0
VERTEX
  8
4
 42
5.057638E-004
 10
2.5038278E+002
 20
1.1997519E+002
 70
1
  0
VERTEX
  8
4
 42
4.895973E-004
 10
2.5037128E+002
 20
1.1997471E+002
 70
0
  0
VERTEX
  8
4
 42
4.764401E-004
 10
2.503598E+002
 20
1.1997422E+002
 70
1
  0
VERTEX
  8
4
 42
4.624074E-004
 10
2.5034835E+002
 20
1.199737E+002
 70
0
  0
VERTEX
  8
4
 42
4.512448E-004
 10
2.5033693E+002
 20
1.1997316E+002
 70
1
  0
VERTEX
  8
4
 42
4.391316E-004
 10
2.5032555E+002
 20
1.1997261E+002
 70
0
  0
VERTEX
  8
4
 42
4.297899E-004
 10
2.5031423E+002
 20
1.1997204E+002
 70
1
  0
VERTEX
  8
4
 42
4.194506E-004
 10
2.5030296E+002
 20
1.1997145E+002
 70
0
  0
VERTEX
  8
4
 42
4.117919E-004
 10
2.5029177E+002
 20
1.1997085E+002
 70
1
  0
VERTEX
  8
4
 42
4.030884E-004
 10
2.5028066E+002
 20
1.1997023E+002
 70
0
  0
VERTEX
  8
4
 42
3.9708E-004
 10
2.5026964E+002
 20
1.199696E+002
 70
1
  0
VERTEX
  8
4
 42
3.900556E-004
 10
2.5025871E+002
 20
1.1996896E+002
 70
0
  0
VERTEX
  8
4
 42
3.855209E-004
 10
2.5024789E+002
 20
1.1996831E+002
 70
1
  0
VERTEX
  8
4
 42
3.79839E-004
 10
2.5023718E+002
 20
1.1996765E+002
 70
0
  0
VERTEX
  8
4
 42
3.772792E-004
 10
2.502266E+002
 20
1.1996698E+002
 70
1
  0
VERTEX
  8
4
 42
3.739506E-004
 10
2.5021615E+002
 20
1.199663E+002
 70
0
  0
VERTEX
  8
4
 42
3.84418E-004
 10
2.5020585E+002
 20
1.1996562E+002
 70
1
  0
VERTEX
  8
4
 42
4.167764E-004
 10
2.5019578E+002
 20
1.1996494E+002
 70
0
  0
VERTEX
  8
4
 42
4.352609E-004
 10
2.5018603E+002
 20
1.1996426E+002
 70
1
  0
VERTEX
  8
4
 42
4.225499E-004
 10
2.501766E+002
 20
1.1996358E+002
 70
0
  0
VERTEX
  8
4
 42
4.186069E-004
 10
2.501675E+002
 20
1.1996292E+002
 70
1
  0
VERTEX
  8
4
 42
4.14793E-004
 10
2.5015871E+002
 20
1.1996226E+002
 70
0
  0
VERTEX
  8
4
 42
4.151524E-004
 10
2.5015025E+002
 20
1.1996161E+002
 70
1
  0
VERTEX
  8
4
 42
4.084443E-004
 10
2.5014211E+002
 20
1.1996098E+002
 70
0
  0
VERTEX
  8
4
 42
4.078676E-004
 10
2.5013431E+002
 20
1.1996035E+002
 70
1
  0
VERTEX
  8
4
 42
4.018934E-004
 10
2.5012684E+002
 20
1.1995975E+002
 70
0
  0
VERTEX
  8
4
 42
4.020353E-004
 10
2.5011972E+002
 20
1.1995915E+002
 70
1
  0
VERTEX
  8
4
 42
3.956149E-004
 10
2.5011292E+002
 20
1.1995858E+002
 70
0
  0
VERTEX
  8
4
 42
3.960734E-004
 10
2.5010648E+002
 20
1.1995802E+002
 70
1
  0
VERTEX
  8
4
 42
3.895626E-004
 10
2.5010037E+002
 20
1.1995749E+002
 70
0
  0
VERTEX
  8
4
 42
3.904981E-004
 10
2.5009462E+002
 20
1.1995697E+002
 70
1
  0
VERTEX
  8
4
 42
3.834791E-004
 10
2.5008921E+002
 20
1.1995648E+002
 70
0
  0
VERTEX
  8
4
 42
3.853241E-004
 10
2.5008416E+002
 20
1.1995601E+002
 70
1
  0
VERTEX
  8
4
 42
3.786849E-004
 10
2.5007946E+002
 20
1.1995557E+002
 70
0
  0
VERTEX
  8
4
 42
3.804396E-004
 10
2.5007513E+002
 20
1.1995515E+002
 70
1
  0
VERTEX
  8
4
 42
3.705508E-004
 10
2.5007115E+002
 20
1.1995477E+002
 70
0
  0
VERTEX
  8
4
 42
3.773953E-004
 10
2.5006755E+002
 20
1.1995441E+002
 70
1
  0
VERTEX
  8
4
 42
3.770813E-004
 10
2.5006431E+002
 20
1.1995409E+002
 70
0
  0
VERTEX
  8
4
 42
3.722632E-004
 10
2.5006143E+002
 20
1.1995379E+002
 70
1
  0
VERTEX
  8
4
 42
3.35949E-004
 10
2.5005894E+002
 20
1.1995354E+002
 70
0
  0
VERTEX
  8
4
 42
3.869556E-004
 10
2.5005687E+002
 20
1.1995332E+002
 70
1
  0
VERTEX
  8
4
 42
4.505613E-004
 10
2.5005508E+002
 20
1.1995313E+002
 70
0
  0
VERTEX
  8
4
 42
5.065216E-004
 10
2.5005344E+002
 20
1.1995295E+002
 70
1
  0
VERTEX
  8
4
 42
6.868238E-004
 10
2.5005196E+002
 20
1.1995279E+002
 70
0
  0
SEQEND
  0
LINE
  8
4
  6
CONTINUOUS
 62
3
 10
2.497243E+002
 20
1.2620513E+002
 11
2.5022361E+002
 21
1.262313E+002
  0
LINE
  8
4
  6
CONTINUOUS
 62
3
 10
2.4922498E+002
 20
1.2717896E+002
 11
2.4922498E+002
 21
1.2667896E+002
  0
LINE
  8
4
  6
CONTINUOUS
 62
40
 10
2.4874946E+002
 20
1.5366424E+002
 11
2.4874946E+002
 21
1.5766424E+002
  0
LINE
  8
4
  6
CONTINUOUS
 62
40
 10
2.4874946E+002
 20
1.5349661E+002
 11
2.4899946E+002
 21
1.5349661E+002
  0
LINE
  8
4
  6
CONTINUOUS
 62
40
 10
2.4899946E+002
 20
1.578317E+002
 11
2.4874946E+002
 21
1.578317E+002
  0
LINE
  8
4
  6
CONTINUOUS
 62
40
 10
2.4874946E+002
 20
1.5816415E+002
 11
2.4899946E+002
 21
1.5816415E+002
  0
LINE
  8
4
  6
CONTINUOUS
 62
40
 10
2.4694946E+002
 20
1.5661209E+002
 11
2.4694946E+002
 21
1.562382E+002
  0
LINE
  8
4
  6
CONTINUOUS
 62
40
 10
2.4694946E+002
 20
1.562382E+002
 11
2.4694946E+002
 21
1.5509002E+002
  0
LINE
  8
4
  6
CONTINUOUS
 62
40
 10
2.4694946E+002
 20
1.5509002E+002
 11
2.4694946E+002
 21
1.5471612E+002
  0
LINE
  8
4
  6
CONTINUOUS
 62
40
 10
2.4694946E+002
 20
1.5471612E+002
 11
2.4694946E+002
 21
1.5403805E+002
  0
LINE
  8
4
  6
CONTINUOUS
 62
40
 10
2.4694946E+002
 20
1.5403805E+002
 11
2.4694946E+002
 21
1.5366424E+002
  0
LINE
  8
4
  6
CONTINUOUS
 62
40
 10
2.4694946E+002
 20
1.5766424E+002
 11
2.4694946E+002
 21
1.5729034E+002
  0
LINE
  8
4
  6
CONTINUOUS
 62
40
 10
2.4694946E+002
 20
1.5729034E+002
 11
2.4694946E+002
 21
1.5661209E+002
  0
LINE
  8
4
  6
CONTINUOUS
 62
40
 10
2.4574946E+002
 20
1.5317897E+002
 11
2.4574946E+002
 21
1.5366424E+002
  0
LINE
  8
4
  6
CONTINUOUS
 62
40
 10
2.4574946E+002
 20
1.5766424E+002
 11
2.4574946E+002
 21
1.5817896E+002
  0
LINE
  8
4
  6
CONTINUOUS
 62
40
 10
2.4694946E+002
 20
1.5366424E+002
 11
2.4574946E+002
 21
1.5366424E+002
  0
LINE
  8
4
  6
CONTINUOUS
 62
40
 10
2.4574946E+002
 20
1.5766424E+002
 11
2.4694946E+002
 21
1.5766424E+002
  0
LINE
  8
4
  6
CONTINUOUS
 62
40
 10
2.4824946E+002
 20
1.5766424E+002
 11
2.4824946E+002
 21
1.5729034E+002
  0
LINE
  8
4
  6
CONTINUOUS
 62
40
 10
2.4824946E+002
 20
1.5403805E+002
 11
2.4824946E+002
 21
1.5366424E+002
  0
LINE
  8
4
  6
CONTINUOUS
 62
40
 10
2.4824946E+002
 20
1.5471612E+002
 11
2.4824946E+002
 21
1.5403805E+002
  0
LINE
  8
4
  6
CONTINUOUS
 62
40
 10
2.4824946E+002
 20
1.5509002E+002
 11
2.4824946E+002
 21
1.5471612E+002
  0
LINE
  8
4
  6
CONTINUOUS
 62
40
 10
2.4824946E+002
 20
1.5509002E+002
 11
2.4824946E+002
 21
1.562382E+002
  0
LINE
  8
4
  6
CONTINUOUS
 62
40
 10
2.4824946E+002
 20
1.5661209E+002
 11
2.4824946E+002
 21
1.562382E+002
  0
LINE
  8
4
  6
CONTINUOUS
 62
40
 10
2.4824946E+002
 20
1.5729034E+002
 11
2.4824946E+002
 21
1.5661209E+002
  0
LINE
  8
4
  6
CONTINUOUS
 62
40
 10
2.4874946E+002
 20
1.5366424E+002
 11
2.4824946E+002
 21
1.5366424E+002
  0
LINE
  8
4
  6
CONTINUOUS
 62
40
 10
2.4824946E+002
 20
1.5766424E+002
 11
2.4874946E+002
 21
1.5766424E+002
  0
LINE
  8
4
  6
CONTINUOUS
 62
40
 10
2.4874946E+002
 20
1.5366424E+002
 11
2.4874946E+002
 21
1.5317897E+002
  0
LINE
  8
4
  6
CONTINUOUS
 62
40
 10
2.4874946E+002
 20
1.5817896E+002
 11
2.4874946E+002
 21
1.5766424E+002
  0
LINE
  8
4
  6
CONTINUOUS
 62
40
 10
2.4824946E+002
 20
1.5366424E+002
 11
2.4694946E+002
 21
1.5366424E+002
  0
LINE
  8
4
  6
CONTINUOUS
 62
40
 10
2.4694946E+002
 20
1.5766424E+002
 11
2.4824946E+002
 21
1.5766424E+002
  0
LINE
  8
4
  6
CONTINUOUS
 62
40
 10
2.4824946E+002
 20
1.562382E+002
 11
2.4694946E+002
 21
1.562382E+002
  0
LINE
  8
4
  6
CONTINUOUS
 62
40
 10
2.4824946E+002
 20
1.5661209E+002
 11
2.4694946E+002
 21
1.5661209E+002
  0
LINE
  8
4
  6
CONTINUOUS
 62
40
 10
2.4824946E+002
 20
1.5729034E+002
 11
2.4694946E+002
 21
1.5729034E+002
  0
LINE
  8
4
  6
CONTINUOUS
 62
40
 10
2.4824946E+002
 20
1.5403805E+002
 11
2.4694946E+002
 21
1.5403805E+002
  0
LINE
  8
4
  6
CONTINUOUS
 62
40
 10
2.4824946E+002
 20
1.5471612E+002
 11
2.4694946E+002
 21
1.5471612E+002
  0
LINE
  8
4
  6
CONTINUOUS
 62
40
 10
2.4694946E+002
 20
1.5509002E+002
 11
2.4824946E+002
 21
1.5509002E+002
  0
LINE
  8
4
  6
CONTINUOUS
 62
40
 10
2.4574946E+002
 20
1.5766424E+002
 11
2.4574946E+002
 21
1.5743924E+002
  0
LINE
  8
4
  6
CONTINUOUS
 62
40
 10
2.4574946E+002
 20
1.5383924E+002
 11
2.4574946E+002
 21
1.5366424E+002
  0
LINE
  8
4
  6
CONTINUOUS
 62
40
 10
2.4574946E+002
 20
1.5383924E+002
 11
2.4694946E+002
 21
1.5383924E+002
  0
LINE
  8
4
  6
CONTINUOUS
 62
40
 10
2.4694946E+002
 20
1.5743924E+002
 11
2.4574946E+002
 21
1.5743924E+002
  0
LINE
  8
4
  6
CONTINUOUS
 62
3
 10
2.4574946E+002
 20
1.5752011E+002
 11
2.4694946E+002
 21
1.5752011E+002
  0
LINE
  8
4
  6
CONTINUOUS
 62
3
 10
2.4694946E+002
 20
1.5383782E+002
 11
2.4694946E+002
 21
1.5383782E+002
  0
LINE
  8
4
  6
CONTINUOUS
 62
3
 10
2.4574946E+002
 20
1.5383782E+002
 11
2.4574946E+002
 21
1.5383782E+002
  0
LINE
  8
4
  6
CONTINUOUS
 62
3
 10
2.4574946E+002
 20
1.5369374E+002
 11
2.4694946E+002
 21
1.5369374E+002
  0
CIRCLE
  8
5
  6
CONTINUOUS
 62
40
 10
8.1877591E+001
 20
1.2872897E+002
 40
4.7
  0
CIRCLE
  8
5
  6
CONTINUOUS
 62
40
 10
8.1877591E+001
 20
1.2872897E+002
 40
3.1
  0
LINE
  8
5
  6
CONTINUOUS
 62
40
 10
1.2542759E+002
 20
1.6245396E+002
 11
1.2562759E+002
 21
1.6265396E+002
  0
LINE
  8
5
  6
CONTINUOUS
 62
40
 10
1.2542759E+002
 20
1.5905396E+002
 11
1.2542759E+002
 21
1.6245396E+002
  0
LINE
  8
5
  6
CONTINUOUS
 62
40
 10
1.2562759E+002
 20
1.5885396E+002
 11
1.2542759E+002
 21
1.5905396E+002
  0
LINE
  8
5
  6
CONTINUOUS
 62
40
 10
1.2542759E+002
 20
1.5230396E+002
 11
1.2562759E+002
 21
1.5250396E+002
  0
LINE
  8
5
  6
CONTINUOUS
 62
40
 10
1.2542759E+002
 20
1.4890396E+002
 11
1.2542759E+002
 21
1.5230396E+002
  0
LINE
  8
5
  6
CONTINUOUS
 62
40
 10
1.2562759E+002
 20
1.4870396E+002
 11
1.2542759E+002
 21
1.4890396E+002
  0
ARC
  8
5
  6
CONTINUOUS
 62
40
 10
7.3627592E+001
 20
1.1997896E+002
 40
5.0E-001
 50
1.8E+002
 51
2.7E+002
  0
ARC
  8
5
  6
CONTINUOUS
 62
40
 10
1.2512759E+002
 20
1.1997896E+002
 40
5.0E-001
 50
2.7E+002
 51
3.6E+002
  0
LINE
  8
5
  6
CONTINUOUS
 62
40
 10
1.2412759E+002
 20
1.4722896E+002
 11
1.2412759E+002
 21
1.4382896E+002
  0
LINE
  8
5
  6
CONTINUOUS
 62
40
 10
1.2252759E+002
 20
1.4382896E+002
 11
1.2252759E+002
 21
1.4722896E+002
  0
LINE
  8
5
  6
CONTINUOUS
 62
40
 10
1.2252759E+002
 20
1.4722896E+002
 11
1.2412759E+002
 21
1.4722896E+002
  0
LINE
  8
5
  6
CONTINUOUS
 62
40
 10
1.2412759E+002
 20
1.4382896E+002
 11
1.2252759E+002
 21
1.4382896E+002
  0
LINE
  8
5
  6
CONTINUOUS
 62
40
 10
1.0712759E+002
 20
1.8837896E+002
 11
1.0912759E+002
 21
1.8837896E+002
  0
LINE
  8
5
  6
CONTINUOUS
 62
40
 10
1.0912759E+002
 20
1.8837896E+002
 11
1.0912759E+002
 21
1.6987896E+002
  0
LINE
  8
5
  6
CONTINUOUS
 62
40
 10
1.0912759E+002
 20
1.6987896E+002
 11
1.0712759E+002
 21
1.6987896E+002
  0
CIRCLE
  8
5
  6
CONTINUOUS
 62
40
 10
9.9377591E+001
 20
1.8262897E+002
 40
4.7
  0
CIRCLE
  8
5
  6
CONTINUOUS
 62
40
 10
9.9377591E+001
 20
1.8262897E+002
 40
3.1
  0
LINE
  8
5
  6
CONTINUOUS
 62
40
 10
8.9627592E+001
 20
1.8837896E+002
 11
9.1627592E+001
 21
1.8837896E+002
  0
LINE
  8
5
  6
CONTINUOUS
 62
40
 10
9.1627592E+001
 20
1.6987896E+002
 11
8.9627592E+001
 21
1.6987896E+002
  0
LINE
  8
5
  6
CONTINUOUS
 62
40
 10
8.9627592E+001
 20
1.6987896E+002
 11
8.9627592E+001
 21
1.8837896E+002
  0
CIRCLE
  8
5
  6
CONTINUOUS
 62
40
 10
1.1687759E+002
 20
1.8262897E+002
 40
4.7
  0
CIRCLE
  8
5
  6
CONTINUOUS
 62
40
 10
1.1687759E+002
 20
1.8262897E+002
 40
3.1
  0
LINE
  8
5
  6
CONTINUOUS
 62
40
 10
1.2542759E+002
 20
1.5397896E+002
 11
1.2542759E+002
 21
1.5737896E+002
  0
LINE
  8
5
  6
CONTINUOUS
 62
40
 10
1.2562759E+002
 20
1.5377896E+002
 11
1.2542759E+002
 21
1.5397896E+002
  0
LINE
  8
5
  6
CONTINUOUS
 62
40
 10
1.2542759E+002
 20
1.5737896E+002
 11
1.2562759E+002
 21
1.5757896E+002
  0
LINE
  8
5
  6
CONTINUOUS
 62
40
 10
9.1627592E+001
 20
1.2297896E+002
 11
8.9627592E+001
 21
1.2297896E+002
  0
LINE
  8
5
  6
CONTINUOUS
 62
40
 10
8.9627592E+001
 20
1.2297896E+002
 11
8.9627592E+001
 21
1.4147896E+002
  0
LINE
  8
5
  6
CONTINUOUS
 62
40
 10
8.9627592E+001
 20
1.4147896E+002
 11
9.1627592E+001
 21
1.4147896E+002
  0
CIRCLE
  8
5
  6
CONTINUOUS
 62
40
 10
9.9377591E+001
 20
1.2872897E+002
 40
4.7
  0
CIRCLE
  8
5
  6
CONTINUOUS
 62
40
 10
9.9377591E+001
 20
1.2872897E+002
 40
3.1
  0
LINE
  8
5
  6
CONTINUOUS
 62
40
 10
1.0912759E+002
 20
1.2297896E+002
 11
1.0712759E+002
 21
1.2297896E+002
  0
LINE
  8
5
  6
CONTINUOUS
 62
40
 10
1.0712759E+002
 20
1.4147896E+002
 11
1.0912759E+002
 21
1.4147896E+002
  0
LINE
  8
5
  6
CONTINUOUS
 62
40
 10
1.0912759E+002
 20
1.4147896E+002
 11
1.0912759E+002
 21
1.2297896E+002
  0
CIRCLE
  8
5
  6
CONTINUOUS
 62
40
 10
1.1687759E+002
 20
1.2872897E+002
 40
4.7
  0
CIRCLE
  8
5
  6
CONTINUOUS
 62
40
 10
1.1687759E+002
 20
1.2872897E+002
 40
3.1
  0
ARC
  8
5
  6
CONTINUOUS
 62
40
 10
1.2512759E+002
 20
1.9137896E+002
 40
5.0E-001
 50
0.0
 51
9.0E+001
  0
ARC
  8
5
  6
CONTINUOUS
 62
40
 10
7.3627592E+001
 20
1.9137896E+002
 40
5.0E-001
 50
9.0E+001
 51
1.8E+002
  0
LINE
  8
5
  6
CONTINUOUS
 62
40
 10
1.2412759E+002
 20
1.6752896E+002
 11
1.2412759E+002
 21
1.6412896E+002
  0
LINE
  8
5
  6
CONTINUOUS
 62
40
 10
1.2252759E+002
 20
1.6752896E+002
 11
1.2412759E+002
 21
1.6752896E+002
  0
LINE
  8
5
  6
CONTINUOUS
 62
40
 10
1.2252759E+002
 20
1.6412896E+002
 11
1.2252759E+002
 21
1.6752896E+002
  0
LINE
  8
5
  6
CONTINUOUS
 62
40
 10
1.2412759E+002
 20
1.6412896E+002
 11
1.2252759E+002
 21
1.6412896E+002
  0
LINE
  8
5
  6
CONTINUOUS
 62
40
 10
1.2562759E+002
 20
1.6392896E+002
 11
1.2542759E+002
 21
1.6412896E+002
  0
LINE
  8
5
  6
CONTINUOUS
 62
40
 10
1.2562759E+002
 20
1.6772896E+002
 11
1.2512759E+002
 21
1.6722896E+002
  0
LINE
  8
5
  6
CONTINUOUS
 62
40
 10
1.2542759E+002
 20
1.6412896E+002
 11
1.2542759E+002
 21
1.6752896E+002
  0
LINE
  8
5
  6
CONTINUOUS
 62
40
 10
1.2542759E+002
 20
1.4722896E+002
 11
1.2562759E+002
 21
1.4742896E+002
  0
LINE
  8
5
  6
CONTINUOUS
 62
40
 10
1.2542759E+002
 20
1.4382896E+002
 11
1.2542759E+002
 21
1.4722896E+002
  0
LINE
  8
5
  6
CONTINUOUS
 62
40
 10
1.2512759E+002
 20
1.4412896E+002
 11
1.2562759E+002
 21
1.4362896E+002
  0
LINE
  8
5
  6
CONTINUOUS
 62
40
 10
7.4627592E+001
 20
1.4382896E+002
 11
7.4627592E+001
 21
1.4722896E+002
  0
LINE
  8
5
  6
CONTINUOUS
 62
40
 10
7.6227592E+001
 20
1.4382896E+002
 11
7.4627592E+001
 21
1.4382896E+002
  0
LINE
  8
5
  6
CONTINUOUS
 62
40
 10
7.6227592E+001
 20
1.4722896E+002
 11
7.6227592E+001
 21
1.4382896E+002
  0
LINE
  8
5
  6
CONTINUOUS
 62
40
 10
7.4627592E+001
 20
1.4722896E+002
 11
7.6227592E+001
 21
1.4722896E+002
  0
LINE
  8
5
  6
CONTINUOUS
 62
40
 10
7.3627592E+001
 20
1.4412896E+002
 11
7.3127592E+001
 21
1.4362896E+002
  0
LINE
  8
5
  6
CONTINUOUS
 62
40
 10
7.3327592E+001
 20
1.4722896E+002
 11
7.3327592E+001
 21
1.4382896E+002
  0
LINE
  8
5
  6
CONTINUOUS
 62
40
 10
7.3127592E+001
 20
1.4742896E+002
 11
7.3327592E+001
 21
1.4722896E+002
  0
LINE
  8
5
  6
CONTINUOUS
 62
40
 10
7.3327592E+001
 20
1.4890396E+002
 11
7.3127592E+001
 21
1.4870396E+002
  0
LINE
  8
5
  6
CONTINUOUS
 62
40
 10
7.3327592E+001
 20
1.5230396E+002
 11
7.3327592E+001
 21
1.4890396E+002
  0
LINE
  8
5
  6
CONTINUOUS
 62
40
 10
7.3127592E+001
 20
1.5250396E+002
 11
7.3327592E+001
 21
1.5230396E+002
  0
LINE
  8
5
  6
CONTINUOUS
 62
40
 10
7.3327592E+001
 20
1.5397896E+002
 11
7.3127592E+001
 21
1.5377896E+002
  0
LINE
  8
5
  6
CONTINUOUS
 62
40
 10
7.3327592E+001
 20
1.5737896E+002
 11
7.3327592E+001
 21
1.5397896E+002
  0
LINE
  8
5
  6
CONTINUOUS
 62
40
 10
7.3127592E+001
 20
1.5757896E+002
 11
7.3327592E+001
 21
1.5737896E+002
  0
LINE
  8
5
  6
CONTINUOUS
 62
40
 10
7.3327592E+001
 20
1.5905396E+002
 11
7.3127592E+001
 21
1.5885396E+002
  0
LINE
  8
5
  6
CONTINUOUS
 62
40
 10
7.3327592E+001
 20
1.6245396E+002
 11
7.3327592E+001
 21
1.5905396E+002
  0
LINE
  8
5
  6
CONTINUOUS
 62
40
 10
7.3127592E+001
 20
1.6265396E+002
 11
7.3327592E+001
 21
1.6245396E+002
  0
LINE
  8
5
  6
CONTINUOUS
 62
40
 10
7.4627592E+001
 20
1.6412896E+002
 11
7.4627592E+001
 21
1.6752896E+002
  0
LINE
  8
5
  6
CONTINUOUS
 62
40
 10
7.6227592E+001
 20
1.6412896E+002
 11
7.4627592E+001
 21
1.6412896E+002
  0
LINE
  8
5
  6
CONTINUOUS
 62
40
 10
7.6227592E+001
 20
1.6752896E+002
 11
7.6227592E+001
 21
1.6412896E+002
  0
LINE
  8
5
  6
CONTINUOUS
 62
40
 10
7.4627592E+001
 20
1.6752896E+002
 11
7.6227592E+001
 21
1.6752896E+002
  0
LINE
  8
5
  6
CONTINUOUS
 62
40
 10
7.3327592E+001
 20
1.6412896E+002
 11
7.3127592E+001
 21
1.6392896E+002
  0
LINE
  8
5
  6
CONTINUOUS
 62
40
 10
7.3127592E+001
 20
1.6772896E+002
 11
7.3127592E+001
 21
1.9137896E+002
  0
LINE
  8
5
  6
CONTINUOUS
 62
40
 10
7.3127592E+001
 20
1.1997896E+002
 11
7.3127592E+001
 21
1.4362896E+002
  0
LINE
  8
5
  6
CONTINUOUS
 62
40
 10
7.3127592E+001
 20
1.4362896E+002
 11
7.3127592E+001
 21
1.4742896E+002
  0
LINE
  8
5
  6
CONTINUOUS
 62
40
 10
7.3127592E+001
 20
1.4870396E+002
 11
7.3127592E+001
 21
1.4742896E+002
  0
LINE
  8
5
  6
CONTINUOUS
 62
40
 10
7.3127592E+001
 20
1.4870396E+002
 11
7.3127592E+001
 21
1.5250396E+002
  0
LINE
  8
5
  6
CONTINUOUS
 62
40
 10
7.3127592E+001
 20
1.5377896E+002
 11
7.3127592E+001
 21
1.5250396E+002
  0
LINE
  8
5
  6
CONTINUOUS
 62
40
 10
7.3127592E+001
 20
1.5377896E+002
 11
7.3127592E+001
 21
1.5757896E+002
  0
LINE
  8
5
  6
CONTINUOUS
 62
40
 10
7.3127592E+001
 20
1.5885396E+002
 11
7.3127592E+001
 21
1.5757896E+002
  0
LINE
  8
5
  6
CONTINUOUS
 62
40
 10
7.3127592E+001
 20
1.5885396E+002
 11
7.3127592E+001
 21
1.6265396E+002
  0
LINE
  8
5
  6
CONTINUOUS
 62
40
 10
7.3127592E+001
 20
1.6392896E+002
 11
7.3127592E+001
 21
1.6265396E+002
  0
LINE
  8
5
  6
CONTINUOUS
 62
40
 10
7.3127592E+001
 20
1.6392896E+002
 11
7.3127592E+001
 21
1.6772896E+002
  0
LINE
  8
5
  6
CONTINUOUS
 62
40
 10
7.3627592E+001
 20
1.9187896E+002
 11
1.2512759E+002
 21
1.9187896E+002
  0
LINE
  8
5
  6
CONTINUOUS
 62
40
 10
1.2562759E+002
 20
1.9137896E+002
 11
1.2562759E+002
 21
1.6772896E+002
  0
LINE
  8
5
  6
CONTINUOUS
 62
40
 10
1.2562759E+002
 20
1.6772896E+002
 11
1.2562759E+002
 21
1.6392896E+002
  0
LINE
  8
5
  6
CONTINUOUS
 62
40
 10
1.2562759E+002
 20
1.6392896E+002
 11
1.2562759E+002
 21
1.6265396E+002
  0
LINE
  8
5
  6
CONTINUOUS
 62
40
 10
1.2562759E+002
 20
1.6265396E+002
 11
1.2562759E+002
 21
1.5885396E+002
  0
LINE
  8
5
  6
CONTINUOUS
 62
40
 10
1.2562759E+002
 20
1.5885396E+002
 11
1.2562759E+002
 21
1.5757896E+002
  0
LINE
  8
5
  6
CONTINUOUS
 62
40
 10
1.2562759E+002
 20
1.5757896E+002
 11
1.2562759E+002
 21
1.5377896E+002
  0
LINE
  8
5
  6
CONTINUOUS
 62
40
 10
1.2562759E+002
 20
1.5377896E+002
 11
1.2562759E+002
 21
1.5250396E+002
  0
LINE
  8
5
  6
CONTINUOUS
 62
40
 10
1.2562759E+002
 20
1.5250396E+002
 11
1.2562759E+002
 21
1.4870396E+002
  0
LINE
  8
5
  6
CONTINUOUS
 62
40
 10
1.2562759E+002
 20
1.4870396E+002
 11
1.2562759E+002
 21
1.4742896E+002
  0
LINE
  8
5
  6
CONTINUOUS
 62
40
 10
1.2562759E+002
 20
1.4742896E+002
 11
1.2562759E+002
 21
1.4362896E+002
  0
LINE
  8
5
  6
CONTINUOUS
 62
40
 10
1.2562759E+002
 20
1.4362896E+002
 11
1.2562759E+002
 21
1.1997896E+002
  0
LINE
  8
5
  6
CONTINUOUS
 62
40
 10
1.2512759E+002
 20
1.1947896E+002
 11
7.3627592E+001
 21
1.1947896E+002
  0
CIRCLE
  8
5
  6
CONTINUOUS
 62
40
 10
8.1877591E+001
 20
1.8262897E+002
 40
3.1
  0
CIRCLE
  8
5
  6
CONTINUOUS
 62
40
 10
8.1877591E+001
 20
1.8262897E+002
 40
4.7
  0
LINE
  8
5
  6
CONTINUOUS
 62
40
 10
7.3127592E+001
 20
1.6772896E+002
 11
7.3627592E+001
 21
1.6722896E+002
  0
LINE
  8
5
  6
CONTINUOUS
 62
40
 10
7.3327592E+001
 20
1.6752896E+002
 11
7.3327592E+001
 21
1.6412896E+002
  0
LINE
  8
5
  6
CONTINUOUS
 62
40
 10
1.0792759E+002
 20
1.2927896E+002
 11
1.0792759E+002
 21
1.2777896E+002
  0
LINE
  8
5
  6
CONTINUOUS
 62
40
 10
9.0827592E+001
 20
1.2927896E+002
 11
9.0827592E+001
 21
1.2777896E+002
  0
LINE
  8
5
  6
CONTINUOUS
 62
40
 10
1.0792759E+002
 20
1.8207897E+002
 11
1.0792759E+002
 21
1.8357897E+002
  0
LINE
  8
5
  6
CONTINUOUS
 62
40
 10
9.0827592E+001
 20
1.8207897E+002
 11
9.0827592E+001
 21
1.8357897E+002
  0
LINE
  8
5
  6
CONTINUOUS
 62
40
 10
1.0792759E+002
 20
1.2777896E+002
 11
1.0712759E+002
 21
1.2777896E+002
  0
LINE
  8
5
  6
CONTINUOUS
 62
40
 10
1.0712759E+002
 20
1.2927896E+002
 11
1.0792759E+002
 21
1.2927896E+002
  0
LINE
  8
5
  6
CONTINUOUS
 62
40
 10
9.0827592E+001
 20
1.2777896E+002
 11
9.1627592E+001
 21
1.2777896E+002
  0
LINE
  8
5
  6
CONTINUOUS
 62
40
 10
9.1627592E+001
 20
1.2927896E+002
 11
9.0827592E+001
 21
1.2927896E+002
  0
LINE
  8
5
  6
CONTINUOUS
 62
40
 10
1.0792759E+002
 20
1.8357897E+002
 11
1.0712759E+002
 21
1.8357897E+002
  0
LINE
  8
5
  6
CONTINUOUS
 62
40
 10
1.0712759E+002
 20
1.8207897E+002
 11
1.0792759E+002
 21
1.8207897E+002
  0
LINE
  8
5
  6
CONTINUOUS
 62
40
 10
9.0827592E+001
 20
1.8357897E+002
 11
9.1627592E+001
 21
1.8357897E+002
  0
LINE
  8
5
  6
CONTINUOUS
 62
40
 10
9.1627592E+001
 20
1.8207897E+002
 11
9.0827592E+001
 21
1.8207897E+002
  0
LINE
  8
5
  6
CONTINUOUS
 62
40
 10
1.0712759E+002
 20
1.2297896E+002
 11
1.0712759E+002
 21
1.4147896E+002
  0
LINE
  8
5
  6
CONTINUOUS
 62
40
 10
9.1627592E+001
 20
1.4147896E+002
 11
9.1627592E+001
 21
1.2297896E+002
  0
LINE
  8
5
  6
CONTINUOUS
 62
40
 10
9.1627592E+001
 20
1.8837896E+002
 11
9.1627592E+001
 21
1.6987896E+002
  0
LINE
  8
5
  6
CONTINUOUS
 62
40
 10
1.0712759E+002
 20
1.6987896E+002
 11
1.0712759E+002
 21
1.8837896E+002
  0
CIRCLE
  8
5
  6
CONTINUOUS
 62
3
 10
8.1877591E+001
 20
1.2872897E+002
 40
5.0
  0
CIRCLE
  8
5
  6
CONTINUOUS
 62
3
 10
8.1877591E+001
 20
1.2872897E+002
 40
4.4
  0
CIRCLE
  8
5
  6
CONTINUOUS
 62
3
 10
8.1877591E+001
 20
1.2872897E+002
 40
3.4
  0
CIRCLE
  8
5
  6
CONTINUOUS
 62
3
 10
9.9377591E+001
 20
1.8262897E+002
 40
5.0
  0
CIRCLE
  8
5
  6
CONTINUOUS
 62
3
 10
9.9377591E+001
 20
1.8262897E+002
 40
4.4
  0
CIRCLE
  8
5
  6
CONTINUOUS
 62
3
 10
9.9377591E+001
 20
1.8262897E+002
 40
3.4
  0
CIRCLE
  8
5
  6
CONTINUOUS
 62
3
 10
1.1687759E+002
 20
1.8262897E+002
 40
5.0
  0
CIRCLE
  8
5
  6
CONTINUOUS
 62
3
 10
1.1687759E+002
 20
1.8262897E+002
 40
4.4
  0
CIRCLE
  8
5
  6
CONTINUOUS
 62
3
 10
1.1687759E+002
 20
1.8262897E+002
 40
3.4
  0
CIRCLE
  8
5
  6
CONTINUOUS
 62
3
 10
9.9377591E+001
 20
1.2872897E+002
 40
5.0
  0
CIRCLE
  8
5
  6
CONTINUOUS
 62
3
 10
9.9377591E+001
 20
1.2872897E+002
 40
4.4
  0
CIRCLE
  8
5
  6
CONTINUOUS
 62
3
 10
9.9377591E+001
 20
1.2872897E+002
 40
3.4
  0
CIRCLE
  8
5
  6
CONTINUOUS
 62
3
 10
1.1687759E+002
 20
1.2872897E+002
 40
5.0
  0
CIRCLE
  8
5
  6
CONTINUOUS
 62
3
 10
1.1687759E+002
 20
1.2872897E+002
 40
4.4
  0
CIRCLE
  8
5
  6
CONTINUOUS
 62
3
 10
1.1687759E+002
 20
1.2872897E+002
 40
3.4
  0
LINE
  8
5
  6
CONTINUOUS
 62
3
 10
7.3627592E+001
 20
1.9137896E+002
 11
7.3627592E+001
 21
1.6722896E+002
  0
LINE
  8
5
  6
CONTINUOUS
 62
3
 10
7.3127592E+001
 20
1.9137896E+002
 11
7.3627592E+001
 21
1.9137896E+002
  0
LINE
  8
5
  6
CONTINUOUS
 62
3
 10
7.3627592E+001
 20
1.9137896E+002
 11
7.3627592E+001
 21
1.9187896E+002
  0
LINE
  8
5
  6
CONTINUOUS
 62
3
 10
1.2512759E+002
 20
1.9137896E+002
 11
7.3627592E+001
 21
1.9137896E+002
  0
LINE
  8
5
  6
CONTINUOUS
 62
3
 10
1.2512759E+002
 20
1.9187896E+002
 11
1.2512759E+002
 21
1.9137896E+002
  0
LINE
  8
5
  6
CONTINUOUS
 62
3
 10
1.2512759E+002
 20
1.9137896E+002
 11
1.2562759E+002
 21
1.9137896E+002
  0
LINE
  8
5
  6
CONTINUOUS
 62
3
 10
1.2512759E+002
 20
1.6722896E+002
 11
1.2512759E+002
 21
1.9137896E+002
  0
LINE
  8
5
  6
CONTINUOUS
 62
3
 10
1.2512759E+002
 20
1.1997896E+002
 11
1.2512759E+002
 21
1.4412896E+002
  0
LINE
  8
5
  6
CONTINUOUS
 62
3
 10
1.2562759E+002
 20
1.1997896E+002
 11
1.2512759E+002
 21
1.1997896E+002
  0
LINE
  8
5
  6
CONTINUOUS
 62
3
 10
1.2512759E+002
 20
1.1997896E+002
 11
1.2512759E+002
 21
1.1947896E+002
  0
LINE
  8
5
  6
CONTINUOUS
 62
3
 10
7.3627592E+001
 20
1.1997896E+002
 11
1.2512759E+002
 21
1.1997896E+002
  0
LINE
  8
5
  6
CONTINUOUS
 62
3
 10
7.3627592E+001
 20
1.1947896E+002
 11
7.3627592E+001
 21
1.1997896E+002
  0
LINE
  8
5
  6
CONTINUOUS
 62
3
 10
7.3627592E+001
 20
1.1997896E+002
 11
7.3127592E+001
 21
1.1997896E+002
  0
LINE
  8
5
  6
CONTINUOUS
 62
3
 10
7.3627592E+001
 20
1.4412896E+002
 11
7.3627592E+001
 21
1.1997896E+002
  0
CIRCLE
  8
5
  6
CONTINUOUS
 62
3
 10
8.1877591E+001
 20
1.8262897E+002
 40
3.4
  0
CIRCLE
  8
5
  6
CONTINUOUS
 62
3
 10
8.1877591E+001
 20
1.8262897E+002
 40
4.4
  0
CIRCLE
  8
5
  6
CONTINUOUS
 62
3
 10
8.1877591E+001
 20
1.8262897E+002
 40
5.0
  0
LINE
  8
5
  6
CONTINUOUS
 62
40
 10
1.2562759E+002
 20
1.6977896E+002
 11
1.2612759E+002
 21
1.6977896E+002
  0
LINE
  8
5
  6
CONTINUOUS
 62
40
 10
1.2612759E+002
 20
1.6557896E+002
 11
1.2562759E+002
 21
1.6557896E+002
  0
LINE
  8
5
  6
CONTINUOUS
 62
40
 10
1.2612759E+002
 20
1.4577896E+002
 11
1.2562759E+002
 21
1.4577896E+002
  0
LINE
  8
5
  6
CONTINUOUS
 62
40
 10
1.2562759E+002
 20
1.4157896E+002
 11
1.2612759E+002
 21
1.4157896E+002
  0
ARC
  8
5
  6
CONTINUOUS
 62
40
 10
7.0377592E+001
 20
1.8467896E+002
 40
3.5
 50
9.0E+001
 51
1.8E+002
  0
LINE
  8
5
  6
CONTINUOUS
 62
40
 10
6.6877592E+001
 20
1.2667896E+002
 11
6.6877592E+001
 21
1.8467896E+002
  0
ARC
  8
5
  6
CONTINUOUS
 62
40
 10
7.0377592E+001
 20
1.2667896E+002
 40
3.5
 50
1.8E+002
 51
2.7E+002
  0
LINE
  8
5
  6
CONTINUOUS
 62
40
 10
1.2837759E+002
 20
1.2317896E+002
 11
1.2562759E+002
 21
1.2317896E+002
  0
LINE
  8
5
  6
CONTINUOUS
 62
40
 10
7.3127588E+001
 20
1.2317896E+002
 11
7.0377592E+001
 21
1.2317896E+002
  0
ARC
  8
5
  6
CONTINUOUS
 62
40
 10
1.2837759E+002
 20
1.2667896E+002
 40
3.5
 50
2.7E+002
 51
3.6E+002
  0
LINE
  8
5
  6
CONTINUOUS
 62
40
 10
1.3187759E+002
 20
1.8467896E+002
 11
1.3187759E+002
 21
1.2667896E+002
  0
ARC
  8
5
  6
CONTINUOUS
 62
40
 10
1.2837759E+002
 20
1.8467896E+002
 40
3.5
 50
0.0
 51
9.0E+001
  0
LINE
  8
5
  6
CONTINUOUS
 62
40
 10
7.0377592E+001
 20
1.8817896E+002
 11
7.3127588E+001
 21
1.8817896E+002
  0
LINE
  8
5
  6
CONTINUOUS
 62
40
 10
1.2562759E+002
 20
1.8817896E+002
 11
1.2837759E+002
 21
1.8817896E+002
  0
LINE
  8
5
  6
CONTINUOUS
 62
40
 10
7.2627592E+001
 20
1.6977896E+002
 11
7.3127592E+001
 21
1.6977896E+002
  0
LINE
  8
5
  6
CONTINUOUS
 62
40
 10
7.2627592E+001
 20
1.4157896E+002
 11
7.3127592E+001
 21
1.4157896E+002
  0
LINE
  8
5
  6
CONTINUOUS
 62
40
 10
7.3127592E+001
 20
1.4577896E+002
 11
7.2627592E+001
 21
1.4577896E+002
  0
LINE
  8
5
  6
CONTINUOUS
 62
40
 10
7.3127592E+001
 20
1.6557896E+002
 11
7.2627592E+001
 21
1.6557896E+002
  0
LINE
  8
5
  6
CONTINUOUS
 62
3
 10
7.0377592E+001
 20
1.8787896E+002
 11
7.0377592E+001
 21
1.8817896E+002
  0
LINE
  8
5
  6
CONTINUOUS
 62
3
 10
7.0377592E+001
 20
1.8787896E+002
 11
7.3127592E+001
 21
1.8787896E+002
  0
LINE
  8
5
  6
CONTINUOUS
 62
3
 10
1.2562759E+002
 20
1.8787896E+002
 11
1.2837759E+002
 21
1.8787896E+002
  0
LINE
  8
5
  6
CONTINUOUS
 62
3
 10
1.2837759E+002
 20
1.8817896E+002
 11
1.2837759E+002
 21
1.8787896E+002
  0
LINE
  8
5
  6
CONTINUOUS
 62
3
 10
6.7177592E+001
 20
1.8467896E+002
 11
6.6877592E+001
 21
1.8467896E+002
  0
ARC
  8
5
  6
CONTINUOUS
 62
3
 10
7.0377592E+001
 20
1.8467896E+002
 40
3.2
 50
9.0E+001
 51
1.8E+002
  0
LINE
  8
5
  6
CONTINUOUS
 62
3
 10
6.6877592E+001
 20
1.2667896E+002
 11
6.7177592E+001
 21
1.2667896E+002
  0
LINE
  8
5
  6
CONTINUOUS
 62
3
 10
6.7177592E+001
 20
1.2667896E+002
 11
6.7177592E+001
 21
1.8467896E+002
  0
LINE
  8
5
  6
CONTINUOUS
 62
3
 10
7.0377592E+001
 20
1.2317896E+002
 11
7.0377592E+001
 21
1.2347896E+002
  0
ARC
  8
5
  6
CONTINUOUS
 62
3
 10
7.0377592E+001
 20
1.2667896E+002
 40
3.2
 50
1.8E+002
 51
2.7E+002
  0
LINE
  8
5
  6
CONTINUOUS
 62
3
 10
1.2837759E+002
 20
1.2317896E+002
 11
1.2837759E+002
 21
1.2347896E+002
  0
LINE
  8
5
  6
CONTINUOUS
 62
3
 10
1.2837759E+002
 20
1.2347896E+002
 11
1.2562759E+002
 21
1.2347896E+002
  0
LINE
  8
5
  6
CONTINUOUS
 62
3
 10
7.3127592E+001
 20
1.2347896E+002
 11
7.0377592E+001
 21
1.2347896E+002
  0
LINE
  8
5
  6
CONTINUOUS
 62
3
 10
1.3157759E+002
 20
1.2667896E+002
 11
1.3187759E+002
 21
1.2667896E+002
  0
ARC
  8
5
  6
CONTINUOUS
 62
3
 10
1.2837759E+002
 20
1.2667896E+002
 40
3.2
 50
2.7E+002
 51
3.6E+002
  0
LINE
  8
5
  6
CONTINUOUS
 62
3
 10
1.3187759E+002
 20
1.8467896E+002
 11
1.3157759E+002
 21
1.8467896E+002
  0
LINE
  8
5
  6
CONTINUOUS
 62
3
 10
1.3157759E+002
 20
1.8467896E+002
 11
1.3157759E+002
 21
1.2667896E+002
  0
ARC
  8
5
  6
CONTINUOUS
 62
3
 10
1.2837759E+002
 20
1.8467896E+002
 40
3.2
 50
0.0
 51
9.0E+001
  0
LINE
  8
5
  6
CONTINUOUS
 62
40
 10
1.2612759E+002
 20
1.4577896E+002
 11
1.2612759E+002
 21
1.6557896E+002
  0
LINE
  8
5
  6
CONTINUOUS
 62
3
 10
1.2612759E+002
 20
1.6977896E+002
 11
1.2612759E+002
 21
1.8417896E+002
  0
LINE
  8
5
  6
CONTINUOUS
 62
3
 10
1.2562759E+002
 20
1.8417896E+002
 11
1.2612759E+002
 21
1.8417896E+002
  0
ARC
  8
5
  6
CONTINUOUS
 62
3
 10
1.2512759E+002
 20
1.8417896E+002
 40
1.0
 50
0.0
 51
6.0E+001
  0
LINE
  8
5
  6
CONTINUOUS
 62
3
 10
7.2627592E+001
 20
1.8417896E+002
 11
7.2627592E+001
 21
1.6977896E+002
  0
LINE
  8
5
  6
CONTINUOUS
 62
3
 10
7.2627592E+001
 20
1.8417896E+002
 11
7.3127592E+001
 21
1.8417896E+002
  0
ARC
  8
5
  6
CONTINUOUS
 62
3
 10
7.3627592E+001
 20
1.8417896E+002
 40
1.0
 50
1.2E+002
 51
1.8E+002
  0
LINE
  8
5
  6
CONTINUOUS
 62
3
 10
1.2612759E+002
 20
1.2717896E+002
 11
1.2562759E+002
 21
1.2717896E+002
  0
LINE
  8
5
  6
CONTINUOUS
 62
3
 10
1.2612759E+002
 20
1.2717896E+002
 11
1.2612759E+002
 21
1.4157896E+002
  0
ARC
  8
5
  6
CONTINUOUS
 62
3
 10
1.2512759E+002
 20
1.2717896E+002
 40
1.0
 50
3.0E+002
 51
3.6E+002
  0
LINE
  8
5
  6
CONTINUOUS
 62
3
 10
7.3127592E+001
 20
1.2717896E+002
 11
7.2627592E+001
 21
1.2717896E+002
  0
ARC
  8
5
  6
CONTINUOUS
 62
3
 10
7.3627592E+001
 20
1.2717896E+002
 40
1.0
 50
1.8E+002
 51
2.4E+002
  0
LINE
  8
5
  6
CONTINUOUS
 62
3
 10
7.2627592E+001
 20
1.4157896E+002
 11
7.2627592E+001
 21
1.2717896E+002
  0
LINE
  8
5
  6
CONTINUOUS
 62
40
 10
7.2627592E+001
 20
1.6557896E+002
 11
7.2627592E+001
 21
1.4577896E+002
  0
LINE
  8
5
  6
CONTINUOUS
 62
40
 10
8.9627592E+001
 20
1.7007896E+002
 11
9.1627592E+001
 21
1.7007896E+002
  0
LINE
  8
5
  6
CONTINUOUS
 62
40
 10
1.0912759E+002
 20
1.7007896E+002
 11
1.0712759E+002
 21
1.7007896E+002
  0
LINE
  8
5
  6
CONTINUOUS
 62
40
 10
1.0912759E+002
 20
1.4127896E+002
 11
1.0712759E+002
 21
1.4127896E+002
  0
LINE
  8
5
  6
CONTINUOUS
 62
40
 10
8.9627592E+001
 20
1.4127896E+002
 11
9.1627592E+001
 21
1.4127896E+002
  0
LINE
  8
5
  6
CONTINUOUS
 62
40
 10
8.9627592E+001
 20
1.8377896E+002
 11
9.0144494E+001
 21
1.8377896E+002
  0
LINE
  8
5
  6
CONTINUOUS
 62
40
 10
9.0144494E+001
 20
1.8377896E+002
 11
9.0642592E+001
 21
1.8377896E+002
  0
LINE
  8
5
  6
CONTINUOUS
 62
40
 10
9.0642592E+001
 20
1.8377896E+002
 11
9.1127592E+001
 21
1.8377896E+002
  0
LINE
  8
5
  6
CONTINUOUS
 62
40
 10
9.1127592E+001
 20
1.8377896E+002
 11
9.1327592E+001
 21
1.8377896E+002
  0
LINE
  8
5
  6
CONTINUOUS
 62
40
 10
9.1327592E+001
 20
1.8377896E+002
 11
9.1627592E+001
 21
1.8377896E+002
  0
LINE
  8
5
  6
CONTINUOUS
 62
40
 10
9.1627592E+001
 20
1.8677896E+002
 11
9.1327592E+001
 21
1.8677896E+002
  0
LINE
  8
5
  6
CONTINUOUS
 62
40
 10
9.1327592E+001
 20
1.8677896E+002
 11
9.1127592E+001
 21
1.8677896E+002
  0
LINE
  8
5
  6
CONTINUOUS
 62
40
 10
9.1127592E+001
 20
1.8677896E+002
 11
9.0829962E+001
 21
1.8677896E+002
  0
LINE
  8
5
  6
CONTINUOUS
 62
40
 10
9.1627592E+001
 20
1.8827896E+002
 11
9.0144494E+001
 21
1.8827896E+002
  0
LINE
  8
5
  6
CONTINUOUS
 62
40
 10
9.0144494E+001
 20
1.8827896E+002
 11
8.9627592E+001
 21
1.8827896E+002
  0
LINE
  8
5
  6
CONTINUOUS
 62
40
 10
1.0912759E+002
 20
1.8377896E+002
 11
1.0861069E+002
 21
1.8377896E+002
  0
LINE
  8
5
  6
CONTINUOUS
 62
40
 10
1.0861069E+002
 20
1.8377896E+002
 11
1.0811259E+002
 21
1.8377896E+002
  0
LINE
  8
5
  6
CONTINUOUS
 62
40
 10
1.0811259E+002
 20
1.8377896E+002
 11
1.0762759E+002
 21
1.8377896E+002
  0
LINE
  8
5
  6
CONTINUOUS
 62
40
 10
1.0762759E+002
 20
1.8377896E+002
 11
1.0742759E+002
 21
1.8377896E+002
  0
LINE
  8
5
  6
CONTINUOUS
 62
40
 10
1.0742759E+002
 20
1.8377896E+002
 11
1.0712759E+002
 21
1.8377896E+002
  0
LINE
  8
5
  6
CONTINUOUS
 62
40
 10
1.0712759E+002
 20
1.8677896E+002
 11
1.0742759E+002
 21
1.8677896E+002
  0
LINE
  8
5
  6
CONTINUOUS
 62
40
 10
1.0742759E+002
 20
1.8677896E+002
 11
1.0762759E+002
 21
1.8677896E+002
  0
LINE
  8
5
  6
CONTINUOUS
 62
40
 10
1.0762759E+002
 20
1.8677896E+002
 11
1.0792522E+002
 21
1.8677896E+002
  0
LINE
  8
5
  6
CONTINUOUS
 62
40
 10
1.0712759E+002
 20
1.8827896E+002
 11
1.0861069E+002
 21
1.8827896E+002
  0
LINE
  8
5
  6
CONTINUOUS
 62
40
 10
1.0861069E+002
 20
1.8827896E+002
 11
1.0912759E+002
 21
1.8827896E+002
  0
LINE
  8
5
  6
CONTINUOUS
 62
40
 10
1.0912759E+002
 20
1.2757896E+002
 11
1.0861069E+002
 21
1.2757896E+002
  0
LINE
  8
5
  6
CONTINUOUS
 62
40
 10
1.0861069E+002
 20
1.2757896E+002
 11
1.0811259E+002
 21
1.2757896E+002
  0
LINE
  8
5
  6
CONTINUOUS
 62
40
 10
1.0811259E+002
 20
1.2757896E+002
 11
1.0762759E+002
 21
1.2757896E+002
  0
LINE
  8
5
  6
CONTINUOUS
 62
40
 10
1.0762759E+002
 20
1.2757896E+002
 11
1.0742759E+002
 21
1.2757896E+002
  0
LINE
  8
5
  6
CONTINUOUS
 62
40
 10
1.0742759E+002
 20
1.2757896E+002
 11
1.0712759E+002
 21
1.2757896E+002
  0
LINE
  8
5
  6
CONTINUOUS
 62
40
 10
1.0712759E+002
 20
1.2457896E+002
 11
1.0742759E+002
 21
1.2457896E+002
  0
LINE
  8
5
  6
CONTINUOUS
 62
40
 10
1.0742759E+002
 20
1.2457896E+002
 11
1.0762759E+002
 21
1.2457896E+002
  0
LINE
  8
5
  6
CONTINUOUS
 62
40
 10
1.0762759E+002
 20
1.2457896E+002
 11
1.0792522E+002
 21
1.2457896E+002
  0
LINE
  8
5
  6
CONTINUOUS
 62
40
 10
1.0712759E+002
 20
1.2307896E+002
 11
1.0861069E+002
 21
1.2307896E+002
  0
LINE
  8
5
  6
CONTINUOUS
 62
40
 10
1.0861069E+002
 20
1.2307896E+002
 11
1.0912759E+002
 21
1.2307896E+002
  0
LINE
  8
5
  6
CONTINUOUS
 62
40
 10
8.9627592E+001
 20
1.2757896E+002
 11
9.0144494E+001
 21
1.2757896E+002
  0
LINE
  8
5
  6
CONTINUOUS
 62
40
 10
9.0144494E+001
 20
1.2757896E+002
 11
9.0642592E+001
 21
1.2757896E+002
  0
LINE
  8
5
  6
CONTINUOUS
 62
40
 10
9.0642592E+001
 20
1.2757896E+002
 11
9.1127592E+001
 21
1.2757896E+002
  0
LINE
  8
5
  6
CONTINUOUS
 62
40
 10
9.1127592E+001
 20
1.2757896E+002
 11
9.1327592E+001
 21
1.2757896E+002
  0
LINE
  8
5
  6
CONTINUOUS
 62
40
 10
9.1327592E+001
 20
1.2757896E+002
 11
9.1627592E+001
 21
1.2757896E+002
  0
LINE
  8
5
  6
CONTINUOUS
 62
40
 10
9.1627592E+001
 20
1.2457896E+002
 11
9.1327592E+001
 21
1.2457896E+002
  0
LINE
  8
5
  6
CONTINUOUS
 62
40
 10
9.1327592E+001
 20
1.2457896E+002
 11
9.1127592E+001
 21
1.2457896E+002
  0
LINE
  8
5
  6
CONTINUOUS
 62
40
 10
9.1127592E+001
 20
1.2457896E+002
 11
9.0829962E+001
 21
1.2457896E+002
  0
LINE
  8
5
  6
CONTINUOUS
 62
40
 10
9.1627592E+001
 20
1.2307896E+002
 11
9.0144494E+001
 21
1.2307896E+002
  0
LINE
  8
5
  6
CONTINUOUS
 62
40
 10
9.0144494E+001
 20
1.2307896E+002
 11
8.9627592E+001
 21
1.2307896E+002
  0
LINE
  8
5
  6
CONTINUOUS
 62
40
 10
9.1627592E+001
 20
1.7024519E+002
 11
8.9627592E+001
 21
1.7024519E+002
  0
LINE
  8
5
  6
CONTINUOUS
 62
40
 10
9.1627592E+001
 20
1.7779255E+002
 11
8.9627592E+001
 21
1.7779255E+002
  0
LINE
  8
5
  6
CONTINUOUS
 62
40
 10
8.9627592E+001
 20
1.8072699E+002
 11
9.1627592E+001
 21
1.8072699E+002
  0
LINE
  8
5
  6
CONTINUOUS
 62
40
 10
8.9627592E+001
 20
1.8364785E+002
 11
9.1627592E+001
 21
1.8364785E+002
  0
LINE
  8
5
  6
CONTINUOUS
 62
40
 10
1.0712759E+002
 20
1.7024519E+002
 11
1.0912759E+002
 21
1.7024519E+002
  0
LINE
  8
5
  6
CONTINUOUS
 62
40
 10
1.0712759E+002
 20
1.7779255E+002
 11
1.0912759E+002
 21
1.7779255E+002
  0
LINE
  8
5
  6
CONTINUOUS
 62
40
 10
1.0912759E+002
 20
1.8072699E+002
 11
1.0712759E+002
 21
1.8072699E+002
  0
LINE
  8
5
  6
CONTINUOUS
 62
40
 10
1.0912759E+002
 20
1.8364785E+002
 11
1.0712759E+002
 21
1.8364785E+002
  0
LINE
  8
5
  6
CONTINUOUS
 62
40
 10
1.0712759E+002
 20
1.4111274E+002
 11
1.0912759E+002
 21
1.4111274E+002
  0
LINE
  8
5
  6
CONTINUOUS
 62
40
 10
1.0712759E+002
 20
1.3356538E+002
 11
1.0912759E+002
 21
1.3356538E+002
  0
LINE
  8
5
  6
CONTINUOUS
 62
40
 10
1.0912759E+002
 20
1.3063094E+002
 11
1.0712759E+002
 21
1.3063094E+002
  0
LINE
  8
5
  6
CONTINUOUS
 62
40
 10
1.0912759E+002
 20
1.2771008E+002
 11
1.0712759E+002
 21
1.2771008E+002
  0
LINE
  8
5
  6
CONTINUOUS
 62
40
 10
9.1627592E+001
 20
1.4111274E+002
 11
8.9627592E+001
 21
1.4111274E+002
  0
LINE
  8
5
  6
CONTINUOUS
 62
40
 10
9.1627592E+001
 20
1.3356538E+002
 11
8.9627592E+001
 21
1.3356538E+002
  0
LINE
  8
5
  6
CONTINUOUS
 62
40
 10
8.9627592E+001
 20
1.3063094E+002
 11
9.1627592E+001
 21
1.3063094E+002
  0
LINE
  8
5
  6
CONTINUOUS
 62
40
 10
8.9627592E+001
 20
1.2771008E+002
 11
9.1627592E+001
 21
1.2771008E+002
  0
POLYLINE
  8
5
  6
CONTINUOUS
 62
40
 66
1
 40
0.0
 41
0.0
 70
2
  0
VERTEX
  8
5
 42
0.0
 10
7.3268813E+001
 20
1.1963072E+002
 70
0
  0
VERTEX
  8
5
 42
5.074291E-004
 10
7.3268878E+001
 20
1.1963066E+002
 70
1
  0
VERTEX
  8
5
 42
4.240908E-004
 10
7.3268943E+001
 20
1.1963059E+002
 70
0
  0
VERTEX
  8
5
 42
5.056526E-004
 10
7.3269009E+001
 20
1.1963052E+002
 70
1
  0
VERTEX
  8
5
 42
7.730067E-004
 10
7.3269074E+001
 20
1.1963046E+002
 70
0
  0
VERTEX
  8
5
 42
9.708169E-004
 10
7.3269139E+001
 20
1.1963039E+002
 70
1
  0
VERTEX
  8
5
 42
1.1494348E-003
 10
7.3269205E+001
 20
1.1963032E+002
 70
0
  0
VERTEX
  8
5
 42
1.3178659E-003
 10
7.3269271E+001
 20
1.1963025E+002
 70
1
  0
VERTEX
  8
5
 42
1.5189617E-003
 10
7.3269338E+001
 20
1.1963019E+002
 70
0
  0
VERTEX
  8
5
 42
1.6946531E-003
 10
7.3269405E+001
 20
1.1963012E+002
 70
1
  0
VERTEX
  8
5
 42
1.889659E-003
 10
7.3269472E+001
 20
1.1963006E+002
 70
0
  0
VERTEX
  8
5
 42
2.0628296E-003
 10
7.326954E+001
 20
1.1962999E+002
 70
1
  0
VERTEX
  8
5
 42
2.258365E-003
 10
7.3269608E+001
 20
1.1962993E+002
 70
0
  0
VERTEX
  8
5
 42
2.4307011E-003
 10
7.3269677E+001
 20
1.1962987E+002
 70
1
  0
VERTEX
  8
5
 42
2.6241294E-003
 10
7.3269747E+001
 20
1.196298E+002
 70
0
  0
VERTEX
  8
5
 42
2.794116E-003
 10
7.3269818E+001
 20
1.1962974E+002
 70
1
  0
VERTEX
  8
5
 42
2.9849003E-003
 10
7.3269889E+001
 20
1.1962968E+002
 70
0
  0
VERTEX
  8
5
 42
3.1513062E-003
 10
7.3269961E+001
 20
1.1962962E+002
 70
1
  0
VERTEX
  8
5
 42
3.3375738E-003
 10
7.3270034E+001
 20
1.1962956E+002
 70
0
  0
VERTEX
  8
5
 42
3.4992564E-003
 10
7.3270108E+001
 20
1.196295E+002
 70
1
  0
VERTEX
  8
5
 42
3.6806064E-003
 10
7.3270183E+001
 20
1.1962944E+002
 70
0
  0
VERTEX
  8
5
 42
3.8339253E-003
 10
7.3270259E+001
 20
1.1962939E+002
 70
1
  0
VERTEX
  8
5
 42
4.0036206E-003
 10
7.3270336E+001
 20
1.1962933E+002
 70
0
  0
VERTEX
  8
5
 42
4.152837E-003
 10
7.3270414E+001
 20
1.1962928E+002
 70
1
  0
VERTEX
  8
5
 42
4.3254113E-003
 10
7.3270493E+001
 20
1.1962922E+002
 70
0
  0
VERTEX
  8
5
 42
4.4449622E-003
 10
7.3270573E+001
 20
1.1962917E+002
 70
1
  0
VERTEX
  8
5
 42
4.5591796E-003
 10
7.3270655E+001
 20
1.1962912E+002
 70
0
  0
VERTEX
  8
5
 42
4.728656E-003
 10
7.3270738E+001
 20
1.1962907E+002
 70
1
  0
VERTEX
  8
5
 42
4.9822691E-003
 10
7.3270823E+001
 20
1.1962902E+002
 70
0
  0
VERTEX
  8
5
 42
4.9158429E-003
 10
7.3270909E+001
 20
1.1962898E+002
 70
1
  0
VERTEX
  8
5
 42
4.6452593E-003
 10
7.3270996E+001
 20
1.1962893E+002
 70
0
  0
VERTEX
  8
5
 42
5.2957161E-003
 10
7.3271084E+001
 20
1.1962889E+002
 70
1
  0
VERTEX
  8
5
 42
6.5467103E-003
 10
7.3271175E+001
 20
1.1962885E+002
 70
0
  0
VERTEX
  8
5
 42
4.8837277E-003
 10
7.327127E+001
 20
1.196288E+002
 70
1
  0
VERTEX
  8
5
 42
1.3951841E-003
 10
7.3271361E+001
 20
1.1962877E+002
 70
0
  0
VERTEX
  8
5
 42
7.2607189E-003
 10
7.3271443E+001
 20
1.1962873E+002
 70
1
  0
VERTEX
  8
5
 42
1.2655291E-002
 10
7.3271553E+001
 20
1.1962869E+002
 70
0
  0
VERTEX
  8
5
 42
5.9911264E-003
 10
7.3271728E+001
 20
1.1962864E+002
 70
1
  0
VERTEX
  8
5
 42
3.0839211E-003
 10
7.3271961E+001
 20
1.1962857E+002
 70
0
  0
SEQEND
  0
POLYLINE
  8
5
  6
CONTINUOUS
 62
40
 66
1
 40
0.0
 41
0.0
 70
2
  0
VERTEX
  8
5
 42
0.0
 10
7.3337233E+001
 20
1.195839E+002
 70
0
  0
VERTEX
  8
5
 42
4.0985247E-003
 10
7.3339306E+001
 20
1.195815E+002
 70
1
  0
VERTEX
  8
5
 42
4.1614269E-003
 10
7.3341409E+001
 20
1.1957915E+002
 70
0
  0
VERTEX
  8
5
 42
4.1651886E-003
 10
7.3343544E+001
 20
1.1957684E+002
 70
1
  0
VERTEX
  8
5
 42
4.09846E-003
 10
7.3345708E+001
 20
1.1957458E+002
 70
0
  0
VERTEX
  8
5
 42
4.0548761E-003
 10
7.3347902E+001
 20
1.1957236E+002
 70
1
  0
VERTEX
  8
5
 42
4.0145384E-003
 10
7.3350125E+001
 20
1.1957018E+002
 70
0
  0
VERTEX
  8
5
 42
3.9763711E-003
 10
7.3352377E+001
 20
1.1956805E+002
 70
1
  0
VERTEX
  8
5
 42
3.9231147E-003
 10
7.3354656E+001
 20
1.1956596E+002
 70
0
  0
VERTEX
  8
5
 42
3.877562E-003
 10
7.3356963E+001
 20
1.195639E+002
 70
1
  0
VERTEX
  8
5
 42
3.8221118E-003
 10
7.3359296E+001
 20
1.1956189E+002
 70
0
  0
VERTEX
  8
5
 42
3.7731366E-003
 10
7.3361655E+001
 20
1.1955992E+002
 70
1
  0
VERTEX
  8
5
 42
3.7134704E-003
 10
7.336404E+001
 20
1.1955798E+002
 70
0
  0
VERTEX
  8
5
 42
3.6607788E-003
 10
7.336645E+001
 20
1.1955609E+002
 70
1
  0
VERTEX
  8
5
 42
3.5981116E-003
 10
7.3368884E+001
 20
1.1955423E+002
 70
0
  0
VERTEX
  8
5
 42
3.5425104E-003
 10
7.3371342E+001
 20
1.1955241E+002
 70
1
  0
VERTEX
  8
5
 42
3.4772786E-003
 10
7.3373823E+001
 20
1.1955062E+002
 70
0
  0
VERTEX
  8
5
 42
3.4191946E-003
 10
7.3376327E+001
 20
1.1954887E+002
 70
1
  0
VERTEX
  8
5
 42
3.3517942E-003
 10
7.3378852E+001
 20
1.1954716E+002
 70
0
  0
VERTEX
  8
5
 42
3.2920033E-003
 10
7.3381399E+001
 20
1.1954548E+002
 70
1
  0
VERTEX
  8
5
 42
3.2235306E-003
 10
7.3383967E+001
 20
1.1954384E+002
 70
0
  0
VERTEX
  8
5
 42
3.1616572E-003
 10
7.3386556E+001
 20
1.1954222E+002
 70
1
  0
VERTEX
  8
5
 42
3.0904438E-003
 10
7.3389164E+001
 20
1.1954065E+002
 70
0
  0
VERTEX
  8
5
 42
3.0298971E-003
 10
7.3391791E+001
 20
1.195391E+002
 70
1
  0
VERTEX
  8
5
 42
2.9635879E-003
 10
7.3394437E+001
 20
1.1953758E+002
 70
0
  0
VERTEX
  8
5
 42
2.8945378E-003
 10
7.3397101E+001
 20
1.195361E+002
 70
1
  0
VERTEX
  8
5
 42
2.80921E-003
 10
7.3399781E+001
 20
1.1953465E+002
 70
0
  0
VERTEX
  8
5
 42
2.7665869E-003
 10
7.3402478E+001
 20
1.1953323E+002
 70
1
  0
VERTEX
  8
5
 42
2.742037E-003
 10
7.3405193E+001
 20
1.1953183E+002
 70
0
  0
VERTEX
  8
5
 42
2.611468E-003
 10
7.3407929E+001
 20
1.1953046E+002
 70
1
  0
VERTEX
  8
5
 42
2.3946309E-003
 10
7.3410668E+001
 20
1.1952913E+002
 70
0
  0
VERTEX
  8
5
 42
2.5484143E-003
 10
7.3413405E+001
 20
1.1952783E+002
 70
1
  0
VERTEX
  8
5
 42
2.9004658E-003
 10
7.3416201E+001
 20
1.1952654E+002
 70
0
  0
VERTEX
  8
5
 42
2.1961752E-003
 10
7.3419078E+001
 20
1.1952524E+002
 70
1
  0
VERTEX
  8
5
 42
8.612156E-004
 10
7.3421787E+001
 20
1.1952405E+002
 70
0
  0
VERTEX
  8
5
 42
2.887167E-003
 10
7.3424243E+001
 20
1.1952298E+002
 70
1
  0
VERTEX
  8
5
 42
4.6853782E-003
 10
7.3427421E+001
 20
1.1952166E+002
 70
0
  0
VERTEX
  8
5
 42
2.2715243E-003
 10
7.3432348E+001
 20
1.195197E+002
 70
1
  0
VERTEX
  8
5
 42
1.217654E-003
 10
7.3438818E+001
 20
1.1951717E+002
 70
0
  0
SEQEND
  0
POLYLINE
  8
5
  6
CONTINUOUS
 62
40
 66
1
 40
0.0
 41
0.0
 70
2
  0
VERTEX
  8
5
 42
0.0
 10
9.0642584E+001
 20
1.8801545E+002
 70
0
  0
VERTEX
  8
5
 42
1.8819182E-002
 10
9.0640429E+001
 20
1.8802706E+002
 70
1
  0
VERTEX
  8
5
 42
1.7206543E-002
 10
9.0637363E+001
 20
1.8803885E+002
 70
0
  0
VERTEX
  8
5
 42
1.6485301E-002
 10
9.0633356E+001
 20
1.8805082E+002
 70
1
  0
VERTEX
  8
5
 42
1.6827133E-002
 10
9.0628393E+001
 20
1.8806295E+002
 70
0
  0
VERTEX
  8
5
 42
1.6578648E-002
 10
9.0622373E+001
 20
1.8807518E+002
 70
1
  0
VERTEX
  8
5
 42
1.6191951E-002
 10
9.0615297E+001
 20
1.8808748E+002
 70
0
  0
VERTEX
  8
5
 42
1.5630665E-002
 10
9.0607087E+001
 20
1.8809982E+002
 70
1
  0
VERTEX
  8
5
 42
1.523731E-002
 10
9.0597755E+001
 20
1.8811215E+002
 70
0
  0
VERTEX
  8
5
 42
1.4631525E-002
 10
9.0587227E+001
 20
1.8812442E+002
 70
1
  0
VERTEX
  8
5
 42
1.4141641E-002
 10
9.0575533E+001
 20
1.8813658E+002
 70
0
  0
VERTEX
  8
5
 42
1.3505309E-002
 10
9.0562611E+001
 20
1.8814858E+002
 70
1
  0
VERTEX
  8
5
 42
1.2998435E-002
 10
9.0548511E+001
 20
1.8816036E+002
 70
0
  0
VERTEX
  8
5
 42
1.2403881E-002
 10
9.0533189E+001
 20
1.8817186E+002
 70
1
  0
VERTEX
  8
5
 42
1.1941819E-002
 10
9.0516712E+001
 20
1.8818303E+002
 70
0
  0
VERTEX
  8
5
 42
1.1367199E-002
 10
9.0499057E+001
 20
1.8819381E+002
 70
1
  0
VERTEX
  8
5
 42
1.0870008E-002
 10
9.0480321E+001
 20
1.8820416E+002
 70
0
  0
VERTEX
  8
5
 42
1.048143E-002
 10
9.0460511E+001
 20
1.8821399E+002
 70
1
  0
VERTEX
  8
5
 42
1.0277099E-002
 10
9.0439694E+001
 20
1.8822328E+002
 70
0
  0
VERTEX
  8
5
 42
9.6056061E-003
 10
9.0417887E+001
 20
1.8823196E+002
 70
1
  0
VERTEX
  8
5
 42
8.7258567E-003
 10
9.0395351E+001
 20
1.8824E+002
 70
0
  0
VERTEX
  8
5
 42
9.223663E-003
 10
9.0372188E+001
 20
1.8824734E+002
 70
1
  0
VERTEX
  8
5
 42
1.049206E-002
 10
9.0347963E+001
 20
1.8825398E+002
 70
0
  0
VERTEX
  8
5
 42
7.852755E-003
 10
9.032256E+001
 20
1.8825987E+002
 70
1
  0
VERTEX
  8
5
 42
3.0252893E-003
 10
9.0298317E+001
 20
1.8826496E+002
 70
0
  0
VERTEX
  8
5
 42
1.0414372E-002
 10
9.0276088E+001
 20
1.8826918E+002
 70
1
  0
VERTEX
  8
5
 42
1.7146704E-002
 10
9.0247272E+001
 20
1.882728E+002
 70
0
  0
VERTEX
  8
5
 42
8.4054808E-003
 10
9.0202804E+001
 20
1.8827607E+002
 70
1
  0
VERTEX
  8
5
 42
4.4722542E-003
 10
9.0144495E+001
 20
1.8827896E+002
 70
0
  0
SEQEND
  0
LINE
  8
5
  6
CONTINUOUS
 62
40
 10
9.0829962E+001
 20
1.8677896E+002
 11
9.0642592E+001
 21
1.8801545E+002
  0
POLYLINE
  8
5
  6
CONTINUOUS
 62
40
 66
1
 40
0.0
 41
0.0
 70
2
  0
VERTEX
  8
5
 42
0.0
 10
1.0811259E+002
 20
1.8801545E+002
 70
0
  0
VERTEX
  8
5
 42
-2.2236169E-002
 10
1.0811547E+002
 20
1.8803012E+002
 70
1
  0
VERTEX
  8
5
 42
-2.1195005E-002
 10
1.0811968E+002
 20
1.8804478E+002
 70
0
  0
VERTEX
  8
5
 42
-2.0234725E-002
 10
1.0812526E+002
 20
1.8805944E+002
 70
1
  0
VERTEX
  8
5
 42
-1.9799434E-002
 10
1.0813219E+002
 20
1.8807403E+002
 70
0
  0
VERTEX
  8
5
 42
-1.8994133E-002
 10
1.0814051E+002
 20
1.8808847E+002
 70
1
  0
VERTEX
  8
5
 42
-1.8041751E-002
 10
1.0815016E+002
 20
1.881027E+002
 70
0
  0
VERTEX
  8
5
 42
-1.7016154E-002
 10
1.0816116E+002
 20
1.8811666E+002
 70
1
  0
VERTEX
  8
5
 42
-1.6092104E-002
 10
1.0817343E+002
 20
1.881303E+002
 70
0
  0
VERTEX
  8
5
 42
-1.5125911E-002
 10
1.0818698E+002
 20
1.8814354E+002
 70
1
  0
VERTEX
  8
5
 42
-1.4225582E-002
 10
1.0820168E+002
 20
1.8815634E+002
 70
0
  0
VERTEX
  8
5
 42
-1.3350663E-002
 10
1.0821753E+002
 20
1.8816863E+002
 70
1
  0
VERTEX
  8
5
 42
-1.2547227E-002
 10
1.082344E+002
 20
1.8818038E+002
 70
0
  0
VERTEX
  8
5
 42
-1.1809583E-002
 10
1.0825224E+002
 20
1.8819154E+002
 70
1
  0
VERTEX
  8
5
 42
-1.1132216E-002
 10
1.0827094E+002
 20
1.8820208E+002
 70
0
  0
VERTEX
  8
5
 42
-1.049809E-002
 10
1.0829042E+002
 20
1.8821196E+002
 70
1
  0
VERTEX
  8
5
 42
-9.876227E-003
 10
1.0831055E+002
 20
1.8822117E+002
 70
0
  0
VERTEX
  8
5
 42
-9.4324021E-003
 10
1.0833126E+002
 20
1.8822967E+002
 70
1
  0
VERTEX
  8
5
 42
-9.0702283E-003
 10
1.0835246E+002
 20
1.8823748E+002
 70
0
  0
VERTEX
  8
5
 42
-8.4821918E-003
 10
1.0837405E+002
 20
1.8824457E+002
 70
1
  0
VERTEX
  8
5
 42
-7.6851656E-003
 10
1.0839584E+002
 20
1.8825095E+002
 70
0
  0
VERTEX
  8
5
 42
-7.9411932E-003
 10
1.0841768E+002
 20
1.8825662E+002
 70
1
  0
VERTEX
  8
5
 42
-8.7377971E-003
 10
1.0843992E+002
 20
1.8826161E+002
 70
0
  0
VERTEX
  8
5
 42
-6.755982E-003
 10
1.0846265E+002
 20
1.8826592E+002
 70
1
  0
VERTEX
  8
5
 42
-3.0382633E-003
 10
1.0848402E+002
 20
1.8826955E+002
 70
0
  0
VERTEX
  8
5
 42
-8.4297149E-003
 10
1.0850333E+002
 20
1.8827248E+002
 70
1
  0
VERTEX
  8
5
 42
-1.3608411E-002
 10
1.085275E+002
 20
1.8827494E+002
 70
0
  0
VERTEX
  8
5
 42
-6.9575052E-003
 10
1.0856376E+002
 20
1.8827711E+002
 70
1
  0
VERTEX
  8
5
 42
-3.8732069E-003
 10
1.0861068E+002
 20
1.8827896E+002
 70
0
  0
SEQEND
  0
LINE
  8
5
  6
CONTINUOUS
 62
40
 10
1.0792522E+002
 20
1.8677896E+002
 11
1.0811259E+002
 21
1.8801545E+002
  0
POLYLINE
  8
5
  6
CONTINUOUS
 62
40
 66
1
 40
0.0
 41
0.0
 70
2
  0
VERTEX
  8
5
 42
0.0
 10
1.0811259E+002
 20
1.2334248E+002
 70
0
  0
VERTEX
  8
5
 42
2.2235697E-002
 10
1.0811547E+002
 20
1.2332782E+002
 70
1
  0
VERTEX
  8
5
 42
2.1194653E-002
 10
1.0811968E+002
 20
1.2331316E+002
 70
0
  0
VERTEX
  8
5
 42
2.0234491E-002
 10
1.0812526E+002
 20
1.232985E+002
 70
1
  0
VERTEX
  8
5
 42
1.9799305E-002
 10
1.0813219E+002
 20
1.2328391E+002
 70
0
  0
VERTEX
  8
5
 42
1.8994109E-002
 10
1.0814051E+002
 20
1.2326947E+002
 70
1
  0
VERTEX
  8
5
 42
1.8041814E-002
 10
1.0815016E+002
 20
1.2325523E+002
 70
0
  0
VERTEX
  8
5
 42
1.7016294E-002
 10
1.0816116E+002
 20
1.2324127E+002
 70
1
  0
VERTEX
  8
5
 42
1.6092302E-002
 10
1.0817343E+002
 20
1.2322763E+002
 70
0
  0
VERTEX
  8
5
 42
1.5126155E-002
 10
1.0818698E+002
 20
1.232144E+002
 70
1
  0
VERTEX
  8
5
 42
1.4225857E-002
 10
1.0820168E+002
 20
1.232016E+002
 70
0
  0
VERTEX
  8
5
 42
1.3350961E-002
 10
1.0821753E+002
 20
1.2318931E+002
 70
1
  0
VERTEX
  8
5
 42
1.2547537E-002
 10
1.082344E+002
 20
1.2317755E+002
 70
0
  0
VERTEX
  8
5
 42
1.1809899E-002
 10
1.0825224E+002
 20
1.2316639E+002
 70
1
  0
VERTEX
  8
5
 42
1.1132531E-002
 10
1.0827094E+002
 20
1.2315585E+002
 70
0
  0
VERTEX
  8
5
 42
1.0498403E-002
 10
1.0829042E+002
 20
1.2314597E+002
 70
1
  0
VERTEX
  8
5
 42
9.8765314E-003
 10
1.0831055E+002
 20
1.2313676E+002
 70
0
  0
VERTEX
  8
5
 42
9.432701E-003
 10
1.0833126E+002
 20
1.2312826E+002
 70
1
  0
VERTEX
  8
5
 42
9.0705212E-003
 10
1.0835246E+002
 20
1.2312045E+002
 70
0
  0
VERTEX
  8
5
 42
8.4824693E-003
 10
1.0837405E+002
 20
1.2311336E+002
 70
1
  0
VERTEX
  8
5
 42
7.685419E-003
 10
1.0839584E+002
 20
1.2310698E+002
 70
0
  0
VERTEX
  8
5
 42
7.941456E-003
 10
1.0841768E+002
 20
1.2310132E+002
 70
1
  0
VERTEX
  8
5
 42
8.738086E-003
 10
1.0843992E+002
 20
1.2309633E+002
 70
0
  0
VERTEX
  8
5
 42
6.7562041E-003
 10
1.0846265E+002
 20
1.2309202E+002
 70
1
  0
VERTEX
  8
5
 42
3.0383628E-003
 10
1.0848402E+002
 20
1.2308839E+002
 70
0
  0
VERTEX
  8
5
 42
8.429989E-003
 10
1.0850333E+002
 20
1.2308545E+002
 70
1
  0
VERTEX
  8
5
 42
1.3608844E-002
 10
1.085275E+002
 20
1.2308299E+002
 70
0
  0
VERTEX
  8
5
 42
6.9577201E-003
 10
1.0856376E+002
 20
1.2308083E+002
 70
1
  0
VERTEX
  8
5
 42
3.8733246E-003
 10
1.0861068E+002
 20
1.2307897E+002
 70
0
  0
SEQEND
  0
LINE
  8
5
  6
CONTINUOUS
 62
40
 10
1.0792522E+002
 20
1.2457896E+002
 11
1.0811259E+002
 21
1.2334248E+002
  0
POLYLINE
  8
5
  6
CONTINUOUS
 62
40
 66
1
 40
0.0
 41
0.0
 70
2
  0
VERTEX
  8
5
 42
0.0
 10
9.0642584E+001
 20
1.2334248E+002
 70
0
  0
VERTEX
  8
5
 42
-1.8818772E-002
 10
9.0640429E+001
 20
1.2333087E+002
 70
1
  0
VERTEX
  8
5
 42
-1.7206234E-002
 10
9.0637363E+001
 20
1.2331908E+002
 70
0
  0
VERTEX
  8
5
 42
-1.648507E-002
 10
9.0633356E+001
 20
1.2330711E+002
 70
1
  0
VERTEX
  8
5
 42
-1.6826965E-002
 10
9.0628393E+001
 20
1.2329499E+002
 70
0
  0
VERTEX
  8
5
 42
-1.6578556E-002
 10
9.0622373E+001
 20
1.2328276E+002
 70
1
  0
VERTEX
  8
5
 42
-1.6191929E-002
 10
9.0615297E+001
 20
1.2327045E+002
 70
0
  0
VERTEX
  8
5
 42
-1.5630711E-002
 10
9.0607087E+001
 20
1.2325811E+002
 70
1
  0
VERTEX
  8
5
 42
-1.5237416E-002
 10
9.0597755E+001
 20
1.2324578E+002
 70
0
  0
VERTEX
  8
5
 42
-1.4631683E-002
 10
9.0587227E+001
 20
1.2323351E+002
 70
1
  0
VERTEX
  8
5
 42
-1.4141843E-002
 10
9.0575533E+001
 20
1.2322135E+002
 70
0
  0
VERTEX
  8
5
 42
-1.3505546E-002
 10
9.0562611E+001
 20
1.2320936E+002
 70
1
  0
VERTEX
  8
5
 42
-1.2998701E-002
 10
9.0548511E+001
 20
1.2319758E+002
 70
0
  0
VERTEX
  8
5
 42
-1.2404166E-002
 10
9.0533189E+001
 20
1.2318607E+002
 70
1
  0
VERTEX
  8
5
 42
-1.1942119E-002
 10
9.0516712E+001
 20
1.231749E+002
 70
0
  0
VERTEX
  8
5
 42
-1.1367508E-002
 10
9.0499057E+001
 20
1.2316412E+002
 70
1
  0
VERTEX
  8
5
 42
-1.087032E-002
 10
9.0480321E+001
 20
1.2315377E+002
 70
0
  0
VERTEX
  8
5
 42
-1.0481745E-002
 10
9.0460511E+001
 20
1.2314394E+002
 70
1
  0
VERTEX
  8
5
 42
-1.0277418E-002
 10
9.0439694E+001
 20
1.2313465E+002
 70
0
  0
VERTEX
  8
5
 42
-9.6059123E-003
 10
9.0417887E+001
 20
1.2312597E+002
 70
1
  0
VERTEX
  8
5
 42
-8.7261397E-003
 10
9.0395351E+001
 20
1.2311793E+002
 70
0
  0
VERTEX
  8
5
 42
-9.2239658E-003
 10
9.0372188E+001
 20
1.2311059E+002
 70
1
  0
VERTEX
  8
5
 42
-1.0492407E-002
 10
9.0347963E+001
 20
1.2310395E+002
 70
0
  0
VERTEX
  8
5
 42
-7.8530148E-003
 10
9.032256E+001
 20
1.2309806E+002
 70
1
  0
VERTEX
  8
5
 42
-3.0253891E-003
 10
9.0298317E+001
 20
1.2309297E+002
 70
0
  0
VERTEX
  8
5
 42
-1.0414714E-002
 10
9.0276088E+001
 20
1.2308876E+002
 70
1
  0
VERTEX
  8
5
 42
-1.7147256E-002
 10
9.0247272E+001
 20
1.2308514E+002
 70
0
  0
VERTEX
  8
5
 42
-8.405743E-003
 10
9.0202804E+001
 20
1.2308187E+002
 70
1
  0
VERTEX
  8
5
 42
-4.4723912E-003
 10
9.0144495E+001
 20
1.2307897E+002
 70
0
  0
SEQEND
  0
LINE
  8
5
  6
CONTINUOUS
 62
40
 10
9.0829962E+001
 20
1.2457896E+002
 11
9.0642592E+001
 21
1.2334248E+002
  0
LINE
  8
5
  6
CONTINUOUS
 62
40
 10
1.0811259E+002
 20
1.8801545E+002
 11
1.0811259E+002
 21
1.8377896E+002
  0
LINE
  8
5
  6
CONTINUOUS
 62
40
 10
1.0861069E+002
 20
1.8377896E+002
 11
1.0861069E+002
 21
1.8827896E+002
  0
LINE
  8
5
  6
CONTINUOUS
 62
40
 10
1.0861069E+002
 20
1.2307896E+002
 11
1.0861069E+002
 21
1.2757896E+002
  0
LINE
  8
5
  6
CONTINUOUS
 62
40
 10
1.0811259E+002
 20
1.2757896E+002
 11
1.0811259E+002
 21
1.2334248E+002
  0
LINE
  8
5
  6
CONTINUOUS
 62
40
 10
1.0762759E+002
 20
1.8377896E+002
 11
1.0762759E+002
 21
1.8677896E+002
  0
LINE
  8
5
  6
CONTINUOUS
 62
40
 10
1.0762759E+002
 20
1.2757896E+002
 11
1.0762759E+002
 21
1.2457896E+002
  0
LINE
  8
5
  6
CONTINUOUS
 62
40
 10
9.0144494E+001
 20
1.8827896E+002
 11
9.0144494E+001
 21
1.8377896E+002
  0
LINE
  8
5
  6
CONTINUOUS
 62
40
 10
9.0642592E+001
 20
1.8377896E+002
 11
9.0642592E+001
 21
1.8801545E+002
  0
LINE
  8
5
  6
CONTINUOUS
 62
40
 10
9.0642592E+001
 20
1.2334248E+002
 11
9.0642592E+001
 21
1.2757896E+002
  0
LINE
  8
5
  6
CONTINUOUS
 62
40
 10
9.0144494E+001
 20
1.2757896E+002
 11
9.0144494E+001
 21
1.2307896E+002
  0
LINE
  8
5
  6
CONTINUOUS
 62
40
 10
9.1127592E+001
 20
1.8377896E+002
 11
9.1127592E+001
 21
1.8677896E+002
  0
LINE
  8
5
  6
CONTINUOUS
 62
40
 10
9.1127592E+001
 20
1.2757896E+002
 11
9.1127592E+001
 21
1.2457896E+002
  0
LINE
  8
5
  6
CONTINUOUS
 62
40
 10
1.0742759E+002
 20
1.8677896E+002
 11
1.0742759E+002
 21
1.8377896E+002
  0
LINE
  8
5
  6
CONTINUOUS
 62
40
 10
1.0742759E+002
 20
1.2457896E+002
 11
1.0742759E+002
 21
1.2757896E+002
  0
LINE
  8
5
  6
CONTINUOUS
 62
40
 10
9.1327592E+001
 20
1.8677896E+002
 11
9.1327592E+001
 21
1.8377896E+002
  0
LINE
  8
5
  6
CONTINUOUS
 62
40
 10
9.1327592E+001
 20
1.2457896E+002
 11
9.1327592E+001
 21
1.2757896E+002
  0
ARC
  8
5
  6
CONTINUOUS
 62
40
 10
1.2532759E+002
 20
1.5524693E+002
 40
5.0E-001
 50
3.068699E+002
 51
3.6E+002
  0
LINE
  8
5
  6
CONTINUOUS
 62
40
 10
1.2582759E+002
 20
1.5608155E+002
 11
1.2582759E+002
 21
1.5524693E+002
  0
ARC
  8
5
  6
CONTINUOUS
 62
40
 10
1.2532759E+002
 20
1.5608155E+002
 40
5.0E-001
 50
0.0
 51
5.3130102E+001
  0
LINE
  8
2
  6
CONTINUOUS
 62
5
 10
4.2639965E+002
 20
1.7967896E+002
 11
4.2039965E+002
 21
1.7967896E+002
  0
LINE
  8
2
  6
CONTINUOUS
 62
5
 10
4.2339965E+002
 20
1.8267896E+002
 11
4.2339965E+002
 21
1.7667896E+002
  0
LINE
  8
2
  6
CONTINUOUS
 62
5
 10
4.2739965E+002
 20
1.7967896E+002
 11
4.2799965E+002
 21
1.7967896E+002
  0
LINE
  8
2
  6
CONTINUOUS
 62
5
 10
4.2339965E+002
 20
1.8367896E+002
 11
4.2339965E+002
 21
1.8427896E+002
  0
LINE
  8
2
  6
CONTINUOUS
 62
5
 10
4.1939965E+002
 20
1.7967896E+002
 11
4.1879965E+002
 21
1.7967896E+002
  0
LINE
  8
2
  6
CONTINUOUS
 62
5
 10
4.2339965E+002
 20
1.7567896E+002
 11
4.2339965E+002
 21
1.7507896E+002
  0
LINE
  8
2
  6
CONTINUOUS
 62
5
 10
4.2039965E+002
 20
1.7367896E+002
 11
4.1439965E+002
 21
1.7367896E+002
  0
LINE
  8
2
  6
CONTINUOUS
 62
5
 10
4.1739965E+002
 20
1.7667896E+002
 11
4.1739965E+002
 21
1.7067896E+002
  0
LINE
  8
2
  6
CONTINUOUS
 62
5
 10
4.2139965E+002
 20
1.7367896E+002
 11
4.2199965E+002
 21
1.7367896E+002
  0
LINE
  8
2
  6
CONTINUOUS
 62
5
 10
4.1739965E+002
 20
1.7767896E+002
 11
4.1739965E+002
 21
1.7827896E+002
  0
LINE
  8
2
  6
CONTINUOUS
 62
5
 10
4.1339965E+002
 20
1.7367896E+002
 11
4.1279965E+002
 21
1.7367896E+002
  0
LINE
  8
2
  6
CONTINUOUS
 62
5
 10
4.1739965E+002
 20
1.6967896E+002
 11
4.1739965E+002
 21
1.6907896E+002
  0
LINE
  8
2
  6
CONTINUOUS
 62
5
 10
3.8439965E+002
 20
1.7367896E+002
 11
3.7839965E+002
 21
1.7367896E+002
  0
LINE
  8
2
  6
CONTINUOUS
 62
5
 10
3.8139965E+002
 20
1.7667896E+002
 11
3.8139965E+002
 21
1.7067896E+002
  0
LINE
  8
2
  6
CONTINUOUS
 62
5
 10
3.8539965E+002
 20
1.7367896E+002
 11
3.8599965E+002
 21
1.7367896E+002
  0
LINE
  8
2
  6
CONTINUOUS
 62
5
 10
3.8139965E+002
 20
1.7767896E+002
 11
3.8139965E+002
 21
1.7827896E+002
  0
LINE
  8
2
  6
CONTINUOUS
 62
5
 10
3.7739965E+002
 20
1.7367896E+002
 11
3.7679965E+002
 21
1.7367896E+002
  0
LINE
  8
2
  6
CONTINUOUS
 62
5
 10
3.8139965E+002
 20
1.6967896E+002
 11
3.8139965E+002
 21
1.6907896E+002
  0
LINE
  8
2
  6
CONTINUOUS
 62
5
 10
3.7839965E+002
 20
1.7967896E+002
 11
3.7239965E+002
 21
1.7967896E+002
  0
LINE
  8
2
  6
CONTINUOUS
 62
5
 10
3.7539965E+002
 20
1.8267896E+002
 11
3.7539965E+002
 21
1.7667896E+002
  0
LINE
  8
2
  6
CONTINUOUS
 62
5
 10
3.7939965E+002
 20
1.7967896E+002
 11
3.7999965E+002
 21
1.7967896E+002
  0
LINE
  8
2
  6
CONTINUOUS
 62
5
 10
3.7539965E+002
 20
1.8367896E+002
 11
3.7539965E+002
 21
1.8427896E+002
  0
LINE
  8
2
  6
CONTINUOUS
 62
5
 10
3.7139965E+002
 20
1.7967896E+002
 11
3.7079965E+002
 21
1.7967896E+002
  0
LINE
  8
2
  6
CONTINUOUS
 62
5
 10
3.7539965E+002
 20
1.7567896E+002
 11
3.7539965E+002
 21
1.7507896E+002
  0
LINE
  8
2
  6
CONTINUOUS
 62
5
 10
3.8439965E+002
 20
1.3767896E+002
 11
3.7839965E+002
 21
1.3767896E+002
  0
LINE
  8
2
  6
CONTINUOUS
 62
5
 10
3.8139965E+002
 20
1.4067896E+002
 11
3.8139965E+002
 21
1.3467896E+002
  0
LINE
  8
2
  6
CONTINUOUS
 62
5
 10
3.8539965E+002
 20
1.3767896E+002
 11
3.8599965E+002
 21
1.3767896E+002
  0
LINE
  8
2
  6
CONTINUOUS
 62
5
 10
3.8139965E+002
 20
1.4167896E+002
 11
3.8139965E+002
 21
1.4227896E+002
  0
LINE
  8
2
  6
CONTINUOUS
 62
5
 10
3.7739965E+002
 20
1.3767896E+002
 11
3.7679965E+002
 21
1.3767896E+002
  0
LINE
  8
2
  6
CONTINUOUS
 62
5
 10
3.8139965E+002
 20
1.3367896E+002
 11
3.8139965E+002
 21
1.3307896E+002
  0
LINE
  8
2
  6
CONTINUOUS
 62
5
 10
3.7839965E+002
 20
1.3167896E+002
 11
3.7239965E+002
 21
1.3167896E+002
  0
LINE
  8
2
  6
CONTINUOUS
 62
5
 10
3.7539965E+002
 20
1.3467896E+002
 11
3.7539965E+002
 21
1.2867896E+002
  0
LINE
  8
2
  6
CONTINUOUS
 62
5
 10
3.7939965E+002
 20
1.3167896E+002
 11
3.7999965E+002
 21
1.3167896E+002
  0
LINE
  8
2
  6
CONTINUOUS
 62
5
 10
3.7539965E+002
 20
1.3567896E+002
 11
3.7539965E+002
 21
1.3627896E+002
  0
LINE
  8
2
  6
CONTINUOUS
 62
5
 10
3.7139965E+002
 20
1.3167896E+002
 11
3.7079965E+002
 21
1.3167896E+002
  0
LINE
  8
2
  6
CONTINUOUS
 62
5
 10
3.7539965E+002
 20
1.2767896E+002
 11
3.7539965E+002
 21
1.2707896E+002
  0
LINE
  8
2
  6
CONTINUOUS
 62
5
 10
4.2039965E+002
 20
1.3767896E+002
 11
4.1439965E+002
 21
1.3767896E+002
  0
LINE
  8
2
  6
CONTINUOUS
 62
5
 10
4.1739965E+002
 20
1.4067896E+002
 11
4.1739965E+002
 21
1.3467896E+002
  0
LINE
  8
2
  6
CONTINUOUS
 62
5
 10
4.2139965E+002
 20
1.3767896E+002
 11
4.2199965E+002
 21
1.3767896E+002
  0
LINE
  8
2
  6
CONTINUOUS
 62
5
 10
4.1739965E+002
 20
1.4167896E+002
 11
4.1739965E+002
 21
1.4227896E+002
  0
LINE
  8
2
  6
CONTINUOUS
 62
5
 10
4.1339965E+002
 20
1.3767896E+002
 11
4.1279965E+002
 21
1.3767896E+002
  0
LINE
  8
2
  6
CONTINUOUS
 62
5
 10
4.1739965E+002
 20
1.3367896E+002
 11
4.1739965E+002
 21
1.3307896E+002
  0
LINE
  8
2
  6
CONTINUOUS
 62
5
 10
4.2639965E+002
 20
1.3167896E+002
 11
4.2039965E+002
 21
1.3167896E+002
  0
LINE
  8
2
  6
CONTINUOUS
 62
5
 10
4.2339965E+002
 20
1.3467896E+002
 11
4.2339965E+002
 21
1.2867896E+002
  0
LINE
  8
2
  6
CONTINUOUS
 62
5
 10
4.2739965E+002
 20
1.3167896E+002
 11
4.2799965E+002
 21
1.3167896E+002
  0
LINE
  8
2
  6
CONTINUOUS
 62
5
 10
4.2339965E+002
 20
1.3567896E+002
 11
4.2339965E+002
 21
1.3627896E+002
  0
LINE
  8
2
  6
CONTINUOUS
 62
5
 10
4.1939965E+002
 20
1.3167896E+002
 11
4.1879965E+002
 21
1.3167896E+002
  0
LINE
  8
2
  6
CONTINUOUS
 62
5
 10
4.2339965E+002
 20
1.2767896E+002
 11
4.2339965E+002
 21
1.2707896E+002
  0
DIMENSION
  8
2
  6
CONTINUOUS
 62
1
  2
*D1266
  3
DSTYLE1
 10
4.5596727E+002
 20
1.7367896E+002
 11
4.5246627E+002
 21
1.5567896E+002
 70
128
 13
4.2199965E+002
 23
1.3767896E+002
 14
4.2199965E+002
 24
1.7367896E+002
 40
4.0
 50
9.0E+001
1001
ACAD
1000
DSTYLE
1002
{
1070
173
1070
0
1070
5
1000
_AH1
1002
}
  0
DIMENSION
  8
2
  6
CONTINUOUS
 62
1
  2
*D1267
  3
DSTYLE1
 10
4.6543195E+002
 20
1.3167896E+002
 11
4.6193095E+002
 21
1.5567896E+002
 70
128
 13
4.2799965E+002
 23
1.7967896E+002
 14
4.2799965E+002
 24
1.3167896E+002
 40
4.0
 50
9.0E+001
1001
ACAD
1000
DSTYLE
1002
{
1070
173
1070
0
1070
5
1000
_AH1
1002
}
  0
DIMENSION
  8
2
  6
CONTINUOUS
 62
1
  2
*D1268
  3
DSTYLE1
 10
3.8139965E+002
 20
2.0282653E+002
 11
3.9939965E+002
 21
2.0632753E+002
 70
128
 13
4.1739965E+002
 23
1.7827896E+002
 14
3.8139965E+002
 24
1.7827896E+002
 40
4.0
 50
0.0
1001
ACAD
1000
DSTYLE
1002
{
1070
173
1070
0
1070
5
1000
_AH1
1002
}
  0
DIMENSION
  8
2
  6
CONTINUOUS
 62
1
  2
*D1269
  3
DSTYLE1
 10
3.7539965E+002
 20
2.159066E+002
 11
3.9939965E+002
 21
2.194076E+002
 70
128
 13
4.2339965E+002
 23
1.8367896E+002
 14
3.7539965E+002
 24
1.8427896E+002
 40
4.0
 50
0.0
1001
ACAD
1000
DSTYLE
1002
{
1070
173
1070
0
1070
5
1000
_AH1
1002
}
  0
DIMENSION
  8
3
  6
CONTINUOUS
 62
1
  2
*D1270
  3
DSTYLE1
 10
3.6689966E+002
 20
3.6840827E+002
 11
3.9939966E+002
 21
3.7190927E+002
 70
128
 13
4.3189966E+002
 23
3.4034286E+002
 14
3.6689966E+002
 24
3.4034286E+002
 40
4.0
 50
0.0
1001
ACAD
1000
DSTYLE
1002
{
1070
173
1070
0
1070
5
1000
_AH1
1002
}
  0
DIMENSION
  8
4
  6
CONTINUOUS
 62
1
  2
*D1271
  3
DSTYLE1
 10
2.2614946E+002
 20
2.169073E+002
 11
2.6072446E+002
 21
2.204083E+002
 70
128
 13
2.9529946E+002
 23
1.8702897E+002
 14
2.2614946E+002
 24
1.8467896E+002
 40
4.0
 50
0.0
1001
ACAD
1000
DSTYLE
1002
{
1070
173
1070
0
1070
5
1000
_AH1
1002
}
  0
DIMENSION
  8
5
  6
CONTINUOUS
 62
1
  2
*D1272
  3
DSTYLE1
 10
4.4888472E+001
 20
1.1947896E+002
 11
4.1387472E+001
 21
1.5567896E+002
 70
128
 13
7.3627592E+001
 23
1.9187896E+002
 14
7.3627592E+001
 24
1.1947896E+002
 40
4.0
 50
2.7E+002
1001
ACAD
1000
DSTYLE
1002
{
1070
173
1070
0
1070
5
1000
_AH1
1002
}
  0
TEXT
  8
2
  6
CONTINUOUS
 62
1
 10
3.765948E+002
 20
1.6451277E+002
 40
3.0
  1
OT80FT3
  0
INSERT
  2
*TX41
  8
1
 10
5.6080036E+002
 20
4.0272976E+001
  0
INSERT
  2
TITL_GRA
  8
1
 10
3.935E+002
 20
-7.05
  0
INSERT
  2
TITL_TEXT
  8
1
 10
3.935E+002
 20
-7.05
 66
1
  0
ATTRIB
  8
1
  6
CONTINUOUS
 62
2
 10
5.2056969E+002
 20
2.8397498E+001
 40
1.2
  1
DOCUMENT TYPE
  2
blanco
 70
0
  0
ATTRIB
  8
1
  6
CONTINUOUS
 62
2
 10
5.2088227E+002
 20
1.9198866E+001
 40
1.2
  1
DRAWING NO
  2
TBL_REVISIONCMNT
 70
0
  0
ATTRIB
  8
1
  6
CONTINUOUS
 62
2
 10
5.2052504E+002
 20
4.1927526E+001
 40
1.2
  1
DESCRIPTION
  2
DRAT_DKTXT
 70
0
  0
ATTRIB
  8
1
  6
CONTINUOUS
 62
2
 10
5.8551752E+002
 20
1.9192492E+001
 40
1.2
  1
REV.
  2
SAP_DirVersion
 70
0
  0
ATTRIB
  8
1
  6
CONTINUOUS
 62
2
 10
4.6904933E+002
 20
3.4804656E+001
 40
1.2
  1
DEPARTMENT
  2
TBL_DEPARTMENT
 70
0
  0
ATTRIB
  8
1
  6
CONTINUOUS
 62
2
 10
5.4573913E+002
 20
2.8444431E+001
 40
1.2
  1
DISTRIBUTION
  2
TBL_DISTRIBUTION
 70
0
  0
ATTRIB
  8
1
  6
CONTINUOUS
 62
2
 10
4.6895679E+002
 20
1.9094386E+001
 40
1.2
  1
CHECKED
  2
TBL_CHECKED
 70
0
  0
ATTRIB
  8
1
  6
CONTINUOUS
 62
2
 10
4.6890089E+002
 20
1.2526581E+001
 40
1.2
  1
APPROVED
  2
TBL_APPROVED
 70
0
  0
ATTRIB
  8
1
  6
CONTINUOUS
 62
2
 10
4.6898474E+002
 20
2.8009705E+001
 40
1.2
  1
DRAWN
  2
TBL_DRAWN
 70
0
  0
ATTRIB
  8
1
  6
CONTINUOUS
 62
2
 10
4.6898474E+002
 20
2.2096017E+001
 40
1.2
  1
DATE
  2
TBL_DATE
 70
0
  0
ATTRIB
  8
1
  6
CONTINUOUS
 62
2
 10
4.1554048E+002
 20
5.713116
 40
1.2
  1
TC ITEM NUMBER
  2
TC ITEM ID
 70
0
  0
ATTRIB
  8
1
  6
CONTINUOUS
 62
2
 10
5.6924005E+002
 20
2.8592858E+001
 40
1.2
  1
PAPER SIZE
  2
DOCFORMAT
 70
0
  0
ATTRIB
  8
1
  6
CONTINUOUS
 62
2
 10
4.2377902E+002
 20
4.505194E+001
 40
1.4
  1
NAME
  2
TBL_BLN1
 70
0
  0
ATTRIB
  8
1
  6
CONTINUOUS
 62
2
 10
4.9785243E+002
 20
4.4910066E+001
 40
1.4
  1
RAW MATERIAL
  2
TBL_BLN2
 70
0
  0
ATTRIB
  8
1
  6
CONTINUOUS
 62
2
 10
4.1547956E+002
 20
4.1959199E+001
 40
1.2
  1
TOLERANCES
  2
TBL_TOLERANCE
 70
0
  0
ATTRIB
  8
1
  6
CONTINUOUS
 62
2
 10
4.6892758E+002
 20
4.1927242E+001
 40
1.2
  1
CONCERNING
  2
TBL_CONCERNING
 70
0
  0
ATTRIB
  8
1
  6
CONTINUOUS
 62
2
 10
4.1550821E+002
 20
3.4897167E+001
 40
1.2
  1
SCALE
  2
TBL_SCALE
 70
0
  0
ATTRIB
  8
1
  6
CONTINUOUS
 62
2
 10
4.6898474E+002
 20
6.02686
 40
1.2
  1
SUPERSEDES
  2
TBL_SUPERSEDES
 70
0
  0
ATTRIB
  8
1
  6
CONTINUOUS
 62
2
 10
5.2048038E+002
 20
6.048592
 40
1.2
  1
SUPERSEDED BY
  2
TBL_SUPERSEDESBY
 70
0
  0
ATTRIB
  8
1
  6
CONTINUOUS
 62
2
 10
5.5781118E+002
 20
4.4919809E+001
 40
1.4
  1
WEIGHT
  2
TBL_WEIGHT
 70
0
  0
ATTRIB
  8
1
  6
CONTINUOUS
 62
2
 10
2.2645738E+002
 20
1.0366293E+001
 40
1.4
  1
WORKING ORDER
  2
TBL_WORKINGORDER
 70
0
  0
ATTRIB
  8
1
  6
CONTINUOUS
 62
2
 10
2.5783466E+002
 20
1.0483852E+001
 40
1.4
  1
WORK
  2
TBL_WORK
 70
0
  0
ATTRIB
  8
1
  6
CONTINUOUS
 62
2
 10
3.0321623E+002
 20
1.0461327E+001
 40
1.4
  1
TOOL
  2
TBL_TOOL
 70
0
  0
ATTRIB
  8
1
  6
CONTINUOUS
 62
2
 10
3.359405E+002
 20
1.0493489E+001
 40
1.4
  1
MACHINE
  2
TBL_MACHINE
 70
0
  0
ATTRIB
  8
1
  6
CONTINUOUS
 62
2
 10
3.7552092E+002
 20
1.0468527E+001
 40
1.4
  1
NOTE
  2
TBL_NOTE
 70
0
  0
SEQEND
  0
INSERT
  2
TITL_ATTR
  8
1
 10
3.935E+002
 20
-7.05
 66
1
  0
ATTRIB
  8
1
  6
CONTINUOUS
 62
2
 10
5.2458574E+002
 20
2.2870835E+001
 40
3.0
  1
Z14
  2
blanco
 70
0
  0
ATTRIB
  8
1
  6
CONTINUOUS
 62
2
 10
5.2381353E+002
 20
9.936219
 40
3.0
  1
OT80FT3
  2
TBL_REVISIONCMNT
 70
0
  0
ATTRIB
  8
1
  6
CONTINUOUS
 62
2
 10
5.2443742E+002
 20
3.1818199E+001
 40
3.0
  1
ASSEMBLY DRAWING
  2
DRAT_DKTXT
 70
0
  0
ATTRIB
  8
1
  6
CONTINUOUS
 62
2
 10
5.823278E+002
 20
9.825239
 40
3.0
  1
A
  2
SAP_DirVersion
 70
0
  0
ATTRIB
  8
1
  6
CONTINUOUS
 62
2
 10
4.8265866E+002
 20
3.1116563E+001
 40
3.0
  1
LSO
  2
TBL_DEPARTMENT
 70
0
  0
ATTRIB
  8
1
  6
CONTINUOUS
 62
2
 10
5.4747309E+002
 20
2.2822013E+001
 40
3.0
  1
7
  2
TBL_DISTRIBUTION
 70
0
  0
ATTRIB
  8
1
  6
CONTINUOUS
 62
2
 10
4.8244907E+002
 20
1.5658995E+001
 40
2.1
  1
Rosenberg Janne
  2
TBL_CHECKED
 70
0
  0
ATTRIB
  8
1
  6
CONTINUOUS
 62
2
 10
4.8241861E+002
 20
9.250721
 40
2.1
  1
Taimisto Martti
  2
TBL_APPROVED
 70
0
  0
ATTRIB
  8
1
  6
CONTINUOUS
 62
2
 10
4.831055E+002
 20
2.6257365E+001
 40
2.0
  1
KALERVO KOSKI
  2
TBL_DRAWN
 70
0
  0
ATTRIB
  8
1
  6
CONTINUOUS
 62
2
 10
4.830722E+002
 20
2.1928942E+001
 40
2.0
  1
2007-12-21
  2
TBL_DATE
 70
0
  0
ATTRIB
  8
1
  6
CONTINUOUS
 62
2
 10
4.1580193E+002
 20
1.496631
 40
3.0
  1
Z14-OT80FT3
  2
TC ITEM ID
 70
0
  0
ATTRIB
  8
1
  6
CONTINUOUS
 62
2
 10
5.706688E+002
 20
2.2817977E+001
 40
3.0
  1
A2
  2
DOCFORMAT
 70
0
  0
ATTRIB
  8
1
  6
CONTINUOUS
 62
2
 10
4.2410598E+002
 20
4.7365576E+001
 40
3.0
  1
 
  2
TBL_BLN1
 70
0
  0
ATTRIB
  8
1
  6
CONTINUOUS
 62
2
 10
4.9534021E+002
 20
4.7390921E+001
 40
3.0
  1
 
  2
TBL_BLN2
 70
0
  0
ATTRIB
  8
1
  6
CONTINUOUS
 62
2
 10
4.2734062E+002
 20
3.8179983E+001
 40
3.0
  1
 
  2
TBL_TOLERANCE
 70
0
  0
ATTRIB
  8
1
  6
CONTINUOUS
 62
2
 10
4.8267351E+002
 20
3.8161038E+001
 40
3.0
  1
OT80FT3
  2
TBL_CONCERNING
 70
0
  0
ATTRIB
  8
1
  6
CONTINUOUS
 62
2
 10
4.2709987E+002
 20
3.1594805E+001
 40
3.0
  1
 
  2
TBL_SCALE
 70
0
  0
ATTRIB
  8
1
  6
CONTINUOUS
 62
2
 10
4.8305327E+002
 20
2.956901
 40
2.0
  1
 
  2
TBL_SUPERSEDES
 70
0
  0
ATTRIB
  8
1
  6
CONTINUOUS
 62
2
 10
5.2513441E+002
 20
2.939403
 40
2.0
  1
 
  2
TBL_SUPERSEDESBY
 70
0
  0
ATTRIB
  8
1
  6
CONTINUOUS
 62
2
 10
5.5537669E+002
 20
4.7317117E+001
 40
3.0
  1
 
  2
TBL_WEIGHT
 70
0
  0
ATTRIB
  8
1
  6
CONTINUOUS
 62
2
 10
2.25E+002
 20
1.695E+001
 40
3.0
  1
 
  2
TBL_WORKINGORDER
 70
0
  0
ATTRIB
  8
1
  6
CONTINUOUS
 62
2
 10
2.4724236E+002
 20
1.6933388E+001
 40
3.0
  1
 
  2
TBL_WORK
 70
0
  0
ATTRIB
  8
1
  6
CONTINUOUS
 62
2
 10
2.9040612E+002
 20
1.6941044E+001
 40
3.0
  1
 
  2
TBL_TOOL
 70
0
  0
ATTRIB
  8
1
  6
CONTINUOUS
 62
2
 10
3.2484612E+002
 20
1.6906549E+001
 40
3.0
  1
 
  2
TBL_MACHINE
 70
0
  0
ATTRIB
  8
1
  6
CONTINUOUS
 62
2
 10
3.5961823E+002
 20
1.7064653E+001
 40
3.0
  1
 
  2
TBL_NOTE
 70
0
  0
SEQEND
  0
VIEWPORT
 67
1
  8
0
  6
CONTINUOUS
 62
3
100
AcDbViewport
 10
2.97E+002
 20
2.1E+002
 30
0.0
 40
4.2E+002
 41
4.2E+002
 68
1
 69
1
1001
ACAD
1000
MVIEW
1002
{
1070
16
1010
0.0
1020
0.0
1030
0.0
1010
0.0
1020
0.0
1030
1.0
1040
0.0
1040
4.2E+002
1040
1.6335E+002
1040
2.1E+002
1040
5.0E+001
1040
0.0
1040
0.0
1070
0
1070
100
1070
1
1070
0
1070
0
1070
0
1070
0
1070
0
1040
0.0
1040
0.0
1040
0.0
1040
5.0E-001
1040
5.0E-001
1040
5.0E-001
1040
5.0E-001
1070
0
1002
{
1002
}
1002
}
  0
VIEWPORT
 67
1
  8
0
  6
CONTINUOUS
 62
3
100
AcDbViewport
 10
2.97E+002
 20
2.1E+002
 30
0.0
 40
5.94E+002
 41
4.2E+002
 68
2
 69
2
1001
ACAD
1000
MVIEW
1002
{
1070
16
1010
0.0
1020
0.0
1030
0.0
1010
0.0
1020
0.0
1030
1.0
1040
0.0
1040
4.2E+002
1040
2.97E+002
1040
2.1E+002
1040
5.0E+001
1040
0.0
1040
0.0
1070
0
1070
100
1070
1
1070
0
1070
0
1070
0
1070
0
1070
0
1040
0.0
1040
0.0
1040
0.0
1040
5.0E-001
1040
5.0E-001
1040
5.0E-001
1040
5.0E-001
1070
0
1002
{
1003
5
1003
4
1003
3
1003
2
1002
}
1002
}
  0
VIEWPORT
 67
1
  8
0
  6
CONTINUOUS
 62
3
100
AcDbViewport
 10
3.9939966E+002
 20
1.5567896E+002
 30
0.0
 40
2.1538108E+002
 41
1.6172474E+002
 68
3
 69
3
1001
ACAD
1000
MVIEW
1002
{
1070
16
1010
0.0
1020
0.0
1030
0.0
1010
0.0
1020
0.0
1030
1.0
1040
0.0
1040
1.6172474E+002
1040
3.9939966E+002
1040
1.5567896E+002
1040
5.0E+001
1040
0.0
1040
0.0
1070
0
1070
100
1070
1
1070
0
1070
0
1070
0
1070
0
1070
0
1040
0.0
1040
0.0
1040
0.0
1040
5.0E-001
1040
5.0E-001
1040
5.0E-001
1040
5.0E-001
1070
0
1002
{
1003
5
1003
4
1003
3
1003
1
1002
}
1002
}
  0
VIEWPORT
 67
1
  8
0
  6
CONTINUOUS
 62
3
100
AcDbViewport
 10
3.9939966E+002
 20
3.0606786E+002
 30
0.0
 40
2.1538108E+002
 41
1.653936E+002
 68
4
 69
4
1001
ACAD
1000
MVIEW
1002
{
1070
16
1010
0.0
1020
0.0
1030
0.0
1010
0.0
1020
0.0
1030
1.0
1040
0.0
1040
1.653936E+002
1040
3.9939966E+002
1040
3.0606786E+002
1040
5.0E+001
1040
0.0
1040
0.0
1070
0
1070
100
1070
1
1070
0
1070
0
1070
0
1070
0
1070
0
1040
0.0
1040
0.0
1040
0.0
1040
5.0E-001
1040
5.0E-001
1040
5.0E-001
1040
5.0E-001
1070
0
1002
{
1003
5
1003
4
1003
2
1003
1
1002
}
1002
}
  0
VIEWPORT
 67
1
  8
0
  6
CONTINUOUS
 62
3
100
AcDbViewport
 10
2.6072447E+002
 20
1.5567896E+002
 30
0.0
 40
2.264501E+002
 41
1.6172474E+002
 68
5
 69
5
1001
ACAD
1000
MVIEW
1002
{
1070
16
1010
0.0
1020
0.0
1030
0.0
1010
0.0
1020
0.0
1030
1.0
1040
0.0
1040
1.6172474E+002
1040
2.6072447E+002
1040
1.5567896E+002
1040
5.0E+001
1040
0.0
1040
0.0
1070
0
1070
100
1070
1
1070
0
1070
0
1070
0
1070
0
1070
0
1040
0.0
1040
0.0
1040
0.0
1040
5.0E-001
1040
5.0E-001
1040
5.0E-001
1040
5.0E-001
1070
0
1002
{
1003
5
1003
3
1003
2
1003
1
1002
}
1002
}
  0
VIEWPORT
 67
1
  8
0
  6
CONTINUOUS
 62
3
100
AcDbViewport
 10
9.9377588E+001
 20
1.5567896E+002
 30
0.0
 40
1.7306059E+002
 41
1.6172474E+002
 68
6
 69
6
1001
ACAD
1000
MVIEW
1002
{
1070
16
1010
0.0
1020
0.0
1030
0.0
1010
0.0
1020
0.0
1030
1.0
1040
0.0
1040
1.6172474E+002
1040
9.9377588E+001
1040
1.5567896E+002
1040
5.0E+001
1040
0.0
1040
0.0
1070
0
1070
100
1070
1
1070
0
1070
0
1070
0
1070
0
1070
0
1040
0.0
1040
0.0
1040
0.0
1040
5.0E-001
1040
5.0E-001
1040
5.0E-001
1040
5.0E-001
1070
0
1002
{
1003
4
1003
3
1003
2
1003
1
1002
}
1002
}
  0
ENDSEC
  0
EOF
