  0
SECTION
  2
HEADER
  9
$ACADVER
  1
AC1009
999
I-DEAS Drafting Master Series 7m3 Not Encoded
  9
$EXTMIN
 10
0.0
 20
0.0
  9
$EXTMAX
 10
5.94E+002
 20
4.2E+002
  9
$TEXTSIZE
 40
1.25E-001
  9
$LTSCALE
 40
1.0
  9
$CLAYER
  8
1
  9
$CECOLOR
 62
2
  9
$DIMASZ
 40
1.25E-001
  9
$DIMEXO
 40
6.25E-002
  9
$DIMDLI
 40
2.5E-001
  9
$DIMEXE
 40
1.25E-001
  9
$DIMTP
 40
5.0E-003
  9
$DIMTM
 40
-5.0E-003
  9
$DIMTXT
 40
3.0
  9
$DIMLIM
 70
0
  9
$DIMTIH
 70
1
  9
$DIMTOH
 70
1
  9
$DIMSE1
 70
0
  9
$DIMSE2
 70
0
  9
$DIMTAD
 70
0
  9
$DIMASO
 70
1
  9
$DIMALT
 70
0
  9
$DIMALTD
 70
0
  9
$DIMTOFL
 70
1
  9
$DIMTIX
 70
0
  9
$DIMSAH
 70
0
  9
$DIMTFAC
 40
1.0
  9
$DIMGAP
 40
6.25E-002
  9
$LUNITS
 70
2
  9
$LUPREC
 70
3
  9
$FILLETRAD
 40
1.0E+001
  9
$AUNITS
 70
0
  9
$AUPREC
 70
1
  9
$CHAMFERA
 40
6.0
  9
$CHAMFERB
 40
6.0
  9
$ANGBASE
 50
0.0
  9
$ANGDIR
 70
0
  9
$PDMODE
 70
2
  9
$PDSIZE
 40
-1.0E-002
  9
$SPLINETYPE
 70
6
  0
ENDSEC
  0
SECTION
  2
TABLES
  0
TABLE
  2
LTYPE
 70
13
  0
LTYPE
  2
HIDDENNEW00
  3
_ 
 70
64
 72
65
 73
2
 40
4.5
 49
3.0
 49
-1.5
  0
LTYPE
  2
HIDDENNEW01
  3
_ 
 70
64
 72
65
 73
2
 40
4.5
 49
3.0
 49
-1.5
  0
LTYPE
  2
HIDDEN
  3
_ 
 70
64
 72
65
 73
2
 40
4.5
 49
3.0
 49
-1.5
  0
LTYPE
  2
CENTERLINE
  3
_ 
 70
64
 72
65
 73
4
 40
3.0E+001
 49
2.4E+001
 49
-1.5
 49
3.0
 49
-1.5
  0
LTYPE
  2
PHANTOM
  3
_ 
 70
64
 72
65
 73
6
 40
2.95E+001
 49
1.9E+001
 49
-1.5
 49
3.0
 49
-1.5
 49
3.0
 49
-1.5
  0
LTYPE
  2
SHORT_DASH
  3
_ 
 70
64
 72
65
 73
2
 40
3.0
 49
1.5
 49
-1.5
  0
LTYPE
  2
LONG_DASH
  3
_ 
 70
64
 72
65
 73
2
 40
9.0
 49
4.5
 49
-4.5
  0
LTYPE
  2
DASHED
  3
_ 
 70
64
 72
65
 73
2
 40
1.0
 49
7.5E-001
 49
-2.5E-001
  0
LTYPE
  2
CENTER
  3
_ 
 70
64
 72
65
 73
4
 40
2.625
 49
1.875
 49
-2.5E-001
 49
2.5E-001
 49
-2.5E-001
  0
LTYPE
  2
DOT
  3
_ 
 70
64
 72
65
 73
2
 40
2.5375E-001
 49
3.75E-003
 49
-2.5E-001
  0
LTYPE
  2
DASHDOT
  3
_ 
 70
64
 72
65
 73
4
 40
1.26
 49
7.5E-001
 49
-2.5E-001
 49
1.0E-002
 49
-2.5E-001
  0
LTYPE
  2
BORDER
  3
_ 
 70
64
 72
65
 73
6
 40
2.0175
 49
7.5E-001
 49
-2.5E-001
 49
5.0E-001
 49
-2.5E-001
 49
1.75E-002
 49
-2.5E-001
  0
LTYPE
  2
DIVIDE
  3
_ 
 70
64
 72
65
 73
6
 40
1.525
 49
7.5E-001
 49
-2.5E-001
 49
1.25E-002
 49
-2.5E-001
 49
1.25E-002
 49
-2.5E-001
  0
ENDTAB
  0
TABLE
  2
LAYER
 70
258
  0
LAYER
  2
1
 70
0
 62
7
  6
CONTINUOUS
  0
LAYER
  2
2
 70
0
 62
7
  6
CONTINUOUS
  0
LAYER
  2
3
 70
0
 62
7
  6
CONTINUOUS
  0
LAYER
  2
Drafting_Hidden_Entities
 70
1
 62
7
  6
CONTINUOUS
  0
ENDTAB
  0
TABLE
  2
STYLE
 70
1
  0
STYLE
  2
STANDARD
 70
64
 40
0.0
 41
1.0
 50
0.0
 71
0
 42
1.0
  3
monotxt.shx
  4

  0
ENDTAB
  0
TABLE
  2
VIEW
 70
0
  0
ENDTAB
  0
TABLE
  2
DIMSTYLE
 70
1
  0
DIMSTYLE
  2
DSTYLE1
 70
0
  3

  4

  5

  6

  7

 40
1.0
 41
3.0
 42
0.0
 43
3.8E-001
 44
3.0
 45
0.0
 46
0.0
 47
1.0
 48
1.0
 71
0
 72
0
 73
0
 74
0
 75
0
 76
0
 77
1
 78
3
140
3.0
141
9.0E-002
142
0.0
143
3.9370079E-002
144
1.0
145
0.0
146
1.0
147
1.5
170
0
171
2
172
0
173
0
174
0
175
0
176
0
177
0
178
0
  0
ENDTAB
  0
ENDSEC
  0
SECTION
  2
BLOCKS
  0
BLOCK
  2
*TX38
  3
*TX
 10
0.0
 20
0.0
 70
65
  0
TEXT
  8
3
  6
CONTINUOUS
 62
1
 10
0.0
 20
0.0
 40
3.0
  1
1SCC301120F0001
  0
TEXT
  8
3
  6
CONTINUOUS
 62
1
 10
0.0
 20
-4.5
 40
3.0
  1
22690345
  0
ENDBLK
  0
BLOCK
  2
*D98
  3
*D
 10
0.0
 20
0.0
 70
65
  0
LINE
  8
1
  6
CONTINUOUS
 62
1
 10
2.32492E+002
 20
3.63034E+002
 11
2.32492E+002
 21
3.86438E+002
  0
LINE
  8
1
  6
CONTINUOUS
 62
1
 10
7.9492E+001
 20
3.63034E+002
 11
7.9492E+001
 21
3.86438E+002
  0
LINE
  8
1
  6
CONTINUOUS
 62
1
 10
2.32492E+002
 20
3.83438E+002
 11
2.29492E+002
 21
3.83938E+002
  0
LINE
  8
1
  6
CONTINUOUS
 62
1
 10
2.32492E+002
 20
3.83438E+002
 11
2.29492E+002
 21
3.82938E+002
  0
LINE
  8
1
  6
CONTINUOUS
 62
1
 10
2.29492E+002
 20
3.83938E+002
 11
2.29492E+002
 21
3.82938E+002
  0
LINE
  8
1
  6
CONTINUOUS
 62
1
 10
7.9492E+001
 20
3.83438E+002
 11
8.2492E+001
 21
3.83938E+002
  0
LINE
  8
1
  6
CONTINUOUS
 62
1
 10
7.9492E+001
 20
3.83438E+002
 11
8.2492E+001
 21
3.82938E+002
  0
LINE
  8
1
  6
CONTINUOUS
 62
1
 10
8.2492E+001
 20
3.83938E+002
 11
8.2492E+001
 21
3.82938E+002
  0
LINE
  8
1
  6
CONTINUOUS
 62
1
 10
2.32492E+002
 20
3.83438E+002
 11
1.54245E+002
 21
3.83438E+002
  0
LINE
  8
1
  6
CONTINUOUS
 62
1
 10
7.9492E+001
 20
3.83438E+002
 11
1.54245E+002
 21
3.83438E+002
  0
TEXT
  8
1
  6
CONTINUOUS
 62
1
 10
1.49745E+002
 20
3.84939E+002
 40
3.0
  1
153
 50
3.6E+002
  0
ENDBLK
  0
ENDSEC
  0
SECTION
  2
ENTITIES
  0
LINE
  8
1
  6
CONTINUOUS
 62
40
 10
4.4166E+002
 20
2.53034E+002
 11
4.4166E+002
 21
2.7527608E+002
  0
LINE
  8
1
  6
CONTINUOUS
 62
40
 10
3.8766E+002
 20
3.63034E+002
 11
5.4066E+002
 21
3.63034E+002
  0
LINE
  8
1
  6
CONTINUOUS
 62
40
 10
3.8766E+002
 20
2.53034E+002
 11
5.4066E+002
 21
2.53034E+002
  0
LINE
  8
1
  6
CONTINUOUS
 62
40
 10
4.1466E+002
 20
2.53034E+002
 11
4.1466E+002
 21
3.63034E+002
  0
LINE
  8
1
  6
CONTINUOUS
 62
40
 10
5.1366E+002
 20
2.53034E+002
 11
5.1366E+002
 21
3.63034E+002
  0
LINE
  8
1
  6
CONTINUOUS
 62
40
 10
5.4066E+002
 20
2.53034E+002
 11
5.4066E+002
 21
3.63034E+002
  0
LINE
  8
1
  6
CONTINUOUS
 62
40
 10
4.1666E+002
 20
2.44534E+002
 11
4.1666E+002
 21
2.53034E+002
  0
LINE
  8
1
  6
CONTINUOUS
 62
40
 10
4.3966E+002
 20
2.44534E+002
 11
4.3966E+002
 21
2.53034E+002
  0
LINE
  8
1
  6
CONTINUOUS
 62
40
 10
4.8866E+002
 20
2.44534E+002
 11
4.8866E+002
 21
2.53034E+002
  0
LINE
  8
1
  6
CONTINUOUS
 62
40
 10
5.1166E+002
 20
2.44534E+002
 11
5.1166E+002
 21
2.53034E+002
  0
LINE
  8
1
  6
CONTINUOUS
 62
40
 10
5.1566E+002
 20
2.44534E+002
 11
5.1566E+002
 21
2.53034E+002
  0
LINE
  8
1
  6
CONTINUOUS
 62
40
 10
5.3866E+002
 20
2.44534E+002
 11
5.3866E+002
 21
2.53034E+002
  0
LINE
  8
1
  6
CONTINUOUS
 62
40
 10
4.1866E+002
 20
2.44534E+002
 11
4.1866E+002
 21
2.53034E+002
  0
LINE
  8
1
  6
CONTINUOUS
 62
40
 10
4.3766E+002
 20
2.44534E+002
 11
4.3766E+002
 21
2.53034E+002
  0
LINE
  8
1
  6
CONTINUOUS
 62
40
 10
4.9066E+002
 20
2.44534E+002
 11
4.9066E+002
 21
2.53034E+002
  0
LINE
  8
1
  6
CONTINUOUS
 62
40
 10
5.0966E+002
 20
2.44534E+002
 11
5.0966E+002
 21
2.53034E+002
  0
LINE
  8
1
  6
CONTINUOUS
 62
40
 10
5.1766E+002
 20
2.44534E+002
 11
5.1766E+002
 21
2.53034E+002
  0
LINE
  8
1
  6
CONTINUOUS
 62
40
 10
5.3666E+002
 20
2.44534E+002
 11
5.3666E+002
 21
2.53034E+002
  0
LINE
  8
1
  6
CONTINUOUS
 62
40
 10
4.1666E+002
 20
3.71534E+002
 11
4.1866E+002
 21
3.71534E+002
  0
LINE
  8
1
  6
CONTINUOUS
 62
40
 10
4.1666E+002
 20
2.44534E+002
 11
4.1866E+002
 21
2.44534E+002
  0
LINE
  8
1
  6
CONTINUOUS
 62
40
 10
4.1666E+002
 20
3.63034E+002
 11
4.1666E+002
 21
3.71534E+002
  0
LINE
  8
1
  6
CONTINUOUS
 62
40
 10
4.1866E+002
 20
3.63034E+002
 11
4.1866E+002
 21
3.71534E+002
  0
LINE
  8
1
  6
CONTINUOUS
 62
40
 10
4.3766E+002
 20
3.63034E+002
 11
4.3766E+002
 21
3.71534E+002
  0
LINE
  8
1
  6
CONTINUOUS
 62
40
 10
4.3966E+002
 20
3.63034E+002
 11
4.3966E+002
 21
3.71534E+002
  0
LINE
  8
1
  6
CONTINUOUS
 62
40
 10
4.8866E+002
 20
3.63034E+002
 11
4.8866E+002
 21
3.71534E+002
  0
LINE
  8
1
  6
CONTINUOUS
 62
40
 10
4.9066E+002
 20
3.63034E+002
 11
4.9066E+002
 21
3.71534E+002
  0
LINE
  8
1
  6
CONTINUOUS
 62
40
 10
5.0966E+002
 20
3.63034E+002
 11
5.0966E+002
 21
3.71534E+002
  0
LINE
  8
1
  6
CONTINUOUS
 62
40
 10
5.1166E+002
 20
3.63034E+002
 11
5.1166E+002
 21
3.71534E+002
  0
LINE
  8
1
  6
CONTINUOUS
 62
40
 10
5.1566E+002
 20
3.63034E+002
 11
5.1566E+002
 21
3.71534E+002
  0
LINE
  8
1
  6
CONTINUOUS
 62
40
 10
5.1766E+002
 20
3.63034E+002
 11
5.1766E+002
 21
3.71534E+002
  0
LINE
  8
1
  6
CONTINUOUS
 62
40
 10
5.3666E+002
 20
3.63034E+002
 11
5.3666E+002
 21
3.71534E+002
  0
LINE
  8
1
  6
CONTINUOUS
 62
40
 10
5.3866E+002
 20
3.63034E+002
 11
5.3866E+002
 21
3.71534E+002
  0
LINE
  8
1
  6
CONTINUOUS
 62
40
 10
4.3766E+002
 20
3.71534E+002
 11
4.3966E+002
 21
3.71534E+002
  0
LINE
  8
1
  6
CONTINUOUS
 62
40
 10
4.8866E+002
 20
3.71534E+002
 11
4.9066E+002
 21
3.71534E+002
  0
LINE
  8
1
  6
CONTINUOUS
 62
40
 10
5.0966E+002
 20
3.71534E+002
 11
5.1166E+002
 21
3.71534E+002
  0
LINE
  8
1
  6
CONTINUOUS
 62
40
 10
5.1566E+002
 20
3.71534E+002
 11
5.1766E+002
 21
3.71534E+002
  0
LINE
  8
1
  6
CONTINUOUS
 62
40
 10
5.3666E+002
 20
3.71534E+002
 11
5.3866E+002
 21
3.71534E+002
  0
LINE
  8
1
  6
CONTINUOUS
 62
40
 10
4.3766E+002
 20
2.44534E+002
 11
4.3966E+002
 21
2.44534E+002
  0
LINE
  8
1
  6
CONTINUOUS
 62
40
 10
4.8866E+002
 20
2.44534E+002
 11
4.9066E+002
 21
2.44534E+002
  0
LINE
  8
1
  6
CONTINUOUS
 62
40
 10
5.0966E+002
 20
2.44534E+002
 11
5.1166E+002
 21
2.44534E+002
  0
LINE
  8
1
  6
CONTINUOUS
 62
40
 10
5.1566E+002
 20
2.44534E+002
 11
5.1766E+002
 21
2.44534E+002
  0
LINE
  8
1
  6
CONTINUOUS
 62
40
 10
5.3666E+002
 20
2.44534E+002
 11
5.3866E+002
 21
2.44534E+002
  0
LINE
  8
1
  6
CONTINUOUS
 62
40
 10
4.5716E+002
 20
2.45234E+002
 11
4.5716E+002
 21
2.53034E+002
  0
LINE
  8
1
  6
CONTINUOUS
 62
40
 10
4.7116E+002
 20
2.45234E+002
 11
4.7116E+002
 21
2.53034E+002
  0
LINE
  8
1
  6
CONTINUOUS
 62
40
 10
4.6016E+002
 20
2.47534E+002
 11
4.6016E+002
 21
2.49534E+002
  0
LINE
  8
1
  6
CONTINUOUS
 62
40
 10
4.6816E+002
 20
2.47534E+002
 11
4.6816E+002
 21
2.49534E+002
  0
LINE
  8
1
  6
CONTINUOUS
 62
40
 10
4.6016E+002
 20
3.73834E+002
 11
4.6816E+002
 21
3.73834E+002
  0
LINE
  8
1
  6
CONTINUOUS
 62
40
 10
4.6016E+002
 20
2.42234E+002
 11
4.6816E+002
 21
2.42234E+002
  0
LINE
  8
1
  6
CONTINUOUS
 62
40
 10
4.6016E+002
 20
3.66534E+002
 11
4.6016E+002
 21
3.68534E+002
  0
LINE
  8
1
  6
CONTINUOUS
 62
40
 10
4.6816E+002
 20
3.66534E+002
 11
4.6816E+002
 21
3.68534E+002
  0
LINE
  8
1
  6
CONTINUOUS
 62
40
 10
4.7116E+002
 20
3.63034E+002
 11
4.7116E+002
 21
3.70834E+002
  0
LINE
  8
1
  6
CONTINUOUS
 62
40
 10
4.5716E+002
 20
3.63034E+002
 11
4.5716E+002
 21
3.70834E+002
  0
ARC
  8
1
  6
CONTINUOUS
 62
40
 10
4.6016E+002
 20
2.45234E+002
 40
3.0
 50
1.8E+002
 51
2.7E+002
  0
ARC
  8
1
  6
CONTINUOUS
 62
40
 10
4.6816E+002
 20
2.45234E+002
 40
3.0
 50
2.7E+002
 51
3.6E+002
  0
ARC
  8
1
  6
CONTINUOUS
 62
40
 10
4.6016E+002
 20
3.70834E+002
 40
3.0
 50
9.0E+001
 51
1.8E+002
  0
ARC
  8
1
  6
CONTINUOUS
 62
40
 10
4.6816E+002
 20
3.70834E+002
 40
3.0
 50
0.0
 51
9.0E+001
  0
DIMENSION
  8
1
  6
CONTINUOUS
 62
1
  2
*D98
  3
DSTYLE1
 10
7.9492E+001
 20
3.83438E+002
 11
1.54245E+002
 21
3.86439E+002
 70
128
 13
2.32492E+002
 23
3.63034E+002
 14
7.9492E+001
 24
3.63034E+002
 40
3.0
 50
0.0
  0
LINE
  8
1
  6
CONTINUOUS
 62
40
 10
3.30324E+002
 20
2.85534E+002
 11
3.33324E+002
 21
2.85534E+002
  0
LINE
  8
1
  6
CONTINUOUS
 62
40
 10
3.30324E+002
 20
3.30534E+002
 11
3.33324E+002
 21
3.30534E+002
  0
LINE
  8
1
  6
CONTINUOUS
 62
40
 10
3.33324E+002
 20
3.30534E+002
 11
3.33324E+002
 21
3.3083785E+002
  0
LINE
  8
1
  6
CONTINUOUS
 62
40
 10
5.1316E+002
 20
3.27734E+002
 11
5.4066E+002
 21
3.27734E+002
  0
LINE
  8
1
  6
CONTINUOUS
 62
40
 10
5.1316E+002
 20
2.88334E+002
 11
5.4066E+002
 21
2.88334E+002
  0
LINE
  8
1
  6
CONTINUOUS
 62
40
 10
4.6716E+002
 20
3.06034E+002
 11
4.6716E+002
 21
3.10034E+002
  0
LINE
  8
1
  6
CONTINUOUS
 62
40
 10
4.6116E+002
 20
3.06034E+002
 11
4.6116E+002
 21
3.10034E+002
  0
LINE
  8
1
  6
CONTINUOUS
 62
40
 10
4.6216E+002
 20
3.05034E+002
 11
4.6616E+002
 21
3.05034E+002
  0
LINE
  8
1
  6
CONTINUOUS
 62
40
 10
4.6216E+002
 20
3.11034E+002
 11
4.6616E+002
 21
3.11034E+002
  0
ARC
  8
1
  6
CONTINUOUS
 62
40
 10
4.6616E+002
 20
3.10034E+002
 40
1.0
 50
0.0
 51
9.0E+001
  0
ARC
  8
1
  6
CONTINUOUS
 62
40
 10
4.6216E+002
 20
3.10034E+002
 40
1.0
 50
9.0E+001
 51
1.8E+002
  0
ARC
  8
1
  6
CONTINUOUS
 62
40
 10
4.6216E+002
 20
3.06034E+002
 40
1.0
 50
1.8E+002
 51
2.7E+002
  0
ARC
  8
1
  6
CONTINUOUS
 62
40
 10
4.6616E+002
 20
3.06034E+002
 40
1.0
 50
2.7E+002
 51
3.6E+002
  0
CIRCLE
  8
1
  6
CONTINUOUS
 62
40
 10
4.6416E+002
 20
3.08034E+002
 40
6.0
  0
LINE
  8
1
  6
CONTINUOUS
 62
40
 10
2.65324E+002
 20
2.99534E+002
 11
2.65324E+002
 21
2.95034E+002
  0
LINE
  8
1
  6
CONTINUOUS
 62
40
 10
2.65324E+002
 20
2.95034E+002
 11
2.75324E+002
 21
2.95034E+002
  0
LINE
  8
1
  6
CONTINUOUS
 62
40
 10
4.4166E+002
 20
3.4079192E+002
 11
4.4166E+002
 21
3.63034E+002
  0
LINE
  8
1
  6
CONTINUOUS
 62
40
 10
4.8666E+002
 20
3.4079192E+002
 11
4.8666E+002
 21
3.63034E+002
  0
LINE
  8
1
  6
CONTINUOUS
 62
40
 10
4.1516E+002
 20
1.16509E+002
 11
5.1316E+002
 21
1.16509E+002
  0
ARC
  8
1
  6
CONTINUOUS
 62
40
 10
4.8289833E+002
 20
3.2677233E+002
 40
2.5
 50
1.35E+002
 51
3.15E+002
  0
LINE
  8
1
  6
CONTINUOUS
 62
40
 10
3.37824E+002
 20
2.42234E+002
 11
3.37824E+002
 21
2.53034E+002
  0
LINE
  8
1
  6
CONTINUOUS
 62
40
 10
3.30324E+002
 20
2.90334E+002
 11
3.36824E+002
 21
2.90334E+002
  0
LINE
  8
1
  6
CONTINUOUS
 62
40
 10
3.30324E+002
 20
3.25734E+002
 11
3.36824E+002
 21
3.25734E+002
  0
LINE
  8
1
  6
CONTINUOUS
 62
40
 10
3.30324E+002
 20
2.70234E+002
 11
3.33324E+002
 21
2.70234E+002
  0
LINE
  8
1
  6
CONTINUOUS
 62
40
 10
3.30324E+002
 20
3.45834E+002
 11
3.37824E+002
 21
3.45834E+002
  0
LINE
  8
1
  6
CONTINUOUS
 62
40
 10
2.88824E+002
 20
2.53034E+002
 11
3.36824E+002
 21
2.53034E+002
  0
LINE
  8
1
  6
CONTINUOUS
 62
40
 10
2.88824E+002
 20
3.63034E+002
 11
3.36824E+002
 21
3.63034E+002
  0
LINE
  8
1
  6
CONTINUOUS
 62
40
 10
3.03274E+002
 20
2.44534E+002
 11
3.20494E+002
 21
2.44534E+002
  0
LINE
  8
1
  6
CONTINUOUS
 62
40
 10
3.03274E+002
 20
3.71534E+002
 11
3.20494E+002
 21
3.71534E+002
  0
LINE
  8
1
  6
CONTINUOUS
 62
40
 10
4.1516E+002
 20
1.30909E+002
 11
4.1516E+002
 21
1.16509E+002
  0
LINE
  8
1
  6
CONTINUOUS
 62
40
 10
2.85824E+002
 20
2.56034E+002
 11
2.85824E+002
 21
2.85534E+002
  0
LINE
  8
1
  6
CONTINUOUS
 62
40
 10
2.77824E+002
 20
2.87534E+002
 11
2.77824E+002
 21
3.28534E+002
  0
LINE
  8
1
  6
CONTINUOUS
 62
40
 10
3.37824E+002
 20
3.45834E+002
 11
3.37824E+002
 21
3.73834E+002
  0
LINE
  8
1
  6
CONTINUOUS
 62
40
 10
2.79824E+002
 20
2.85534E+002
 11
2.85824E+002
 21
2.85534E+002
  0
LINE
  8
1
  6
CONTINUOUS
 62
40
 10
2.79824E+002
 20
3.30534E+002
 11
2.85824E+002
 21
3.30534E+002
  0
LINE
  8
1
  6
CONTINUOUS
 62
40
 10
2.85824E+002
 20
3.30534E+002
 11
2.85824E+002
 21
3.60034E+002
  0
LINE
  8
1
  6
CONTINUOUS
 62
40
 10
3.21904E+002
 20
3.70954E+002
 11
3.29824E+002
 21
3.63034E+002
  0
LINE
  8
1
  6
CONTINUOUS
 62
40
 10
3.21904E+002
 20
2.45124E+002
 11
3.29824E+002
 21
2.53034E+002
  0
ARC
  8
1
  6
CONTINUOUS
 62
40
 10
2.79824E+002
 20
3.28534E+002
 40
2.0
 50
9.0E+001
 51
1.8E+002
  0
ARC
  8
1
  6
CONTINUOUS
 62
40
 10
2.79824E+002
 20
2.87534E+002
 40
2.0
 50
1.8E+002
 51
2.7E+002
  0
ARC
  8
1
  6
CONTINUOUS
 62
40
 10
2.88824E+002
 20
3.60034E+002
 40
3.0
 50
9.0E+001
 51
1.8E+002
  0
ARC
  8
1
  6
CONTINUOUS
 62
40
 10
2.88824E+002
 20
2.56034E+002
 40
3.0
 50
1.8E+002
 51
2.7E+002
  0
LINE
  8
1
  6
CONTINUOUS
 62
40
 10
2.87324E+002
 20
2.53434E+002
 11
3.02274E+002
 21
2.44804E+002
  0
LINE
  8
1
  6
CONTINUOUS
 62
40
 10
2.87324E+002
 20
3.62634E+002
 11
3.02274E+002
 21
3.71264E+002
  0
ARC
  8
1
  6
CONTINUOUS
 62
40
 10
3.03274E+002
 20
3.69534E+002
 40
2.0
 50
9.0E+001
 51
1.2E+002
  0
ARC
  8
1
  6
CONTINUOUS
 62
40
 10
3.20494E+002
 20
3.69534E+002
 40
2.0
 50
4.5E+001
 51
9.0E+001
  0
ARC
  8
1
  6
CONTINUOUS
 62
40
 10
3.03274E+002
 20
2.46534E+002
 40
2.0
 50
2.4E+002
 51
2.7E+002
  0
ARC
  8
1
  6
CONTINUOUS
 62
40
 10
3.20494E+002
 20
2.46534E+002
 40
2.0
 50
2.7E+002
 51
3.15E+002
  0
LINE
  8
1
  6
CONTINUOUS
 62
40
 10
3.36824E+002
 20
2.88334E+002
 11
3.36824E+002
 21
2.90334E+002
  0
LINE
  8
1
  6
CONTINUOUS
 62
40
 10
3.30324E+002
 20
3.2888038E+002
 11
3.36824E+002
 21
3.27734E+002
  0
LINE
  8
1
  6
CONTINUOUS
 62
40
 10
3.30324E+002
 20
2.8718762E+002
 11
3.36824E+002
 21
2.88334E+002
  0
LINE
  8
1
  6
CONTINUOUS
 62
40
 10
3.36824E+002
 20
3.25734E+002
 11
3.36824E+002
 21
3.27734E+002
  0
ARC
  8
1
  6
CONTINUOUS
 62
40
 10
4.8395899E+002
 20
3.2783299E+002
 40
2.5
 50
3.15E+002
 51
4.95E+002
  0
LINE
  8
1
  6
CONTINUOUS
 62
40
 10
5.1316E+002
 20
1.30909E+002
 11
5.1316E+002
 21
1.16509E+002
  0
LINE
  8
1
  6
CONTINUOUS
 62
40
 10
3.30324E+002
 20
3.2888038E+002
 11
3.30324E+002
 21
3.45834E+002
  0
LINE
  8
1
  6
CONTINUOUS
 62
40
 10
3.30324E+002
 20
2.90334E+002
 11
3.30324E+002
 21
3.25734E+002
  0
LINE
  8
1
  6
CONTINUOUS
 62
40
 10
4.8666E+002
 20
1.30909E+002
 11
5.1366E+002
 21
1.30909E+002
  0
LINE
  8
1
  6
CONTINUOUS
 62
40
 10
4.8666E+002
 20
1.30909E+002
 11
4.8666E+002
 21
1.90909E+002
  0
LINE
  8
1
  6
CONTINUOUS
 62
40
 10
4.4166E+002
 20
1.30909E+002
 11
4.4166E+002
 21
1.90909E+002
  0
LINE
  8
1
  6
CONTINUOUS
 62
40
 10
5.1366E+002
 20
1.30909E+002
 11
5.1366E+002
 21
1.90909E+002
  0
LINE
  8
1
  6
CONTINUOUS
 62
40
 10
4.1466E+002
 20
1.30909E+002
 11
4.1466E+002
 21
1.90909E+002
  0
LINE
  8
1
  6
CONTINUOUS
 62
40
 10
5.4066E+002
 20
1.30909E+002
 11
5.4066E+002
 21
1.90909E+002
  0
LINE
  8
1
  6
CONTINUOUS
 62
40
 10
4.8666E+002
 20
1.90909E+002
 11
5.1366E+002
 21
1.90909E+002
  0
LINE
  8
1
  6
CONTINUOUS
 62
40
 10
4.8666E+002
 20
1.82909E+002
 11
5.1366E+002
 21
1.82909E+002
  0
LINE
  8
1
  6
CONTINUOUS
 62
40
 10
5.0966E+002
 20
1.38909E+002
 11
5.1166E+002
 21
1.38909E+002
  0
LINE
  8
1
  6
CONTINUOUS
 62
40
 10
5.1166E+002
 20
1.38909E+002
 11
5.1166E+002
 21
1.82909E+002
  0
LINE
  8
1
  6
CONTINUOUS
 62
40
 10
5.0966E+002
 20
1.38909E+002
 11
5.0966E+002
 21
1.82909E+002
  0
LINE
  8
1
  6
CONTINUOUS
 62
40
 10
4.8866E+002
 20
1.38909E+002
 11
4.8866E+002
 21
1.82909E+002
  0
LINE
  8
1
  6
CONTINUOUS
 62
40
 10
4.9066E+002
 20
1.38909E+002
 11
4.9066E+002
 21
1.82909E+002
  0
LINE
  8
1
  6
CONTINUOUS
 62
40
 10
4.3966E+002
 20
1.38909E+002
 11
4.3966E+002
 21
1.82909E+002
  0
LINE
  8
1
  6
CONTINUOUS
 62
40
 10
4.3766E+002
 20
1.38909E+002
 11
4.3766E+002
 21
1.82909E+002
  0
LINE
  8
1
  6
CONTINUOUS
 62
40
 10
4.1666E+002
 20
1.38909E+002
 11
4.1666E+002
 21
1.82909E+002
  0
LINE
  8
1
  6
CONTINUOUS
 62
40
 10
4.1866E+002
 20
1.38909E+002
 11
4.1866E+002
 21
1.82909E+002
  0
LINE
  8
1
  6
CONTINUOUS
 62
40
 10
5.1566E+002
 20
1.38909E+002
 11
5.1566E+002
 21
1.82909E+002
  0
LINE
  8
1
  6
CONTINUOUS
 62
40
 10
5.1766E+002
 20
1.38909E+002
 11
5.1766E+002
 21
1.82909E+002
  0
LINE
  8
1
  6
CONTINUOUS
 62
40
 10
5.3866E+002
 20
1.38909E+002
 11
5.3866E+002
 21
1.82909E+002
  0
LINE
  8
1
  6
CONTINUOUS
 62
40
 10
5.3666E+002
 20
1.38909E+002
 11
5.3666E+002
 21
1.82909E+002
  0
LINE
  8
1
  6
CONTINUOUS
 62
40
 10
4.8866E+002
 20
1.38909E+002
 11
4.9066E+002
 21
1.38909E+002
  0
LINE
  8
1
  6
CONTINUOUS
 62
40
 10
4.3766E+002
 20
1.38909E+002
 11
4.3966E+002
 21
1.38909E+002
  0
LINE
  8
1
  6
CONTINUOUS
 62
40
 10
4.1666E+002
 20
1.38909E+002
 11
4.1866E+002
 21
1.38909E+002
  0
LINE
  8
1
  6
CONTINUOUS
 62
40
 10
5.3666E+002
 20
1.38909E+002
 11
5.3866E+002
 21
1.38909E+002
  0
LINE
  8
1
  6
CONTINUOUS
 62
40
 10
5.1566E+002
 20
1.38909E+002
 11
5.1766E+002
 21
1.38909E+002
  0
LINE
  8
1
  6
CONTINUOUS
 62
40
 10
4.7116E+002
 20
1.30909E+002
 11
4.7116E+002
 21
1.35909E+002
  0
LINE
  8
1
  6
CONTINUOUS
 62
40
 10
4.5716E+002
 20
1.30909E+002
 11
4.5716E+002
 21
1.35909E+002
  0
LINE
  8
1
  6
CONTINUOUS
 62
40
 10
4.5716E+002
 20
1.35909E+002
 11
4.7116E+002
 21
1.35909E+002
  0
LINE
  8
1
  6
CONTINUOUS
 62
40
 10
4.9466E+002
 20
1.61209E+002
 11
5.0566E+002
 21
1.61209E+002
  0
LINE
  8
1
  6
CONTINUOUS
 62
40
 10
5.0766E+002
 20
1.46909E+002
 11
5.0766E+002
 21
1.59209E+002
  0
LINE
  8
1
  6
CONTINUOUS
 62
40
 10
4.9266E+002
 20
1.46909E+002
 11
4.9266E+002
 21
1.59209E+002
  0
LINE
  8
1
  6
CONTINUOUS
 62
40
 10
4.3566E+002
 20
1.46909E+002
 11
4.3566E+002
 21
1.59209E+002
  0
LINE
  8
1
  6
CONTINUOUS
 62
40
 10
4.2066E+002
 20
1.46909E+002
 11
4.2066E+002
 21
1.59209E+002
  0
LINE
  8
1
  6
CONTINUOUS
 62
40
 10
5.1966E+002
 20
1.46909E+002
 11
5.1966E+002
 21
1.59209E+002
  0
LINE
  8
1
  6
CONTINUOUS
 62
40
 10
5.3466E+002
 20
1.46909E+002
 11
5.3466E+002
 21
1.59209E+002
  0
LINE
  8
1
  6
CONTINUOUS
 62
40
 10
4.2266E+002
 20
1.61209E+002
 11
4.3366E+002
 21
1.61209E+002
  0
LINE
  8
1
  6
CONTINUOUS
 62
40
 10
5.2166E+002
 20
1.61209E+002
 11
5.3266E+002
 21
1.61209E+002
  0
LINE
  8
1
  6
CONTINUOUS
 62
40
 10
4.9466E+002
 20
1.44909E+002
 11
5.0566E+002
 21
1.44909E+002
  0
LINE
  8
1
  6
CONTINUOUS
 62
40
 10
4.2266E+002
 20
1.44909E+002
 11
4.3366E+002
 21
1.44909E+002
  0
LINE
  8
1
  6
CONTINUOUS
 62
40
 10
5.2166E+002
 20
1.44909E+002
 11
5.3266E+002
 21
1.44909E+002
  0
ARC
  8
1
  6
CONTINUOUS
 62
40
 10
5.0566E+002
 20
1.46909E+002
 40
2.0
 50
2.7E+002
 51
3.6E+002
  0
ARC
  8
1
  6
CONTINUOUS
 62
40
 10
4.9466E+002
 20
1.46909E+002
 40
2.0
 50
1.8E+002
 51
2.7E+002
  0
ARC
  8
1
  6
CONTINUOUS
 62
40
 10
4.9466E+002
 20
1.59209E+002
 40
2.0
 50
9.0E+001
 51
1.8E+002
  0
ARC
  8
1
  6
CONTINUOUS
 62
40
 10
5.0566E+002
 20
1.59209E+002
 40
2.0
 50
0.0
 51
9.0E+001
  0
ARC
  8
1
  6
CONTINUOUS
 62
40
 10
4.3366E+002
 20
1.59209E+002
 40
2.0
 50
0.0
 51
9.0E+001
  0
ARC
  8
1
  6
CONTINUOUS
 62
40
 10
4.3366E+002
 20
1.46909E+002
 40
2.0
 50
2.7E+002
 51
3.6E+002
  0
ARC
  8
1
  6
CONTINUOUS
 62
40
 10
4.2266E+002
 20
1.46909E+002
 40
2.0
 50
1.8E+002
 51
2.7E+002
  0
ARC
  8
1
  6
CONTINUOUS
 62
40
 10
4.2266E+002
 20
1.59209E+002
 40
2.0
 50
9.0E+001
 51
1.8E+002
  0
ARC
  8
1
  6
CONTINUOUS
 62
40
 10
5.2166E+002
 20
1.59209E+002
 40
2.0
 50
9.0E+001
 51
1.8E+002
  0
ARC
  8
1
  6
CONTINUOUS
 62
40
 10
5.3266E+002
 20
1.59209E+002
 40
2.0
 50
0.0
 51
9.0E+001
  0
ARC
  8
1
  6
CONTINUOUS
 62
40
 10
5.3266E+002
 20
1.46909E+002
 40
2.0
 50
2.7E+002
 51
3.6E+002
  0
ARC
  8
1
  6
CONTINUOUS
 62
40
 10
5.2166E+002
 20
1.46909E+002
 40
2.0
 50
1.8E+002
 51
2.7E+002
  0
LINE
  8
1
  6
CONTINUOUS
 62
40
 10
4.9416E+002
 20
1.59909E+002
 11
5.0616E+002
 21
1.59909E+002
  0
LINE
  8
1
  6
CONTINUOUS
 62
40
 10
5.0616E+002
 20
1.59909E+002
 11
5.0616E+002
 21
1.61149E+002
  0
LINE
  8
1
  6
CONTINUOUS
 62
40
 10
4.9416E+002
 20
1.59909E+002
 11
4.9416E+002
 21
1.61149E+002
  0
LINE
  8
1
  6
CONTINUOUS
 62
40
 10
4.3416E+002
 20
1.59909E+002
 11
4.3416E+002
 21
1.61149E+002
  0
LINE
  8
1
  6
CONTINUOUS
 62
40
 10
4.2216E+002
 20
1.59909E+002
 11
4.2216E+002
 21
1.61149E+002
  0
LINE
  8
1
  6
CONTINUOUS
 62
40
 10
5.2116E+002
 20
1.59909E+002
 11
5.2116E+002
 21
1.61149E+002
  0
LINE
  8
1
  6
CONTINUOUS
 62
40
 10
5.3316E+002
 20
1.59909E+002
 11
5.3316E+002
 21
1.61149E+002
  0
LINE
  8
1
  6
CONTINUOUS
 62
40
 10
4.2216E+002
 20
1.59909E+002
 11
4.3416E+002
 21
1.59909E+002
  0
LINE
  8
1
  6
CONTINUOUS
 62
40
 10
5.2116E+002
 20
1.59909E+002
 11
5.3316E+002
 21
1.59909E+002
  0
CIRCLE
  8
1
  6
CONTINUOUS
 62
40
 10
3.07524E+002
 20
3.08034E+002
 40
1.37E+001
  0
LINE
  8
1
  6
CONTINUOUS
 62
40
 10
4.8966056E+002
 20
1.30909E+002
 11
4.8966056E+002
 21
1.16509E+002
  0
LINE
  8
1
  6
CONTINUOUS
 62
40
 10
3.34984E+002
 20
2.74234E+002
 11
3.37824E+002
 21
2.74234E+002
  0
LINE
  8
1
  6
CONTINUOUS
 62
40
 10
3.33524E+002
 20
2.70234E+002
 11
3.34984E+002
 21
2.74234E+002
  0
ARC
  8
1
  6
CONTINUOUS
 62
40
 10
3.07524E+002
 20
3.08034E+002
 40
8.0
 50
9.349E+001
 51
1.7321E+002
  0
ARC
  8
1
  6
CONTINUOUS
 62
40
 10
3.00054E+002
 20
3.10904E+002
 40
3.5
 50
1.59E+002
 51
3.39E+002
  0
ARC
  8
1
  6
CONTINUOUS
 62
40
 10
3.04654E+002
 20
3.15504E+002
 40
3.5
 50
2.91E+002
 51
4.71E+002
  0
ARC
  8
1
  6
CONTINUOUS
 62
40
 10
3.10394E+002
 20
3.00564E+002
 40
3.5
 50
1.11E+002
 51
2.91E+002
  0
ARC
  8
1
  6
CONTINUOUS
 62
40
 10
3.14994E+002
 20
3.05174E+002
 40
3.5
 50
3.39E+002
 51
5.19E+002
  0
ARC
  8
1
  6
CONTINUOUS
 62
40
 10
3.07524E+002
 20
3.08034E+002
 40
4.5
 50
1.11E+002
 51
1.59E+002
  0
ARC
  8
1
  6
CONTINUOUS
 62
40
 10
3.07524E+002
 20
3.08034E+002
 40
1.15E+001
 50
1.11E+002
 51
1.59E+002
  0
ARC
  8
1
  6
CONTINUOUS
 62
40
 10
3.07524E+002
 20
3.08034E+002
 40
1.15E+001
 50
2.91E+002
 51
3.39E+002
  0
ARC
  8
1
  6
CONTINUOUS
 62
40
 10
3.07524E+002
 20
3.08034E+002
 40
4.5
 50
2.91E+002
 51
3.39E+002
  0
ARC
  8
1
  6
CONTINUOUS
 62
40
 10
3.07524E+002
 20
3.08034E+002
 40
8.0
 50
2.7719E+002
 51
3.5402E+002
  0
LINE
  8
1
  6
CONTINUOUS
 62
40
 10
3.37824E+002
 20
2.42234E+002
 11
3.37824E+002
 21
2.74234E+002
  0
ARC
  8
1
  6
CONTINUOUS
 62
40
 10
3.36824E+002
 20
2.54034E+002
 40
1.0
 50
2.7E+002
 51
3.6E+002
  0
ARC
  8
1
  6
CONTINUOUS
 62
40
 10
3.36824E+002
 20
3.62034E+002
 40
1.0
 50
0.0
 51
9.0E+001
  0
LINE
  8
1
  6
CONTINUOUS
 62
40
 10
4.8219122E+002
 20
3.2960076E+002
 11
4.8113056E+002
 21
3.285401E+002
  0
LINE
  8
1
  6
CONTINUOUS
 62
40
 10
4.846661E+002
 20
3.2500456E+002
 11
4.8572676E+002
 21
3.2606522E+002
  0
ARC
  8
1
  6
CONTINUOUS
 62
40
 10
4.6416E+002
 20
3.34534E+002
 40
2.5
 50
1.8E+002
 51
3.6E+002
  0
ARC
  8
1
  6
CONTINUOUS
 62
40
 10
4.4542167E+002
 20
3.2677233E+002
 40
2.5
 50
2.25E+002
 51
4.05E+002
  0
ARC
  8
1
  6
CONTINUOUS
 62
40
 10
4.3766E+002
 20
3.08034E+002
 40
2.5
 50
2.7E+002
 51
4.5E+002
  0
ARC
  8
1
  6
CONTINUOUS
 62
40
 10
4.4542167E+002
 20
2.8929567E+002
 40
2.5
 50
3.15E+002
 51
4.95E+002
  0
ARC
  8
1
  6
CONTINUOUS
 62
40
 10
4.6416E+002
 20
2.81534E+002
 40
2.5
 50
0.0
 51
1.8E+002
  0
ARC
  8
1
  6
CONTINUOUS
 62
40
 10
4.8289833E+002
 20
2.8929567E+002
 40
2.5
 50
4.5E+001
 51
2.25E+002
  0
ARC
  8
1
  6
CONTINUOUS
 62
40
 10
4.9066E+002
 20
3.08034E+002
 40
2.5
 50
9.0E+001
 51
2.7E+002
  0
ARC
  8
1
  6
CONTINUOUS
 62
40
 10
4.6416E+002
 20
3.36034E+002
 40
2.5
 50
0.0
 51
1.8E+002
  0
ARC
  8
1
  6
CONTINUOUS
 62
40
 10
4.4436101E+002
 20
3.2783299E+002
 40
2.5
 50
4.5E+001
 51
2.25E+002
  0
ARC
  8
1
  6
CONTINUOUS
 62
40
 10
4.3616E+002
 20
3.08034E+002
 40
2.5
 50
9.0E+001
 51
2.7E+002
  0
ARC
  8
1
  6
CONTINUOUS
 62
40
 10
4.4436101E+002
 20
2.8823501E+002
 40
2.5
 50
1.35E+002
 51
3.15E+002
  0
ARC
  8
1
  6
CONTINUOUS
 62
40
 10
4.6416E+002
 20
2.80034E+002
 40
2.5
 50
1.8E+002
 51
3.6E+002
  0
ARC
  8
1
  6
CONTINUOUS
 62
40
 10
4.8395899E+002
 20
2.8823501E+002
 40
2.5
 50
2.25E+002
 51
4.05E+002
  0
ARC
  8
1
  6
CONTINUOUS
 62
40
 10
4.9216E+002
 20
3.08034E+002
 40
2.5
 50
2.7E+002
 51
4.5E+002
  0
LINE
  8
1
  6
CONTINUOUS
 62
40
 10
4.6166E+002
 20
3.36034E+002
 11
4.6166E+002
 21
3.34534E+002
  0
LINE
  8
1
  6
CONTINUOUS
 62
40
 10
4.4259324E+002
 20
3.2606522E+002
 11
4.436539E+002
 21
3.2500456E+002
  0
LINE
  8
1
  6
CONTINUOUS
 62
40
 10
4.3616E+002
 20
3.05534E+002
 11
4.3766E+002
 21
3.05534E+002
  0
LINE
  8
1
  6
CONTINUOUS
 62
40
 10
4.4612878E+002
 20
2.8646724E+002
 11
4.4718944E+002
 21
2.875279E+002
  0
LINE
  8
1
  6
CONTINUOUS
 62
40
 10
4.6666E+002
 20
2.80034E+002
 11
4.6666E+002
 21
2.81534E+002
  0
LINE
  8
1
  6
CONTINUOUS
 62
40
 10
4.8572676E+002
 20
2.9000278E+002
 11
4.846661E+002
 21
2.9106344E+002
  0
LINE
  8
1
  6
CONTINUOUS
 62
40
 10
4.9216E+002
 20
3.10534E+002
 11
4.9066E+002
 21
3.10534E+002
  0
LINE
  8
1
  6
CONTINUOUS
 62
40
 10
4.6666E+002
 20
3.34534E+002
 11
4.6666E+002
 21
3.36034E+002
  0
LINE
  8
1
  6
CONTINUOUS
 62
40
 10
4.4718944E+002
 20
3.285401E+002
 11
4.4612878E+002
 21
3.2960076E+002
  0
LINE
  8
1
  6
CONTINUOUS
 62
40
 10
4.3766E+002
 20
3.10534E+002
 11
4.3616E+002
 21
3.10534E+002
  0
LINE
  8
1
  6
CONTINUOUS
 62
40
 10
4.436539E+002
 20
2.9106344E+002
 11
4.4259324E+002
 21
2.9000278E+002
  0
LINE
  8
1
  6
CONTINUOUS
 62
40
 10
4.6166E+002
 20
2.81534E+002
 11
4.6166E+002
 21
2.80034E+002
  0
LINE
  8
1
  6
CONTINUOUS
 62
40
 10
4.8113056E+002
 20
2.875279E+002
 11
4.8219122E+002
 21
2.8646724E+002
  0
LINE
  8
1
  6
CONTINUOUS
 62
40
 10
4.9066E+002
 20
3.05534E+002
 11
4.9216E+002
 21
3.05534E+002
  0
LINE
  8
1
  6
CONTINUOUS
 62
40
 10
3.8766E+002
 20
2.53034E+002
 11
3.8766E+002
 21
3.63034E+002
  0
LINE
  8
1
  6
CONTINUOUS
 62
40
 10
4.1266E+002
 20
2.44534E+002
 11
4.1266E+002
 21
2.53034E+002
  0
LINE
  8
1
  6
CONTINUOUS
 62
40
 10
3.8966E+002
 20
2.44534E+002
 11
3.8966E+002
 21
2.53034E+002
  0
LINE
  8
1
  6
CONTINUOUS
 62
40
 10
4.1066E+002
 20
2.44534E+002
 11
4.1066E+002
 21
2.53034E+002
  0
LINE
  8
1
  6
CONTINUOUS
 62
40
 10
3.9166E+002
 20
2.44534E+002
 11
3.9166E+002
 21
2.53034E+002
  0
LINE
  8
1
  6
CONTINUOUS
 62
40
 10
4.1266E+002
 20
3.63034E+002
 11
4.1266E+002
 21
3.71534E+002
  0
LINE
  8
1
  6
CONTINUOUS
 62
40
 10
4.1066E+002
 20
3.63034E+002
 11
4.1066E+002
 21
3.71534E+002
  0
LINE
  8
1
  6
CONTINUOUS
 62
40
 10
3.9166E+002
 20
3.63034E+002
 11
3.9166E+002
 21
3.71534E+002
  0
LINE
  8
1
  6
CONTINUOUS
 62
40
 10
3.8966E+002
 20
3.63034E+002
 11
3.8966E+002
 21
3.71534E+002
  0
LINE
  8
1
  6
CONTINUOUS
 62
40
 10
4.1266E+002
 20
3.71534E+002
 11
4.1066E+002
 21
3.71534E+002
  0
LINE
  8
1
  6
CONTINUOUS
 62
40
 10
3.9166E+002
 20
3.71534E+002
 11
3.8966E+002
 21
3.71534E+002
  0
LINE
  8
1
  6
CONTINUOUS
 62
40
 10
4.1266E+002
 20
2.44534E+002
 11
4.1066E+002
 21
2.44534E+002
  0
LINE
  8
1
  6
CONTINUOUS
 62
40
 10
3.9166E+002
 20
2.44534E+002
 11
3.8966E+002
 21
2.44534E+002
  0
LINE
  8
1
  6
CONTINUOUS
 62
40
 10
4.1516E+002
 20
3.27734E+002
 11
3.8766E+002
 21
3.27734E+002
  0
LINE
  8
1
  6
CONTINUOUS
 62
40
 10
4.1516E+002
 20
2.88334E+002
 11
3.8766E+002
 21
2.88334E+002
  0
LINE
  8
1
  6
CONTINUOUS
 62
40
 10
4.1066E+002
 20
2.48034E+002
 11
3.9166E+002
 21
2.48034E+002
  0
LINE
  8
1
  6
CONTINUOUS
 62
40
 10
4.1066E+002
 20
3.68034E+002
 11
3.9166E+002
 21
3.68034E+002
  0
LINE
  8
1
  6
CONTINUOUS
 62
40
 10
3.8766E+002
 20
3.25734E+002
 11
4.1516E+002
 21
3.25734E+002
  0
LINE
  8
1
  6
CONTINUOUS
 62
40
 10
3.8766E+002
 20
2.90334E+002
 11
4.1516E+002
 21
2.90334E+002
  0
LINE
  8
1
  6
CONTINUOUS
 62
40
 10
3.8766E+002
 20
2.74234E+002
 11
4.1466E+002
 21
2.74234E+002
  0
LINE
  8
1
  6
CONTINUOUS
 62
40
 10
2.32492E+002
 20
2.53034E+002
 11
2.32492E+002
 21
3.63034E+002
  0
LINE
  8
1
  6
CONTINUOUS
 62
40
 10
2.07492E+002
 20
2.44534E+002
 11
2.07492E+002
 21
2.53034E+002
  0
LINE
  8
1
  6
CONTINUOUS
 62
40
 10
2.30492E+002
 20
2.44534E+002
 11
2.30492E+002
 21
2.53034E+002
  0
LINE
  8
1
  6
CONTINUOUS
 62
40
 10
2.09492E+002
 20
2.44534E+002
 11
2.09492E+002
 21
2.53034E+002
  0
LINE
  8
1
  6
CONTINUOUS
 62
40
 10
2.28492E+002
 20
2.44534E+002
 11
2.28492E+002
 21
2.53034E+002
  0
LINE
  8
1
  6
CONTINUOUS
 62
40
 10
2.07492E+002
 20
3.63034E+002
 11
2.07492E+002
 21
3.71534E+002
  0
LINE
  8
1
  6
CONTINUOUS
 62
40
 10
2.09492E+002
 20
3.63034E+002
 11
2.09492E+002
 21
3.71534E+002
  0
LINE
  8
1
  6
CONTINUOUS
 62
40
 10
2.28492E+002
 20
3.63034E+002
 11
2.28492E+002
 21
3.71534E+002
  0
LINE
  8
1
  6
CONTINUOUS
 62
40
 10
3.32324E+002
 20
3.00034E+002
 11
3.32324E+002
 21
3.16034E+002
  0
LINE
  8
1
  6
CONTINUOUS
 62
40
 10
3.30324E+002
 20
3.00034E+002
 11
3.32324E+002
 21
3.00034E+002
  0
LINE
  8
1
  6
CONTINUOUS
 62
40
 10
3.30324E+002
 20
3.16034E+002
 11
3.32324E+002
 21
3.16034E+002
  0
LINE
  8
1
  6
CONTINUOUS
 62
40
 10
4.3865944E+002
 20
1.16509E+002
 11
4.3865944E+002
 21
1.30909E+002
  0
LINE
  8
1
  6
CONTINUOUS
 62
40
 10
4.5816E+002
 20
1.90909E+002
 11
4.5816E+002
 21
1.91409E+002
  0
LINE
  8
1
  6
CONTINUOUS
 62
40
 10
4.7016E+002
 20
1.90909E+002
 11
4.7016E+002
 21
1.91409E+002
  0
LINE
  8
1
  6
CONTINUOUS
 62
40
 10
2.30492E+002
 20
3.63034E+002
 11
2.30492E+002
 21
3.71534E+002
  0
LINE
  8
1
  6
CONTINUOUS
 62
40
 10
2.07492E+002
 20
3.71534E+002
 11
2.09492E+002
 21
3.71534E+002
  0
LINE
  8
1
  6
CONTINUOUS
 62
40
 10
2.28492E+002
 20
3.71534E+002
 11
2.30492E+002
 21
3.71534E+002
  0
LINE
  8
1
  6
CONTINUOUS
 62
40
 10
2.07492E+002
 20
2.44534E+002
 11
2.09492E+002
 21
2.44534E+002
  0
LINE
  8
1
  6
CONTINUOUS
 62
40
 10
4.9066E+002
 20
1.63209E+002
 11
5.0966E+002
 21
1.63209E+002
  0
LINE
  8
1
  6
CONTINUOUS
 62
40
 10
4.9066E+002
 20
1.65209E+002
 11
5.0966E+002
 21
1.65209E+002
  0
LINE
  8
1
  6
CONTINUOUS
 62
40
 10
5.1766E+002
 20
1.65209E+002
 11
5.3666E+002
 21
1.65209E+002
  0
LINE
  8
1
  6
CONTINUOUS
 62
40
 10
5.1766E+002
 20
1.63209E+002
 11
5.3666E+002
 21
1.63209E+002
  0
LINE
  8
1
  6
CONTINUOUS
 62
40
 10
4.1866E+002
 20
1.65209E+002
 11
4.3766E+002
 21
1.65209E+002
  0
LINE
  8
1
  6
CONTINUOUS
 62
40
 10
4.1866E+002
 20
1.63209E+002
 11
4.3766E+002
 21
1.63209E+002
  0
LINE
  8
1
  6
CONTINUOUS
 62
40
 10
4.1866E+002
 20
3.68034E+002
 11
4.3766E+002
 21
3.68034E+002
  0
LINE
  8
1
  6
CONTINUOUS
 62
40
 10
4.1866E+002
 20
2.48034E+002
 11
4.3766E+002
 21
2.48034E+002
  0
LINE
  8
1
  6
CONTINUOUS
 62
40
 10
5.1766E+002
 20
2.48034E+002
 11
5.3666E+002
 21
2.48034E+002
  0
LINE
  8
1
  6
CONTINUOUS
 62
40
 10
4.9066E+002
 20
2.48034E+002
 11
5.0966E+002
 21
2.48034E+002
  0
LINE
  8
1
  6
CONTINUOUS
 62
40
 10
5.1766E+002
 20
3.68034E+002
 11
5.3666E+002
 21
3.68034E+002
  0
LINE
  8
1
  6
CONTINUOUS
 62
40
 10
4.9066E+002
 20
3.68034E+002
 11
5.0966E+002
 21
3.68034E+002
  0
ARC
  8
1
  6
CONTINUOUS
 62
40
 10
4.6416E+002
 20
3.67534E+002
 40
2.5
 50
2.7E+002
 51
3.3642E+002
  0
ARC
  8
1
  6
CONTINUOUS
 62
40
 10
4.6416E+002
 20
2.48534E+002
 40
2.5
 50
2.7E+002
 51
3.3642E+002
  0
LINE
  8
1
  6
CONTINUOUS
 62
40
 10
4.6016E+002
 20
2.49534E+002
 11
4.6187E+002
 21
2.49534E+002
  0
LINE
  8
1
  6
CONTINUOUS
 62
40
 10
4.6016E+002
 20
2.47534E+002
 11
4.6187E+002
 21
2.47534E+002
  0
LINE
  8
1
  6
CONTINUOUS
 62
40
 10
4.6016E+002
 20
3.68534E+002
 11
4.6187E+002
 21
3.68534E+002
  0
LINE
  8
1
  6
CONTINUOUS
 62
40
 10
4.6016E+002
 20
3.66534E+002
 11
4.6187E+002
 21
3.66534E+002
  0
LINE
  8
1
  6
CONTINUOUS
 62
40
 10
4.6645E+002
 20
2.49534E+002
 11
4.6816E+002
 21
2.49534E+002
  0
LINE
  8
1
  6
CONTINUOUS
 62
40
 10
4.6645E+002
 20
2.47534E+002
 11
4.6816E+002
 21
2.47534E+002
  0
LINE
  8
1
  6
CONTINUOUS
 62
40
 10
4.6645E+002
 20
3.68534E+002
 11
4.6816E+002
 21
3.68534E+002
  0
LINE
  8
1
  6
CONTINUOUS
 62
40
 10
4.6645E+002
 20
3.66534E+002
 11
4.6816E+002
 21
3.66534E+002
  0
ARC
  8
1
  6
CONTINUOUS
 62
40
 10
4.6416E+002
 20
2.48534E+002
 40
2.5
 50
3.3642E+002
 51
5.6358E+002
  0
ARC
  8
1
  6
CONTINUOUS
 62
40
 10
4.6416E+002
 20
2.48534E+002
 40
2.5
 50
2.0358E+002
 51
2.7E+002
  0
ARC
  8
1
  6
CONTINUOUS
 62
40
 10
4.6416E+002
 20
3.67534E+002
 40
2.5
 50
3.3642E+002
 51
5.6358E+002
  0
ARC
  8
1
  6
CONTINUOUS
 62
40
 10
4.6416E+002
 20
3.67534E+002
 40
2.5
 50
2.0358E+002
 51
2.7E+002
  0
LINE
  8
1
  6
CONTINUOUS
 62
40
 10
3.33524E+002
 20
2.42234E+002
 11
3.33524E+002
 21
2.53034E+002
  0
LINE
  8
1
  6
CONTINUOUS
 62
40
 10
3.33524E+002
 20
3.73834E+002
 11
3.37824E+002
 21
3.73834E+002
  0
LINE
  8
1
  6
CONTINUOUS
 62
40
 10
3.33524E+002
 20
2.42234E+002
 11
3.37824E+002
 21
2.42234E+002
  0
LINE
  8
1
  6
CONTINUOUS
 62
40
 10
3.33524E+002
 20
3.63034E+002
 11
3.33524E+002
 21
3.73834E+002
  0
LINE
  8
1
  6
CONTINUOUS
 62
40
 10
2.95524E+002
 20
3.65034E+002
 11
3.25524E+002
 21
3.65034E+002
  0
LINE
  8
1
  6
CONTINUOUS
 62
40
 10
3.25524E+002
 20
2.51034E+002
 11
3.25524E+002
 21
2.53034E+002
  0
LINE
  8
1
  6
CONTINUOUS
 62
40
 10
2.95524E+002
 20
2.51034E+002
 11
2.95524E+002
 21
2.53034E+002
  0
LINE
  8
1
  6
CONTINUOUS
 62
40
 10
2.95524E+002
 20
2.51034E+002
 11
3.25524E+002
 21
2.51034E+002
  0
LINE
  8
1
  6
CONTINUOUS
 62
40
 10
2.95524E+002
 20
3.63034E+002
 11
2.95524E+002
 21
3.65034E+002
  0
LINE
  8
1
  6
CONTINUOUS
 62
40
 10
3.25524E+002
 20
3.63034E+002
 11
3.25524E+002
 21
3.65034E+002
  0
LINE
  8
1
  6
CONTINUOUS
 62
40
 10
2.28492E+002
 20
2.44534E+002
 11
2.30492E+002
 21
2.44534E+002
  0
LINE
  8
1
  6
CONTINUOUS
 62
40
 10
2.12992E+002
 20
2.89534E+002
 11
2.12992E+002
 21
3.17534E+002
  0
LINE
  8
1
  6
CONTINUOUS
 62
40
 10
2.24992E+002
 20
2.89534E+002
 11
2.24992E+002
 21
3.17534E+002
  0
LINE
  8
1
  6
CONTINUOUS
 62
40
 10
2.12992E+002
 20
2.89534E+002
 11
2.24992E+002
 21
2.89534E+002
  0
LINE
  8
1
  6
CONTINUOUS
 62
40
 10
2.12992E+002
 20
3.17534E+002
 11
2.24992E+002
 21
3.17534E+002
  0
LINE
  8
1
  6
CONTINUOUS
 62
40
 10
2.09492E+002
 20
2.48034E+002
 11
2.28492E+002
 21
2.48034E+002
  0
LINE
  8
1
  6
CONTINUOUS
 62
40
 10
4.3865944E+002
 20
1.19509E+002
 11
4.8966056E+002
 21
1.19509E+002
  0
LINE
  8
1
  6
CONTINUOUS
 62
40
 10
2.75324E+002
 20
2.95034E+002
 11
2.75324E+002
 21
3.16534E+002
  0
LINE
  8
1
  6
CONTINUOUS
 62
40
 10
2.64324E+002
 20
2.99534E+002
 11
2.75324E+002
 21
2.99534E+002
  0
LINE
  8
1
  6
CONTINUOUS
 62
40
 10
2.64324E+002
 20
3.16534E+002
 11
2.75324E+002
 21
3.16534E+002
  0
LINE
  8
1
  6
CONTINUOUS
 62
40
 10
2.77324E+002
 20
3.00534E+002
 11
2.77324E+002
 21
3.15534E+002
  0
LINE
  8
1
  6
CONTINUOUS
 62
40
 10
2.75324E+002
 20
3.15534E+002
 11
2.77324E+002
 21
3.15534E+002
  0
LINE
  8
1
  6
CONTINUOUS
 62
40
 10
2.75324E+002
 20
3.00534E+002
 11
2.77324E+002
 21
3.00534E+002
  0
LINE
  8
1
  6
CONTINUOUS
 62
40
 10
2.63324E+002
 20
3.00534E+002
 11
2.63324E+002
 21
3.15534E+002
  0
LINE
  8
1
  6
CONTINUOUS
 62
40
 10
4.5666E+002
 20
2.05409E+002
 11
4.7166E+002
 21
2.05409E+002
  0
LINE
  8
1
  6
CONTINUOUS
 62
40
 10
4.5666E+002
 20
1.91409E+002
 11
4.7166E+002
 21
1.91409E+002
  0
LINE
  8
1
  6
CONTINUOUS
 62
40
 10
4.7266E+002
 20
2.03409E+002
 11
4.7266E+002
 21
2.04409E+002
  0
LINE
  8
1
  6
CONTINUOUS
 62
40
 10
4.5566E+002
 20
1.93409E+002
 11
4.5566E+002
 21
2.04409E+002
  0
LINE
  8
1
  6
CONTINUOUS
 62
40
 10
4.7166E+002
 20
1.91409E+002
 11
4.7166E+002
 21
1.93409E+002
  0
LINE
  8
1
  6
CONTINUOUS
 62
40
 10
4.5666E+002
 20
1.91409E+002
 11
4.5666E+002
 21
1.93409E+002
  0
LINE
  8
1
  6
CONTINUOUS
 62
40
 10
4.5566E+002
 20
1.93409E+002
 11
4.7266E+002
 21
1.93409E+002
  0
LINE
  8
1
  6
CONTINUOUS
 62
40
 10
2.09492E+002
 20
3.68034E+002
 11
2.28492E+002
 21
3.68034E+002
  0
ARC
  8
1
  6
CONTINUOUS
 62
40
 10
4.7166E+002
 20
2.04409E+002
 40
1.0
 50
0.0
 51
9.0E+001
  0
LINE
  8
1
  6
CONTINUOUS
 62
40
 10
4.7266E+002
 20
1.93409E+002
 11
4.7266E+002
 21
2.03409E+002
  0
ARC
  8
1
  6
CONTINUOUS
 62
40
 10
2.64324E+002
 20
3.00534E+002
 40
1.0
 50
1.8E+002
 51
2.7E+002
  0
ARC
  8
1
  6
CONTINUOUS
 62
40
 10
2.64324E+002
 20
3.15534E+002
 40
1.0
 50
9.0E+001
 51
1.8E+002
  0
ARC
  8
1
  6
CONTINUOUS
 62
40
 10
4.5666E+002
 20
2.04409E+002
 40
1.0
 50
9.0E+001
 51
1.8E+002
  0
LINE
  8
1
  6
CONTINUOUS
 62
40
 10
2.05492E+002
 20
3.27034E+002
 11
2.05492E+002
 21
3.63034E+002
  0
LINE
  8
1
  6
CONTINUOUS
 62
40
 10
4.8666E+002
 20
2.53034E+002
 11
4.8666E+002
 21
2.7527608E+002
  0
LINE
  8
1
  6
CONTINUOUS
 62
40
 10
3.8766E+002
 20
1.30909E+002
 11
3.8766E+002
 21
1.90909E+002
  0
LINE
  8
1
  6
CONTINUOUS
 62
40
 10
4.1266E+002
 20
1.38909E+002
 11
4.1266E+002
 21
1.82909E+002
  0
LINE
  8
1
  6
CONTINUOUS
 62
40
 10
4.1066E+002
 20
1.38909E+002
 11
4.1066E+002
 21
1.82909E+002
  0
LINE
  8
1
  6
CONTINUOUS
 62
40
 10
3.8966E+002
 20
1.38909E+002
 11
3.8966E+002
 21
1.82909E+002
  0
LINE
  8
1
  6
CONTINUOUS
 62
40
 10
3.9166E+002
 20
1.38909E+002
 11
3.9166E+002
 21
1.82909E+002
  0
LINE
  8
1
  6
CONTINUOUS
 62
40
 10
3.9166E+002
 20
1.38909E+002
 11
3.8966E+002
 21
1.38909E+002
  0
LINE
  8
1
  6
CONTINUOUS
 62
40
 10
4.1266E+002
 20
1.38909E+002
 11
4.1066E+002
 21
1.38909E+002
  0
LINE
  8
1
  6
CONTINUOUS
 62
40
 10
4.0866E+002
 20
1.46909E+002
 11
4.0866E+002
 21
1.59209E+002
  0
LINE
  8
1
  6
CONTINUOUS
 62
40
 10
3.9366E+002
 20
1.46909E+002
 11
3.9366E+002
 21
1.59209E+002
  0
LINE
  8
1
  6
CONTINUOUS
 62
40
 10
4.4166E+002
 20
1.82909E+002
 11
4.8666E+002
 21
1.82909E+002
  0
LINE
  8
1
  6
CONTINUOUS
 62
40
 10
4.4166E+002
 20
1.90909E+002
 11
4.8666E+002
 21
1.90909E+002
  0
LINE
  8
1
  6
CONTINUOUS
 62
40
 10
4.1466E+002
 20
1.90909E+002
 11
4.4166E+002
 21
1.90909E+002
  0
LINE
  8
1
  6
CONTINUOUS
 62
40
 10
4.1466E+002
 20
1.82909E+002
 11
4.4166E+002
 21
1.82909E+002
  0
LINE
  8
1
  6
CONTINUOUS
 62
40
 10
4.1466E+002
 20
1.30909E+002
 11
4.4166E+002
 21
1.30909E+002
  0
LINE
  8
1
  6
CONTINUOUS
 62
40
 10
4.4166E+002
 20
1.30909E+002
 11
4.8666E+002
 21
1.30909E+002
  0
LINE
  8
1
  6
CONTINUOUS
 62
40
 10
5.1366E+002
 20
1.30909E+002
 11
5.4066E+002
 21
1.30909E+002
  0
LINE
  8
1
  6
CONTINUOUS
 62
40
 10
5.1366E+002
 20
1.82909E+002
 11
5.4066E+002
 21
1.82909E+002
  0
LINE
  8
1
  6
CONTINUOUS
 62
40
 10
5.1366E+002
 20
1.90909E+002
 11
5.4066E+002
 21
1.90909E+002
  0
LINE
  8
1
  6
CONTINUOUS
 62
40
 10
4.0666E+002
 20
1.61209E+002
 11
3.9566E+002
 21
1.61209E+002
  0
LINE
  8
1
  6
CONTINUOUS
 62
40
 10
4.0666E+002
 20
1.44909E+002
 11
3.9566E+002
 21
1.44909E+002
  0
LINE
  8
1
  6
CONTINUOUS
 62
40
 10
4.6416E+002
 20
1.24969E+002
 11
4.6416E+002
 21
1.41069E+002
  0
TEXT
  8
1
  6
CONTINUOUS
 62
40
 10
1.4369E+002
 20
3.49074E+002
 40
3.0
  1
OT 160 ET4
  0
ARC
  8
1
  6
CONTINUOUS
 62
40
 10
4.0666E+002
 20
1.59209E+002
 40
2.0
 50
0.0
 51
9.0E+001
  0
ARC
  8
1
  6
CONTINUOUS
 62
40
 10
3.9566E+002
 20
1.59209E+002
 40
2.0
 50
9.0E+001
 51
1.8E+002
  0
ARC
  8
1
  6
CONTINUOUS
 62
40
 10
3.9566E+002
 20
1.46909E+002
 40
2.0
 50
1.8E+002
 51
2.7E+002
  0
ARC
  8
1
  6
CONTINUOUS
 62
40
 10
4.0666E+002
 20
1.46909E+002
 40
2.0
 50
2.7E+002
 51
3.6E+002
  0
LINE
  8
1
  6
CONTINUOUS
 62
40
 10
4.0716E+002
 20
1.59909E+002
 11
4.0716E+002
 21
1.61149E+002
  0
LINE
  8
1
  6
CONTINUOUS
 62
40
 10
3.9516E+002
 20
1.59909E+002
 11
3.9516E+002
 21
1.61149E+002
  0
LINE
  8
1
  6
CONTINUOUS
 62
40
 10
4.0716E+002
 20
1.59909E+002
 11
3.9516E+002
 21
1.59909E+002
  0
LINE
  8
1
  6
CONTINUOUS
 62
40
 10
4.1066E+002
 20
1.65209E+002
 11
3.9166E+002
 21
1.65209E+002
  0
LINE
  8
1
  6
CONTINUOUS
 62
40
 10
4.1066E+002
 20
1.63209E+002
 11
3.9166E+002
 21
1.63209E+002
  0
LINE
  8
1
  6
CONTINUOUS
 62
40
 10
4.1466E+002
 20
1.30909E+002
 11
3.8766E+002
 21
1.30909E+002
  0
LINE
  8
1
  6
CONTINUOUS
 62
40
 10
4.1466E+002
 20
1.82909E+002
 11
3.8766E+002
 21
1.82909E+002
  0
LINE
  8
1
  6
CONTINUOUS
 62
40
 10
4.1466E+002
 20
1.90909E+002
 11
3.8766E+002
 21
1.90909E+002
  0
LINE
  8
1
  6
CONTINUOUS
 62
40
 10
4.6716E+002
 20
3.67534E+002
 11
4.6116E+002
 21
3.67534E+002
  0
LINE
  8
1
  6
CONTINUOUS
 62
40
 10
4.6416E+002
 20
3.70534E+002
 11
4.6416E+002
 21
3.64534E+002
  0
LINE
  8
1
  6
CONTINUOUS
 62
40
 10
4.6866E+002
 20
3.67534E+002
 11
4.6966E+002
 21
3.67534E+002
  0
LINE
  8
1
  6
CONTINUOUS
 62
40
 10
4.6416E+002
 20
3.72034E+002
 11
4.6416E+002
 21
3.73034E+002
  0
LINE
  8
1
  6
CONTINUOUS
 62
40
 10
4.5966E+002
 20
3.67534E+002
 11
4.5866E+002
 21
3.67534E+002
  0
LINE
  8
1
  6
CONTINUOUS
 62
40
 10
4.6416E+002
 20
3.63034E+002
 11
4.6416E+002
 21
3.62034E+002
  0
LINE
  8
1
  6
CONTINUOUS
 62
40
 10
4.6716E+002
 20
2.48534E+002
 11
4.6116E+002
 21
2.48534E+002
  0
LINE
  8
1
  6
CONTINUOUS
 62
40
 10
4.6416E+002
 20
2.51534E+002
 11
4.6416E+002
 21
2.45534E+002
  0
LINE
  8
1
  6
CONTINUOUS
 62
40
 10
4.6866E+002
 20
2.48534E+002
 11
4.6966E+002
 21
2.48534E+002
  0
LINE
  8
1
  6
CONTINUOUS
 62
40
 10
4.6416E+002
 20
2.53034E+002
 11
4.6416E+002
 21
2.54034E+002
  0
LINE
  8
1
  6
CONTINUOUS
 62
40
 10
4.5966E+002
 20
2.48534E+002
 11
4.5866E+002
 21
2.48534E+002
  0
LINE
  8
1
  6
CONTINUOUS
 62
40
 10
4.6416E+002
 20
2.44034E+002
 11
4.6416E+002
 21
2.43034E+002
  0
LINE
  8
1
  6
CONTINUOUS
 62
40
 10
4.6716E+002
 20
3.08034E+002
 11
4.6116E+002
 21
3.08034E+002
  0
LINE
  8
1
  6
CONTINUOUS
 62
40
 10
4.6416E+002
 20
3.11034E+002
 11
4.6416E+002
 21
3.05034E+002
  0
LINE
  8
1
  6
CONTINUOUS
 62
40
 10
1.78492E+002
 20
2.53034E+002
 11
1.78492E+002
 21
3.21034E+002
  0
LINE
  8
1
  6
CONTINUOUS
 62
40
 10
2.32492E+002
 20
3.63034E+002
 11
7.9492E+001
 21
3.63034E+002
  0
LINE
  8
1
  6
CONTINUOUS
 62
40
 10
2.32492E+002
 20
2.53034E+002
 11
7.9492E+001
 21
2.53034E+002
  0
LINE
  8
1
  6
CONTINUOUS
 62
40
 10
2.05492E+002
 20
2.53034E+002
 11
2.05492E+002
 21
3.21034E+002
  0
LINE
  8
1
  6
CONTINUOUS
 62
40
 10
1.06492E+002
 20
2.53034E+002
 11
1.06492E+002
 21
3.21034E+002
  0
LINE
  8
1
  6
CONTINUOUS
 62
40
 10
7.9492E+001
 20
2.53034E+002
 11
7.9492E+001
 21
3.63034E+002
  0
LINE
  8
1
  6
CONTINUOUS
 62
40
 10
2.32492E+002
 20
3.30534E+002
 11
7.9492E+001
 21
3.30534E+002
  0
LINE
  8
1
  6
CONTINUOUS
 62
40
 10
2.32492E+002
 20
2.85534E+002
 11
7.9492E+001
 21
2.85534E+002
  0
LINE
  8
1
  6
CONTINUOUS
 62
40
 10
2.03492E+002
 20
2.44534E+002
 11
2.03492E+002
 21
2.53034E+002
  0
LINE
  8
1
  6
CONTINUOUS
 62
40
 10
1.80492E+002
 20
2.44534E+002
 11
1.80492E+002
 21
2.53034E+002
  0
LINE
  8
1
  6
CONTINUOUS
 62
40
 10
1.31492E+002
 20
2.44534E+002
 11
1.31492E+002
 21
2.53034E+002
  0
LINE
  8
1
  6
CONTINUOUS
 62
40
 10
1.08492E+002
 20
2.44534E+002
 11
1.08492E+002
 21
2.53034E+002
  0
LINE
  8
1
  6
CONTINUOUS
 62
40
 10
1.04492E+002
 20
2.44534E+002
 11
1.04492E+002
 21
2.53034E+002
  0
LINE
  8
1
  6
CONTINUOUS
 62
40
 10
8.1492E+001
 20
2.44534E+002
 11
8.1492E+001
 21
2.53034E+002
  0
LINE
  8
1
  6
CONTINUOUS
 62
40
 10
2.01492E+002
 20
2.44534E+002
 11
2.01492E+002
 21
2.53034E+002
  0
LINE
  8
1
  6
CONTINUOUS
 62
40
 10
1.82492E+002
 20
2.44534E+002
 11
1.82492E+002
 21
2.53034E+002
  0
LINE
  8
1
  6
CONTINUOUS
 62
40
 10
1.29492E+002
 20
2.44534E+002
 11
1.29492E+002
 21
2.53034E+002
  0
LINE
  8
1
  6
CONTINUOUS
 62
40
 10
1.10492E+002
 20
2.44534E+002
 11
1.10492E+002
 21
2.53034E+002
  0
LINE
  8
1
  6
CONTINUOUS
 62
40
 10
1.02492E+002
 20
2.44534E+002
 11
1.02492E+002
 21
2.53034E+002
  0
LINE
  8
1
  6
CONTINUOUS
 62
40
 10
8.3492E+001
 20
2.44534E+002
 11
8.3492E+001
 21
2.53034E+002
  0
LINE
  8
1
  6
CONTINUOUS
 62
40
 10
2.03492E+002
 20
3.71534E+002
 11
2.01492E+002
 21
3.71534E+002
  0
LINE
  8
1
  6
CONTINUOUS
 62
40
 10
2.03492E+002
 20
2.44534E+002
 11
2.01492E+002
 21
2.44534E+002
  0
LINE
  8
1
  6
CONTINUOUS
 62
40
 10
2.03492E+002
 20
3.63034E+002
 11
2.03492E+002
 21
3.71534E+002
  0
LINE
  8
1
  6
CONTINUOUS
 62
40
 10
2.01492E+002
 20
3.63034E+002
 11
2.01492E+002
 21
3.71534E+002
  0
LINE
  8
1
  6
CONTINUOUS
 62
40
 10
1.82492E+002
 20
3.63034E+002
 11
1.82492E+002
 21
3.71534E+002
  0
LINE
  8
1
  6
CONTINUOUS
 62
40
 10
1.80492E+002
 20
3.63034E+002
 11
1.80492E+002
 21
3.71534E+002
  0
LINE
  8
1
  6
CONTINUOUS
 62
40
 10
1.31492E+002
 20
3.63034E+002
 11
1.31492E+002
 21
3.71534E+002
  0
LINE
  8
1
  6
CONTINUOUS
 62
40
 10
1.29492E+002
 20
3.63034E+002
 11
1.29492E+002
 21
3.71534E+002
  0
LINE
  8
1
  6
CONTINUOUS
 62
40
 10
1.10492E+002
 20
3.63034E+002
 11
1.10492E+002
 21
3.71534E+002
  0
LINE
  8
1
  6
CONTINUOUS
 62
40
 10
1.08492E+002
 20
3.63034E+002
 11
1.08492E+002
 21
3.71534E+002
  0
LINE
  8
1
  6
CONTINUOUS
 62
40
 10
1.04492E+002
 20
3.63034E+002
 11
1.04492E+002
 21
3.71534E+002
  0
LINE
  8
1
  6
CONTINUOUS
 62
40
 10
1.02492E+002
 20
3.63034E+002
 11
1.02492E+002
 21
3.71534E+002
  0
LINE
  8
1
  6
CONTINUOUS
 62
40
 10
8.3492E+001
 20
3.63034E+002
 11
8.3492E+001
 21
3.71534E+002
  0
LINE
  8
1
  6
CONTINUOUS
 62
40
 10
8.1492E+001
 20
3.63034E+002
 11
8.1492E+001
 21
3.71534E+002
  0
LINE
  8
1
  6
CONTINUOUS
 62
40
 10
1.82492E+002
 20
3.71534E+002
 11
1.80492E+002
 21
3.71534E+002
  0
LINE
  8
1
  6
CONTINUOUS
 62
40
 10
1.31492E+002
 20
3.71534E+002
 11
1.29492E+002
 21
3.71534E+002
  0
LINE
  8
1
  6
CONTINUOUS
 62
40
 10
1.10492E+002
 20
3.71534E+002
 11
1.08492E+002
 21
3.71534E+002
  0
LINE
  8
1
  6
CONTINUOUS
 62
40
 10
1.04492E+002
 20
3.71534E+002
 11
1.02492E+002
 21
3.71534E+002
  0
LINE
  8
1
  6
CONTINUOUS
 62
40
 10
8.3492E+001
 20
3.71534E+002
 11
8.1492E+001
 21
3.71534E+002
  0
LINE
  8
1
  6
CONTINUOUS
 62
40
 10
1.82492E+002
 20
2.44534E+002
 11
1.80492E+002
 21
2.44534E+002
  0
LINE
  8
1
  6
CONTINUOUS
 62
40
 10
1.31492E+002
 20
2.44534E+002
 11
1.29492E+002
 21
2.44534E+002
  0
LINE
  8
1
  6
CONTINUOUS
 62
40
 10
1.10492E+002
 20
2.44534E+002
 11
1.08492E+002
 21
2.44534E+002
  0
LINE
  8
1
  6
CONTINUOUS
 62
40
 10
1.04492E+002
 20
2.44534E+002
 11
1.02492E+002
 21
2.44534E+002
  0
LINE
  8
1
  6
CONTINUOUS
 62
40
 10
8.3492E+001
 20
2.44534E+002
 11
8.1492E+001
 21
2.44534E+002
  0
LINE
  8
1
  6
CONTINUOUS
 62
40
 10
1.62992E+002
 20
2.45234E+002
 11
1.62992E+002
 21
2.53034E+002
  0
LINE
  8
1
  6
CONTINUOUS
 62
40
 10
1.48992E+002
 20
2.45234E+002
 11
1.48992E+002
 21
2.53034E+002
  0
LINE
  8
1
  6
CONTINUOUS
 62
40
 10
1.59992E+002
 20
2.47534E+002
 11
1.59992E+002
 21
2.49534E+002
  0
LINE
  8
1
  6
CONTINUOUS
 62
40
 10
1.51992E+002
 20
2.47534E+002
 11
1.51992E+002
 21
2.49534E+002
  0
LINE
  8
1
  6
CONTINUOUS
 62
40
 10
1.59992E+002
 20
3.73834E+002
 11
1.51992E+002
 21
3.73834E+002
  0
LINE
  8
1
  6
CONTINUOUS
 62
40
 10
1.59992E+002
 20
2.42234E+002
 11
1.51992E+002
 21
2.42234E+002
  0
LINE
  8
1
  6
CONTINUOUS
 62
40
 10
1.59992E+002
 20
3.66534E+002
 11
1.59992E+002
 21
3.68534E+002
  0
LINE
  8
1
  6
CONTINUOUS
 62
40
 10
1.51992E+002
 20
3.66534E+002
 11
1.51992E+002
 21
3.68534E+002
  0
LINE
  8
1
  6
CONTINUOUS
 62
40
 10
1.48992E+002
 20
3.63034E+002
 11
1.48992E+002
 21
3.70834E+002
  0
LINE
  8
1
  6
CONTINUOUS
 62
40
 10
1.62992E+002
 20
3.63034E+002
 11
1.62992E+002
 21
3.70834E+002
  0
ARC
  8
1
  6
CONTINUOUS
 62
40
 10
1.59992E+002
 20
2.45234E+002
 40
3.0
 50
2.7E+002
 51
3.6E+002
  0
ARC
  8
1
  6
CONTINUOUS
 62
40
 10
1.51992E+002
 20
2.45234E+002
 40
3.0
 50
1.8E+002
 51
2.7E+002
  0
ARC
  8
1
  6
CONTINUOUS
 62
40
 10
1.59992E+002
 20
3.70834E+002
 40
3.0
 50
0.0
 51
9.0E+001
  0
ARC
  8
1
  6
CONTINUOUS
 62
40
 10
1.51992E+002
 20
3.70834E+002
 40
3.0
 50
9.0E+001
 51
1.8E+002
  0
LINE
  8
1
  6
CONTINUOUS
 62
40
 10
1.58992E+002
 20
3.06034E+002
 11
1.58992E+002
 21
3.10034E+002
  0
LINE
  8
1
  6
CONTINUOUS
 62
40
 10
1.52992E+002
 20
3.06034E+002
 11
1.52992E+002
 21
3.10034E+002
  0
LINE
  8
1
  6
CONTINUOUS
 62
40
 10
1.53992E+002
 20
3.05034E+002
 11
1.57992E+002
 21
3.05034E+002
  0
LINE
  8
1
  6
CONTINUOUS
 62
40
 10
1.53992E+002
 20
3.11034E+002
 11
1.57992E+002
 21
3.11034E+002
  0
ARC
  8
1
  6
CONTINUOUS
 62
40
 10
1.57992E+002
 20
3.10034E+002
 40
1.0
 50
0.0
 51
9.0E+001
  0
ARC
  8
1
  6
CONTINUOUS
 62
40
 10
1.53992E+002
 20
3.10034E+002
 40
1.0
 50
9.0E+001
 51
1.8E+002
  0
ARC
  8
1
  6
CONTINUOUS
 62
40
 10
1.53992E+002
 20
3.06034E+002
 40
1.0
 50
1.8E+002
 51
2.7E+002
  0
ARC
  8
1
  6
CONTINUOUS
 62
40
 10
1.57992E+002
 20
3.06034E+002
 40
1.0
 50
2.7E+002
 51
3.6E+002
  0
LINE
  8
1
  6
CONTINUOUS
 62
40
 10
1.97992E+002
 20
3.17534E+002
 11
1.85992E+002
 21
3.17534E+002
  0
LINE
  8
1
  6
CONTINUOUS
 62
40
 10
1.97992E+002
 20
2.89534E+002
 11
1.85992E+002
 21
2.89534E+002
  0
LINE
  8
1
  6
CONTINUOUS
 62
40
 10
1.97992E+002
 20
2.89534E+002
 11
1.97992E+002
 21
3.17534E+002
  0
LINE
  8
1
  6
CONTINUOUS
 62
40
 10
1.85992E+002
 20
2.89534E+002
 11
1.85992E+002
 21
3.17534E+002
  0
LINE
  8
1
  6
CONTINUOUS
 62
40
 10
1.13992E+002
 20
2.89534E+002
 11
1.13992E+002
 21
3.17534E+002
  0
LINE
  8
1
  6
CONTINUOUS
 62
40
 10
9.8992E+001
 20
2.89534E+002
 11
9.8992E+001
 21
3.17534E+002
  0
LINE
  8
1
  6
CONTINUOUS
 62
40
 10
8.6992E+001
 20
2.89534E+002
 11
8.6992E+001
 21
3.17534E+002
  0
LINE
  8
1
  6
CONTINUOUS
 62
40
 10
1.25992E+002
 20
3.17534E+002
 11
1.13992E+002
 21
3.17534E+002
  0
LINE
  8
1
  6
CONTINUOUS
 62
40
 10
1.25992E+002
 20
2.89534E+002
 11
1.13992E+002
 21
2.89534E+002
  0
LINE
  8
1
  6
CONTINUOUS
 62
40
 10
9.8992E+001
 20
2.89534E+002
 11
8.6992E+001
 21
2.89534E+002
  0
LINE
  8
1
  6
CONTINUOUS
 62
40
 10
9.8992E+001
 20
3.17534E+002
 11
8.6992E+001
 21
3.17534E+002
  0
LINE
  8
1
  6
CONTINUOUS
 62
40
 10
2.32492E+002
 20
3.27034E+002
 11
7.9492E+001
 21
3.27034E+002
  0
LINE
  8
1
  6
CONTINUOUS
 62
40
 10
2.32492E+002
 20
3.21034E+002
 11
7.9492E+001
 21
3.21034E+002
  0
LINE
  8
1
  6
CONTINUOUS
 62
40
 10
1.78492E+002
 20
3.27034E+002
 11
1.78492E+002
 21
3.63034E+002
  0
LINE
  8
1
  6
CONTINUOUS
 62
40
 10
1.33492E+002
 20
3.27034E+002
 11
1.33492E+002
 21
3.63034E+002
  0
LINE
  8
1
  6
CONTINUOUS
 62
40
 10
1.06492E+002
 20
3.27034E+002
 11
1.06492E+002
 21
3.63034E+002
  0
LINE
  8
1
  6
CONTINUOUS
 62
40
 10
2.01492E+002
 20
3.68034E+002
 11
1.82492E+002
 21
3.68034E+002
  0
LINE
  8
1
  6
CONTINUOUS
 62
40
 10
2.01492E+002
 20
2.48034E+002
 11
1.82492E+002
 21
2.48034E+002
  0
LINE
  8
1
  6
CONTINUOUS
 62
40
 10
1.02492E+002
 20
2.48034E+002
 11
8.3492E+001
 21
2.48034E+002
  0
LINE
  8
1
  6
CONTINUOUS
 62
40
 10
1.29492E+002
 20
2.48034E+002
 11
1.10492E+002
 21
2.48034E+002
  0
LINE
  8
1
  6
CONTINUOUS
 62
40
 10
1.02492E+002
 20
3.68034E+002
 11
8.3492E+001
 21
3.68034E+002
  0
LINE
  8
1
  6
CONTINUOUS
 62
40
 10
1.29492E+002
 20
3.68034E+002
 11
1.10492E+002
 21
3.68034E+002
  0
ARC
  8
1
  6
CONTINUOUS
 62
40
 10
1.55992E+002
 20
3.67534E+002
 40
2.5
 50
2.0358E+002
 51
2.7E+002
  0
ARC
  8
1
  6
CONTINUOUS
 62
40
 10
1.55992E+002
 20
2.48534E+002
 40
2.5
 50
2.0358E+002
 51
2.7E+002
  0
LINE
  8
1
  6
CONTINUOUS
 62
40
 10
1.59992E+002
 20
2.49534E+002
 11
1.58282E+002
 21
2.49534E+002
  0
LINE
  8
1
  6
CONTINUOUS
 62
40
 10
1.59992E+002
 20
2.47534E+002
 11
1.58282E+002
 21
2.47534E+002
  0
LINE
  8
1
  6
CONTINUOUS
 62
40
 10
1.59992E+002
 20
3.68534E+002
 11
1.58282E+002
 21
3.68534E+002
  0
LINE
  8
1
  6
CONTINUOUS
 62
40
 10
1.59992E+002
 20
3.66534E+002
 11
1.58282E+002
 21
3.66534E+002
  0
LINE
  8
1
  6
CONTINUOUS
 62
40
 10
1.53702E+002
 20
2.49534E+002
 11
1.51992E+002
 21
2.49534E+002
  0
LINE
  8
1
  6
CONTINUOUS
 62
40
 10
1.53702E+002
 20
2.47534E+002
 11
1.51992E+002
 21
2.47534E+002
  0
LINE
  8
1
  6
CONTINUOUS
 62
40
 10
1.53702E+002
 20
3.68534E+002
 11
1.51992E+002
 21
3.68534E+002
  0
LINE
  8
1
  6
CONTINUOUS
 62
40
 10
1.53702E+002
 20
3.66534E+002
 11
1.51992E+002
 21
3.66534E+002
  0
ARC
  8
1
  6
CONTINUOUS
 62
40
 10
1.55992E+002
 20
2.48534E+002
 40
2.5
 50
3.3642E+002
 51
5.6358E+002
  0
ARC
  8
1
  6
CONTINUOUS
 62
40
 10
1.55992E+002
 20
2.48534E+002
 40
2.5
 50
2.7E+002
 51
3.3642E+002
  0
ARC
  8
1
  6
CONTINUOUS
 62
40
 10
1.55992E+002
 20
3.67534E+002
 40
2.5
 50
3.3642E+002
 51
5.6358E+002
  0
ARC
  8
1
  6
CONTINUOUS
 62
40
 10
1.55992E+002
 20
3.67534E+002
 40
2.5
 50
2.7E+002
 51
3.3642E+002
  0
LINE
  8
1
  6
CONTINUOUS
 62
40
 10
1.51992E+002
 20
2.95034E+002
 11
1.59992E+002
 21
2.95034E+002
  0
ARC
  8
1
  6
CONTINUOUS
 62
40
 10
1.55992E+002
 20
3.08034E+002
 40
8.5
 50
2.3397E+002
 51
3.0603E+002
  0
LINE
  8
1
  6
CONTINUOUS
 62
40
 10
1.60992E+002
 20
2.96034E+002
 11
1.60992E+002
 21
3.01164E+002
  0
LINE
  8
1
  6
CONTINUOUS
 62
40
 10
1.50992E+002
 20
2.96034E+002
 11
1.50992E+002
 21
3.01164E+002
  0
ARC
  8
1
  6
CONTINUOUS
 62
40
 10
1.59992E+002
 20
2.96034E+002
 40
1.0
 50
2.7E+002
 51
3.6E+002
  0
ARC
  8
1
  6
CONTINUOUS
 62
40
 10
1.51992E+002
 20
2.96034E+002
 40
1.0
 50
1.8E+002
 51
2.7E+002
  0
ARC
  8
1
  6
CONTINUOUS
 62
40
 10
1.55992E+002
 20
3.08034E+002
 40
8.5
 50
3.0603E+002
 51
5.9397E+002
  0
LINE
  8
1
  6
CONTINUOUS
 62
40
 10
1.25992E+002
 20
2.89534E+002
 11
1.25992E+002
 21
3.17534E+002
  0
LINE
  8
1
  6
CONTINUOUS
 62
40
 10
1.33492E+002
 20
2.53034E+002
 11
1.33492E+002
 21
3.21034E+002
  0
LINE
  8
1
  6
CONTINUOUS
 62
40
 10
1.56242E+002
 20
2.94534E+002
 11
1.57992E+002
 21
2.94534E+002
  0
LINE
  8
1
  6
CONTINUOUS
 62
40
 10
1.56242E+002
 20
2.94534E+002
 11
1.56242E+002
 21
2.94934E+002
  0
LINE
  8
1
  6
CONTINUOUS
 62
40
 10
1.55742E+002
 20
2.94534E+002
 11
1.55742E+002
 21
2.94934E+002
  0
LINE
  8
1
  6
CONTINUOUS
 62
40
 10
1.55742E+002
 20
2.94934E+002
 11
1.56242E+002
 21
2.94934E+002
  0
LINE
  8
1
  6
CONTINUOUS
 62
40
 10
1.53992E+002
 20
2.94534E+002
 11
1.55742E+002
 21
2.94534E+002
  0
LINE
  8
1
  6
CONTINUOUS
 62
40
 10
1.57992E+002
 20
2.94534E+002
 11
1.58492E+002
 21
2.95034E+002
  0
LINE
  8
1
  6
CONTINUOUS
 62
40
 10
1.53992E+002
 20
2.94534E+002
 11
1.53492E+002
 21
2.95034E+002
  0
LINE
  8
1
  6
CONTINUOUS
 62
40
 10
1.52992E+002
 20
3.67534E+002
 11
1.58992E+002
 21
3.67534E+002
  0
LINE
  8
1
  6
CONTINUOUS
 62
40
 10
1.55992E+002
 20
3.70534E+002
 11
1.55992E+002
 21
3.64534E+002
  0
LINE
  8
1
  6
CONTINUOUS
 62
40
 10
1.51492E+002
 20
3.67534E+002
 11
1.50492E+002
 21
3.67534E+002
  0
LINE
  8
1
  6
CONTINUOUS
 62
40
 10
1.55992E+002
 20
3.72034E+002
 11
1.55992E+002
 21
3.73034E+002
  0
LINE
  8
1
  6
CONTINUOUS
 62
40
 10
1.60492E+002
 20
3.67534E+002
 11
1.61492E+002
 21
3.67534E+002
  0
LINE
  8
1
  6
CONTINUOUS
 62
40
 10
1.55992E+002
 20
3.63034E+002
 11
1.55992E+002
 21
3.62034E+002
  0
LINE
  8
1
  6
CONTINUOUS
 62
40
 10
1.52992E+002
 20
2.48534E+002
 11
1.58992E+002
 21
2.48534E+002
  0
LINE
  8
1
  6
CONTINUOUS
 62
40
 10
1.55992E+002
 20
2.51534E+002
 11
1.55992E+002
 21
2.45534E+002
  0
LINE
  8
1
  6
CONTINUOUS
 62
40
 10
1.51492E+002
 20
2.48534E+002
 11
1.50492E+002
 21
2.48534E+002
  0
LINE
  8
1
  6
CONTINUOUS
 62
40
 10
1.55992E+002
 20
2.53034E+002
 11
1.55992E+002
 21
2.54034E+002
  0
LINE
  8
1
  6
CONTINUOUS
 62
40
 10
1.60492E+002
 20
2.48534E+002
 11
1.61492E+002
 21
2.48534E+002
  0
LINE
  8
1
  6
CONTINUOUS
 62
40
 10
1.55992E+002
 20
2.44034E+002
 11
1.55992E+002
 21
2.43034E+002
  0
LINE
  8
1
  6
CONTINUOUS
 62
40
 10
1.55992E+002
 20
3.11034E+002
 11
1.55992E+002
 21
3.05034E+002
  0
LINE
  8
1
  6
CONTINUOUS
 62
40
 10
1.58992E+002
 20
3.08034E+002
 11
1.52992E+002
 21
3.08034E+002
  0
LINE
  8
1
  6
CONTINUOUS
 62
40
 10
1.55992E+002
 20
3.12534E+002
 11
1.55992E+002
 21
3.19534E+002
  0
LINE
  8
1
  6
CONTINUOUS
 62
40
 10
1.60492E+002
 20
3.08034E+002
 11
1.67492E+002
 21
3.08034E+002
  0
LINE
  8
1
  6
CONTINUOUS
 62
40
 10
1.55992E+002
 20
3.03534E+002
 11
1.55992E+002
 21
2.96534E+002
  0
LINE
  8
1
  6
CONTINUOUS
 62
40
 10
1.51492E+002
 20
3.08034E+002
 11
1.44492E+002
 21
3.08034E+002
  0
TEXT
  8
1
  6
CONTINUOUS
 62
40
 10
1.69173E+002
 20
3.03389E+002
 40
3.0
  1
ON
  0
TEXT
  8
1
  6
CONTINUOUS
 62
40
 10
1.50098E+002
 20
2.88502E+002
 40
3.0
  1
O OFF
  0
TEXT
  8
1
  6
CONTINUOUS
 62
40
 10
1.71266E+002
 20
3.09437E+002
 40
3.0
  1
I
  0
LINE
  8
1
  6
CONTINUOUS
 62
40
 10
3.39534E+002
 20
3.08034E+002
 11
3.58014E+002
 21
3.08034E+002
  0
LINE
  8
1
  6
CONTINUOUS
 62
40
 10
3.52324E+002
 20
3.42034E+002
 11
3.52324E+002
 21
2.74264E+002
  0
LINE
  8
1
  6
CONTINUOUS
 62
40
 10
3.36324E+002
 20
2.83034E+002
 11
3.46324E+002
 21
2.83034E+002
  0
LINE
  8
1
  6
CONTINUOUS
 62
40
 10
3.36324E+002
 20
3.33034E+002
 11
3.46324E+002
 21
3.33034E+002
  0
LINE
  8
1
  6
CONTINUOUS
 62
40
 10
3.49324E+002
 20
3.42034E+002
 11
3.49324E+002
 21
3.3223015E+002
  0
LINE
  8
1
  6
CONTINUOUS
 62
40
 10
3.36324E+002
 20
3.30034E+002
 11
3.46324E+002
 21
3.30034E+002
  0
LINE
  8
1
  6
CONTINUOUS
 62
40
 10
3.36324E+002
 20
2.86034E+002
 11
3.46324E+002
 21
2.86034E+002
  0
LINE
  8
1
  6
CONTINUOUS
 62
40
 10
3.33324E+002
 20
2.85534E+002
 11
3.33324E+002
 21
2.8523015E+002
  0
ARC
  8
1
  6
CONTINUOUS
 62
40
 10
3.36324E+002
 20
2.80034E+002
 40
3.0
 50
9.0E+001
 51
1.8E+002
  0
ARC
  8
1
  6
CONTINUOUS
 62
40
 10
3.46324E+002
 20
2.89034E+002
 40
3.0
 50
2.7E+002
 51
3.6E+002
  0
ARC
  8
1
  6
CONTINUOUS
 62
40
 10
3.46324E+002
 20
3.27034E+002
 40
3.0
 50
0.0
 51
9.0E+001
  0
ARC
  8
1
  6
CONTINUOUS
 62
40
 10
3.46324E+002
 20
2.89034E+002
 40
6.0
 50
2.7E+002
 51
3.6E+002
  0
LINE
  8
1
  6
CONTINUOUS
 62
40
 10
3.30324E+002
 20
2.8718762E+002
 11
3.30324E+002
 21
2.70234E+002
  0
ARC
  8
1
  6
CONTINUOUS
 62
40
 10
3.36324E+002
 20
2.80034E+002
 40
6.0
 50
9.0E+001
 51
1.8E+002
  0
ARC
  8
1
  6
CONTINUOUS
 62
40
 10
3.46324E+002
 20
3.27034E+002
 40
6.0
 50
0.0
 51
9.0E+001
  0
ARC
  8
1
  6
CONTINUOUS
 62
40
 10
3.36324E+002
 20
3.36034E+002
 40
6.0
 50
1.8E+002
 51
2.7E+002
  0
LINE
  8
1
  6
CONTINUOUS
 62
40
 10
3.33324E+002
 20
3.45834E+002
 11
3.33324E+002
 21
3.36034E+002
  0
ARC
  8
1
  6
CONTINUOUS
 62
40
 10
3.36324E+002
 20
3.36034E+002
 40
3.0
 50
1.8E+002
 51
2.7E+002
  0
LINE
  8
1
  6
CONTINUOUS
 62
40
 10
5.1316E+002
 20
2.7265532E+002
 11
5.1316E+002
 21
3.4341268E+002
  0
LINE
  8
1
  6
CONTINUOUS
 62
40
 10
4.1516E+002
 20
2.7265532E+002
 11
4.1516E+002
 21
3.4341268E+002
  0
LINE
  8
1
  6
CONTINUOUS
 62
40
 10
4.1728132E+002
 20
3.45534E+002
 11
5.1103868E+002
 21
3.45534E+002
  0
LINE
  8
1
  6
CONTINUOUS
 62
40
 10
5.1103868E+002
 20
2.70534E+002
 11
4.1728132E+002
 21
2.70534E+002
  0
ARC
  8
1
  6
CONTINUOUS
 62
40
 10
4.2216E+002
 20
3.08034E+002
 40
2.5
 50
1.8E+002
 51
4.5E+002
  0
ARC
  8
1
  6
CONTINUOUS
 62
40
 10
5.0616E+002
 20
3.08034E+002
 40
2.5
 50
1.8E+002
 51
4.5E+002
  0
CIRCLE
  8
1
  6
CONTINUOUS
 62
40
 10
4.6416E+002
 20
3.08034E+002
 40
2.2E+001
  0
CIRCLE
  8
1
  6
CONTINUOUS
 62
40
 10
4.2216E+002
 20
3.08034E+002
 40
1.5
  0
CIRCLE
  8
1
  6
CONTINUOUS
 62
40
 10
5.0616E+002
 20
3.08034E+002
 40
1.5
  0
LINE
  8
1
  6
CONTINUOUS
 62
40
 10
4.4290208E+002
 20
3.42034E+002
 11
4.8541792E+002
 21
3.42034E+002
  0
LINE
  8
1
  6
CONTINUOUS
 62
40
 10
4.4290208E+002
 20
2.74034E+002
 11
4.8541792E+002
 21
2.74034E+002
  0
LINE
  8
1
  6
CONTINUOUS
 62
40
 10
4.9266056E+002
 20
3.33034E+002
 11
4.9266056E+002
 21
3.30034E+002
  0
ARC
  8
1
  6
CONTINUOUS
 62
40
 10
4.9116056E+002
 20
3.30034E+002
 40
1.5
 50
1.8E+002
 51
3.6E+002
  0
LINE
  8
1
  6
CONTINUOUS
 62
40
 10
4.3565944E+002
 20
3.33034E+002
 11
4.3565944E+002
 21
3.30034E+002
  0
ARC
  8
1
  6
CONTINUOUS
 62
40
 10
4.3715944E+002
 20
3.30034E+002
 40
1.5
 50
1.8E+002
 51
3.6E+002
  0
ARC
  8
1
  6
CONTINUOUS
 62
40
 10
4.9116056E+002
 20
2.86034E+002
 40
1.5
 50
0.0
 51
1.8E+002
  0
ARC
  8
1
  6
CONTINUOUS
 62
40
 10
4.3715944E+002
 20
2.86034E+002
 40
1.5
 50
0.0
 51
1.8E+002
  0
LINE
  8
1
  6
CONTINUOUS
 62
40
 10
3.52324E+002
 20
2.74034E+002
 11
3.49324E+002
 21
2.74034E+002
  0
LINE
  8
1
  6
CONTINUOUS
 62
40
 10
3.52324E+002
 20
3.42034E+002
 11
3.49324E+002
 21
3.42034E+002
  0
LINE
  8
1
  6
CONTINUOUS
 62
40
 10
3.49324E+002
 20
2.8383785E+002
 11
3.49324E+002
 21
2.74264E+002
  0
LINE
  8
1
  6
CONTINUOUS
 62
40
 10
3.49324E+002
 20
3.27034E+002
 11
3.49324E+002
 21
2.89034E+002
  0
LINE
  8
1
  6
CONTINUOUS
 62
40
 10
3.33324E+002
 20
2.80034E+002
 11
3.33324E+002
 21
2.70234E+002
  0
ARC
  8
1
  6
CONTINUOUS
 62
40
 10
4.9116056E+002
 20
3.33034E+002
 40
1.5
 50
0.0
 51
1.8E+002
  0
ARC
  8
1
  6
CONTINUOUS
 62
40
 10
4.3715944E+002
 20
3.33034E+002
 40
1.5
 50
0.0
 51
1.8E+002
  0
ARC
  8
1
  6
CONTINUOUS
 62
40
 10
4.9116056E+002
 20
2.83034E+002
 40
1.5
 50
1.8E+002
 51
3.6E+002
  0
LINE
  8
1
  6
CONTINUOUS
 62
40
 10
4.9266056E+002
 20
2.83034E+002
 11
4.9266056E+002
 21
2.86034E+002
  0
ARC
  8
1
  6
CONTINUOUS
 62
40
 10
4.3715944E+002
 20
2.83034E+002
 40
1.5
 50
1.8E+002
 51
3.6E+002
  0
LINE
  8
1
  6
CONTINUOUS
 62
40
 10
4.3565944E+002
 20
2.83034E+002
 11
4.3565944E+002
 21
2.86034E+002
  0
LINE
  8
1
  6
CONTINUOUS
 62
40
 10
4.3865944E+002
 20
2.86034E+002
 11
4.3865944E+002
 21
2.7827664E+002
  0
LINE
  8
1
  6
CONTINUOUS
 62
40
 10
4.8966056E+002
 20
2.86034E+002
 11
4.8966056E+002
 21
2.7827664E+002
  0
LINE
  8
1
  6
CONTINUOUS
 62
40
 10
4.8966056E+002
 20
3.30034E+002
 11
4.8966056E+002
 21
3.3779136E+002
  0
LINE
  8
1
  6
CONTINUOUS
 62
40
 10
4.3865944E+002
 20
3.30034E+002
 11
4.3865944E+002
 21
3.3779136E+002
  0
LINE
  8
1
  6
CONTINUOUS
 62
40
 10
5.1316E+002
 20
3.33034E+002
 11
4.9266056E+002
 21
3.33034E+002
  0
LINE
  8
1
  6
CONTINUOUS
 62
40
 10
4.3565944E+002
 20
3.33034E+002
 11
4.1516E+002
 21
3.33034E+002
  0
LINE
  8
1
  6
CONTINUOUS
 62
40
 10
4.3565944E+002
 20
2.83034E+002
 11
4.1516E+002
 21
2.83034E+002
  0
LINE
  8
1
  6
CONTINUOUS
 62
40
 10
5.1316E+002
 20
2.83034E+002
 11
4.9266056E+002
 21
2.83034E+002
  0
LINE
  8
1
  6
CONTINUOUS
 62
40
 10
4.4290208E+002
 20
3.42034E+002
 11
4.3865944E+002
 21
3.3779136E+002
  0
LINE
  8
1
  6
CONTINUOUS
 62
40
 10
4.8541792E+002
 20
3.42034E+002
 11
4.8966056E+002
 21
3.3779136E+002
  0
LINE
  8
1
  6
CONTINUOUS
 62
40
 10
4.8541792E+002
 20
2.74034E+002
 11
4.8966056E+002
 21
2.7827664E+002
  0
LINE
  8
1
  6
CONTINUOUS
 62
40
 10
4.4290208E+002
 20
2.74034E+002
 11
4.3865944E+002
 21
2.7827664E+002
  0
LINE
  8
1
  6
CONTINUOUS
 62
40
 10
4.1728132E+002
 20
2.70534E+002
 11
4.1516E+002
 21
2.7265532E+002
  0
LINE
  8
1
  6
CONTINUOUS
 62
40
 10
5.1103868E+002
 20
2.70534E+002
 11
5.1316E+002
 21
2.7265532E+002
  0
LINE
  8
1
  6
CONTINUOUS
 62
40
 10
5.1316E+002
 20
3.4341268E+002
 11
5.1103868E+002
 21
3.45534E+002
  0
LINE
  8
1
  6
CONTINUOUS
 62
40
 10
4.1516E+002
 20
3.4341268E+002
 11
4.1728132E+002
 21
3.45534E+002
  0
LINE
  8
1
  6
CONTINUOUS
 62
40
 10
3.8766E+002
 20
3.45834E+002
 11
5.4066E+002
 21
3.45834E+002
  0
LINE
  8
1
  6
CONTINUOUS
 62
40
 10
5.4066E+002
 20
3.25734E+002
 11
5.1316E+002
 21
3.25734E+002
  0
LINE
  8
1
  6
CONTINUOUS
 62
40
 10
5.4066E+002
 20
2.90334E+002
 11
5.1316E+002
 21
2.90334E+002
  0
LINE
  8
1
  6
CONTINUOUS
 62
40
 10
5.4066E+002
 20
2.74234E+002
 11
5.1366E+002
 21
2.74234E+002
  0
LINE
  8
1
  6
CONTINUOUS
 62
40
 10
5.8140968E+002
 20
1.6764E+001
 11
5.8140968E+002
 21
7.4553666E+001
  0
LINE
  8
1
  6
CONTINUOUS
 62
40
 10
2.2342563E+002
 20
7.4553666E+001
 11
5.8140968E+002
 21
7.4553666E+001
  0
LINE
  8
1
  6
CONTINUOUS
 62
40
 10
2.2361037E+002
 20
6.0561996E+001
 11
5.8140968E+002
 21
6.0561996E+001
  0
LINE
  8
1
  6
CONTINUOUS
 62
40
 10
3.3042459E+002
 20
4.2556668E+001
 11
5.8140968E+002
 21
4.2556668E+001
  0
TEXT
  8
1
  6
CONTINUOUS
 62
4
 10
4.62079E+002
 20
6.4461E+001
 40
6.0
  1
OT160ET4
  0
TEXT
  8
1
  6
CONTINUOUS
 62
40
 10
5.6024604E+002
 20
3.7409986E+001
 40
2.399759
  1
REVISION
 41
1.0000004
  0
TEXT
  8
1
  6
CONTINUOUS
 62
40
 10
5.667556E+002
 20
2.350319E+001
 40
1.0E+001
  1
A
  0
TEXT
  8
1
  6
CONTINUOUS
 62
40
 10
4.624853E+002
 20
3.2865902E+001
 40
5.0
  1
DXF_KUVAT
  0
TEXT
  8
1
  6
CONTINUOUS
 62
4
 10
4.6251481E+002
 20
2.2102562E+001
 40
5.0
  1
OT_16O
  0
LINE
  8
1
  6
CONTINUOUS
 62
40
 10
3.3042459E+002
 20
2.9568264E+001
 11
4.3341108E+002
 21
2.9568264E+001
  0
LINE
  8
1
  6
CONTINUOUS
 62
40
 10
2.8541307E+002
 20
6.0561996E+001
 11
2.8541307E+002
 21
7.4553666E+001
  0
CIRCLE
  8
1
  6
CONTINUOUS
 62
40
 10
3.084074E+002
 20
6.7557534E+001
 40
4.0130623
  0
CIRCLE
  8
1
  6
CONTINUOUS
 62
40
 10
3.084074E+002
 20
6.7557534E+001
 40
2.0065312
  0
LINE
  8
1
  6
CONTINUOUS
 62
40
 10
3.084074E+002
 20
6.2119464E+001
 11
3.084074E+002
 21
6.5630598E+001
  0
LINE
  8
1
  6
CONTINUOUS
 62
40
 10
3.084074E+002
 20
6.9167868E+001
 11
3.084074E+002
 21
7.2679596E+001
  0
LINE
  8
1
  6
CONTINUOUS
 62
40
 10
2.8842227E+002
 20
6.7557534E+001
 11
2.9124734E+002
 21
6.7557534E+001
  0
LINE
  8
1
  6
CONTINUOUS
 62
40
 10
2.9407181E+002
 20
6.7557534E+001
 11
2.9689687E+002
 21
6.7557534E+001
  0
LINE
  8
1
  6
CONTINUOUS
 62
40
 10
2.9689687E+002
 20
6.7557534E+001
 11
2.9972134E+002
 21
6.7557534E+001
  0
LINE
  8
1
  6
CONTINUOUS
 62
40
 10
3.025464E+002
 20
6.7557534E+001
 11
3.0537146E+002
 21
6.7557534E+001
  0
LINE
  8
1
  6
CONTINUOUS
 62
40
 10
3.0537146E+002
 20
6.7557534E+001
 11
3.0819593E+002
 21
6.7557534E+001
  0
LINE
  8
1
  6
CONTINUOUS
 62
40
 10
3.1102099E+002
 20
6.7557534E+001
 11
3.1387219E+002
 21
6.7557534E+001
  0
LINE
  8
1
  6
CONTINUOUS
 62
40
 10
3.00408E+002
 20
6.359793E+001
 11
3.00408E+002
 21
7.1570598E+001
  0
LINE
  8
1
  6
CONTINUOUS
 62
40
 10
2.9441514E+002
 20
6.5551596E+001
 11
2.9441514E+002
 21
6.9564066E+001
  0
LINE
  8
1
  6
CONTINUOUS
 62
40
 10
2.9441514E+002
 20
6.9564066E+001
 11
3.00408E+002
 21
7.1570598E+001
  0
TEXT
  8
1
  6
CONTINUOUS
 62
40
 10
3.1722473E+002
 20
7.0171134E+001
 40
2.399759
  1
PROJ
 41
1.0000004
  0
TEXT
  8
1
  6
CONTINUOUS
 62
40
 10
4.1281889E+002
 20
3.7171464E+001
 40
2.399759
  1
CHECKED
 41
1.0000004
  0
TEXT
  8
1
  6
CONTINUOUS
 62
40
 10
4.1002056E+002
 20
2.415633E+001
 40
2.399759
  1
APPROVED
 41
1.0000004
  0
LINE
  8
1
  6
CONTINUOUS
 62
40
 10
2.9441514E+002
 20
6.5551596E+001
 11
3.00408E+002
 21
6.359793E+001
  0
TEXT
  8
1
  6
CONTINUOUS
 62
40
 10
3.3142786E+002
 20
2.4050598E+001
 40
2.399759
  1
HYVÄKSYI
 41
1.0000004
  0
TEXT
  8
1
  6
CONTINUOUS
 62
40
 10
3.3142786E+002
 20
2.0459868E+001
 40
2.399759
  1
GODKÄND
 41
1.0000004
  0
TEXT
  8
1
  6
CONTINUOUS
 62
40
 10
3.3142786E+002
 20
3.7065732E+001
 40
2.399759
  1
TARKASTI
 41
1.0000004
  0
TEXT
  8
1
  6
CONTINUOUS
 62
40
 10
3.3142786E+002
 20
3.3448866E+001
 40
2.399759
  1
GRANSKAD
 41
1.0000004
  0
TEXT
  8
1
  6
CONTINUOUS
 62
40
 10
3.3142786E+002
 20
5.4753864E+001
 40
2.399759
  1
TEKI
 41
1.0000004
  0
TEXT
  8
1
  6
CONTINUOUS
 62
40
 10
3.3142786E+002
 20
5.1163134E+001
 40
2.399759
  1
RITAD
 41
1.0000004
  0
TEXT
  8
1
  6
CONTINUOUS
 62
40
 10
3.3142786E+002
 20
4.7572998E+001
 40
2.399759
  1
DRAWN
 41
1.0000004
  0
TEXT
  8
1
  6
CONTINUOUS
 62
40
 10
3.3142786E+002
 20
7.025073E+001
 40
2.399759
  1
OSASTO
 41
1.0000004
  0
TEXT
  8
1
  6
CONTINUOUS
 62
40
 10
3.3142786E+002
 20
6.666E+001
 40
2.399759
  1
AVDELNING
 41
1.0000004
  0
TEXT
  8
1
  6
CONTINUOUS
 62
40
 10
3.3142786E+002
 20
6.3069864E+001
 40
2.399759
  1
DEPARTMENT
 41
1.0000004
  0
TEXT
  8
1
  6
CONTINUOUS
 62
40
 10
4.3425509E+002
 20
3.7107277E+001
 40
2.399759
  1
PROJECT
 41
1.0000004
  0
TEXT
  8
1
  6
CONTINUOUS
 62
40
 10
4.3441435E+002
 20
2.6458707E+001
 40
2.399759
  1
LIBRARY
 41
1.0000004
  0
TEXT
  8
1
  6
CONTINUOUS
 62
40
 10
4.3441435E+002
 20
7.025073E+001
 40
2.399759
  1
LAJI
 41
1.0000004
  0
TEXT
  8
1
  6
CONTINUOUS
 62
40
 10
4.3441435E+002
 20
6.666E+001
 40
2.399759
  1
TYP
 41
1.0000004
  0
TEXT
  8
1
  6
CONTINUOUS
 62
40
 10
4.3441435E+002
 20
6.3069864E+001
 40
2.399759
  1
TYPE
 41
1.0000004
  0
TEXT
  8
1
  6
CONTINUOUS
 62
40
 10
3.6060968E+002
 20
5.2588396E+001
 40
5.0
  1
1997-09-02
  0
TEXT
  8
1
  6
CONTINUOUS
 62
40
 10
3.7772968E+002
 20
6.4088396E+001
 40
6.0
  1
LSO
  0
TEXT
  8
1
  6
CONTINUOUS
 62
30
 10
2.3009657E+002
 20
3.0165368E+001
 40
7.1
  1
Low Voltage Products
 41
6.35E-001
  0
LINE
  8
1
  6
CONTINUOUS
 62
40
 10
3.3042459E+002
 20
1.6368396E+001
 11
3.3042459E+002
 21
7.4553666E+001
  0
LINE
  8
1
  6
CONTINUOUS
 62
40
 10
4.3341108E+002
 20
1.6764E+001
 11
4.3341108E+002
 21
7.4553666E+001
  0
LINE
  8
1
  6
CONTINUOUS
 62
40
 10
5.8140968E+002
 20
1.6764E+001
 11
2.2342563E+002
 21
1.6764E+001
  0
LINE
  8
1
  6
CONTINUOUS
 62
40
 10
2.2342563E+002
 20
7.4553666E+001
 11
2.2342563E+002
 21
1.6764E+001
  0
TEXT
  8
1
  6
CONTINUOUS
 62
4
 10
4.6058E+002
 20
4.9095E+001
 40
6.0
  1
14 OT
  0
TEXT
  8
1
  6
CONTINUOUS
 62
40
 10
4.3441435E+002
 20
5.6331435E+001
 40
2.399759
  1
KIRJAUS
 41
1.0000004
  0
TEXT
  8
3
  6
CONTINUOUS
 62
30
 10
2.3086958E+002
 20
4.0021274E+001
 40
9.0
  1
ABB Oy
 41
7.62E-001
  0
TEXT
  8
3
  6
CONTINUOUS
 62
4
 10
3.54894E+002
 20
4.4973E+001
 40
5.0
  1
Matti Pussinen
  0
INSERT
  2
*TX38
  8
3
 10
5.33661E+002
 20
5.2843E+001
  0
ENDSEC
  0
EOF
