  0
SECTION
  2
HEADER
  9
$ACADVER
  1
AC1009
999
I-DEAS 11 NX Not Encoded
  9
$EXTMIN
 10
0.0
 20
0.0
  9
$EXTMAX
 10
4.2E+002
 20
2.97E+002
  9
$TEXTSIZE
 40
1.25E-001
  9
$LTSCALE
 40
1.0
  9
$CLAYER
  8
1
  9
$CECOLOR
 62
1
  9
$DIMASZ
 40
1.25E-001
  9
$DIMEXO
 40
6.25E-002
  9
$DIMDLI
 40
2.5E-001
  9
$DIMEXE
 40
1.25E-001
  9
$DIMTP
 40
5.0E-003
  9
$DIMTM
 40
-5.0E-003
  9
$DIMTXT
 40
3.0
  9
$DIMLIM
 70
0
  9
$DIMTIH
 70
1
  9
$DIMTOH
 70
1
  9
$DIMSE1
 70
0
  9
$DIMSE2
 70
0
  9
$DIMTAD
 70
0
  9
$DIMASO
 70
1
  9
$DIMALT
 70
0
  9
$DIMALTD
 70
0
  9
$DIMTOFL
 70
1
  9
$DIMTIX
 70
0
  9
$DIMSAH
 70
0
  9
$DIMTFAC
 40
1.0
  9
$DIMGAP
 40
6.25E-002
  9
$LUNITS
 70
2
  9
$LUPREC
 70
3
  9
$FILLETRAD
 40
1.0E+001
  9
$AUNITS
 70
0
  9
$AUPREC
 70
1
  9
$CHAMFERA
 40
6.0
  9
$CHAMFERB
 40
6.0
  9
$ANGBASE
 50
0.0
  9
$ANGDIR
 70
0
  9
$PEXTMIN
 10
0.0
 20
0.0
 30
0.0
  9
$PEXTMAX
 10
4.2E+002
 20
2.97E+002
 30
0.0
  9
$PLIMMIN
 10
0.0
 20
0.0
  9
$PLIMMAX
 10
4.2E+002
 20
2.97E+002
  9
$PDMODE
 70
2
  9
$PDSIZE
 40
-1.0E-002
  9
$SPLINETYPE
 70
6
  9
$TILEMODE
 70
1
  0
ENDSEC
  0
SECTION
  2
TABLES
  0
TABLE
  2
VPORT
 70
2
  0
VPORT
  2
*Active
 70
0
 10
0.0
 20
0.0
 11
4.2E+002
 21
2.97E+002
 12
2.1E+002
 22
1.485E+002
 13
0.0
 23
0.0
 14
1.0
 24
1.0
 15
0.0
 25
0.0
 16
0.0
 26
0.0
 36
1.0
 17
0.0
 27
0.0
 37
0.0
 40
2.97E+002
 41
1.4141414
 42
5.0E+001
 43
0.0
 44
0.0
 50
0.0
 51
0.0
 71
0
 72
100
 73
1
 74
3
 75
0
 76
0
 77
0
 78
0
  0
ENDTAB
  0
TABLE
  2
LTYPE
 70
7
  0
LTYPE
  2
HIDDENNEW0
  3
_ 
 70
64
 72
65
 73
3
 40
4.5
 49
1.5
 49
-1.5
 49
1.5
  0
LTYPE
  2
HIDDENNEW1
  3
_ 
 70
64
 72
65
 73
3
 40
4.5
 49
1.5
 49
-1.5
 49
1.5
  0
LTYPE
  2
HIDDEN
  3
_ 
 70
64
 72
65
 73
3
 40
4.5
 49
1.5
 49
-1.5
 49
1.5
  0
LTYPE
  2
CENTERLINE
  3
_ 
 70
64
 72
65
 73
5
 40
3.0E+001
 49
1.2E+001
 49
-1.5
 49
3.0
 49
-1.5
 49
1.2E+001
  0
LTYPE
  2
PHANTOM
  3
_ 
 70
64
 72
65
 73
7
 40
2.95E+001
 49
9.5
 49
-1.5
 49
3.0
 49
-1.5
 49
3.0
 49
-1.5
 49
9.5
  0
LTYPE
  2
SHORT_DASH
  3
_ 
 70
64
 72
65
 73
3
 40
3.0
 49
7.5E-001
 49
-1.5
 49
7.5E-001
  0
LTYPE
  2
LONG_DASH
  3
_ 
 70
64
 72
65
 73
3
 40
9.0
 49
2.25
 49
-4.5
 49
2.25
  0
ENDTAB
  0
TABLE
  2
LAYER
 70
258
  0
LAYER
  2
1
 70
0
 62
7
  6
CONTINUOUS
  0
LAYER
  2
2
 70
0
 62
7
  6
CONTINUOUS
  0
LAYER
  2
Drafting_Hidden_Entities
 70
1
 62
7
  6
CONTINUOUS
  0
ENDTAB
  0
TABLE
  2
STYLE
 70
1
  0
STYLE
  2
STANDARD
 70
64
 40
0.0
 41
1.0
 50
0.0
 71
0
 42
1.0
  3
monotxt.shx
  4

  0
ENDTAB
  0
TABLE
  2
VIEW
 70
0
  0
ENDTAB
  0
TABLE
  2
DIMSTYLE
 70
1
  0
DIMSTYLE
  2
DSTYLE1
 70
0
  3

  4

  5

  6

  7

 40
1.0
 41
3.5001001
 42
9.9990002E-001
 43
3.8E-001
 44
9.9990002E-001
 45
1.0E-002
 46
0.0
 47
0.0
 48
0.0
 71
0
 72
0
 73
0
 74
0
 75
0
 76
0
 77
1
 78
11
140
2.4999
141
9.0E-002
142
0.0
143
3.9370079E-002
144
1.0
145
0.0
146
1.0
147
9.9990002E-001
170
0
171
2
172
0
173
0
174
0
175
0
176
0
177
0
178
0
  0
ENDTAB
  0
ENDSEC
  0
SECTION
  2
BLOCKS
  0
BLOCK
  2
_AH12
  3
_AH
 10
0.0
 20
0.0
 70
64
  0
LINE
  8
0
  6
CONTINUOUS
 62
0
 10
0.0
 20
0.0
 11
1.0
 21
0.0
  0
LINE
  8
0
  6
CONTINUOUS
 62
0
 10
0.0
 20
0.0
 11
-1.0
 21
0.0
  0
ENDBLK
  0
BLOCK
  2
_AH13
  3
_AH
 10
0.0
 20
0.0
 70
64
  0
SOLID
  8
0
  6
CONTINUOUS
 62
0
 10
0.0
 20
0.0
 11
-1.0
 21
1.66667E-001
 12
-1.0
 22
-1.66667E-001
 13
0.0
 23
0.0
  0
ENDBLK
  0
BLOCK
  2
_AH14
  3
_AH
 10
0.0
 20
0.0
 70
64
  0
ENDBLK
  0
BLOCK
  2
_AH15
  3
_AH
 10
0.0
 20
0.0
 70
64
  0
CIRCLE
  8
0
  6
CONTINUOUS
 62
0
 10
0.0
 20
0.0
 40
1.66667E-001
  0
LINE
  8
0
  6
CONTINUOUS
 62
0
 10
0.0
 20
0.0
 11
-1.0
 21
0.0
  0
ENDBLK
  0
BLOCK
  2
_AH16
  3
_AH
 10
0.0
 20
0.0
 70
64
  0
POLYLINE
  8
0
  6
CONTINUOUS
 62
0
 66
1
 40
1.66667E-001
 41
1.66667E-001
 70
0
  0
VERTEX
  8
0
 42
1.0
 10
8.3335E-002
 20
0.0
 70
0
  0
VERTEX
  8
0
 42
1.0
 10
-8.3335E-002
 20
0.0
 70
0
  0
VERTEX
  8
0
 42
0.0
 10
8.3335E-002
 20
0.0
 70
0
  0
SEQEND
  0
LINE
  8
0
  6
CONTINUOUS
 62
0
 10
0.0
 20
0.0
 11
-1.0
 21
0.0
  0
ENDBLK
  0
BLOCK
  2
_AH17
  3
_AH
 10
0.0
 20
0.0
 70
64
  0
LINE
  8
0
  6
CONTINUOUS
 62
0
 10
-1.66667E-001
 20
-1.66667E-001
 11
1.66667E-001
 21
-1.66667E-001
  0
LINE
  8
0
  6
CONTINUOUS
 62
0
 10
1.66667E-001
 20
-1.66667E-001
 11
1.66667E-001
 21
1.66667E-001
  0
LINE
  8
0
  6
CONTINUOUS
 62
0
 10
1.66667E-001
 20
1.66667E-001
 11
-1.66667E-001
 21
1.66667E-001
  0
LINE
  8
0
  6
CONTINUOUS
 62
0
 10
-1.66667E-001
 20
1.66667E-001
 11
-1.66667E-001
 21
-1.66667E-001
  0
LINE
  8
0
  6
CONTINUOUS
 62
0
 10
0.0
 20
0.0
 11
-1.0
 21
0.0
  0
ENDBLK
  0
BLOCK
  2
_AH18
  3
_AH
 10
0.0
 20
0.0
 70
64
  0
SOLID
  8
0
  6
CONTINUOUS
 62
0
 10
-1.66667E-001
 20
-1.66667E-001
 11
1.66667E-001
 21
-1.66667E-001
 12
-1.66667E-001
 22
1.66667E-001
 13
1.66667E-001
 23
1.66667E-001
  0
LINE
  8
0
  6
CONTINUOUS
 62
0
 10
0.0
 20
0.0
 11
-1.0
 21
0.0
  0
ENDBLK
  0
BLOCK
  2
_AH19
  3
_AH
 10
0.0
 20
0.0
 70
64
  0
LINE
  8
0
  6
CONTINUOUS
 62
0
 10
-5.0E-001
 20
-5.0E-001
 11
5.0E-001
 21
5.0E-001
  0
LINE
  8
0
  6
CONTINUOUS
 62
0
 10
0.0
 20
0.0
 11
-1.0
 21
0.0
  0
ENDBLK
  0
BLOCK
  2
_AH20
  3
_AH
 10
0.0
 20
0.0
 70
64
  0
POLYLINE
  8
0
  6
CONTINUOUS
 62
0
 66
1
 40
5.0E-001
 41
5.0E-001
 70
0
  0
VERTEX
  8
0
 42
4.1421356E-001
 10
-1.66667E-001
 20
-1.66667E-001
 70
0
  0
VERTEX
  8
0
 42
0.0
 10
0.0
 20
0.0
 70
0
  0
SEQEND
  0
POLYLINE
  8
0
  6
CONTINUOUS
 62
0
 66
1
 40
5.0E-001
 41
5.0E-001
 70
0
  0
VERTEX
  8
0
 42
4.1421356E-001
 10
1.66667E-001
 20
1.66667E-001
 70
0
  0
VERTEX
  8
0
 42
0.0
 10
0.0
 20
0.0
 70
0
  0
SEQEND
  0
LINE
  8
0
  6
CONTINUOUS
 62
0
 10
0.0
 20
0.0
 11
-1.0
 21
0.0
  0
ENDBLK
  0
BLOCK
  2
_AH21
  3
_AH
 10
0.0
 20
0.0
 70
64
  0
LINE
  8
0
  6
CONTINUOUS
 62
0
 10
0.0
 20
0.0
 11
-1.0
 21
-1.66667E-001
  0
LINE
  8
0
  6
CONTINUOUS
 62
0
 10
-1.0
 20
-1.66667E-001
 11
-1.0
 21
1.66667E-001
  0
LINE
  8
0
  6
CONTINUOUS
 62
0
 10
-1.0
 20
1.66667E-001
 11
0.0
 21
0.0
  0
ENDBLK
  0
BLOCK
  2
CADRE_A3
 10
0.0
 20
0.0
 70
0
  0
POINT
  8
1
  6
CONTINUOUS
 62
1
 10
3.965E+002
 20
2.78E+002
  0
LINE
  8
1
  6
CONTINUOUS
 62
40
 10
2.3206571E+002
 20
2.3E+001
 11
2.338E+002
 21
2.3E+001
  0
LINE
  8
1
  6
CONTINUOUS
 62
3
 10
2.315E+002
 20
5.0E+001
 11
2.315E+002
 21
5.4E+001
  0
LINE
  8
1
  6
CONTINUOUS
 62
40
 10
3.535E+002
 20
5.0E+001
 11
3.965E+002
 21
5.0E+001
  0
LINE
  8
1
  6
CONTINUOUS
 62
40
 10
2.338E+002
 20
2.3E+001
 11
2.338E+002
 21
2.632E+001
  0
LINE
  8
1
  6
CONTINUOUS
 62
40
 10
2.338E+002
 20
2.632E+001
 11
2.3322771E+002
 21
2.632E+001
  0
LINE
  8
1
  6
CONTINUOUS
 62
40
 10
2.3322771E+002
 20
2.632E+001
 11
2.3206571E+002
 21
2.3E+001
  0
LINE
  8
1
  6
CONTINUOUS
 62
40
 10
2.3231941E+002
 20
2.318E+001
 11
2.3362E+002
 21
2.318E+001
  0
LINE
  8
1
  6
CONTINUOUS
 62
40
 10
2.3362E+002
 20
2.318E+001
 11
2.3362E+002
 21
2.614E+001
  0
LINE
  8
1
  6
CONTINUOUS
 62
40
 10
2.3362E+002
 20
2.614E+001
 11
2.3335541E+002
 21
2.614E+001
  0
LINE
  8
1
  6
CONTINUOUS
 62
40
 10
2.3335541E+002
 20
2.614E+001
 11
2.3231941E+002
 21
2.318E+001
  0
LINE
  8
1
  6
CONTINUOUS
 62
40
 10
2.3257312E+002
 20
2.336E+001
 11
2.3344E+002
 21
2.336E+001
  0
LINE
  8
1
  6
CONTINUOUS
 62
40
 10
2.3344E+002
 20
2.336E+001
 11
2.3344E+002
 21
2.5836801E+001
  0
LINE
  8
1
  6
CONTINUOUS
 62
40
 10
2.3344E+002
 20
2.5836801E+001
 11
2.3257312E+002
 21
2.336E+001
  0
LINE
  8
1
  6
CONTINUOUS
 62
40
 10
2.3282683E+002
 20
2.354E+001
 11
2.3326E+002
 21
2.354E+001
  0
LINE
  8
1
  6
CONTINUOUS
 62
40
 10
2.3326E+002
 20
2.354E+001
 11
2.3326E+002
 21
2.4777639E+001
  0
LINE
  8
1
  6
CONTINUOUS
 62
40
 10
2.3326E+002
 20
2.4777639E+001
 11
2.3282683E+002
 21
2.354E+001
  0
LINE
  8
1
  6
CONTINUOUS
 62
40
 10
2.3303825E+002
 20
2.369E+001
 11
2.3311E+002
 21
2.369E+001
  0
LINE
  8
1
  6
CONTINUOUS
 62
40
 10
2.3311E+002
 20
2.369E+001
 11
2.3311E+002
 21
2.3895004E+001
  0
LINE
  8
1
  6
CONTINUOUS
 62
40
 10
2.3311E+002
 20
2.3895004E+001
 11
2.3303825E+002
 21
2.369E+001
  0
LINE
  8
1
  6
CONTINUOUS
 62
40
 10
2.348E+002
 20
2.3E+001
 11
2.348E+002
 21
2.632E+001
  0
LINE
  8
1
  6
CONTINUOUS
 62
40
 10
2.348E+002
 20
2.632E+001
 11
2.3537229E+002
 21
2.632E+001
  0
LINE
  8
1
  6
CONTINUOUS
 62
40
 10
2.3537229E+002
 20
2.632E+001
 11
2.3653429E+002
 21
2.3E+001
  0
LINE
  8
1
  6
CONTINUOUS
 62
40
 10
2.3653429E+002
 20
2.3E+001
 11
2.348E+002
 21
2.3E+001
  0
LINE
  8
1
  6
CONTINUOUS
 62
40
 10
2.3498E+002
 20
2.318E+001
 11
2.3498E+002
 21
2.614E+001
  0
LINE
  8
1
  6
CONTINUOUS
 62
40
 10
2.3498E+002
 20
2.614E+001
 11
2.3524459E+002
 21
2.614E+001
  0
LINE
  8
1
  6
CONTINUOUS
 62
40
 10
2.3524459E+002
 20
2.614E+001
 11
2.3628059E+002
 21
2.318E+001
  0
LINE
  8
1
  6
CONTINUOUS
 62
40
 10
2.3628059E+002
 20
2.318E+001
 11
2.3498E+002
 21
2.318E+001
  0
LINE
  8
1
  6
CONTINUOUS
 62
40
 10
2.3516E+002
 20
2.336E+001
 11
2.3516E+002
 21
2.5836801E+001
  0
LINE
  8
1
  6
CONTINUOUS
 62
40
 10
2.3516E+002
 20
2.5836801E+001
 11
2.3602688E+002
 21
2.336E+001
  0
LINE
  8
1
  6
CONTINUOUS
 62
40
 10
2.3602688E+002
 20
2.336E+001
 11
2.3516E+002
 21
2.336E+001
  0
LINE
  8
1
  6
CONTINUOUS
 62
40
 10
2.3534E+002
 20
2.354E+001
 11
2.3534E+002
 21
2.4777639E+001
  0
LINE
  8
1
  6
CONTINUOUS
 62
40
 10
2.3534E+002
 20
2.4777639E+001
 11
2.3577317E+002
 21
2.354E+001
  0
LINE
  8
1
  6
CONTINUOUS
 62
40
 10
2.3577317E+002
 20
2.354E+001
 11
2.3534E+002
 21
2.354E+001
  0
LINE
  8
1
  6
CONTINUOUS
 62
40
 10
2.3556175E+002
 20
2.369E+001
 11
2.3549E+002
 21
2.369E+001
  0
LINE
  8
1
  6
CONTINUOUS
 62
40
 10
2.3549E+002
 20
2.369E+001
 11
2.3549E+002
 21
2.3895004E+001
  0
LINE
  8
1
  6
CONTINUOUS
 62
40
 10
2.3549E+002
 20
2.3895004E+001
 11
2.3556175E+002
 21
2.369E+001
  0
LINE
  8
1
  6
CONTINUOUS
 62
40
 10
2.3055371E+002
 20
1.868E+001
 11
2.3171571E+002
 21
2.2E+001
  0
LINE
  8
1
  6
CONTINUOUS
 62
3
 10
2.255E+002
 20
1.5E+001
 11
2.255E+002
 21
5.8E+001
  0
LINE
  8
1
  6
CONTINUOUS
 62
3
 10
2.255E+002
 20
5.8E+001
 11
3.965E+002
 21
5.8E+001
  0
LINE
  8
1
  6
CONTINUOUS
 62
3
 10
2.255E+002
 20
5.4E+001
 11
3.965E+002
 21
5.4E+001
  0
LINE
  8
1
  6
CONTINUOUS
 62
3
 10
2.255E+002
 20
5.0E+001
 11
3.535E+002
 21
5.0E+001
  0
LINE
  8
1
  6
CONTINUOUS
 62
40
 10
2.315E+002
 20
4.6E+001
 11
3.385E+002
 21
4.6E+001
  0
LINE
  8
1
  6
CONTINUOUS
 62
40
 10
2.315E+002
 20
4.2E+001
 11
3.385E+002
 21
4.2E+001
  0
LINE
  8
1
  6
CONTINUOUS
 62
40
 10
2.315E+002
 20
3.8E+001
 11
3.385E+002
 21
3.8E+001
  0
LINE
  8
1
  6
CONTINUOUS
 62
40
 10
2.315E+002
 20
3.4E+001
 11
3.385E+002
 21
3.4E+001
  0
LINE
  8
1
  6
CONTINUOUS
 62
3
 10
2.255E+002
 20
3.0E+001
 11
3.965E+002
 21
3.0E+001
  0
LINE
  8
1
  6
CONTINUOUS
 62
3
 10
2.555E+002
 20
2.6E+001
 11
3.385E+002
 21
2.6E+001
  0
LINE
  8
1
  6
CONTINUOUS
 62
3
 10
3.385E+002
 20
2.3E+001
 11
3.965E+002
 21
2.3E+001
  0
LINE
  8
1
  6
CONTINUOUS
 62
40
 10
2.315E+002
 20
3.0E+001
 11
2.315E+002
 21
5.0E+001
  0
LINE
  8
1
  6
CONTINUOUS
 62
3
 10
2.345E+002
 20
5.4E+001
 11
2.345E+002
 21
5.8E+001
  0
LINE
  8
1
  6
CONTINUOUS
 62
40
 10
2.385E+002
 20
3.0E+001
 11
2.385E+002
 21
5.0E+001
  0
LINE
  8
1
  6
CONTINUOUS
 62
3
 10
2.555E+002
 20
1.5E+001
 11
2.555E+002
 21
3.0E+001
  0
LINE
  8
1
  6
CONTINUOUS
 62
3
 10
2.685E+002
 20
5.4E+001
 11
2.685E+002
 21
5.8E+001
  0
LINE
  8
1
  6
CONTINUOUS
 62
3
 10
2.715E+002
 20
5.0E+001
 11
2.715E+002
 21
5.4E+001
  0
LINE
  8
1
  6
CONTINUOUS
 62
3
 10
2.785E+002
 20
5.4E+001
 11
2.785E+002
 21
5.8E+001
  0
LINE
  8
1
  6
CONTINUOUS
 62
3
 10
3.115E+002
 20
5.0E+001
 11
3.115E+002
 21
5.8E+001
  0
LINE
  8
1
  6
CONTINUOUS
 62
3
 10
3.215E+002
 20
5.4E+001
 11
3.215E+002
 21
5.8E+001
  0
LINE
  8
1
  6
CONTINUOUS
 62
3
 10
3.385E+002
 20
1.5E+001
 11
3.385E+002
 21
5.0E+001
  0
LINE
  8
1
  6
CONTINUOUS
 62
3
 10
3.445E+002
 20
2.3E+001
 11
3.445E+002
 21
2.6107786E+001
  0
LINE
  8
1
  6
CONTINUOUS
 62
3
 10
3.505E+002
 20
2.3E+001
 11
3.505E+002
 21
3.0E+001
  0
LINE
  8
1
  6
CONTINUOUS
 62
3
 10
3.535E+002
 20
3.0E+001
 11
3.535E+002
 21
5.8E+001
  0
LINE
  8
1
  6
CONTINUOUS
 62
3
 10
3.565E+002
 20
2.3E+001
 11
3.565E+002
 21
2.6107786E+001
  0
LINE
  8
1
  6
CONTINUOUS
 62
3
 10
1.95E+001
 20
2.78E+002
 11
1.95E+001
 21
1.5E+001
  0
LINE
  8
1
  6
CONTINUOUS
 62
3
 10
1.95E+001
 20
1.5E+001
 11
3.965E+002
 21
1.5E+001
  0
LINE
  8
1
  6
CONTINUOUS
 62
3
 10
3.625E+002
 20
2.3E+001
 11
3.625E+002
 21
3.0E+001
  0
LINE
  8
1
  6
CONTINUOUS
 62
3
 10
3.635E+002
 20
5.4E+001
 11
3.635E+002
 21
5.8E+001
  0
LINE
  8
1
  6
CONTINUOUS
 62
3
 10
3.735E+002
 20
2.3E+001
 11
3.735E+002
 21
3.0E+001
  0
LINE
  8
1
  6
CONTINUOUS
 62
3
 10
3.855E+002
 20
2.3E+001
 11
3.855E+002
 21
3.0E+001
  0
LINE
  8
1
  6
CONTINUOUS
 62
40
 10
3.93E+002
 20
5.35E+001
 11
3.96E+002
 21
5.35E+001
  0
LINE
  8
1
  6
CONTINUOUS
 62
40
 10
3.96E+002
 20
5.35E+001
 11
3.96E+002
 21
5.05E+001
  0
LINE
  8
1
  6
CONTINUOUS
 62
40
 10
3.93E+002
 20
5.05E+001
 11
3.96E+002
 21
5.05E+001
  0
LINE
  8
1
  6
CONTINUOUS
 62
40
 10
3.93E+002
 20
5.35E+001
 11
3.93E+002
 21
5.05E+001
  0
LINE
  8
1
  6
CONTINUOUS
 62
40
 10
3.93E+002
 20
4.95E+001
 11
3.93E+002
 21
4.65E+001
  0
LINE
  8
1
  6
CONTINUOUS
 62
40
 10
3.93E+002
 20
4.65E+001
 11
3.96E+002
 21
4.65E+001
  0
LINE
  8
1
  6
CONTINUOUS
 62
40
 10
3.96E+002
 20
4.95E+001
 11
3.96E+002
 21
4.65E+001
  0
LINE
  8
1
  6
CONTINUOUS
 62
40
 10
3.93E+002
 20
4.95E+001
 11
3.96E+002
 21
4.95E+001
  0
LINE
  8
1
  6
CONTINUOUS
 62
40
 10
3.93E+002
 20
4.55E+001
 11
3.93E+002
 21
4.25E+001
  0
LINE
  8
1
  6
CONTINUOUS
 62
40
 10
3.93E+002
 20
4.25E+001
 11
3.96E+002
 21
4.25E+001
  0
LINE
  8
1
  6
CONTINUOUS
 62
3
 10
3.965E+002
 20
1.5E+001
 11
3.965E+002
 21
2.78E+002
  0
LINE
  8
1
  6
CONTINUOUS
 62
3
 10
3.965E+002
 20
2.78E+002
 11
1.95E+001
 21
2.78E+002
  0
LINE
  8
1
  6
CONTINUOUS
 62
40
 10
3.96E+002
 20
4.55E+001
 11
3.96E+002
 21
4.25E+001
  0
LINE
  8
1
  6
CONTINUOUS
 62
40
 10
3.93E+002
 20
4.55E+001
 11
3.96E+002
 21
4.55E+001
  0
LINE
  8
1
  6
CONTINUOUS
 62
40
 10
3.965E+002
 20
1.5E+001
 11
4.005E+002
 21
1.5E+001
  0
LINE
  8
1
  6
CONTINUOUS
 62
40
 10
3.965E+002
 20
1.8E+001
 11
4.005E+002
 21
1.8E+001
  0
LINE
  8
1
  6
CONTINUOUS
 62
40
 10
3.965E+002
 20
2.1E+001
 11
4.005E+002
 21
2.1E+001
  0
LINE
  8
1
  6
CONTINUOUS
 62
40
 10
3.965E+002
 20
2.4E+001
 11
4.005E+002
 21
2.4E+001
  0
LINE
  8
1
  6
CONTINUOUS
 62
40
 10
3.965E+002
 20
2.7E+001
 11
4.005E+002
 21
2.7E+001
  0
LINE
  8
1
  6
CONTINUOUS
 62
40
 10
3.965E+002
 20
3.0E+001
 11
4.005E+002
 21
3.0E+001
  0
LINE
  8
1
  6
CONTINUOUS
 62
40
 10
2.331E+002
 20
2.65E+001
 11
2.3398E+002
 21
2.65E+001
  0
LINE
  8
1
  6
CONTINUOUS
 62
40
 10
8.65E+001
 20
2.78E+002
 11
8.65E+001
 21
2.66E+002
  0
LINE
  8
1
  6
CONTINUOUS
 62
3
 10
1.535E+002
 20
2.66E+002
 11
1.535E+002
 21
2.78E+002
  0
LINE
  8
1
  6
CONTINUOUS
 62
3
 10
1.535E+002
 20
2.66E+002
 11
1.95E+001
 21
2.66E+002
  0
LINE
  8
1
  6
CONTINUOUS
 62
40
 10
2.323E+002
 20
1.85E+001
 11
2.303E+002
 21
1.85E+001
  0
LINE
  8
1
  6
CONTINUOUS
 62
40
 10
2.3171571E+002
 20
2.2E+001
 11
2.338E+002
 21
2.2E+001
  0
LINE
  8
1
  6
CONTINUOUS
 62
40
 10
2.303E+002
 20
1.85E+001
 11
2.31588E+002
 21
2.218E+001
  0
LINE
  8
1
  6
CONTINUOUS
 62
40
 10
2.355E+002
 20
2.65E+001
 11
2.36788E+002
 21
2.282E+001
  0
LINE
  8
1
  6
CONTINUOUS
 62
40
 10
2.3574E+002
 20
2.01E+001
 11
2.363E+002
 21
1.85E+001
  0
LINE
  8
1
  6
CONTINUOUS
 62
40
 10
2.323E+002
 20
1.85E+001
 11
2.3286E+002
 21
2.01E+001
  0
LINE
  8
1
  6
CONTINUOUS
 62
40
 10
2.3886E+002
 20
1.85E+001
 11
2.4094E+002
 21
1.85E+001
  0
LINE
  8
1
  6
CONTINUOUS
 62
40
 10
2.3886E+002
 20
2.65E+001
 11
2.4094E+002
 21
2.65E+001
  0
LINE
  8
1
  6
CONTINUOUS
 62
40
 10
2.3286E+002
 20
2.01E+001
 11
2.3398E+002
 21
2.01E+001
  0
LINE
  8
1
  6
CONTINUOUS
 62
40
 10
2.363E+002
 20
1.85E+001
 11
2.383E+002
 21
1.85E+001
  0
LINE
  8
1
  6
CONTINUOUS
 62
40
 10
2.31588E+002
 20
2.218E+001
 11
2.3398E+002
 21
2.218E+001
  0
LINE
  8
1
  6
CONTINUOUS
 62
40
 10
2.31812E+002
 20
2.282E+001
 11
2.3398E+002
 21
2.282E+001
  0
LINE
  8
1
  6
CONTINUOUS
 62
40
 10
6.119113E+001
 20
2.7118273E+002
 11
6.419113E+001
 21
2.7118273E+002
  0
LINE
  8
1
  6
CONTINUOUS
 62
40
 10
6.419113E+001
 20
2.7118273E+002
 11
6.419113E+001
 21
2.6818273E+002
  0
LINE
  8
1
  6
CONTINUOUS
 62
40
 10
2.3398E+002
 20
2.01E+001
 11
2.3398E+002
 21
2.218E+001
  0
LINE
  8
1
  6
CONTINUOUS
 62
40
 10
2.3462E+002
 20
2.01E+001
 11
2.3462E+002
 21
2.218E+001
  0
LINE
  8
1
  6
CONTINUOUS
 62
40
 10
2.3462E+002
 20
2.01E+001
 11
2.3574E+002
 21
2.01E+001
  0
LINE
  8
1
  6
CONTINUOUS
 62
40
 10
2.3462E+002
 20
2.218E+001
 11
2.37012E+002
 21
2.218E+001
  0
LINE
  8
1
  6
CONTINUOUS
 62
40
 10
2.31812E+002
 20
2.282E+001
 11
2.331E+002
 21
2.65E+001
  0
LINE
  8
1
  6
CONTINUOUS
 62
40
 10
2.3462E+002
 20
2.282E+001
 11
2.36788E+002
 21
2.282E+001
  0
LINE
  8
1
  6
CONTINUOUS
 62
40
 10
2.3462E+002
 20
2.282E+001
 11
2.3462E+002
 21
2.65E+001
  0
LINE
  8
1
  6
CONTINUOUS
 62
40
 10
2.3398E+002
 20
2.282E+001
 11
2.3398E+002
 21
2.65E+001
  0
LINE
  8
1
  6
CONTINUOUS
 62
40
 10
2.355E+002
 20
2.65E+001
 11
2.3462E+002
 21
2.65E+001
  0
LINE
  8
1
  6
CONTINUOUS
 62
40
 10
2.37012E+002
 20
2.218E+001
 11
2.383E+002
 21
1.85E+001
  0
LINE
  8
1
  6
CONTINUOUS
 62
40
 10
2.3886E+002
 20
1.85E+001
 11
2.3886E+002
 21
2.218E+001
  0
LINE
  8
1
  6
CONTINUOUS
 62
40
 10
6.119113E+001
 20
2.6818273E+002
 11
6.419113E+001
 21
2.6818273E+002
  0
LINE
  8
1
  6
CONTINUOUS
 62
40
 10
6.119113E+001
 20
2.7118273E+002
 11
6.119113E+001
 21
2.6818273E+002
  0
LINE
  8
1
  6
CONTINUOUS
 62
40
 10
5.171513E+001
 20
2.7118273E+002
 11
5.471513E+001
 21
2.7118273E+002
  0
ARC
  8
1
  6
CONTINUOUS
 62
40
 10
2.4206E+002
 20
2.47E+001
 40
1.8
 50
2.9938468E+002
 51
4.5E+002
  0
ARC
  8
1
  6
CONTINUOUS
 62
40
 10
2.4206E+002
 20
2.09E+001
 40
2.4
 50
2.7E+002
 51
3.9223095E+002
  0
LINE
  8
1
  6
CONTINUOUS
 62
40
 10
5.471513E+001
 20
2.7118273E+002
 11
5.471513E+001
 21
2.6818273E+002
  0
LINE
  8
1
  6
CONTINUOUS
 62
40
 10
5.171513E+001
 20
2.6818273E+002
 11
5.471513E+001
 21
2.6818273E+002
  0
LINE
  8
1
  6
CONTINUOUS
 62
40
 10
2.435E+002
 20
2.282E+001
 11
2.4158E+002
 21
2.282E+001
  0
LINE
  8
1
  6
CONTINUOUS
 62
40
 10
2.4409017E+002
 20
2.218E+001
 11
2.4158E+002
 21
2.218E+001
  0
LINE
  8
1
  6
CONTINUOUS
 62
40
 10
2.4158E+002
 20
1.85E+001
 11
2.4158E+002
 21
2.218E+001
  0
LINE
  8
1
  6
CONTINUOUS
 62
40
 10
2.4094E+002
 20
1.85E+001
 11
2.4094E+002
 21
2.218E+001
  0
LINE
  8
1
  6
CONTINUOUS
 62
40
 10
2.4158E+002
 20
2.65E+001
 11
2.4206E+002
 21
2.65E+001
  0
LINE
  8
1
  6
CONTINUOUS
 62
40
 10
2.4094E+002
 20
2.282E+001
 11
2.3886E+002
 21
2.282E+001
  0
LINE
  8
1
  6
CONTINUOUS
 62
40
 10
2.4094E+002
 20
2.218E+001
 11
2.3886E+002
 21
2.218E+001
  0
LINE
  8
1
  6
CONTINUOUS
 62
40
 10
2.4158E+002
 20
1.85E+001
 11
2.4206E+002
 21
1.85E+001
  0
LINE
  8
1
  6
CONTINUOUS
 62
40
 10
2.3886E+002
 20
2.282E+001
 11
2.3886E+002
 21
2.65E+001
  0
LINE
  8
1
  6
CONTINUOUS
 62
40
 10
5.171513E+001
 20
2.7118273E+002
 11
5.171513E+001
 21
2.6818273E+002
  0
LINE
  8
1
  6
CONTINUOUS
 62
40
 10
2.4094E+002
 20
2.282E+001
 11
2.4094E+002
 21
2.65E+001
  0
LINE
  8
1
  6
CONTINUOUS
 62
40
 10
2.4158E+002
 20
2.282E+001
 11
2.4158E+002
 21
2.65E+001
  0
ARC
  8
1
  6
CONTINUOUS
 62
40
 10
2.4206E+002
 20
2.09E+001
 40
2.4
 50
5.3130102E+001
 51
6.8407484E+001
  0
LINE
  8
1
  6
CONTINUOUS
 62
40
 10
2.451E+002
 20
1.85E+001
 11
2.451E+002
 21
2.218E+001
  0
LINE
  8
1
  6
CONTINUOUS
 62
40
 10
2.4718E+002
 20
2.218E+001
 11
2.451E+002
 21
2.218E+001
  0
LINE
  8
1
  6
CONTINUOUS
 62
40
 10
2.4718E+002
 20
1.85E+001
 11
2.4718E+002
 21
2.218E+001
  0
LINE
  8
1
  6
CONTINUOUS
 62
40
 10
1.275E+002
 20
2.69E+002
 11
1.305E+002
 21
2.69E+002
  0
LINE
  8
1
  6
CONTINUOUS
 62
40
 10
2.451E+002
 20
1.85E+001
 11
2.4718E+002
 21
1.85E+001
  0
LINE
  8
1
  6
CONTINUOUS
 62
40
 10
2.4782E+002
 20
1.85E+001
 11
2.4782E+002
 21
2.218E+001
  0
LINE
  8
1
  6
CONTINUOUS
 62
40
 10
2.5033017E+002
 20
2.218E+001
 11
2.4782E+002
 21
2.218E+001
  0
LINE
  8
1
  6
CONTINUOUS
 62
40
 10
1.305E+002
 20
2.72E+002
 11
1.305E+002
 21
2.69E+002
  0
LINE
  8
1
  6
CONTINUOUS
 62
40
 10
1.275E+002
 20
2.72E+002
 11
1.305E+002
 21
2.72E+002
  0
LINE
  8
1
  6
CONTINUOUS
 62
40
 10
1.275E+002
 20
2.72E+002
 11
1.275E+002
 21
2.69E+002
  0
ARC
  8
1
  6
CONTINUOUS
 62
40
 10
2.483E+002
 20
2.09E+001
 40
2.4
 50
2.7E+002
 51
3.9223095E+002
  0
LINE
  8
1
  6
CONTINUOUS
 62
40
 10
1.405E+002
 20
2.69E+002
 11
1.435E+002
 21
2.69E+002
  0
LINE
  8
1
  6
CONTINUOUS
 62
40
 10
2.4782E+002
 20
1.85E+001
 11
2.483E+002
 21
1.85E+001
  0
LINE
  8
1
  6
CONTINUOUS
 62
40
 10
2.451E+002
 20
2.282E+001
 11
2.451E+002
 21
2.65E+001
  0
LINE
  8
1
  6
CONTINUOUS
 62
40
 10
2.451E+002
 20
2.65E+001
 11
2.4718E+002
 21
2.65E+001
  0
LINE
  8
1
  6
CONTINUOUS
 62
40
 10
2.4718E+002
 20
2.282E+001
 11
2.4718E+002
 21
2.65E+001
  0
LINE
  8
1
  6
CONTINUOUS
 62
40
 10
2.4718E+002
 20
2.282E+001
 11
2.451E+002
 21
2.282E+001
  0
LINE
  8
1
  6
CONTINUOUS
 62
40
 10
2.4782E+002
 20
2.282E+001
 11
2.4782E+002
 21
2.65E+001
  0
LINE
  8
1
  6
CONTINUOUS
 62
40
 10
2.4782E+002
 20
2.65E+001
 11
2.483E+002
 21
2.65E+001
  0
ARC
  8
1
  6
CONTINUOUS
 62
40
 10
2.483E+002
 20
2.47E+001
 40
1.8
 50
2.9938468E+002
 51
4.5E+002
  0
LINE
  8
1
  6
CONTINUOUS
 62
40
 10
1.435E+002
 20
2.72E+002
 11
1.435E+002
 21
2.69E+002
  0
ARC
  8
1
  6
CONTINUOUS
 62
40
 10
2.483E+002
 20
2.09E+001
 40
2.4
 50
5.3130102E+001
 51
6.8407484E+001
  0
LINE
  8
1
  6
CONTINUOUS
 62
40
 10
2.4974E+002
 20
2.282E+001
 11
2.4782E+002
 21
2.282E+001
  0
LINE
  8
1
  6
CONTINUOUS
 62
40
 10
1.405E+002
 20
2.72E+002
 11
1.435E+002
 21
2.72E+002
  0
TEXT
  8
1
  6
CONTINUOUS
 62
40
 10
3.1542442E+001
 20
2.7305173E+002
 40
2.5
  1
Tolerances generales selon ISO 2768
 41
5.0E-001
  0
TEXT
  8
1
  6
CONTINUOUS
 62
40
 10
2.2529304E+001
 20
2.6829203E+002
 40
2.5
  1
Degre de precision   f      m       c       v
 41
5.0E-001
  0
TEXT
  8
1
  6
CONTINUOUS
 62
40
 10
8.9794943E+001
 20
2.736093E+002
 40
2.5
  1
Tolerances generales sur pieces moulees selon
 41
5.0E-001
  0
TEXT
  8
1
  6
CONTINUOUS
 62
40
 10
8.9794943E+001
 20
2.691093E+002
 40
2.5
  1
Din 16901 (FPTC 407364)   130       140   
 41
5.0E-001
  0
LINE
  8
1
  6
CONTINUOUS
 62
40
 10
2.338E+002
 20
2.2E+001
 11
2.338E+002
 21
2.028E+001
  0
LINE
  8
1
  6
CONTINUOUS
 62
40
 10
7.066713E+001
 20
2.6818273E+002
 11
7.366713E+001
 21
2.6818273E+002
  0
LINE
  8
1
  6
CONTINUOUS
 62
40
 10
1.405E+002
 20
2.72E+002
 11
1.405E+002
 21
2.69E+002
  0
LINE
  8
1
  6
CONTINUOUS
 62
40
 10
2.338E+002
 20
2.028E+001
 11
2.3273229E+002
 21
2.028E+001
  0
LINE
  8
1
  6
CONTINUOUS
 62
40
 10
2.3273229E+002
 20
2.028E+001
 11
2.3217229E+002
 21
1.868E+001
  0
LINE
  8
1
  6
CONTINUOUS
 62
40
 10
1.95E+001
 20
2.78E+002
 11
2.1E+001
 21
2.8167156E+002
  0
LINE
  8
1
  6
CONTINUOUS
 62
40
 10
2.1E+001
 20
2.8167156E+002
 11
2.25E+001
 21
2.78E+002
  0
LINE
  8
1
  6
CONTINUOUS
 62
40
 10
2.155E+002
 20
2.78E+002
 11
2.17E+002
 21
2.8167156E+002
  0
LINE
  8
1
  6
CONTINUOUS
 62
40
 10
2.17E+002
 20
2.8167156E+002
 11
2.185E+002
 21
2.78E+002
  0
LINE
  8
1
  6
CONTINUOUS
 62
40
 10
1.95E+001
 20
1.5E+001
 11
2.1E+001
 21
1.1328442E+001
  0
LINE
  8
1
  6
CONTINUOUS
 62
40
 10
2.1E+001
 20
1.1328442E+001
 11
2.25E+001
 21
1.5E+001
  0
LINE
  8
1
  6
CONTINUOUS
 62
40
 10
2.155E+002
 20
1.5E+001
 11
2.17E+002
 21
1.1328442E+001
  0
LINE
  8
1
  6
CONTINUOUS
 62
40
 10
2.17E+002
 20
1.1328442E+001
 11
2.185E+002
 21
1.5E+001
  0
LINE
  8
1
  6
CONTINUOUS
 62
40
 10
2.3217229E+002
 20
1.868E+001
 11
2.3055371E+002
 21
1.868E+001
  0
LINE
  8
1
  6
CONTINUOUS
 62
40
 10
2.3080741E+002
 20
1.886E+001
 11
2.3184341E+002
 21
2.182E+001
  0
LINE
  8
1
  6
CONTINUOUS
 62
40
 10
2.3184341E+002
 20
2.182E+001
 11
2.3362E+002
 21
2.182E+001
  0
LINE
  8
1
  6
CONTINUOUS
 62
40
 10
2.3362E+002
 20
2.182E+001
 11
2.3362E+002
 21
2.046E+001
  0
LINE
  8
1
  6
CONTINUOUS
 62
40
 10
2.3362E+002
 20
2.046E+001
 11
2.3260459E+002
 21
2.046E+001
  0
LINE
  8
1
  6
CONTINUOUS
 62
40
 10
2.3260459E+002
 20
2.046E+001
 11
2.3204459E+002
 21
1.886E+001
  0
LINE
  8
1
  6
CONTINUOUS
 62
40
 10
2.3204459E+002
 20
1.886E+001
 11
2.3080741E+002
 21
1.886E+001
  0
LINE
  8
1
  6
CONTINUOUS
 62
40
 10
2.3106112E+002
 20
1.904E+001
 11
2.3197112E+002
 21
2.164E+001
  0
LINE
  8
1
  6
CONTINUOUS
 62
40
 10
2.3197112E+002
 20
2.164E+001
 11
2.3344E+002
 21
2.164E+001
  0
LINE
  8
1
  6
CONTINUOUS
 62
40
 10
2.3344E+002
 20
2.164E+001
 11
2.3344E+002
 21
2.064E+001
  0
LINE
  8
1
  6
CONTINUOUS
 62
40
 10
2.3344E+002
 20
2.064E+001
 11
2.3247688E+002
 21
2.064E+001
  0
LINE
  8
1
  6
CONTINUOUS
 62
40
 10
2.3247688E+002
 20
2.064E+001
 11
2.3191688E+002
 21
1.904E+001
  0
LINE
  8
1
  6
CONTINUOUS
 62
40
 10
2.3191688E+002
 20
1.904E+001
 11
2.3106112E+002
 21
1.904E+001
  0
LINE
  8
1
  6
CONTINUOUS
 62
40
 10
2.3131483E+002
 20
1.922E+001
 11
2.3209883E+002
 21
2.146E+001
  0
LINE
  8
1
  6
CONTINUOUS
 62
40
 10
2.3209883E+002
 20
2.146E+001
 11
2.3326E+002
 21
2.146E+001
  0
LINE
  8
1
  6
CONTINUOUS
 62
40
 10
2.3326E+002
 20
2.146E+001
 11
2.3326E+002
 21
2.082E+001
  0
LINE
  8
1
  6
CONTINUOUS
 62
40
 10
2.3326E+002
 20
2.082E+001
 11
2.3234917E+002
 21
2.082E+001
  0
LINE
  8
1
  6
CONTINUOUS
 62
40
 10
2.3234917E+002
 20
2.082E+001
 11
2.3178917E+002
 21
1.922E+001
  0
LINE
  8
1
  6
CONTINUOUS
 62
40
 10
2.3178917E+002
 20
1.922E+001
 11
2.3131483E+002
 21
1.922E+001
  0
LINE
  8
1
  6
CONTINUOUS
 62
40
 10
7.366713E+001
 20
2.7118273E+002
 11
7.366713E+001
 21
2.6818273E+002
  0
LINE
  8
1
  6
CONTINUOUS
 62
40
 10
7.066713E+001
 20
2.7118273E+002
 11
7.366713E+001
 21
2.7118273E+002
  0
LINE
  8
1
  6
CONTINUOUS
 62
40
 10
7.066713E+001
 20
2.7118273E+002
 11
7.066713E+001
 21
2.6818273E+002
  0
LINE
  8
1
  6
CONTINUOUS
 62
40
 10
8.014313E+001
 20
2.6818273E+002
 11
8.314313E+001
 21
2.6818273E+002
  0
LINE
  8
1
  6
CONTINUOUS
 62
40
 10
8.314313E+001
 20
2.7118273E+002
 11
8.314313E+001
 21
2.6818273E+002
  0
LINE
  8
1
  6
CONTINUOUS
 62
40
 10
2.3156853E+002
 20
1.94E+001
 11
2.3222653E+002
 21
2.128E+001
  0
LINE
  8
1
  6
CONTINUOUS
 62
40
 10
2.3222653E+002
 20
2.128E+001
 11
2.3308E+002
 21
2.128E+001
  0
TEXT
  8
1
  6
CONTINUOUS
 62
40
 10
3.1283055E+002
 20
5.6201294E+001
 40
1.45
  1
Controle
 41
6.0E-001
  0
TEXT
  8
1
  6
CONTINUOUS
 62
40
 10
3.1283055E+002
 20
5.4461294E+001
 40
1.45
  1
Normes
 41
6.0E-001
  0
TEXT
  8
1
  6
CONTINUOUS
 62
40
 10
3.1283055E+002
 20
5.2201294E+001
 40
1.45
  1
Remplace
 41
6.0E-001
  0
TEXT
  8
1
  6
CONTINUOUS
 62
40
 10
3.1283055E+002
 20
5.0461294E+001
 40
1.45
  1
par :
 41
6.0E-001
  0
TEXT
  8
1
  6
CONTINUOUS
 62
40
 10
3.5483055E+002
 20
5.6201294E+001
 40
1.45
  1
Bon pour
 41
6.0E-001
  0
TEXT
  8
1
  6
CONTINUOUS
 62
40
 10
3.5483055E+002
 20
5.4461294E+001
 40
1.45
  1
execution
 41
6.0E-001
  0
LINE
  8
1
  6
CONTINUOUS
 62
40
 10
8.014313E+001
 20
2.7118273E+002
 11
8.314313E+001
 21
2.7118273E+002
  0
LINE
  8
1
  6
CONTINUOUS
 62
40
 10
2.3308E+002
 20
2.128E+001
 11
2.3308E+002
 21
2.1E+001
  0
LINE
  8
1
  6
CONTINUOUS
 62
40
 10
2.3308E+002
 20
2.1E+001
 11
2.3222147E+002
 21
2.1E+001
  0
LINE
  8
1
  6
CONTINUOUS
 62
40
 10
2.3222147E+002
 20
2.1E+001
 11
2.3166147E+002
 21
1.94E+001
  0
LINE
  8
1
  6
CONTINUOUS
 62
40
 10
2.3166147E+002
 20
1.94E+001
 11
2.3156853E+002
 21
1.94E+001
  0
LINE
  8
1
  6
CONTINUOUS
 62
40
 10
2.3308E+002
 20
2.115E+001
 11
2.3222147E+002
 21
2.115E+001
  0
LINE
  8
1
  6
CONTINUOUS
 62
40
 10
2.3642771E+002
 20
1.868E+001
 11
2.3804629E+002
 21
1.868E+001
  0
LINE
  8
1
  6
CONTINUOUS
 62
40
 10
2.3804629E+002
 20
1.868E+001
 11
2.3688429E+002
 21
2.2E+001
  0
LINE
  8
1
  6
CONTINUOUS
 62
40
 10
2.3688429E+002
 20
2.2E+001
 11
2.348E+002
 21
2.2E+001
  0
LINE
  8
1
  6
CONTINUOUS
 62
40
 10
2.348E+002
 20
2.2E+001
 11
2.348E+002
 21
2.028E+001
  0
LINE
  8
1
  6
CONTINUOUS
 62
40
 10
2.348E+002
 20
2.028E+001
 11
2.3586771E+002
 21
2.028E+001
  0
LINE
  8
1
  6
CONTINUOUS
 62
40
 10
2.3586771E+002
 20
2.028E+001
 11
2.3642771E+002
 21
1.868E+001
  0
LINE
  8
1
  6
CONTINUOUS
 62
40
 10
2.3655541E+002
 20
1.886E+001
 11
2.3779259E+002
 21
1.886E+001
  0
LINE
  8
1
  6
CONTINUOUS
 62
40
 10
2.3779259E+002
 20
1.886E+001
 11
2.3675659E+002
 21
2.182E+001
  0
LINE
  8
1
  6
CONTINUOUS
 62
40
 10
2.3675659E+002
 20
2.182E+001
 11
2.3498E+002
 21
2.182E+001
  0
LINE
  8
1
  6
CONTINUOUS
 62
40
 10
2.3498E+002
 20
2.182E+001
 11
2.3498E+002
 21
2.046E+001
  0
LINE
  8
1
  6
CONTINUOUS
 62
40
 10
2.3498E+002
 20
2.046E+001
 11
2.3599541E+002
 21
2.046E+001
  0
LINE
  8
1
  6
CONTINUOUS
 62
40
 10
2.3599541E+002
 20
2.046E+001
 11
2.3655541E+002
 21
1.886E+001
  0
LINE
  8
1
  6
CONTINUOUS
 62
40
 10
2.3753888E+002
 20
1.904E+001
 11
2.3662888E+002
 21
2.164E+001
  0
LINE
  8
1
  6
CONTINUOUS
 62
40
 10
2.3662888E+002
 20
2.164E+001
 11
2.3516E+002
 21
2.164E+001
  0
LINE
  8
1
  6
CONTINUOUS
 62
40
 10
2.3516E+002
 20
2.164E+001
 11
2.3516E+002
 21
2.064E+001
  0
LINE
  8
1
  6
CONTINUOUS
 62
40
 10
2.3516E+002
 20
2.064E+001
 11
2.3612312E+002
 21
2.064E+001
  0
LINE
  8
1
  6
CONTINUOUS
 62
40
 10
2.3612312E+002
 20
2.064E+001
 11
2.3668312E+002
 21
1.904E+001
  0
LINE
  8
1
  6
CONTINUOUS
 62
40
 10
2.3668312E+002
 20
1.904E+001
 11
2.3753888E+002
 21
1.904E+001
  0
LINE
  8
1
  6
CONTINUOUS
 62
40
 10
2.3728517E+002
 20
1.922E+001
 11
2.3650117E+002
 21
2.146E+001
  0
LINE
  8
1
  6
CONTINUOUS
 62
40
 10
2.3650117E+002
 20
2.146E+001
 11
2.3534E+002
 21
2.146E+001
  0
LINE
  8
1
  6
CONTINUOUS
 62
40
 10
2.3534E+002
 20
2.146E+001
 11
2.3534E+002
 21
2.082E+001
  0
LINE
  8
1
  6
CONTINUOUS
 62
40
 10
2.3534E+002
 20
2.082E+001
 11
2.3625083E+002
 21
2.082E+001
  0
LINE
  8
1
  6
CONTINUOUS
 62
40
 10
2.3625083E+002
 20
2.082E+001
 11
2.3681083E+002
 21
1.922E+001
  0
LINE
  8
1
  6
CONTINUOUS
 62
40
 10
2.3681083E+002
 20
1.922E+001
 11
2.3728517E+002
 21
1.922E+001
  0
LINE
  8
1
  6
CONTINUOUS
 62
40
 10
2.3703147E+002
 20
1.94E+001
 11
2.3637347E+002
 21
2.128E+001
  0
LINE
  8
1
  6
CONTINUOUS
 62
40
 10
2.3637347E+002
 20
2.128E+001
 11
2.3552E+002
 21
2.128E+001
  0
LINE
  8
1
  6
CONTINUOUS
 62
40
 10
2.3552E+002
 20
2.128E+001
 11
2.3552E+002
 21
2.1E+001
  0
LINE
  8
1
  6
CONTINUOUS
 62
40
 10
2.3552E+002
 20
2.1E+001
 11
2.3637853E+002
 21
2.1E+001
  0
LINE
  8
1
  6
CONTINUOUS
 62
40
 10
2.3637853E+002
 20
2.1E+001
 11
2.3693853E+002
 21
1.94E+001
  0
LINE
  8
1
  6
CONTINUOUS
 62
40
 10
2.3693853E+002
 20
1.94E+001
 11
2.3703147E+002
 21
1.94E+001
  0
LINE
  8
1
  6
CONTINUOUS
 62
40
 10
2.3552E+002
 20
2.115E+001
 11
2.3637853E+002
 21
2.115E+001
  0
LINE
  8
1
  6
CONTINUOUS
 62
40
 10
2.3904E+002
 20
2.3E+001
 11
2.3904E+002
 21
2.632E+001
  0
LINE
  8
1
  6
CONTINUOUS
 62
40
 10
2.3904E+002
 20
2.632E+001
 11
2.4076E+002
 21
2.632E+001
  0
LINE
  8
1
  6
CONTINUOUS
 62
40
 10
2.4076E+002
 20
2.632E+001
 11
2.4076E+002
 21
2.3E+001
  0
LINE
  8
1
  6
CONTINUOUS
 62
40
 10
2.4076E+002
 20
2.3E+001
 11
2.3904E+002
 21
2.3E+001
  0
LINE
  8
1
  6
CONTINUOUS
 62
40
 10
2.4058E+002
 20
2.318E+001
 11
2.3922E+002
 21
2.318E+001
  0
LINE
  8
1
  6
CONTINUOUS
 62
40
 10
2.3922E+002
 20
2.318E+001
 11
2.3922E+002
 21
2.614E+001
  0
LINE
  8
1
  6
CONTINUOUS
 62
40
 10
3.535E+002
 20
4.6E+001
 11
3.965E+002
 21
4.6E+001
  0
LINE
  8
1
  6
CONTINUOUS
 62
40
 10
3.535E+002
 20
4.2E+001
 11
3.965E+002
 21
4.2E+001
  0
LINE
  8
1
  6
CONTINUOUS
 62
40
 10
3.535E+002
 20
3.8E+001
 11
3.965E+002
 21
3.8E+001
  0
LINE
  8
1
  6
CONTINUOUS
 62
40
 10
3.385E+002
 20
3.4E+001
 11
3.965E+002
 21
3.4E+001
  0
TEXT
  8
1
  6
CONTINUOUS
 62
40
 10
2.2669606E+002
 20
5.4832339E+001
 40
2.0
  1
Etabli
 41
5.0E-001
  0
TEXT
  8
1
  6
CONTINUOUS
 62
40
 10
2.3269606E+002
 20
5.0832339E+001
 40
2.0
  1
Issu de :
 41
5.0E-001
  0
TEXT
  8
1
  6
CONTINUOUS
 62
40
 10
2.2968532E+002
 20
3.7081261E+001
 40
2.2
  1
Modif.
 41
5.0E-001
 50
9.0E+001
  0
TEXT
  8
1
  6
CONTINUOUS
 62
40
 10
2.6953012E+002
 20
5.4832339E+001
 40
2.0
  1
Controle
 41
5.0E-001
  0
TEXT
  8
1
  6
CONTINUOUS
 62
40
 10
2.7253012E+002
 20
5.0832339E+001
 40
2.0
  1
Remplace
 41
5.0E-001
  0
LINE
  8
1
  6
CONTINUOUS
 62
40
 10
2.3922E+002
 20
2.614E+001
 11
2.4058E+002
 21
2.614E+001
  0
LINE
  8
1
  6
CONTINUOUS
 62
40
 10
2.4058E+002
 20
2.614E+001
 11
2.4058E+002
 21
2.318E+001
  0
LINE
  8
1
  6
CONTINUOUS
 62
40
 10
2.394E+002
 20
2.336E+001
 11
2.394E+002
 21
2.596E+001
  0
TEXT
  8
1
  6
CONTINUOUS
 62
40
 10
3.4204651E+002
 20
4.6906468E+001
 40
2.0
  1
Echelle
 41
5.0E-001
  0
TEXT
  8
1
  6
CONTINUOUS
 62
40
 10
3.5478476E+002
 20
4.3201045E+001
 40
2.0
  1
Nomenclature separee de numero different
 41
4.5E-001
  0
TEXT
  8
1
  6
CONTINUOUS
 62
40
 10
3.5478476E+002
 20
4.7201045E+001
 40
2.0
  1
Nomenclature separee de meme numero
 41
4.5E-001
  0
TEXT
  8
1
  6
CONTINUOUS
 62
40
 10
3.5478476E+002
 20
5.1201045E+001
 40
2.0
  1
Sans nomenclature separee
 41
4.5E-001
  0
TEXT
  8
1
  6
CONTINUOUS
 62
40
 10
3.5478476E+002
 20
3.1201045E+001
 40
2.0
  1
Service resp.: B E
 41
4.5E-001
  0
TEXT
  8
1
  6
CONTINUOUS
 62
40
 10
3.4011841E+002
 20
2.7130883E+001
 40
2.2
  1
Doc. Type     Format     Langue     Feuil.No    Nb.feuil.
 41
4.5E-001
  0
TEXT
  8
1
  6
CONTINUOUS
 62
40
 10
3.6740098E+002
 20
2.3606885E+001
 40
2.2
  1
F
 41
7.5E-001
  0
TEXT
  8
1
  6
CONTINUOUS
 62
40
 10
3.585488E+002
 20
2.3606885E+001
 40
2.2
  1
3
 41
7.5E-001
  0
TEXT
  8
1
  6
CONTINUOUS
 62
5
 10
2.5700904E+002
 20
2.6746705E+001
 40
2.5
  1
ABB Control
 41
9.0E-001
  0
TEXT
  8
1
  6
CONTINUOUS
 62
40
 10
2.5714853E+002
 20
2.2747949E+001
 40
2.0
  1
Titre
 41
7.5E-001
  0
LINE
  8
1
  6
CONTINUOUS
 62
40
 10
3.25E+001
 20
6.9E+001
 11
3.25E+001
 21
1.5E+001
  0
LINE
  8
1
  6
CONTINUOUS
 62
40
 10
1.95E+001
 20
6.9E+001
 11
3.25E+001
 21
6.9E+001
  0
LINE
  8
1
  6
CONTINUOUS
 62
40
 10
2.394E+002
 20
2.596E+001
 11
2.404E+002
 21
2.596E+001
  0
LINE
  8
1
  6
CONTINUOUS
 62
40
 10
1.95E+001
 20
5.8833333E+001
 11
1.7E+001
 21
5.8833333E+001
  0
LINE
  8
1
  6
CONTINUOUS
 62
40
 10
1.95E+001
 20
1.0266667E+002
 11
1.7E+001
 21
1.0266667E+002
  0
LINE
  8
1
  6
CONTINUOUS
 62
40
 10
1.95E+001
 20
1.465E+002
 11
1.7E+001
 21
1.465E+002
  0
LINE
  8
1
  6
CONTINUOUS
 62
40
 10
1.95E+001
 20
1.9033333E+002
 11
1.7E+001
 21
1.9033333E+002
  0
LINE
  8
1
  6
CONTINUOUS
 62
40
 10
1.95E+001
 20
2.3416667E+002
 11
1.7E+001
 21
2.3416667E+002
  0
TEXT
  8
1
  6
CONTINUOUS
 62
40
 10
1.7E+001
 20
3.6916667E+001
 40
2.0
  1
A
  0
TEXT
  8
1
  6
CONTINUOUS
 62
40
 10
1.7E+001
 20
8.075E+001
 40
2.0
  1
B
  0
TEXT
  8
1
  6
CONTINUOUS
 62
40
 10
1.7E+001
 20
1.2458333E+002
 40
2.0
  1
C
  0
TEXT
  8
1
  6
CONTINUOUS
 62
40
 10
1.7E+001
 20
1.6841667E+002
 40
2.0
  1
D
  0
TEXT
  8
1
  6
CONTINUOUS
 62
40
 10
1.7E+001
 20
2.1225E+002
 40
2.0
  1
E
  0
TEXT
  8
1
  6
CONTINUOUS
 62
40
 10
1.7E+001
 20
2.5608333E+002
 40
2.0
  1
F
  0
TEXT
  8
1
  6
CONTINUOUS
 62
40
 10
3.9764933E+002
 20
3.6799778E+001
 40
2.0
  1
A
  0
LINE
  8
1
  6
CONTINUOUS
 62
40
 10
4.005E+002
 20
5.8833333E+001
 11
3.965E+002
 21
5.8833333E+001
  0
TEXT
  8
1
  6
CONTINUOUS
 62
40
 10
3.9764933E+002
 20
8.0633111E+001
 40
2.0
  1
B
  0
LINE
  8
1
  6
CONTINUOUS
 62
40
 10
4.005E+002
 20
1.0266667E+002
 11
3.965E+002
 21
1.0266667E+002
  0
TEXT
  8
1
  6
CONTINUOUS
 62
40
 10
3.9764933E+002
 20
1.2446644E+002
 40
2.0
  1
C
  0
LINE
  8
1
  6
CONTINUOUS
 62
40
 10
4.005E+002
 20
1.465E+002
 11
3.965E+002
 21
1.465E+002
  0
TEXT
  8
1
  6
CONTINUOUS
 62
40
 10
3.9764933E+002
 20
1.6829978E+002
 40
2.0
  1
D
  0
LINE
  8
1
  6
CONTINUOUS
 62
40
 10
4.005E+002
 20
1.9033333E+002
 11
3.965E+002
 21
1.9033333E+002
  0
TEXT
  8
1
  6
CONTINUOUS
 62
40
 10
3.9764933E+002
 20
2.1213311E+002
 40
2.0
  1
E
  0
LINE
  8
1
  6
CONTINUOUS
 62
40
 10
4.005E+002
 20
2.3416667E+002
 11
3.965E+002
 21
2.3416667E+002
  0
TEXT
  8
1
  6
CONTINUOUS
 62
40
 10
3.9814933E+002
 20
2.5596644E+002
 40
2.0
  1
F
  0
LINE
  8
1
  6
CONTINUOUS
 62
40
 10
4.005E+002
 20
1.5E+001
 11
4.005E+002
 21
3.0E+001
  0
LINE
  8
1
  6
CONTINUOUS
 62
40
 10
3.47625E+002
 20
1.5E+001
 11
3.47625E+002
 21
1.0E+001
  0
LINE
  8
1
  6
CONTINUOUS
 62
40
 10
3.47625E+002
 20
2.78E+002
 11
3.47625E+002
 21
2.83E+002
  0
LINE
  8
1
  6
CONTINUOUS
 62
40
 10
2.9875E+002
 20
1.5E+001
 11
2.9875E+002
 21
1.0E+001
  0
LINE
  8
1
  6
CONTINUOUS
 62
40
 10
2.9875E+002
 20
2.78E+002
 11
2.9875E+002
 21
2.83E+002
  0
LINE
  8
1
  6
CONTINUOUS
 62
40
 10
2.49875E+002
 20
1.5E+001
 11
2.49875E+002
 21
1.0E+001
  0
LINE
  8
1
  6
CONTINUOUS
 62
40
 10
2.49875E+002
 20
2.78E+002
 11
2.49875E+002
 21
2.83E+002
  0
LINE
  8
1
  6
CONTINUOUS
 62
40
 10
2.01E+002
 20
1.5E+001
 11
2.01E+002
 21
1.0E+001
  0
LINE
  8
1
  6
CONTINUOUS
 62
40
 10
2.01E+002
 20
2.78E+002
 11
2.01E+002
 21
2.83E+002
  0
LINE
  8
1
  6
CONTINUOUS
 62
40
 10
1.53125E+002
 20
1.5E+001
 11
1.53125E+002
 21
1.0E+001
  0
LINE
  8
1
  6
CONTINUOUS
 62
40
 10
1.53125E+002
 20
2.78E+002
 11
1.53125E+002
 21
2.83E+002
  0
LINE
  8
1
  6
CONTINUOUS
 62
40
 10
1.0425E+002
 20
1.5E+001
 11
1.0425E+002
 21
1.0E+001
  0
LINE
  8
1
  6
CONTINUOUS
 62
40
 10
1.0425E+002
 20
2.78E+002
 11
1.0425E+002
 21
2.83E+002
  0
LINE
  8
1
  6
CONTINUOUS
 62
40
 10
5.5375E+001
 20
1.5E+001
 11
5.5375E+001
 21
1.0E+001
  0
LINE
  8
1
  6
CONTINUOUS
 62
40
 10
5.5375E+001
 20
2.78E+002
 11
5.5375E+001
 21
2.83E+002
  0
TEXT
  8
1
  6
CONTINUOUS
 62
40
 10
3.720625E+002
 20
1.1249993E+001
 40
2.0
  1
1
  0
TEXT
  8
1
  6
CONTINUOUS
 62
40
 10
3.231875E+002
 20
1.1249993E+001
 40
2.0
  1
2
  0
TEXT
  8
1
  6
CONTINUOUS
 62
40
 10
2.743125E+002
 20
1.1249993E+001
 40
2.0
  1
3
  0
TEXT
  8
1
  6
CONTINUOUS
 62
40
 10
2.254375E+002
 20
1.1249993E+001
 40
2.0
  1
4
  0
TEXT
  8
1
  6
CONTINUOUS
 62
40
 10
1.775625E+002
 20
1.1249993E+001
 40
2.0
  1
5
  0
TEXT
  8
1
  6
CONTINUOUS
 62
40
 10
1.286875E+002
 20
1.1249993E+001
 40
2.0
  1
6
  0
TEXT
  8
1
  6
CONTINUOUS
 62
40
 10
7.98125E+001
 20
1.1249993E+001
 40
2.0
  1
7
  0
TEXT
  8
1
  6
CONTINUOUS
 62
40
 10
3.09375E+001
 20
1.1249993E+001
 40
2.0
  1
8
  0
TEXT
  8
1
  6
CONTINUOUS
 62
40
 10
3.720625E+002
 20
2.7924999E+002
 40
2.0
  1
1
  0
TEXT
  8
1
  6
CONTINUOUS
 62
40
 10
3.231875E+002
 20
2.7924999E+002
 40
2.0
  1
2
  0
TEXT
  8
1
  6
CONTINUOUS
 62
40
 10
2.743125E+002
 20
2.7924999E+002
 40
2.0
  1
3
  0
TEXT
  8
1
  6
CONTINUOUS
 62
40
 10
2.254375E+002
 20
2.7924999E+002
 40
2.0
  1
4
  0
TEXT
  8
1
  6
CONTINUOUS
 62
40
 10
1.775625E+002
 20
2.7924999E+002
 40
2.0
  1
5
  0
TEXT
  8
1
  6
CONTINUOUS
 62
40
 10
1.286875E+002
 20
2.7924999E+002
 40
2.0
  1
6
  0
TEXT
  8
1
  6
CONTINUOUS
 62
40
 10
7.98125E+001
 20
2.7924999E+002
 40
2.0
  1
7
  0
TEXT
  8
1
  6
CONTINUOUS
 62
40
 10
3.09375E+001
 20
2.7924999E+002
 40
2.0
  1
8
  0
LINE
  8
1
  6
CONTINUOUS
 62
40
 10
2.404E+002
 20
2.596E+001
 11
2.404E+002
 21
2.336E+001
  0
LINE
  8
1
  6
CONTINUOUS
 62
40
 10
2.404E+002
 20
2.336E+001
 11
2.394E+002
 21
2.336E+001
  0
LINE
  8
1
  6
CONTINUOUS
 62
40
 10
2.3958E+002
 20
2.354E+001
 11
2.3958E+002
 21
2.578E+001
  0
LINE
  8
1
  6
CONTINUOUS
 62
40
 10
2.3958E+002
 20
2.578E+001
 11
2.4022E+002
 21
2.578E+001
  0
LINE
  8
1
  6
CONTINUOUS
 62
40
 10
2.4022E+002
 20
2.578E+001
 11
2.4022E+002
 21
2.354E+001
  0
LINE
  8
1
  6
CONTINUOUS
 62
40
 10
2.4022E+002
 20
2.354E+001
 11
2.3958E+002
 21
2.354E+001
  0
LINE
  8
1
  6
CONTINUOUS
 62
40
 10
2.3976E+002
 20
2.372E+001
 11
2.3976E+002
 21
2.56E+001
  0
LINE
  8
1
  6
CONTINUOUS
 62
40
 10
2.3976E+002
 20
2.56E+001
 11
2.4004E+002
 21
2.56E+001
  0
LINE
  8
1
  6
CONTINUOUS
 62
40
 10
2.4004E+002
 20
2.56E+001
 11
2.4004E+002
 21
2.372E+001
  0
LINE
  8
1
  6
CONTINUOUS
 62
40
 10
2.4004E+002
 20
2.372E+001
 11
2.3976E+002
 21
2.372E+001
  0
LINE
  8
1
  6
CONTINUOUS
 62
40
 10
2.3992E+002
 20
2.384E+001
 11
2.3988E+002
 21
2.384E+001
  0
LINE
  8
1
  6
CONTINUOUS
 62
40
 10
2.3988E+002
 20
2.384E+001
 11
2.3988E+002
 21
2.548E+001
  0
LINE
  8
1
  6
CONTINUOUS
 62
40
 10
2.3988E+002
 20
2.548E+001
 11
2.3992E+002
 21
2.548E+001
  0
LINE
  8
1
  6
CONTINUOUS
 62
40
 10
2.3992E+002
 20
2.548E+001
 11
2.3992E+002
 21
2.384E+001
  0
LINE
  8
1
  6
CONTINUOUS
 62
40
 10
2.3904E+002
 20
1.868E+001
 11
2.4076E+002
 21
1.868E+001
  0
LINE
  8
1
  6
CONTINUOUS
 62
40
 10
2.4076E+002
 20
1.868E+001
 11
2.4076E+002
 21
2.2E+001
  0
LINE
  8
1
  6
CONTINUOUS
 62
40
 10
2.4076E+002
 20
2.2E+001
 11
2.3904E+002
 21
2.2E+001
  0
LINE
  8
1
  6
CONTINUOUS
 62
40
 10
2.3904E+002
 20
2.2E+001
 11
2.3904E+002
 21
1.868E+001
  0
LINE
  8
1
  6
CONTINUOUS
 62
40
 10
2.3922E+002
 20
2.182E+001
 11
2.3922E+002
 21
1.886E+001
  0
LINE
  8
1
  6
CONTINUOUS
 62
40
 10
2.3922E+002
 20
1.886E+001
 11
2.4058E+002
 21
1.886E+001
  0
LINE
  8
1
  6
CONTINUOUS
 62
40
 10
2.4058E+002
 20
1.886E+001
 11
2.4058E+002
 21
2.182E+001
  0
LINE
  8
1
  6
CONTINUOUS
 62
40
 10
2.4058E+002
 20
2.182E+001
 11
2.3922E+002
 21
2.182E+001
  0
LINE
  8
1
  6
CONTINUOUS
 62
40
 10
2.394E+002
 20
2.164E+001
 11
2.394E+002
 21
1.904E+001
  0
LINE
  8
1
  6
CONTINUOUS
 62
40
 10
2.394E+002
 20
1.904E+001
 11
2.404E+002
 21
1.904E+001
  0
LINE
  8
1
  6
CONTINUOUS
 62
40
 10
2.404E+002
 20
1.904E+001
 11
2.404E+002
 21
2.164E+001
  0
LINE
  8
1
  6
CONTINUOUS
 62
40
 10
2.404E+002
 20
2.164E+001
 11
2.394E+002
 21
2.164E+001
  0
LINE
  8
1
  6
CONTINUOUS
 62
40
 10
2.3958E+002
 20
2.146E+001
 11
2.3958E+002
 21
1.922E+001
  0
LINE
  8
1
  6
CONTINUOUS
 62
40
 10
2.3958E+002
 20
1.922E+001
 11
2.4022E+002
 21
1.922E+001
  0
LINE
  8
1
  6
CONTINUOUS
 62
40
 10
2.4022E+002
 20
1.922E+001
 11
2.4022E+002
 21
2.146E+001
  0
LINE
  8
1
  6
CONTINUOUS
 62
40
 10
2.4022E+002
 20
2.146E+001
 11
2.3958E+002
 21
2.146E+001
  0
LINE
  8
1
  6
CONTINUOUS
 62
40
 10
2.3976E+002
 20
1.94E+001
 11
2.4004E+002
 21
1.94E+001
  0
LINE
  8
1
  6
CONTINUOUS
 62
40
 10
2.4004E+002
 20
1.94E+001
 11
2.4004E+002
 21
2.128E+001
  0
LINE
  8
1
  6
CONTINUOUS
 62
40
 10
2.4004E+002
 20
2.128E+001
 11
2.3976E+002
 21
2.128E+001
  0
LINE
  8
1
  6
CONTINUOUS
 62
40
 10
2.3976E+002
 20
2.128E+001
 11
2.3976E+002
 21
1.94E+001
  0
LINE
  8
1
  6
CONTINUOUS
 62
40
 10
2.3988E+002
 20
1.952E+001
 11
2.3992E+002
 21
1.952E+001
  0
LINE
  8
1
  6
CONTINUOUS
 62
40
 10
2.3992E+002
 20
1.952E+001
 11
2.3992E+002
 21
2.116E+001
  0
LINE
  8
1
  6
CONTINUOUS
 62
40
 10
2.3992E+002
 20
2.116E+001
 11
2.3988E+002
 21
2.116E+001
  0
LINE
  8
1
  6
CONTINUOUS
 62
40
 10
2.3988E+002
 20
2.116E+001
 11
2.3988E+002
 21
1.952E+001
  0
LINE
  8
1
  6
CONTINUOUS
 62
40
 10
2.4176E+002
 20
2.3E+001
 11
2.4176E+002
 21
2.632E+001
  0
LINE
  8
1
  6
CONTINUOUS
 62
40
 10
2.4176E+002
 20
2.632E+001
 11
2.4206E+002
 21
2.632E+001
  0
ARC
  8
1
  6
CONTINUOUS
 62
40
 10
2.4206E+002
 20
2.47E+001
 40
1.62
 50
2.9938468E+002
 51
4.5E+002
  0
ARC
  8
1
  6
CONTINUOUS
 62
40
 10
2.4294321E+002
 20
2.3131579E+001
 40
1.8E-001
 50
1.1938468E+002
 51
2.269698E+002
  0
LINE
  8
1
  6
CONTINUOUS
 62
40
 10
2.4282038E+002
 20
2.3E+001
 11
2.4176E+002
 21
2.3E+001
  0
LINE
  8
1
  6
CONTINUOUS
 62
40
 10
2.4194E+002
 20
2.318E+001
 11
2.4194E+002
 21
2.614E+001
  0
LINE
  8
1
  6
CONTINUOUS
 62
40
 10
2.4194E+002
 20
2.614E+001
 11
2.4206E+002
 21
2.614E+001
  0
ARC
  8
1
  6
CONTINUOUS
 62
40
 10
2.4206E+002
 20
2.47E+001
 40
1.44
 50
2.9938468E+002
 51
4.5E+002
  0
ARC
  8
1
  6
CONTINUOUS
 62
40
 10
2.4294321E+002
 20
2.3131579E+001
 40
3.6E-001
 50
1.1938468E+002
 51
1.7227012E+002
  0
LINE
  8
1
  6
CONTINUOUS
 62
40
 10
2.4258648E+002
 20
2.318E+001
 11
2.4194E+002
 21
2.318E+001
  0
LINE
  8
1
  6
CONTINUOUS
 62
40
 10
2.4212E+002
 20
2.336E+001
 11
2.4212E+002
 21
2.5958571E+001
  0
ARC
  8
1
  6
CONTINUOUS
 62
40
 10
2.4206E+002
 20
2.47E+001
 40
1.26
 50
2.9938468E+002
 51
4.472706E+002
  0
ARC
  8
1
  6
CONTINUOUS
 62
40
 10
2.4294321E+002
 20
2.3131579E+001
 40
5.4E-001
 50
1.1938468E+002
 51
1.5497574E+002
  0
LINE
  8
1
  6
CONTINUOUS
 62
40
 10
2.424539E+002
 20
2.336E+001
 11
2.4212E+002
 21
2.336E+001
  0
LINE
  8
1
  6
CONTINUOUS
 62
40
 10
2.423E+002
 20
2.354E+001
 11
2.423E+002
 21
2.5752996E+001
  0
ARC
  8
1
  6
CONTINUOUS
 62
40
 10
2.4206E+002
 20
2.47E+001
 40
1.08
 50
2.9938468E+002
 51
4.3716041E+002
  0
ARC
  8
1
  6
CONTINUOUS
 62
40
 10
2.4294321E+002
 20
2.3131579E+001
 40
7.2E-001
 50
1.1938468E+002
 51
1.4544122E+002
  0
LINE
  8
1
  6
CONTINUOUS
 62
40
 10
2.4235026E+002
 20
2.354E+001
 11
2.423E+002
 21
2.354E+001
  0
LINE
  8
1
  6
CONTINUOUS
 62
40
 10
2.4248E+002
 20
2.3903226E+001
 11
2.4248E+002
 21
2.549599E+001
  0
ARC
  8
1
  6
CONTINUOUS
 62
40
 10
2.4206E+002
 20
2.47E+001
 40
9.0E-001
 50
2.9938468E+002
 51
4.2218186E+002
  0
ARC
  8
1
  6
CONTINUOUS
 62
40
 10
2.4294321E+002
 20
2.3131579E+001
 40
9.0E-001
 50
1.1938468E+002
 51
1.2097573E+002
  0
LINE
  8
1
  6
CONTINUOUS
 62
40
 10
2.426E+002
 20
2.413715E+001
 11
2.426E+002
 21
2.526285E+001
  0
ARC
  8
1
  6
CONTINUOUS
 62
40
 10
2.4206E+002
 20
2.47E+001
 40
7.8E-001
 50
3.1381306E+002
 51
4.0618694E+002
  0
LINE
  8
1
  6
CONTINUOUS
 62
40
 10
2.4176E+002
 20
1.868E+001
 11
2.4176E+002
 21
2.2E+001
  0
LINE
  8
1
  6
CONTINUOUS
 62
40
 10
2.4176E+002
 20
2.2E+001
 11
2.4398832E+002
 21
2.2E+001
  0
ARC
  8
1
  6
CONTINUOUS
 62
40
 10
2.4206E+002
 20
2.09E+001
 40
2.22
 50
2.7E+002
 51
3.8970243E+002
  0
LINE
  8
1
  6
CONTINUOUS
 62
40
 10
2.4206E+002
 20
1.868E+001
 11
2.4176E+002
 21
1.868E+001
  0
LINE
  8
1
  6
CONTINUOUS
 62
40
 10
2.4194E+002
 20
1.886E+001
 11
2.4194E+002
 21
2.182E+001
  0
LINE
  8
1
  6
CONTINUOUS
 62
40
 10
2.4194E+002
 20
2.182E+001
 11
2.4388077E+002
 21
2.182E+001
  0
ARC
  8
1
  6
CONTINUOUS
 62
40
 10
2.4206E+002
 20
2.09E+001
 40
2.04
 50
2.7E+002
 51
3.868066E+002
  0
LINE
  8
1
  6
CONTINUOUS
 62
40
 10
2.4206E+002
 20
1.886E+001
 11
2.4194E+002
 21
1.886E+001
  0
LINE
  8
1
  6
CONTINUOUS
 62
40
 10
2.4212E+002
 20
1.9040968E+001
 11
2.4212E+002
 21
2.164E+001
  0
LINE
  8
1
  6
CONTINUOUS
 62
40
 10
2.4212E+002
 20
2.164E+001
 11
2.4376646E+002
 21
2.164E+001
  0
ARC
  8
1
  6
CONTINUOUS
 62
40
 10
2.4206E+002
 20
2.09E+001
 40
1.86
 50
2.7184857E+002
 51
3.8344381E+002
  0
LINE
  8
1
  6
CONTINUOUS
 62
40
 10
2.423E+002
 20
1.9237231E+001
 11
2.423E+002
 21
2.146E+001
  0
LINE
  8
1
  6
CONTINUOUS
 62
40
 10
2.423E+002
 20
2.146E+001
 11
2.4364392E+002
 21
2.146E+001
  0
ARC
  8
1
  6
CONTINUOUS
 62
40
 10
2.4206E+002
 20
2.09E+001
 40
1.68
 50
2.7821321E+002
 51
3.7947122E+002
  0
LINE
  8
1
  6
CONTINUOUS
 62
40
 10
2.4248E+002
 20
1.946E+001
 11
2.4248E+002
 21
2.128E+001
  0
LINE
  8
1
  6
CONTINUOUS
 62
40
 10
2.4248E+002
 20
2.128E+001
 11
2.4351107E+002
 21
2.128E+001
  0
ARC
  8
1
  6
CONTINUOUS
 62
40
 10
2.4206E+002
 20
2.09E+001
 40
1.5
 50
2.862602E+002
 51
3.7467485E+002
  0
LINE
  8
1
  6
CONTINUOUS
 62
40
 10
2.4266E+002
 20
1.9724245E+001
 11
2.4266E+002
 21
2.11E+001
  0
LINE
  8
1
  6
CONTINUOUS
 62
40
 10
2.4266E+002
 20
2.11E+001
 11
2.4336476E+002
 21
2.11E+001
  0
ARC
  8
1
  6
CONTINUOUS
 62
40
 10
2.4206E+002
 20
2.09E+001
 40
1.32
 50
2.9703569E+002
 51
3.6871474E+002
  0
LINE
  8
1
  6
CONTINUOUS
 62
40
 10
2.4281E+002
 20
2.0002002E+001
 11
2.4281E+002
 21
2.095E+001
  0
LINE
  8
1
  6
CONTINUOUS
 62
40
 10
2.4281E+002
 20
2.095E+001
 11
2.4322893E+002
 21
2.095E+001
  0
ARC
  8
1
  6
CONTINUOUS
 62
40
 10
2.4206E+002
 20
2.09E+001
 40
1.17
 50
3.0986834E+002
 51
3.6244928E+002
  0
LINE
  8
1
  6
CONTINUOUS
 62
40
 10
2.4528E+002
 20
2.3E+001
 11
2.4528E+002
 21
2.632E+001
  0
LINE
  8
1
  6
CONTINUOUS
 62
40
 10
2.4528E+002
 20
2.632E+001
 11
2.47E+002
 21
2.632E+001
  0
LINE
  8
1
  6
CONTINUOUS
 62
40
 10
2.47E+002
 20
2.632E+001
 11
2.47E+002
 21
2.3E+001
  0
LINE
  8
1
  6
CONTINUOUS
 62
40
 10
2.47E+002
 20
2.3E+001
 11
2.4528E+002
 21
2.3E+001
  0
LINE
  8
1
  6
CONTINUOUS
 62
40
 10
2.4682E+002
 20
2.318E+001
 11
2.4546E+002
 21
2.318E+001
  0
LINE
  8
1
  6
CONTINUOUS
 62
40
 10
2.4546E+002
 20
2.318E+001
 11
2.4546E+002
 21
2.614E+001
  0
LINE
  8
1
  6
CONTINUOUS
 62
40
 10
2.4546E+002
 20
2.614E+001
 11
2.4682E+002
 21
2.614E+001
  0
LINE
  8
1
  6
CONTINUOUS
 62
40
 10
2.4682E+002
 20
2.614E+001
 11
2.4682E+002
 21
2.318E+001
  0
LINE
  8
1
  6
CONTINUOUS
 62
40
 10
2.4564E+002
 20
2.336E+001
 11
2.4564E+002
 21
2.596E+001
  0
LINE
  8
1
  6
CONTINUOUS
 62
40
 10
2.4564E+002
 20
2.596E+001
 11
2.4664E+002
 21
2.596E+001
  0
LINE
  8
1
  6
CONTINUOUS
 62
40
 10
2.4664E+002
 20
2.596E+001
 11
2.4664E+002
 21
2.336E+001
  0
LINE
  8
1
  6
CONTINUOUS
 62
40
 10
2.4664E+002
 20
2.336E+001
 11
2.4564E+002
 21
2.336E+001
  0
LINE
  8
1
  6
CONTINUOUS
 62
40
 10
2.4582E+002
 20
2.354E+001
 11
2.4582E+002
 21
2.578E+001
  0
LINE
  8
1
  6
CONTINUOUS
 62
40
 10
2.4582E+002
 20
2.578E+001
 11
2.4646E+002
 21
2.578E+001
  0
LINE
  8
1
  6
CONTINUOUS
 62
40
 10
2.4646E+002
 20
2.578E+001
 11
2.4646E+002
 21
2.354E+001
  0
LINE
  8
1
  6
CONTINUOUS
 62
40
 10
2.4646E+002
 20
2.354E+001
 11
2.4582E+002
 21
2.354E+001
  0
LINE
  8
1
  6
CONTINUOUS
 62
40
 10
2.4628E+002
 20
2.372E+001
 11
2.46E+002
 21
2.372E+001
  0
LINE
  8
1
  6
CONTINUOUS
 62
40
 10
2.46E+002
 20
2.372E+001
 11
2.46E+002
 21
2.56E+001
  0
LINE
  8
1
  6
CONTINUOUS
 62
40
 10
2.46E+002
 20
2.56E+001
 11
2.4628E+002
 21
2.56E+001
  0
LINE
  8
1
  6
CONTINUOUS
 62
40
 10
2.4628E+002
 20
2.56E+001
 11
2.4628E+002
 21
2.372E+001
  0
LINE
  8
1
  6
CONTINUOUS
 62
40
 10
2.4612E+002
 20
2.384E+001
 11
2.4612E+002
 21
2.548E+001
  0
LINE
  8
1
  6
CONTINUOUS
 62
40
 10
2.4612E+002
 20
2.548E+001
 11
2.4616E+002
 21
2.548E+001
  0
LINE
  8
1
  6
CONTINUOUS
 62
40
 10
2.4616E+002
 20
2.548E+001
 11
2.4616E+002
 21
2.384E+001
  0
LINE
  8
1
  6
CONTINUOUS
 62
1
 10
2.4616E+002
 20
2.384E+001
 11
2.4612E+002
 21
2.384E+001
  0
LINE
  8
1
  6
CONTINUOUS
 62
40
 10
2.4528E+002
 20
1.868E+001
 11
2.47E+002
 21
1.868E+001
  0
LINE
  8
1
  6
CONTINUOUS
 62
40
 10
2.47E+002
 20
1.868E+001
 11
2.47E+002
 21
2.2E+001
  0
LINE
  8
1
  6
CONTINUOUS
 62
40
 10
2.47E+002
 20
2.2E+001
 11
2.4528E+002
 21
2.2E+001
  0
LINE
  8
1
  6
CONTINUOUS
 62
40
 10
2.4528E+002
 20
2.2E+001
 11
2.4528E+002
 21
1.868E+001
  0
LINE
  8
1
  6
CONTINUOUS
 62
40
 10
2.4546E+002
 20
2.182E+001
 11
2.4546E+002
 21
1.886E+001
  0
LINE
  8
1
  6
CONTINUOUS
 62
40
 10
2.4546E+002
 20
1.886E+001
 11
2.4682E+002
 21
1.886E+001
  0
LINE
  8
1
  6
CONTINUOUS
 62
40
 10
2.4682E+002
 20
1.886E+001
 11
2.4682E+002
 21
2.182E+001
  0
LINE
  8
1
  6
CONTINUOUS
 62
40
 10
2.4682E+002
 20
2.182E+001
 11
2.4546E+002
 21
2.182E+001
  0
LINE
  8
1
  6
CONTINUOUS
 62
40
 10
2.4564E+002
 20
2.164E+001
 11
2.4564E+002
 21
1.904E+001
  0
LINE
  8
1
  6
CONTINUOUS
 62
40
 10
2.4564E+002
 20
1.904E+001
 11
2.4664E+002
 21
1.904E+001
  0
LINE
  8
1
  6
CONTINUOUS
 62
40
 10
2.4664E+002
 20
1.904E+001
 11
2.4664E+002
 21
2.164E+001
  0
LINE
  8
1
  6
CONTINUOUS
 62
40
 10
2.4664E+002
 20
2.164E+001
 11
2.4564E+002
 21
2.164E+001
  0
LINE
  8
1
  6
CONTINUOUS
 62
40
 10
2.4582E+002
 20
1.922E+001
 11
2.4646E+002
 21
1.922E+001
  0
LINE
  8
1
  6
CONTINUOUS
 62
40
 10
2.4646E+002
 20
1.922E+001
 11
2.4646E+002
 21
2.146E+001
  0
LINE
  8
1
  6
CONTINUOUS
 62
40
 10
2.4646E+002
 20
2.146E+001
 11
2.4582E+002
 21
2.146E+001
  0
LINE
  8
1
  6
CONTINUOUS
 62
40
 10
2.4582E+002
 20
2.146E+001
 11
2.4582E+002
 21
1.922E+001
  0
LINE
  8
1
  6
CONTINUOUS
 62
40
 10
2.46E+002
 20
2.128E+001
 11
2.46E+002
 21
1.94E+001
  0
LINE
  8
1
  6
CONTINUOUS
 62
40
 10
2.46E+002
 20
1.94E+001
 11
2.4628E+002
 21
1.94E+001
  0
LINE
  8
1
  6
CONTINUOUS
 62
40
 10
2.4628E+002
 20
1.94E+001
 11
2.4628E+002
 21
2.128E+001
  0
LINE
  8
1
  6
CONTINUOUS
 62
40
 10
2.4628E+002
 20
2.128E+001
 11
2.46E+002
 21
2.128E+001
  0
LINE
  8
1
  6
CONTINUOUS
 62
40
 10
2.4612E+002
 20
2.116E+001
 11
2.4612E+002
 21
1.952E+001
  0
LINE
  8
1
  6
CONTINUOUS
 62
40
 10
2.4612E+002
 20
1.952E+001
 11
2.4616E+002
 21
1.952E+001
  0
LINE
  8
1
  6
CONTINUOUS
 62
40
 10
2.4616E+002
 20
1.952E+001
 11
2.4616E+002
 21
2.116E+001
  0
LINE
  8
1
  6
CONTINUOUS
 62
40
 10
2.4616E+002
 20
2.116E+001
 11
2.4612E+002
 21
2.116E+001
  0
LINE
  8
1
  6
CONTINUOUS
 62
40
 10
2.4906038E+002
 20
2.3E+001
 11
2.48E+002
 21
2.3E+001
  0
LINE
  8
1
  6
CONTINUOUS
 62
40
 10
2.48E+002
 20
2.3E+001
 11
2.48E+002
 21
2.632E+001
  0
LINE
  8
1
  6
CONTINUOUS
 62
40
 10
2.48E+002
 20
2.632E+001
 11
2.483E+002
 21
2.632E+001
  0
ARC
  8
1
  6
CONTINUOUS
 62
40
 10
2.483E+002
 20
2.47E+001
 40
1.62
 50
2.9938468E+002
 51
4.5E+002
  0
ARC
  8
1
  6
CONTINUOUS
 62
40
 10
2.4918321E+002
 20
2.3131579E+001
 40
1.8E-001
 50
1.1938468E+002
 51
2.269698E+002
  0
LINE
  8
1
  6
CONTINUOUS
 62
40
 10
2.4818E+002
 20
2.318E+001
 11
2.4818E+002
 21
2.614E+001
  0
LINE
  8
1
  6
CONTINUOUS
 62
40
 10
2.4818E+002
 20
2.614E+001
 11
2.483E+002
 21
2.614E+001
  0
ARC
  8
1
  6
CONTINUOUS
 62
40
 10
2.483E+002
 20
2.47E+001
 40
1.44
 50
2.9938468E+002
 51
4.5E+002
  0
ARC
  8
1
  6
CONTINUOUS
 62
40
 10
2.4918321E+002
 20
2.3131579E+001
 40
3.6E-001
 50
1.1938468E+002
 51
1.7227012E+002
  0
LINE
  8
1
  6
CONTINUOUS
 62
40
 10
2.4882648E+002
 20
2.318E+001
 11
2.4818E+002
 21
2.318E+001
  0
LINE
  8
1
  6
CONTINUOUS
 62
40
 10
2.486939E+002
 20
2.336E+001
 11
2.4836E+002
 21
2.336E+001
  0
LINE
  8
1
  6
CONTINUOUS
 62
40
 10
2.4836E+002
 20
2.336E+001
 11
2.4836E+002
 21
2.5958571E+001
  0
ARC
  8
1
  6
CONTINUOUS
 62
40
 10
2.483E+002
 20
2.47E+001
 40
1.26
 50
2.9938468E+002
 51
4.472706E+002
  0
ARC
  8
1
  6
CONTINUOUS
 62
40
 10
2.4918321E+002
 20
2.3131579E+001
 40
5.4E-001
 50
1.1938468E+002
 51
1.5497574E+002
  0
LINE
  8
1
  6
CONTINUOUS
 62
40
 10
2.4854E+002
 20
2.354E+001
 11
2.4854E+002
 21
2.5752996E+001
  0
ARC
  8
1
  6
CONTINUOUS
 62
40
 10
2.483E+002
 20
2.47E+001
 40
1.08
 50
2.9938468E+002
 51
4.3716041E+002
  0
ARC
  8
1
  6
CONTINUOUS
 62
40
 10
2.4918321E+002
 20
2.3131579E+001
 40
7.2E-001
 50
1.1938468E+002
 51
1.4544122E+002
  0
LINE
  8
1
  6
CONTINUOUS
 62
40
 10
2.4859026E+002
 20
2.354E+001
 11
2.4854E+002
 21
2.354E+001
  0
LINE
  8
1
  6
CONTINUOUS
 62
40
 10
2.4872E+002
 20
2.3903226E+001
 11
2.4872E+002
 21
2.549599E+001
  0
ARC
  8
1
  6
CONTINUOUS
 62
40
 10
2.483E+002
 20
2.47E+001
 40
9.0E-001
 50
2.9938468E+002
 51
4.2218186E+002
  0
ARC
  8
1
  6
CONTINUOUS
 62
40
 10
2.4918321E+002
 20
2.3131579E+001
 40
9.0E-001
 50
1.1938468E+002
 51
1.2097573E+002
  0
LINE
  8
1
  6
CONTINUOUS
 62
40
 10
2.4884E+002
 20
2.413715E+001
 11
2.4884E+002
 21
2.526285E+001
  0
ARC
  8
1
  6
CONTINUOUS
 62
40
 10
2.483E+002
 20
2.47E+001
 40
7.8E-001
 50
3.1381306E+002
 51
4.0618694E+002
  0
LINE
  8
1
  6
CONTINUOUS
 62
40
 10
2.48E+002
 20
1.868E+001
 11
2.48E+002
 21
2.2E+001
  0
LINE
  8
1
  6
CONTINUOUS
 62
40
 10
2.48E+002
 20
2.2E+001
 11
2.5022832E+002
 21
2.2E+001
  0
ARC
  8
1
  6
CONTINUOUS
 62
40
 10
2.483E+002
 20
2.09E+001
 40
2.22
 50
2.7E+002
 51
3.8970243E+002
  0
LINE
  8
1
  6
CONTINUOUS
 62
40
 10
2.483E+002
 20
1.868E+001
 11
2.48E+002
 21
1.868E+001
  0
LINE
  8
1
  6
CONTINUOUS
 62
40
 10
2.4818E+002
 20
1.886E+001
 11
2.4818E+002
 21
2.182E+001
  0
LINE
  8
1
  6
CONTINUOUS
 62
40
 10
2.4818E+002
 20
2.182E+001
 11
2.5012077E+002
 21
2.182E+001
  0
ARC
  8
1
  6
CONTINUOUS
 62
40
 10
2.483E+002
 20
2.09E+001
 40
2.04
 50
2.7E+002
 51
3.868066E+002
  0
LINE
  8
1
  6
CONTINUOUS
 62
40
 10
2.483E+002
 20
1.886E+001
 11
2.4818E+002
 21
1.886E+001
  0
LINE
  8
1
  6
CONTINUOUS
 62
40
 10
2.4836E+002
 20
1.9040968E+001
 11
2.4836E+002
 21
2.164E+001
  0
LINE
  8
1
  6
CONTINUOUS
 62
40
 10
2.4836E+002
 20
2.164E+001
 11
2.5000646E+002
 21
2.164E+001
  0
ARC
  8
1
  6
CONTINUOUS
 62
40
 10
2.483E+002
 20
2.09E+001
 40
1.86
 50
2.7184857E+002
 51
3.8344381E+002
  0
LINE
  8
1
  6
CONTINUOUS
 62
40
 10
2.4854E+002
 20
1.9237231E+001
 11
2.4854E+002
 21
2.146E+001
  0
LINE
  8
1
  6
CONTINUOUS
 62
40
 10
2.4854E+002
 20
2.146E+001
 11
2.4988392E+002
 21
2.146E+001
  0
ARC
  8
1
  6
CONTINUOUS
 62
40
 10
2.483E+002
 20
2.09E+001
 40
1.68
 50
2.7821321E+002
 51
3.7947122E+002
  0
LINE
  8
1
  6
CONTINUOUS
 62
40
 10
2.4872E+002
 20
1.946E+001
 11
2.4872E+002
 21
2.128E+001
  0
LINE
  8
1
  6
CONTINUOUS
 62
40
 10
2.4872E+002
 20
2.128E+001
 11
2.4975107E+002
 21
2.128E+001
  0
ARC
  8
1
  6
CONTINUOUS
 62
40
 10
2.483E+002
 20
2.09E+001
 40
1.5
 50
2.862602E+002
 51
3.7467485E+002
  0
LINE
  8
1
  6
CONTINUOUS
 62
40
 10
2.489E+002
 20
1.9724245E+001
 11
2.489E+002
 21
2.11E+001
  0
LINE
  8
1
  6
CONTINUOUS
 62
40
 10
2.489E+002
 20
2.11E+001
 11
2.4960476E+002
 21
2.11E+001
  0
ARC
  8
1
  6
CONTINUOUS
 62
40
 10
2.483E+002
 20
2.09E+001
 40
1.32
 50
2.9703569E+002
 51
3.6871474E+002
  0
LINE
  8
1
  6
CONTINUOUS
 62
40
 10
2.4908E+002
 20
2.0068616E+001
 11
2.4908E+002
 21
2.092E+001
  0
LINE
  8
1
  6
CONTINUOUS
 62
40
 10
2.4908E+002
 20
2.092E+001
 11
2.4943982E+002
 21
2.092E+001
  0
ARC
  8
1
  6
CONTINUOUS
 62
40
 10
2.483E+002
 20
2.09E+001
 40
1.14
 50
3.1317355E+002
 51
3.6100524E+002
  0
LINE
  8
1
  6
CONTINUOUS
 62
40
 10
2.4292E+002
 20
2.084E+001
 11
2.431183E+002
 21
2.084E+001
  0
ARC
  8
1
  6
CONTINUOUS
 62
40
 10
2.4206E+002
 20
2.09E+001
 40
1.06
 50
3.2422517E+002
 51
3.5675511E+002
  0
LINE
  8
1
  6
CONTINUOUS
 62
40
 10
2.4292E+002
 20
2.0280323E+001
 11
2.4292E+002
 21
2.084E+001
  0
LINE
  8
1
  6
CONTINUOUS
 62
40
 10
2.4919E+002
 20
2.0381541E+001
 11
2.4919E+002
 21
2.081E+001
  0
LINE
  8
1
  6
CONTINUOUS
 62
40
 10
2.4919E+002
 20
2.081E+001
 11
2.4932606E+002
 21
2.081E+001
  0
ARC
  8
1
  6
CONTINUOUS
 62
40
 10
2.483E+002
 20
2.09E+001
 40
1.03
 50
3.2977755E+002
 51
3.5498718E+002
  0
LINE
  8
1
  6
CONTINUOUS
 62
40
 10
8.014313E+001
 20
2.7118273E+002
 11
8.014313E+001
 21
2.6818273E+002
  0
TEXT
  8
1
  6
CONTINUOUS
 62
40
 10
2.2394545E+001
 20
1.7473426E+001
 40
2.0
  1
Ce document, propriete exclusive de notre
 41
6.0E-001
 50
9.0E+001
  0
TEXT
  8
1
  6
CONTINUOUS
 62
40
 10
2.5394545E+001
 20
1.7473426E+001
 40
2.0
  1
Societe, est strictement confidentiel. Il
 41
6.0E-001
 50
9.0E+001
  0
TEXT
  8
1
  6
CONTINUOUS
 62
40
 10
2.8394545E+001
 20
1.7473426E+001
 40
2.0
  1
ne peut etre communique, copie ou
 41
6.0E-001
 50
9.0E+001
  0
TEXT
  8
1
  6
CONTINUOUS
 62
40
 10
3.1394545E+001
 20
1.7473426E+001
 40
2.0
  1
reproduit sans son autorisation ecrite.
 41
6.0E-001
 50
9.0E+001
  0
POINT
  8
1
  6
CONTINUOUS
 62
1
 10
3.965E+002
 20
2.78E+002
  0
POINT
  8
1
  6
CONTINUOUS
 62
1
 10
3.965E+002
 20
2.78E+002
  0
ATTDEF
  8
1
  6
CONTINUOUS
 62
3
 10
3.4057224E+002
 20
1.58802E+001
 40
6.0
  1
 
 41
8.0E-001
  3
N_plan
  2
N_plan
 70
0
  0
ATTDEF
  8
1
  6
CONTINUOUS
 62
5
 10
2.705845E+002
 20
2.2158328E+001
 40
2.5
  1
 
 41
8.0E-001
  3
Appareil
  2
Appareil
 70
0
  0
ATTDEF
  8
1
  6
CONTINUOUS
 62
3
 10
3.044375E+002
 20
1.6254832E+001
 40
3.5
  1
 
 41
8.5E-001
 72
1
 11
2.97E+002
 21
1.6254832E+001
  3
Piece
  2
Piece
 70
0
  0
ATTDEF
  8
1
  6
CONTINUOUS
 62
3
 10
3.6523956E+002
 20
4.453937E+001
 40
8.0
  1
 
 41
7.0E-001
 72
1
 11
3.4563956E+002
 21
4.053937E+001
  3
Echelle
  2
Echelle
 70
0
 73
2
 74
2
  0
ATTDEF
  8
1
  6
CONTINUOUS
 62
40
 10
2.3550289E+002
 20
5.4925552E+001
 40
2.2
  1
 
 41
6.0E-001
  3
Etabli
  2
Etabli
 70
0
  0
ATTDEF
  8
1
  6
CONTINUOUS
 62
40
 10
2.7975314E+002
 20
5.4847514E+001
 40
2.2
  1
 
 41
6.0E-001
  3
Controle
  2
Controle
 70
0
  0
ATTDEF
  8
1
  6
CONTINUOUS
 62
40
 10
3.6490138E+002
 20
5.4716689E+001
 40
2.5
  1
 
 41
5.0E-001
  3
Execution
  2
Execution
 70
0
  0
ATTDEF
  8
1
  6
CONTINUOUS
 62
40
 10
2.4266886E+002
 20
5.0869941E+001
 40
2.2
  1
 
 41
6.0E-001
  3
Issu
  2
Issu
 70
0
  0
ATTDEF
  8
1
  6
CONTINUOUS
 62
40
 10
2.8205203E+002
 20
5.0832642E+001
 40
2.2
  1
 
 41
6.0E-001
  3
Remplace
  2
Remplace
 70
0
  0
ATTDEF
  8
1
  6
CONTINUOUS
 62
40
 10
3.2164064E+002
 20
5.0943037E+001
 40
2.2
  1
 
 41
6.0E-001
  3
Remplace_par
  2
Remplace_par
 70
0
  0
ATTDEF
  8
1
  6
CONTINUOUS
 62
40
 10
2.4248861E+002
 20
3.3211826E+001
 40
2.5
  1
 
 72
1
 11
2.3498861E+002
 21
3.1961826E+001
  3
Indice
  2
Indice
 70
0
 73
2
 74
2
  0
ATTDEF
  8
1
  6
CONTINUOUS
 62
40
 10
4.0821335E+002
 20
1.7713872E+001
 40
2.4
  1
 
 72
1
 11
3.9861335E+002
 21
1.6513872E+001
  3
Indice_2
  2
Indice_2
 70
0
 73
2
 74
2
  0
ATTDEF
  8
1
  6
CONTINUOUS
 62
40
 10
2.401432E+002
 20
3.0659267E+001
 40
2.5
  1
 
 41
5.0E-001
  3
Texte_indice
  2
Texte_indice
 70
0
  0
ATTDEF
  8
1
  6
CONTINUOUS
 62
40
 10
4.2659522E+002
 20
5.3448568E+001
 40
2.9
  1
 
 41
1.3
 72
1
 11
3.9455022E+002
 21
5.1998568E+001
  3
Sans_nomenclature
  2
Sans_nomenclature
 70
0
 73
2
 74
2
  0
ATTDEF
  8
1
  6
CONTINUOUS
 62
40
 10
4.2856844E+002
 20
4.9434386E+001
 40
2.9
  1
 
 41
1.3
 72
1
 11
3.9463844E+002
 21
4.7984386E+001
  3
Nomenc_meme_numero
  2
Nomenc_meme_numero
 70
0
 73
2
 74
2
  0
ATTDEF
  8
1
  6
CONTINUOUS
 62
40
 10
4.2663933E+002
 20
4.5376092E+001
 40
2.9
  1
 
 41
1.3
 72
1
 11
3.9459433E+002
 21
4.3926092E+001
  3
Nomenc_numero_dif
  2
Nomenc_numero_dif
 70
0
 73
2
 74
2
  0
ATTDEF
  8
1
  6
CONTINUOUS
 62
40
 10
5.5410405E+001
 20
2.7117194E+002
 40
3.0
  1
 
 41
1.4
 72
1
 11
5.3310405E+001
 21
2.6967194E+002
  3
f
  2
f
 70
0
 73
2
 74
2
  0
ATTDEF
  8
1
  6
CONTINUOUS
 62
40
 10
6.4886971E+001
 20
2.7118863E+002
 40
3.0
  1
 
 41
1.4
 72
1
 11
6.2786971E+001
 21
2.6968863E+002
  3
m
  2
m
 70
0
 73
2
 74
2
  0
ATTDEF
  8
1
  6
CONTINUOUS
 62
40
 10
7.4380531E+001
 20
2.7118698E+002
 40
3.0
  1
 
 41
1.4
 72
1
 11
7.2280531E+001
 21
2.6968698E+002
  3
c
  2
c
 70
0
 73
2
 74
2
  0
ATTDEF
  8
1
  6
CONTINUOUS
 62
40
 10
8.3855731E+001
 20
2.7117858E+002
 40
3.0
  1
 
 41
1.4
 72
1
 11
8.1755731E+001
 21
2.6967858E+002
  3
v
  2
v
 70
0
 73
2
 74
2
  0
ATTDEF
  8
1
  6
CONTINUOUS
 62
40
 10
1.3471797E+002
 20
2.7195796E+002
 40
2.9
  1
 
 41
1.3
 72
1
 11
1.2906297E+002
 21
2.7050796E+002
  3
130
  2
130
 70
0
 73
2
 74
2
  0
ATTDEF
  8
1
  6
CONTINUOUS
 62
40
 10
1.4770684E+002
 20
2.7193317E+002
 40
2.9
  1
 
 41
1.3
 72
1
 11
1.4205184E+002
 21
2.7048317E+002
  3
140
  2
140
 70
0
 73
2
 74
2
  0
POINT
  8
1
  6
CONTINUOUS
 62
1
 10
3.965E+002
 20
2.78E+002
  0
ENDBLK
  0
BLOCK
  2
ABB-S-E-B
 10
0.0
 20
0.0
 70
0
  0
LINE
  8
1
  6
CONTINUOUS
 62
1
 10
3.5E-001
 20
1.0
 11
4.6E-001
 21
1.0
  0
LINE
  8
1
  6
CONTINUOUS
 62
1
 10
4.6E-001
 20
5.4E-001
 11
4.6E-001
 21
1.0
  0
LINE
  8
1
  6
CONTINUOUS
 62
1
 10
1.89E-001
 20
5.4E-001
 11
4.6E-001
 21
5.4E-001
  0
LINE
  8
1
  6
CONTINUOUS
 62
1
 10
1.89E-001
 20
5.4E-001
 11
3.5E-001
 21
1.0
  0
LINE
  8
1
  6
CONTINUOUS
 62
1
 10
6.5E-001
 20
1.0
 11
8.11E-001
 21
5.4E-001
  0
LINE
  8
1
  6
CONTINUOUS
 62
1
 10
5.4E-001
 20
5.4E-001
 11
8.11E-001
 21
5.4E-001
  0
LINE
  8
1
  6
CONTINUOUS
 62
1
 10
5.4E-001
 20
5.4E-001
 11
5.4E-001
 21
1.0
  0
LINE
  8
1
  6
CONTINUOUS
 62
1
 10
5.4E-001
 20
1.0
 11
6.5E-001
 21
1.0
  0
LINE
  8
1
  6
CONTINUOUS
 62
1
 10
0.0
 20
0.0
 11
1.61E-001
 21
4.6E-001
  0
LINE
  8
1
  6
CONTINUOUS
 62
1
 10
0.0
 20
0.0
 11
2.5E-001
 21
0.0
  0
LINE
  8
1
  6
CONTINUOUS
 62
1
 10
2.5E-001
 20
0.0
 11
3.2E-001
 21
2.0E-001
  0
LINE
  8
1
  6
CONTINUOUS
 62
1
 10
3.2E-001
 20
2.0E-001
 11
4.6E-001
 21
2.0E-001
  0
LINE
  8
1
  6
CONTINUOUS
 62
1
 10
4.6E-001
 20
2.0E-001
 11
4.6E-001
 21
4.6E-001
  0
LINE
  8
1
  6
CONTINUOUS
 62
1
 10
1.61E-001
 20
4.6E-001
 11
4.6E-001
 21
4.6E-001
  0
LINE
  8
1
  6
CONTINUOUS
 62
1
 10
5.4E-001
 20
2.0E-001
 11
6.8E-001
 21
2.0E-001
  0
LINE
  8
1
  6
CONTINUOUS
 62
1
 10
7.5E-001
 20
0.0
 11
6.8E-001
 21
2.0E-001
  0
LINE
  8
1
  6
CONTINUOUS
 62
1
 10
7.5E-001
 20
0.0
 11
1.0
 21
0.0
  0
LINE
  8
1
  6
CONTINUOUS
 62
1
 10
8.39E-001
 20
4.6E-001
 11
1.0
 21
0.0
  0
LINE
  8
1
  6
CONTINUOUS
 62
1
 10
5.4E-001
 20
4.6E-001
 11
8.39E-001
 21
4.6E-001
  0
LINE
  8
1
  6
CONTINUOUS
 62
1
 10
5.4E-001
 20
2.0E-001
 11
5.4E-001
 21
4.6E-001
  0
LINE
  8
1
  6
CONTINUOUS
 62
1
 10
1.07
 20
1.0
 11
1.07
 21
5.4E-001
  0
LINE
  8
1
  6
CONTINUOUS
 62
1
 10
1.07
 20
5.4E-001
 11
1.33
 21
5.4E-001
  0
LINE
  8
1
  6
CONTINUOUS
 62
1
 10
1.33
 20
1.0
 11
1.33
 21
5.4E-001
  0
LINE
  8
1
  6
CONTINUOUS
 62
1
 10
1.07
 20
1.0
 11
1.33
 21
1.0
  0
LINE
  8
1
  6
CONTINUOUS
 62
1
 10
1.41
 20
1.0
 11
1.41
 21
5.4E-001
  0
LINE
  8
1
  6
CONTINUOUS
 62
1
 10
1.41
 20
1.0
 11
1.47
 21
1.0
  0
ARC
  8
1
  6
CONTINUOUS
 62
1
 10
1.47
 20
7.75E-001
 40
2.25E-001
 50
2.9938468E+002
 51
4.5E+002
  0
ARC
  8
1
  6
CONTINUOUS
 62
1
 10
1.47
 20
3.0E-001
 40
3.0E-001
 50
5.3130102E+001
 51
6.8407484E+001
  0
LINE
  8
1
  6
CONTINUOUS
 62
1
 10
1.41
 20
5.4E-001
 11
1.65
 21
5.4E-001
  0
LINE
  8
1
  6
CONTINUOUS
 62
1
 10
1.07
 20
0.0
 11
1.33
 21
0.0
  0
LINE
  8
1
  6
CONTINUOUS
 62
1
 10
1.33
 20
4.6E-001
 11
1.33
 21
0.0
  0
LINE
  8
1
  6
CONTINUOUS
 62
1
 10
1.07
 20
4.6E-001
 11
1.33
 21
4.6E-001
  0
LINE
  8
1
  6
CONTINUOUS
 62
1
 10
1.07
 20
4.6E-001
 11
1.07
 21
0.0
  0
LINE
  8
1
  6
CONTINUOUS
 62
1
 10
1.41
 20
0.0
 11
1.47
 21
0.0
  0
ARC
  8
1
  6
CONTINUOUS
 62
1
 10
1.47
 20
3.0E-001
 40
3.0E-001
 50
2.7E+002
 51
3.9223095E+002
  0
LINE
  8
1
  6
CONTINUOUS
 62
1
 10
1.41
 20
4.6E-001
 11
1.7237716
 21
4.6E-001
  0
LINE
  8
1
  6
CONTINUOUS
 62
1
 10
1.41
 20
4.6E-001
 11
1.41
 21
0.0
  0
LINE
  8
1
  6
CONTINUOUS
 62
1
 10
1.85
 20
5.4E-001
 11
2.11
 21
5.4E-001
  0
LINE
  8
1
  6
CONTINUOUS
 62
1
 10
2.11
 20
1.0
 11
2.11
 21
5.4E-001
  0
LINE
  8
1
  6
CONTINUOUS
 62
1
 10
1.85
 20
1.0
 11
2.11
 21
1.0
  0
LINE
  8
1
  6
CONTINUOUS
 62
1
 10
1.85
 20
1.0
 11
1.85
 21
5.4E-001
  0
LINE
  8
1
  6
CONTINUOUS
 62
1
 10
2.19
 20
1.0
 11
2.19
 21
5.4E-001
  0
LINE
  8
1
  6
CONTINUOUS
 62
1
 10
2.19
 20
1.0
 11
2.25
 21
1.0
  0
ARC
  8
1
  6
CONTINUOUS
 62
1
 10
2.25
 20
7.75E-001
 40
2.25E-001
 50
2.9938468E+002
 51
4.5E+002
  0
ARC
  8
1
  6
CONTINUOUS
 62
1
 10
2.25
 20
3.0E-001
 40
3.0E-001
 50
5.3130102E+001
 51
6.8407484E+001
  0
LINE
  8
1
  6
CONTINUOUS
 62
1
 10
2.19
 20
5.4E-001
 11
2.43
 21
5.4E-001
  0
LINE
  8
1
  6
CONTINUOUS
 62
1
 10
1.85
 20
0.0
 11
2.11
 21
0.0
  0
LINE
  8
1
  6
CONTINUOUS
 62
1
 10
2.11
 20
4.6E-001
 11
2.11
 21
0.0
  0
LINE
  8
1
  6
CONTINUOUS
 62
1
 10
1.85
 20
4.6E-001
 11
2.11
 21
4.6E-001
  0
LINE
  8
1
  6
CONTINUOUS
 62
1
 10
1.85
 20
4.6E-001
 11
1.85
 21
0.0
  0
LINE
  8
1
  6
CONTINUOUS
 62
1
 10
2.19
 20
4.6E-001
 11
2.19
 21
0.0
  0
LINE
  8
1
  6
CONTINUOUS
 62
1
 10
2.19
 20
4.6E-001
 11
2.5037716
 21
4.6E-001
  0
ARC
  8
1
  6
CONTINUOUS
 62
1
 10
2.25
 20
3.0E-001
 40
3.0E-001
 50
2.7E+002
 51
3.9223095E+002
  0
LINE
  8
1
  6
CONTINUOUS
 62
1
 10
2.19
 20
0.0
 11
2.25
 21
0.0
  0
ENDBLK
  0
BLOCK
  2
CE
 10
0.0
 20
0.0
 70
0
  0
LINE
  8
1
  6
CONTINUOUS
 62
1
 10
5.0E-001
 20
1.5E-001
 11
5.5E-001
 21
1.5E-001
  0
ARC
  8
1
  6
CONTINUOUS
 62
1
 10
5.0E-001
 20
5.0E-001
 40
3.5E-001
 50
9.0E+001
 51
2.7E+002
  0
LINE
  8
1
  6
CONTINUOUS
 62
1
 10
5.5E-001
 20
1.0
 11
5.5E-001
 21
8.5E-001
  0
LINE
  8
1
  6
CONTINUOUS
 62
1
 10
5.0E-001
 20
1.0
 11
5.5E-001
 21
1.0
  0
ARC
  8
1
  6
CONTINUOUS
 62
1
 10
5.0E-001
 20
5.0E-001
 40
5.0E-001
 50
9.0E+001
 51
2.7E+002
  0
LINE
  8
1
  6
CONTINUOUS
 62
1
 10
5.0E-001
 20
0.0
 11
5.5E-001
 21
0.0
  0
LINE
  8
1
  6
CONTINUOUS
 62
1
 10
5.5E-001
 20
1.5E-001
 11
5.5E-001
 21
0.0
  0
LINE
  8
1
  6
CONTINUOUS
 62
1
 10
5.0E-001
 20
8.5E-001
 11
5.5E-001
 21
8.5E-001
  0
LINE
  8
1
  6
CONTINUOUS
 62
1
 10
1.4
 20
8.5E-001
 11
1.35
 21
8.5E-001
  0
LINE
  8
1
  6
CONTINUOUS
 62
1
 10
1.4
 20
1.0
 11
1.4
 21
8.5E-001
  0
LINE
  8
1
  6
CONTINUOUS
 62
1
 10
1.4
 20
1.0
 11
1.35
 21
1.0
  0
ARC
  8
1
  6
CONTINUOUS
 62
1
 10
1.35
 20
5.0E-001
 40
5.0E-001
 50
9.0E+001
 51
2.7E+002
  0
LINE
  8
1
  6
CONTINUOUS
 62
1
 10
1.4
 20
0.0
 11
1.35
 21
0.0
  0
LINE
  8
1
  6
CONTINUOUS
 62
1
 10
1.4
 20
1.5E-001
 11
1.4
 21
0.0
  0
ARC
  8
1
  6
CONTINUOUS
 62
1
 10
1.35
 20
5.0E-001
 40
3.5E-001
 50
1.9237363E+002
 51
2.7E+002
  0
LINE
  8
1
  6
CONTINUOUS
 62
1
 10
1.0081301
 20
4.25E-001
 11
1.3
 21
4.25E-001
  0
LINE
  8
1
  6
CONTINUOUS
 62
1
 10
1.3
 20
5.75E-001
 11
1.3
 21
4.25E-001
  0
LINE
  8
1
  6
CONTINUOUS
 62
1
 10
1.0081301
 20
5.75E-001
 11
1.3
 21
5.75E-001
  0
ARC
  8
1
  6
CONTINUOUS
 62
1
 10
1.35
 20
5.0E-001
 40
3.5E-001
 50
9.0E+001
 51
1.6762637E+002
  0
LINE
  8
1
  6
CONTINUOUS
 62
1
 10
1.4
 20
1.5E-001
 11
1.35
 21
1.5E-001
  0
ENDBLK
  0
BLOCK
  2
NEW2
 10
0.0
 20
0.0
 70
0
  0
LINE
  8
1
  6
CONTINUOUS
 62
1
 10
0.0
 20
0.0
 11
0.0
 21
0.0
  0
LINE
  8
1
  6
CONTINUOUS
 62
1
 10
0.0
 20
0.0
 11
-3.4998314E+001
 21
0.0
  0
LINE
  8
1
  6
CONTINUOUS
 62
1
 10
-3.4998314E+001
 20
0.0
 11
-6.0520292E+001
 21
-1.6362848E+001
  0
INSERT
  2
_AH16
  8
1
 10
-6.0520292E+001
 20
-1.6362848E+001
 41
3.5001001
 43
3.5001001
 42
3.5001001
 50
3.2665058E+001
  0
ENDBLK
  0
BLOCK
  2
NEW3
 10
0.0
 20
0.0
 70
0
  0
LINE
  8
1
  6
CONTINUOUS
 62
1
 10
0.0
 20
0.0
 11
0.0
 21
0.0
  0
LINE
  8
1
  6
CONTINUOUS
 62
1
 10
0.0
 20
0.0
 11
-3.1513634E+001
 21
0.0
  0
LINE
  8
1
  6
CONTINUOUS
 62
1
 10
-3.1513634E+001
 20
0.0
 11
-6.592958E+001
 21
-8.026547
  0
INSERT
  2
_AH16
  8
1
 10
-6.592958E+001
 20
-8.026547
 41
3.5001001
 43
3.5001001
 42
3.5001001
 50
1.3127959E+001
  0
ENDBLK
  0
BLOCK
  2
NEW4
 10
0.0
 20
0.0
 70
0
  0
LINE
  8
1
  6
CONTINUOUS
 62
1
 10
0.0
 20
0.0
 11
0.0
 21
0.0
  0
LINE
  8
1
  6
CONTINUOUS
 62
1
 10
0.0
 20
0.0
 11
-3.2696334E+001
 21
0.0
  0
LINE
  8
1
  6
CONTINUOUS
 62
1
 10
-3.2696334E+001
 20
0.0
 11
-6.0787551E+001
 21
8.618593
  0
INSERT
  2
_AH16
  8
1
 10
-6.0787551E+001
 20
8.618593
 41
3.5001001
 43
3.5001001
 42
3.5001001
 50
3.429436E+002
  0
ENDBLK
  0
BLOCK
  2
NEW5
 10
0.0
 20
0.0
 70
0
  0
LINE
  8
1
  6
CONTINUOUS
 62
1
 10
0.0
 20
0.0
 11
0.0
 21
0.0
  0
LINE
  8
1
  6
CONTINUOUS
 62
1
 10
0.0
 20
0.0
 11
-1.6731927E+001
 21
0.0
  0
LINE
  8
1
  6
CONTINUOUS
 62
1
 10
-1.6731927E+001
 20
0.0
 11
-5.3572867E+001
 21
1.3534614E+001
  0
INSERT
  2
_AH16
  8
1
 10
-5.3572867E+001
 20
1.3534614E+001
 41
3.5001001
 43
3.5001001
 42
3.5001001
 50
3.3982769E+002
  0
ENDBLK
  0
BLOCK
  2
NEW6
 10
0.0
 20
0.0
 70
0
  0
LINE
  8
1
  6
CONTINUOUS
 62
1
 10
0.0
 20
0.0
 11
0.0
 21
0.0
  0
LINE
  8
1
  6
CONTINUOUS
 62
1
 10
0.0
 20
0.0
 11
-2.5538386E+001
 21
0.0
  0
LINE
  8
1
  6
CONTINUOUS
 62
1
 10
-2.5538386E+001
 20
0.0
 11
-5.9453363E+001
 21
-2.6968536E+001
  0
INSERT
  2
_AH16
  8
1
 10
-5.9453363E+001
 20
-2.6968536E+001
 41
3.5001001
 43
3.5001001
 42
3.5001001
 50
3.8491044E+001
  0
ENDBLK
  0
BLOCK
  2
NEW7
 10
0.0
 20
0.0
 70
0
  0
LINE
  8
1
  6
CONTINUOUS
 62
1
 10
0.0
 20
0.0
 11
0.0
 21
0.0
  0
LINE
  8
1
  6
CONTINUOUS
 62
1
 10
0.0
 20
0.0
 11
3.7786081E+001
 21
0.0
  0
LINE
  8
1
  6
CONTINUOUS
 62
1
 10
3.7786081E+001
 20
0.0
 11
5.1305933E+001
 21
-5.529992
  0
INSERT
  2
_AH16
  8
1
 10
5.1305933E+001
 20
-5.529992
 41
3.5001001
 43
3.5001001
 42
3.5001001
 50
1.5775409E+002
  0
ENDBLK
  0
BLOCK
  2
NEW8
 10
0.0
 20
0.0
 70
0
  0
LINE
  8
1
  6
CONTINUOUS
 62
1
 10
0.0
 20
0.0
 11
0.0
 21
0.0
  0
LINE
  8
1
  6
CONTINUOUS
 62
1
 10
0.0
 20
0.0
 11
3.0496834E+001
 21
0.0
  0
LINE
  8
1
  6
CONTINUOUS
 62
1
 10
3.0496834E+001
 20
0.0
 11
4.3546908E+001
 21
-7.052855
  0
INSERT
  2
_AH16
  8
1
 10
4.3546908E+001
 20
-7.052855
 41
3.5001001
 43
3.5001001
 42
3.5001001
 50
1.5161119E+002
  0
ENDBLK
  0
BLOCK
  2
NEW9
 10
0.0
 20
0.0
 70
0
  0
LINE
  8
1
  6
CONTINUOUS
 62
1
 10
0.0
 20
0.0
 11
0.0
 21
0.0
  0
LINE
  8
1
  6
CONTINUOUS
 62
1
 10
0.0
 20
0.0
 11
4.06837E+001
 21
0.0
  0
LINE
  8
1
  6
CONTINUOUS
 62
1
 10
4.06837E+001
 20
0.0
 11
5.4613546E+001
 21
6.412705
  0
INSERT
  2
_AH16
  8
1
 10
5.4613546E+001
 20
6.412705
 41
3.5001001
 43
3.5001001
 42
3.5001001
 50
2.0471932E+002
  0
ENDBLK
  0
BLOCK
  2
NEW10
 10
0.0
 20
0.0
 70
0
  0
LINE
  8
1
  6
CONTINUOUS
 62
1
 10
0.0
 20
0.0
 11
0.0
 21
0.0
  0
LINE
  8
1
  6
CONTINUOUS
 62
1
 10
0.0
 20
0.0
 11
1.8781292E+001
 21
0.0
  0
LINE
  8
1
  6
CONTINUOUS
 62
1
 10
1.8781292E+001
 20
0.0
 11
3.571199E+001
 21
1.721968E+001
  0
INSERT
  2
_AH16
  8
1
 10
3.571199E+001
 20
1.721968E+001
 41
3.5001001
 43
3.5001001
 42
3.5001001
 50
2.2548483E+002
  0
ENDBLK
  0
BLOCK
  2
NEW11
 10
0.0
 20
0.0
 70
0
  0
LINE
  8
1
  6
CONTINUOUS
 62
1
 10
0.0
 20
0.0
 11
0.0
 21
0.0
  0
LINE
  8
1
  6
CONTINUOUS
 62
1
 10
0.0
 20
0.0
 11
1.8363219E+001
 21
0.0
  0
LINE
  8
1
  6
CONTINUOUS
 62
1
 10
1.8363219E+001
 20
0.0
 11
2.7095092E+001
 21
-1.3557379E+001
  0
INSERT
  2
_AH16
  8
1
 10
2.7095092E+001
 20
-1.3557379E+001
 41
3.5001001
 43
3.5001001
 42
3.5001001
 50
1.2278429E+002
  0
ENDBLK
  0
BLOCK
  2
NEW12
 10
0.0
 20
0.0
 70
0
  0
LINE
  8
1
  6
CONTINUOUS
 62
1
 10
0.0
 20
0.0
 11
0.0
 21
0.0
  0
LINE
  8
1
  6
CONTINUOUS
 62
1
 10
0.0
 20
0.0
 11
-2.5838512E+001
 21
0.0
  0
LINE
  8
1
  6
CONTINUOUS
 62
1
 10
-2.5838512E+001
 20
0.0
 11
-5.7202241E+001
 21
-2.193836E+001
  0
INSERT
  2
_AH16
  8
1
 10
-5.7202241E+001
 20
-2.193836E+001
 41
3.5001001
 43
3.5001001
 42
3.5001001
 50
3.4972092E+001
  0
ENDBLK
  0
BLOCK
  2
ETIQUETTE
 10
0.0
 20
0.0
 70
0
  0
LINE
  8
1
  6
CONTINUOUS
 62
3
 10
-1.1181344E+002
 20
1.7396987E+002
 11
-6.9813441E+001
 21
1.7396987E+002
  0
LINE
  8
1
  6
CONTINUOUS
 62
3
 10
-1.1795038E+002
 20
6.8546434E+001
 11
-1.1795038E+002
 21
3.8546434E+001
  0
LINE
  8
1
  6
CONTINUOUS
 62
3
 10
-6.1950377E+001
 20
6.8546434E+001
 11
-6.1950377E+001
 21
3.8546434E+001
  0
LINE
  8
1
  6
CONTINUOUS
 62
3
 10
-1.1181344E+002
 20
1.3196987E+002
 11
-1.1181344E+002
 21
1.7396987E+002
  0
LINE
  8
1
  6
CONTINUOUS
 62
3
 10
-1.1181344E+002
 20
1.3196987E+002
 11
-6.9813441E+001
 21
1.3196987E+002
  0
LINE
  8
1
  6
CONTINUOUS
 62
3
 10
-6.9813441E+001
 20
1.7396987E+002
 11
-6.9813441E+001
 21
1.3196987E+002
  0
LINE
  8
1
  6
CONTINUOUS
 62
3
 10
-1.1795038E+002
 20
6.8546434E+001
 11
-6.1950377E+001
 21
6.8546434E+001
  0
LINE
  8
1
  6
CONTINUOUS
 62
3
 10
-6.1950377E+001
 20
3.8546434E+001
 11
-1.1795038E+002
 21
3.8546434E+001
  0
INSERT
  2
CE
  8
1
 10
-7.1956506E+001
 20
4.2056532E+001
 41
5.0
 43
5.0
 42
5.0
  0
INSERT
  2
ABB-S-E-B
  8
1
 10
-1.0981344E+002
 20
1.6896987E+002
 41
4.0
 43
4.0
 42
4.0
  0
LINE
  8
1
  6
CONTINUOUS
 62
1
 10
-1.1031344E+002
 20
1.4596987E+002
 11
-1.1031344E+002
 21
1.4296987E+002
  0
TEXT
  8
1
  6
CONTINUOUS
 62
1
 10
-1.1031344E+002
 20
1.6946987E+002
 40
2.0
  1
F:
 41
7.0E-001
 11
-1.1031344E+002
 21
1.6746987E+002
 73
3
  0
TEXT
  8
1
  6
CONTINUOUS
 62
1
 10
-1.1031344E+002
 20
1.6596987E+002
 40
2.0
  1
S:
 41
7.0E-001
 11
-1.1031344E+002
 21
1.6396987E+002
 73
3
  0
TEXT
  8
1
  6
CONTINUOUS
 62
1
 10
-1.1031344E+002
 20
1.6246987E+002
 40
2.0
  1
I:
 41
7.0E-001
 11
-1.1031344E+002
 21
1.6046987E+002
 73
3
  0
LINE
  8
1
  6
CONTINUOUS
 62
1
 10
-1.1031344E+002
 20
1.4596987E+002
 11
-1.0231344E+002
 21
1.4596987E+002
  0
LINE
  8
1
  6
CONTINUOUS
 62
1
 10
-1.1031344E+002
 20
1.4296987E+002
 11
-1.0231344E+002
 21
1.4296987E+002
  0
LINE
  8
1
  6
CONTINUOUS
 62
1
 10
-1.1495038E+002
 20
4.0624762E+001
 11
-1.0695038E+002
 21
4.0624762E+001
  0
INSERT
  2
NEW8
  8
1
 10
-1.5849729E+002
 20
6.1099289E+001
  0
LINE
  8
1
  6
CONTINUOUS
 62
1
 10
-1.1495038E+002
 20
4.0624762E+001
 11
-1.1495038E+002
 21
5.0624762E+001
  0
LINE
  8
1
  6
CONTINUOUS
 62
1
 10
-1.0695038E+002
 20
5.0624762E+001
 11
-1.0695038E+002
 21
4.0624762E+001
  0
TEXT
  8
1
  6
CONTINUOUS
 62
1
 10
-1.1614918E+002
 20
6.9566405E+001
 40
2.0
  1
F:
 41
7.0E-001
 11
-1.1614918E+002
 21
6.7566405E+001
 73
3
  0
INSERT
  2
CE
  8
1
 10
-1.0981344E+002
 20
1.3546987E+002
 41
5.0
 43
5.0
 42
5.0
  0
TEXT
  8
1
  6
CONTINUOUS
 62
1
 10
-1.1614918E+002
 20
6.6066405E+001
 40
2.0
  1
S:
 41
7.0E-001
 11
-1.1614918E+002
 21
6.4066405E+001
 73
3
  0
LINE
  8
1
  6
CONTINUOUS
 62
1
 10
-1.0231344E+002
 20
1.4596987E+002
 11
-1.0231344E+002
 21
1.4296987E+002
  0
LINE
  8
1
  6
CONTINUOUS
 62
1
 10
-1.1031344E+002
 20
1.4746987E+002
 11
-9.8813441E+001
 21
1.4746987E+002
  0
LINE
  8
1
  6
CONTINUOUS
 62
1
 10
-1.1031344E+002
 20
1.5746987E+002
 11
-9.8813441E+001
 21
1.5746987E+002
  0
LINE
  8
1
  6
CONTINUOUS
 62
1
 10
-1.1031344E+002
 20
1.5746987E+002
 11
-1.1031344E+002
 21
1.4746987E+002
  0
LINE
  8
1
  6
CONTINUOUS
 62
1
 10
-9.8813441E+001
 20
1.5746987E+002
 11
-9.8813441E+001
 21
1.4746987E+002
  0
TEXT
  8
1
  6
CONTINUOUS
 62
1
 10
-1.1614918E+002
 20
6.2566405E+001
 40
2.0
  1
I:
 41
7.0E-001
 11
-1.1614918E+002
 21
6.0566405E+001
 73
3
  0
LINE
  8
1
  6
CONTINUOUS
 62
1
 10
-1.1327825E+002
 20
6.0566405E+001
 11
-1.0290901E+002
 21
6.0566405E+001
  0
LINE
  8
1
  6
CONTINUOUS
 62
1
 10
-9.4813441E+001
 20
1.5896987E+002
 11
-9.4813441E+001
 21
1.5596987E+002
  0
LINE
  8
1
  6
CONTINUOUS
 62
1
 10
-1.0290901E+002
 20
6.0566405E+001
 11
-1.0290901E+002
 21
5.8566405E+001
  0
LINE
  8
1
  6
CONTINUOUS
 62
1
 10
-1.1327825E+002
 20
5.8566405E+001
 11
-1.0290901E+002
 21
5.8566405E+001
  0
LINE
  8
1
  6
CONTINUOUS
 62
1
 10
-1.1327825E+002
 20
6.0566405E+001
 11
-1.1327825E+002
 21
5.8566405E+001
  0
LINE
  8
1
  6
CONTINUOUS
 62
1
 10
-1.1327825E+002
 20
6.4066405E+001
 11
-1.1327825E+002
 21
6.2066405E+001
  0
LINE
  8
1
  6
CONTINUOUS
 62
1
 10
-1.1327825E+002
 20
6.4066405E+001
 11
-1.0290901E+002
 21
6.4066405E+001
  0
TEXT
  8
1
  6
CONTINUOUS
 62
1
 10
-9.4813441E+001
 20
1.7416987E+002
 40
1.2
  1
AUXILIARY CONTACT
 41
8.0E-001
 11
-9.4813441E+001
 21
1.7296987E+002
 73
3
  0
TEXT
  8
1
  6
CONTINUOUS
 62
1
 10
-9.4813441E+001
 20
1.7216987E+002
 40
1.2
  1
HILFSSCHALTER
 41
8.0E-001
 11
-9.4813441E+001
 21
1.7096987E+002
 73
3
  0
TEXT
  8
1
  6
CONTINUOUS
 62
1
 10
-9.4813441E+001
 20
1.7016987E+002
 40
1.2
  1
CONTACT AUXILIAIRE
 41
8.0E-001
 11
-9.4813441E+001
 21
1.6896987E+002
 73
3
  0
TEXT
  8
1
  6
CONTINUOUS
 62
1
 10
-9.4813441E+001
 20
1.6816987E+002
 40
1.2
  1
HJALPKONTAKT
 41
8.0E-001
 11
-9.4813441E+001
 21
1.6696987E+002
 73
3
  0
TEXT
  8
1
  6
CONTINUOUS
 62
1
 10
-9.4813441E+001
 20
1.6616987E+002
 40
1.2
  1
CONTACTO AUSILIARIO
 41
8.0E-001
 11
-9.4813441E+001
 21
1.6496987E+002
 73
3
  0
TEXT
  8
1
  6
CONTINUOUS
 62
1
 10
-9.4813441E+001
 20
1.6416987E+002
 40
1.2
  1
CONTACTO AUXILIAR
 41
8.0E-001
 11
-9.4813441E+001
 21
1.6296987E+002
 73
3
  0
LINE
  8
1
  6
CONTINUOUS
 62
1
 10
-1.0290901E+002
 20
6.4066405E+001
 11
-1.0290901E+002
 21
6.2066405E+001
  0
LINE
  8
1
  6
CONTINUOUS
 62
1
 10
-1.0744251E+002
 20
1.6746987E+002
 11
-9.707327E+001
 21
1.6746987E+002
  0
LINE
  8
1
  6
CONTINUOUS
 62
1
 10
-1.0744251E+002
 20
1.6546987E+002
 11
-9.707327E+001
 21
1.6546987E+002
  0
LINE
  8
1
  6
CONTINUOUS
 62
1
 10
-1.0744251E+002
 20
1.6746987E+002
 11
-1.0744251E+002
 21
1.6546987E+002
  0
LINE
  8
1
  6
CONTINUOUS
 62
1
 10
-9.707327E+001
 20
1.6746987E+002
 11
-9.707327E+001
 21
1.6546987E+002
  0
LINE
  8
1
  6
CONTINUOUS
 62
1
 10
-9.707327E+001
 20
1.6396987E+002
 11
-9.707327E+001
 21
1.6196987E+002
  0
LINE
  8
1
  6
CONTINUOUS
 62
1
 10
-1.0744251E+002
 20
1.6396987E+002
 11
-9.707327E+001
 21
1.6396987E+002
  0
LINE
  8
1
  6
CONTINUOUS
 62
1
 10
-1.0744251E+002
 20
1.6396987E+002
 11
-1.0744251E+002
 21
1.6196987E+002
  0
LINE
  8
1
  6
CONTINUOUS
 62
1
 10
-1.0744251E+002
 20
1.6196987E+002
 11
-9.707327E+001
 21
1.6196987E+002
  0
LINE
  8
1
  6
CONTINUOUS
 62
1
 10
-9.707327E+001
 20
1.6046987E+002
 11
-9.707327E+001
 21
1.5846987E+002
  0
LINE
  8
1
  6
CONTINUOUS
 62
1
 10
-1.0744251E+002
 20
1.6046987E+002
 11
-9.707327E+001
 21
1.6046987E+002
  0
LINE
  8
1
  6
CONTINUOUS
 62
1
 10
-1.0744251E+002
 20
1.6046987E+002
 11
-1.0744251E+002
 21
1.5846987E+002
  0
LINE
  8
1
  6
CONTINUOUS
 62
1
 10
-1.0744251E+002
 20
1.5846987E+002
 11
-9.707327E+001
 21
1.5846987E+002
  0
LINE
  8
1
  6
CONTINUOUS
 62
1
 10
-9.4813441E+001
 20
1.5896987E+002
 11
-8.0813441E+001
 21
1.5896987E+002
  0
LINE
  8
1
  6
CONTINUOUS
 62
1
 10
-9.4813441E+001
 20
1.5596987E+002
 11
-8.0813441E+001
 21
1.5596987E+002
  0
LINE
  8
1
  6
CONTINUOUS
 62
1
 10
-9.6813441E+001
 20
1.5196987E+002
 11
-7.1313441E+001
 21
1.5196987E+002
  0
LINE
  8
1
  6
CONTINUOUS
 62
1
 10
-9.6813441E+001
 20
1.4996987E+002
 11
-7.1313441E+001
 21
1.4996987E+002
  0
LINE
  8
1
  6
CONTINUOUS
 62
1
 10
-9.9813441E+001
 20
1.4646987E+002
 11
-7.1813441E+001
 21
1.4646987E+002
  0
LINE
  8
1
  6
CONTINUOUS
 62
1
 10
-9.9813441E+001
 20
1.3446987E+002
 11
-7.1813441E+001
 21
1.3446987E+002
  0
LINE
  8
1
  6
CONTINUOUS
 62
1
 10
-7.1813441E+001
 20
1.4646987E+002
 11
-7.1813441E+001
 21
1.3446987E+002
  0
LINE
  8
1
  6
CONTINUOUS
 62
1
 10
-9.9813441E+001
 20
1.4646987E+002
 11
-9.9813441E+001
 21
1.3446987E+002
  0
LINE
  8
1
  6
CONTINUOUS
 62
1
 10
-7.1313441E+001
 20
1.5196987E+002
 11
-7.1313441E+001
 21
1.4996987E+002
  0
LINE
  8
1
  6
CONTINUOUS
 62
1
 10
-9.6813441E+001
 20
1.5196987E+002
 11
-9.6813441E+001
 21
1.4996987E+002
  0
LINE
  8
1
  6
CONTINUOUS
 62
1
 10
-8.0813441E+001
 20
1.5896987E+002
 11
-8.0813441E+001
 21
1.5596987E+002
  0
LINE
  8
1
  6
CONTINUOUS
 62
1
 10
-7.1313441E+001
 20
1.6796987E+002
 11
-7.1313441E+001
 21
1.5396987E+002
  0
LINE
  8
1
  6
CONTINUOUS
 62
1
 10
-7.3313441E+001
 20
1.6796987E+002
 11
-7.3313441E+001
 21
1.5396987E+002
  0
LINE
  8
1
  6
CONTINUOUS
 62
1
 10
-7.3313441E+001
 20
1.6796987E+002
 11
-7.1313441E+001
 21
1.6796987E+002
  0
LINE
  8
1
  6
CONTINUOUS
 62
1
 10
-7.3313441E+001
 20
1.5396987E+002
 11
-7.1313441E+001
 21
1.5396987E+002
  0
LINE
  8
1
  6
CONTINUOUS
 62
1
 10
-7.1313441E+001
 20
1.5196987E+002
 11
-7.1313441E+001
 21
1.4996987E+002
  0
DIMENSION
  8
1
  6
CONTINUOUS
 62
1
  1
( <> )
  2
*D987
  3
DSTYLE1
 10
-1.1181344E+002
 20
1.8915886E+002
 11
-9.0813441E+001
 21
1.9140971E+002
 70
128
 13
-6.9813441E+001
 23
1.7396987E+002
 14
-1.1181344E+002
 24
1.7396987E+002
 40
2.0001
 50
0.0
1001
ACAD
1000
DSTYLE
1002
{
1070
173
1070
0
1070
5
1000
_AH1
1002
}
  0
LINE
  8
1
  6
CONTINUOUS
 62
1
 10
-1.1327825E+002
 20
6.2066405E+001
 11
-1.0290901E+002
 21
6.2066405E+001
  0
DIMENSION
  8
1
  6
CONTINUOUS
 62
1
  1
( <> )
  2
*D989
  3
DSTYLE1
 10
-5.056348E+001
 20
1.3196987E+002
 11
-5.281433E+001
 21
1.5296987E+002
 70
128
 13
-6.9813441E+001
 23
1.7396987E+002
 14
-6.9813441E+001
 24
1.3196987E+002
 40
2.0001
 50
9.0E+001
1001
ACAD
1000
DSTYLE
1002
{
1070
173
1070
0
1070
5
1000
_AH1
1002
}
  0
TEXT
  8
1
  6
CONTINUOUS
 62
1
 10
-4.5033925E+001
 20
1.9855096E+002
 40
2.5
  1
Type de produit
 41
7.0E-001
 11
-4.5033925E+001
 21
1.9605096E+002
 73
3
  0
LINE
  8
1
  6
CONTINUOUS
 62
1
 10
-1.1327825E+002
 20
6.7566405E+001
 11
-1.1327825E+002
 21
6.5566405E+001
  0
LINE
  8
1
  6
CONTINUOUS
 62
1
 10
-1.1327825E+002
 20
6.7566405E+001
 11
-1.0290901E+002
 21
6.7566405E+001
  0
LINE
  8
1
  6
CONTINUOUS
 62
1
 10
-1.0290901E+002
 20
6.7566405E+001
 11
-1.0290901E+002
 21
6.5566405E+001
  0
LINE
  8
1
  6
CONTINUOUS
 62
1
 10
-1.1327825E+002
 20
6.5566405E+001
 11
-1.0290901E+002
 21
6.5566405E+001
  0
LINE
  8
1
  6
CONTINUOUS
 62
1
 10
-1.1495038E+002
 20
5.0624762E+001
 11
-1.0695038E+002
 21
5.0624762E+001
  0
TEXT
  8
1
  6
CONTINUOUS
 62
1
 10
-4.5033925E+001
 20
1.867834E+002
 40
2.5
  1
Gamme de contacteurs
 41
7.0E-001
 11
-4.5033925E+001
 21
1.842834E+002
 73
3
  0
INSERT
  2
NEW2
  8
1
 10
-1.0793149E+001
 20
1.8064721E+002
  0
TEXT
  8
1
  6
CONTINUOUS
 62
1
 10
-4.5033925E+001
 20
1.7178412E+002
 40
2.5
  1
Symbole commercial
 41
7.0E-001
 11
-4.5033925E+001
 21
1.6928412E+002
 73
3
  0
INSERT
  2
NEW3
  8
1
 10
-1.4883861E+001
 20
1.6549642E+002
  0
TEXT
  8
1
  6
CONTINUOUS
 62
1
 10
-4.5033925E+001
 20
1.47684E+002
 40
2.5
  1
N%%dd'identification
 41
7.0E-001
 11
-4.5033925E+001
 21
1.45184E+002
 73
3
  0
INSERT
  2
NEW4
  8
1
 10
-1.4372009E+001
 20
1.4135128E+002
  0
TEXT
  8
1
  6
CONTINUOUS
 62
1
 10
-4.5033925E+001
 20
1.2726798E+002
 40
2.5
  1
Code barre
 41
7.0E-001
 11
-4.5033925E+001
 21
1.2476798E+002
 73
3
  0
INSERT
  2
NEW5
  8
1
 10
-2.8647873E+001
 20
1.2093526E+002
  0
TEXT
  8
1
  6
CONTINUOUS
 62
1
 10
-1.0425229E+002
 20
1.7773171E+002
 40
2.5
  1
Code client
 41
7.0E-001
 72
2
 11
-1.2350229E+002
 21
1.7773171E+002
  0
LINE
  8
1
  6
CONTINUOUS
 62
1
 10
-9.9950377E+001
 20
5.4899563E+001
 11
-7.1950377E+001
 21
5.4899563E+001
  0
LINE
  8
1
  6
CONTINUOUS
 62
1
 10
-9.9950377E+001
 20
5.2899563E+001
 11
-9.9950377E+001
 21
5.4899563E+001
  0
LINE
  8
1
  6
CONTINUOUS
 62
1
 10
-9.9950377E+001
 20
5.2899563E+001
 11
-7.1950377E+001
 21
5.2899563E+001
  0
LINE
  8
1
  6
CONTINUOUS
 62
1
 10
-7.1950377E+001
 20
5.4899563E+001
 11
-7.1950377E+001
 21
5.2899563E+001
  0
TEXT
  8
1
  6
CONTINUOUS
 62
1
 10
-9.9938322E+001
 20
6.8789054E+001
 40
1.2
  1
MECHANICAL INTERLOCK
 11
-9.9938322E+001
 21
6.7589054E+001
 73
3
  0
LINE
  8
1
  6
CONTINUOUS
 62
1
 10
-1.1476357E+002
 20
1.6621892E+002
 11
-1.1476357E+002
 21
1.5977175E+002
  0
TEXT
  8
1
  6
CONTINUOUS
 62
1
 10
-9.9938322E+001
 20
6.6789054E+001
 40
1.2
  1
MECHANISCHE VERRIELUNG
 11
-9.9938322E+001
 21
6.5589054E+001
 73
3
  0
TEXT
  8
1
  6
CONTINUOUS
 62
1
 10
-9.9938322E+001
 20
6.4789054E+001
 40
1.2
  1
VERROUILLAGE MECANIQUE
 11
-9.9938322E+001
 21
6.3589054E+001
 73
3
  0
TEXT
  8
1
  6
CONTINUOUS
 62
1
 10
-9.9938322E+001
 20
6.2789054E+001
 40
1.2
  1
MEKANISK FORREGLING
 11
-9.9938322E+001
 21
6.1589054E+001
 73
3
  0
TEXT
  8
1
  6
CONTINUOUS
 62
1
 10
-9.9938322E+001
 20
6.0789054E+001
 40
1.2
  1
BLOCCO MECANICO
 11
-9.9938322E+001
 21
5.9589054E+001
 73
3
  0
TEXT
  8
1
  6
CONTINUOUS
 62
1
 10
-9.9938322E+001
 20
5.8789054E+001
 40
1.2
  1
ENCLAVAMIENTO MECANICO
 11
-9.9938322E+001
 21
5.7589054E+001
 73
3
  0
TEXT
  8
1
  6
CONTINUOUS
 62
1
 10
-8.5002288E+001
 20
1.5900423E+002
 40
2.5
  1
Perspective du produit
 41
7.0E-001
 72
2
 11
-1.2350229E+002
 21
1.5900423E+002
  0
LINE
  8
1
  6
CONTINUOUS
 62
1
 10
-9.9950377E+001
 20
3.9546434E+001
 11
-7.3950377E+001
 21
3.9546434E+001
  0
LINE
  8
1
  6
CONTINUOUS
 62
1
 10
-9.9950377E+001
 20
5.1546434E+001
 11
-7.3950377E+001
 21
5.1546434E+001
  0
LINE
  8
1
  6
CONTINUOUS
 62
1
 10
-7.3950377E+001
 20
5.1546434E+001
 11
-7.3950377E+001
 21
3.9546434E+001
  0
LINE
  8
1
  6
CONTINUOUS
 62
1
 10
-9.9950377E+001
 20
5.1546434E+001
 11
-9.9950377E+001
 21
3.9546434E+001
  0
TEXT
  8
1
  6
CONTINUOUS
 62
1
 10
-8.1502288E+001
 20
1.3920222E+002
 40
2.5
  1
Unite de conditionnement
 41
7.0E-001
 72
2
 11
-1.2350229E+002
 21
1.3920222E+002
  0
LINE
  8
1
  6
CONTINUOUS
 62
1
 10
-1.1476488E+002
 20
5.2546434E+001
 11
-1.0395038E+002
 21
5.2546434E+001
  0
LINE
  8
1
  6
CONTINUOUS
 62
1
 10
-1.1495038E+002
 20
5.5546434E+001
 11
-1.0395038E+002
 21
5.5546434E+001
  0
LINE
  8
1
  6
CONTINUOUS
 62
1
 10
-1.1031344E+002
 20
1.3416987E+002
 11
-1.1031344E+002
 21
1.3296987E+002
  0
LINE
  8
1
  6
CONTINUOUS
 62
1
 10
-1.1031344E+002
 20
1.3296987E+002
 11
-1.0231344E+002
 21
1.3296987E+002
  0
LINE
  8
1
  6
CONTINUOUS
 62
1
 10
-1.1031344E+002
 20
1.3416987E+002
 11
-1.0231344E+002
 21
1.3416987E+002
  0
LINE
  8
1
  6
CONTINUOUS
 62
1
 10
-1.0231344E+002
 20
1.3416987E+002
 11
-1.0231344E+002
 21
1.3296987E+002
  0
LINE
  8
1
  6
CONTINUOUS
 62
1
 10
-1.1495038E+002
 20
5.5546434E+001
 11
-1.1495038E+002
 21
5.2546434E+001
  0
LINE
  8
1
  6
CONTINUOUS
 62
1
 10
-1.0395038E+002
 20
5.2546434E+001
 11
-1.0395038E+002
 21
5.5546434E+001
  0
INSERT
  2
NEW7
  8
1
 10
-1.6161937E+002
 20
1.5799987E+002
  0
DIMENSION
  8
1
  6
CONTINUOUS
 62
1
  1
( <> )
  2
*D1031
  3
DSTYLE1
 10
-1.1795038E+002
 20
8.8936455E+001
 11
-8.9950377E+001
 21
9.1187305E+001
 70
128
 13
-6.1950377E+001
 23
6.8546434E+001
 14
-1.1795038E+002
 24
6.8546434E+001
 40
2.0001
 50
0.0
1001
ACAD
1000
DSTYLE
1002
{
1070
173
1070
0
1070
5
1000
_AH1
1002
}
  0
DIMENSION
  8
1
  6
CONTINUOUS
 62
1
  1
( <> )
  2
*D1032
  3
DSTYLE1
 10
-4.0121434E+001
 20
3.8546434E+001
 11
-4.2372284E+001
 21
5.3546434E+001
 70
128
 13
-6.1950377E+001
 23
6.8546434E+001
 14
-6.1950377E+001
 24
3.8546434E+001
 40
2.0001
 50
9.0E+001
1001
ACAD
1000
DSTYLE
1002
{
1070
173
1070
0
1070
5
1000
_AH1
1002
}
  0
INSERT
  2
NEW9
  8
1
 10
-1.6492699E+002
 20
1.3805717E+002
  0
TEXT
  8
1
  6
CONTINUOUS
 62
1
 10
-1.0425229E+002
 20
1.1715462E+002
 40
2.5
  1
Tracabilite
 41
7.0E-001
 72
2
 11
-1.2350229E+002
 21
1.1715462E+002
  0
INSERT
  2
NEW10
  8
1
 10
-1.4202543E+002
 20
1.1575019E+002
  0
POLYLINE
  8
1
  6
CONTINUOUS
 62
1
 66
1
 40
0.0
 41
0.0
 70
2
  0
VERTEX
  8
1
 42
0.0
 10
-1.3663075E+002
 20
1.1716206E+002
 70
0
  0
VERTEX
  8
1
 42
-3.174512E-003
 10
-1.3662983E+002
 20
1.1714969E+002
 70
1
  0
VERTEX
  8
1
 42
-3.2025419E-003
 10
-1.3662907E+002
 20
1.1713737E+002
 70
0
  0
VERTEX
  8
1
 42
-3.2358087E-003
 10
-1.3662848E+002
 20
1.171251E+002
 70
1
  0
VERTEX
  8
1
 42
-3.2706043E-003
 10
-1.3662805E+002
 20
1.1711287E+002
 70
0
  0
VERTEX
  8
1
 42
-3.302513E-003
 10
-1.3662778E+002
 20
1.1710069E+002
 70
1
  0
VERTEX
  8
1
 42
-3.3307679E-003
 10
-1.3662767E+002
 20
1.1708856E+002
 70
0
  0
VERTEX
  8
1
 42
-3.3576316E-003
 10
-1.3662773E+002
 20
1.1707647E+002
 70
1
  0
VERTEX
  8
1
 42
-3.381701E-003
 10
-1.3662795E+002
 20
1.1706442E+002
 70
0
  0
VERTEX
  8
1
 42
-3.4037761E-003
 10
-1.3662833E+002
 20
1.1705241E+002
 70
1
  0
VERTEX
  8
1
 42
-3.422743E-003
 10
-1.3662888E+002
 20
1.1704043E+002
 70
0
  0
VERTEX
  8
1
 42
-3.4395823E-003
 10
-1.3662959E+002
 20
1.1702849E+002
 70
1
  0
VERTEX
  8
1
 42
-3.4532656E-003
 10
-1.3663046E+002
 20
1.1701659E+002
 70
0
  0
VERTEX
  8
1
 42
-3.464627E-003
 10
-1.366315E+002
 20
1.1700471E+002
 70
1
  0
VERTEX
  8
1
 42
-3.4727924E-003
 10
-1.366327E+002
 20
1.1699287E+002
 70
0
  0
VERTEX
  8
1
 42
-3.4784941E-003
 10
-1.3663407E+002
 20
1.1698105E+002
 70
1
  0
VERTEX
  8
1
 42
-3.4810243E-003
 10
-1.3663559E+002
 20
1.1696927E+002
 70
0
  0
VERTEX
  8
1
 42
-3.480961E-003
 10
-1.3663729E+002
 20
1.169575E+002
 70
1
  0
VERTEX
  8
1
 42
-3.4777154E-003
 10
-1.3663915E+002
 20
1.1694576E+002
 70
0
  0
VERTEX
  8
1
 42
-3.4719799E-003
 10
-1.3664117E+002
 20
1.1693405E+002
 70
1
  0
VERTEX
  8
1
 42
-3.4635214E-003
 10
-1.3664336E+002
 20
1.1692235E+002
 70
0
  0
VERTEX
  8
1
 42
-3.4516222E-003
 10
-1.3664572E+002
 20
1.1691067E+002
 70
1
  0
VERTEX
  8
1
 42
-3.435431E-003
 10
-1.3664823E+002
 20
1.1689901E+002
 70
0
  0
VERTEX
  8
1
 42
-3.4230524E-003
 10
-1.3665092E+002
 20
1.1688736E+002
 70
1
  0
VERTEX
  8
1
 42
-3.4186091E-003
 10
-1.3665377E+002
 20
1.1687573E+002
 70
0
  0
VERTEX
  8
1
 42
-3.4178619E-003
 10
-1.3665678E+002
 20
1.1686412E+002
 70
1
  0
VERTEX
  8
1
 42
-3.4264042E-003
 10
-1.3665996E+002
 20
1.1685253E+002
 70
0
  0
VERTEX
  8
1
 42
-3.4340761E-003
 10
-1.3666331E+002
 20
1.1684097E+002
 70
1
  0
VERTEX
  8
1
 42
-3.4457003E-003
 10
-1.3666681E+002
 20
1.1682945E+002
 70
0
  0
VERTEX
  8
1
 42
-3.4574418E-003
 10
-1.3667048E+002
 20
1.1681796E+002
 70
1
  0
VERTEX
  8
1
 42
-3.474784E-003
 10
-1.3667431E+002
 20
1.1680652E+002
 70
0
  0
VERTEX
  8
1
 42
-3.4916401E-003
 10
-1.3667831E+002
 20
1.1679512E+002
 70
1
  0
VERTEX
  8
1
 42
-3.5138547E-003
 10
-1.3668247E+002
 20
1.1678377E+002
 70
0
  0
VERTEX
  8
1
 42
-3.5354481E-003
 10
-1.3668679E+002
 20
1.1677249E+002
 70
1
  0
VERTEX
  8
1
 42
-3.5627044E-003
 10
-1.3669127E+002
 20
1.1676126E+002
 70
0
  0
VERTEX
  8
1
 42
-3.5891067E-003
 10
-1.3669591E+002
 20
1.167501E+002
 70
1
  0
VERTEX
  8
1
 42
-3.6213716E-003
 10
-1.3670071E+002
 20
1.16739E+002
 70
0
  0
VERTEX
  8
1
 42
-3.652433E-003
 10
-1.3670568E+002
 20
1.1672799E+002
 70
1
  0
VERTEX
  8
1
 42
-3.689466E-003
 10
-1.367108E+002
 20
1.1671705E+002
 70
0
  0
VERTEX
  8
1
 42
-3.725472E-003
 10
-1.3671608E+002
 20
1.1670619E+002
 70
1
  0
VERTEX
  8
1
 42
-3.7680496E-003
 10
-1.3672152E+002
 20
1.1669543E+002
 70
0
  0
VERTEX
  8
1
 42
-3.8078258E-003
 10
-1.3672712E+002
 20
1.1668476E+002
 70
1
  0
VERTEX
  8
1
 42
-3.853075E-003
 10
-1.3673288E+002
 20
1.1667418E+002
 70
0
  0
VERTEX
  8
1
 42
-3.9005191E-003
 10
-1.3673879E+002
 20
1.1666371E+002
 70
1
  0
VERTEX
  8
1
 42
-3.9580107E-003
 10
-1.3674487E+002
 20
1.1665334E+002
 70
0
  0
VERTEX
  8
1
 42
-3.9993881E-003
 10
-1.367511E+002
 20
1.1664309E+002
 70
1
  0
VERTEX
  8
1
 42
-4.0372998E-003
 10
-1.3675748E+002
 20
1.1663295E+002
 70
0
  0
VERTEX
  8
1
 42
-4.1169946E-003
 10
-1.3676402E+002
 20
1.1662294E+002
 70
1
  0
VERTEX
  8
1
 42
-4.2314861E-003
 10
-1.3677072E+002
 20
1.1661305E+002
 70
0
  0
VERTEX
  8
1
 42
-4.1161967E-003
 10
-1.3677759E+002
 20
1.1660326E+002
 70
1
  0
VERTEX
  8
1
 42
-3.816178E-003
 10
-1.3678458E+002
 20
1.1659363E+002
 70
0
  0
VERTEX
  8
1
 42
-4.1546309E-003
 10
-1.3679168E+002
 20
1.1658418E+002
 70
1
  0
VERTEX
  8
1
 42
-4.8659633E-003
 10
-1.3679907E+002
 20
1.1657469E+002
 70
0
  0
VERTEX
  8
1
 42
-3.6833647E-003
 10
-1.3680682E+002
 20
1.1656512E+002
 70
1
  0
VERTEX
  8
1
 42
-1.3341284E-003
 10
-1.3681419E+002
 20
1.1655619E+002
 70
0
  0
VERTEX
  8
1
 42
-5.0414112E-003
 10
-1.3682093E+002
 20
1.1654818E+002
 70
1
  0
VERTEX
  8
1
 42
-8.3998992E-003
 10
-1.3682994E+002
 20
1.165381E+002
 70
0
  0
VERTEX
  8
1
 42
-4.0504009E-003
 10
-1.3684428E+002
 20
1.1652286E+002
 70
1
  0
VERTEX
  8
1
 42
-2.1455362E-003
 10
-1.3686334E+002
 20
1.1650306E+002
 70
0
  0
SEQEND
  0
INSERT
  2
NEW11
  8
1
 10
-1.4185866E+002
 20
1.7655271E+002
  0
TEXT
  8
1
  6
CONTINUOUS
 62
1
 10
-9.5502288E+001
 20
1.7269401E+002
 40
2.5
  1
Custormer's code
 41
7.0E-001
 51
2.5E+001
 72
2
 11
-1.2350229E+002
 21
1.7269401E+002
  0
TEXT
  8
1
  6
CONTINUOUS
 62
1
 10
-8.6752288E+001
 20
1.5380403E+002
 40
2.5
  1
Viewpoints of product
 41
7.0E-001
 51
2.5E+001
 72
2
 11
-1.2350229E+002
 21
1.5380403E+002
  0
TEXT
  8
1
  6
CONTINUOUS
 62
1
 10
-9.3752288E+001
 20
1.3383951E+002
 40
2.5
  1
Unit of packaging
 41
7.0E-001
 51
2.5E+001
 72
2
 11
-1.2350229E+002
 21
1.3383951E+002
  0
TEXT
  8
1
  6
CONTINUOUS
 62
1
 10
-1.1125229E+002
 20
1.1195442E+002
 40
2.5
  1
Hystory
 41
7.0E-001
 51
2.5E+001
 72
2
 11
-1.2350229E+002
 21
1.1195442E+002
  0
INSERT
  2
NEW12
  8
1
 10
-1.9328861E+001
 20
1.9247833E+002
  0
TEXT
  8
1
  6
CONTINUOUS
 62
1
 10
-4.5033925E+001
 20
1.9416329E+002
 40
2.5
  1
Type of product
 41
7.0E-001
 51
2.5E+001
 11
-4.5033925E+001
 21
1.9166329E+002
 73
3
  0
TEXT
  8
1
  6
CONTINUOUS
 62
1
 10
-4.5033925E+001
 20
1.817457E+002
 40
2.5
  1
Range of contactors
 41
7.0E-001
 51
2.5E+001
 11
-4.5033925E+001
 21
1.792457E+002
 73
3
  0
TEXT
  8
1
  6
CONTINUOUS
 62
1
 10
-4.5033925E+001
 20
1.662589E+002
 40
2.5
  1
Type
 41
7.0E-001
 51
2.5E+001
 11
-4.5033925E+001
 21
1.637589E+002
 73
3
  0
TEXT
  8
1
  6
CONTINUOUS
 62
1
 10
-4.5033925E+001
 20
1.4215879E+002
 40
2.5
  1
Order code
 41
7.0E-001
 51
2.5E+001
 11
-4.5033925E+001
 21
1.3965879E+002
 73
3
  0
TEXT
  8
1
  6
CONTINUOUS
 62
1
 10
-4.5033925E+001
 20
1.2125525E+002
 40
2.5
  1
Bar code
 41
7.0E-001
 51
2.5E+001
 11
-4.5033925E+001
 21
1.1875525E+002
 73
3
  0
INSERT
  2
NEW17
  8
1
 10
-6.963449
 20
3.5440033E+001
  0
TEXT
  8
1
  6
CONTINUOUS
 62
1
 10
-3.767887E+001
 20
3.6616235E+001
 40
2.5
  1
Order code
 41
7.0E-001
 51
2.5E+001
 11
-3.767887E+001
 21
3.4116235E+001
 73
3
  0
TEXT
  8
1
  6
CONTINUOUS
 62
1
 10
-3.767887E+001
 20
4.2141452E+001
 40
2.5
  1
N%%dd'identification
 41
7.0E-001
 11
-3.767887E+001
 21
3.9641452E+001
 73
3
  0
LINE
  8
1
  6
CONTINUOUS
 62
1
 10
-6.3950377E+001
 20
6.7018449E+001
 11
-6.3950377E+001
 21
5.3018449E+001
  0
LINE
  8
1
  6
CONTINUOUS
 62
1
 10
-6.5950377E+001
 20
6.7018449E+001
 11
-6.3950377E+001
 21
6.7018449E+001
  0
TEXT
  8
1
  6
CONTINUOUS
 62
1
 10
-3.767887E+001
 20
9.7827562E+001
 40
2.5
  1
Type de produit
 41
7.0E-001
 11
-3.767887E+001
 21
9.5327562E+001
 73
3
  0
TEXT
  8
1
  6
CONTINUOUS
 62
1
 10
-3.767887E+001
 20
9.343989E+001
 40
2.5
  1
Type of product
 41
7.0E-001
 51
2.5E+001
 11
-3.767887E+001
 21
9.093989E+001
 73
3
  0
TEXT
  8
1
  6
CONTINUOUS
 62
1
 10
-1.592958E+002
 20
6.7883929E+001
 40
2.5
  1
Symbole commercial
 41
7.0E-001
 11
-1.592958E+002
 21
6.5383929E+001
 73
3
  0
TEXT
  8
1
  6
CONTINUOUS
 62
1
 10
-1.592958E+002
 20
6.2358713E+001
 40
2.5
  1
Type
 41
7.0E-001
 51
2.5E+001
 11
-1.592958E+002
 21
5.9858713E+001
 73
3
  0
TEXT
  8
1
  6
CONTINUOUS
 62
1
 10
-3.767887E+001
 20
1.8372302E+001
 40
2.5
  1
Code barre
 41
7.0E-001
 11
-3.767887E+001
 21
1.5872302E+001
 73
3
  0
TEXT
  8
1
  6
CONTINUOUS
 62
1
 10
-3.767887E+001
 20
1.3204293E+001
 40
2.5
  1
Bar code
 41
7.0E-001
 51
2.5E+001
 11
-3.767887E+001
 21
1.0704293E+001
 73
3
  0
INSERT
  2
NEW6
  8
1
 10
-1.2822681E+001
 20
9.1800227E+001
  0
LINE
  8
1
  6
CONTINUOUS
 62
1
 10
-6.5950377E+001
 20
6.7018449E+001
 11
-6.5950377E+001
 21
5.3018449E+001
  0
LINE
  8
1
  6
CONTINUOUS
 62
1
 10
-6.5950377E+001
 20
5.3018449E+001
 11
-6.3950377E+001
 21
5.3018449E+001
  0
TEXT
  8
1
  6
CONTINUOUS
 62
3
 10
-1.2565064E+002
 20
1.9998146E+002
 40
4.0
  1
FIG.1
 41
7.5E-001
 72
1
 11
-1.3315064E+002
 21
1.9598146E+002
 73
3
  0
TEXT
  8
1
  6
CONTINUOUS
 62
3
 10
-1.2565064E+002
 20
9.5360371E+001
 40
4.0
  1
FIG.2
 41
7.5E-001
 72
1
 11
-1.3315064E+002
 21
9.1360371E+001
 73
3
  0
INSERT
  2
NEW14
  8
1
 10
-2.1181252E+001
 20
1.1842699E+001
  0
TEXT
  8
1
  6
CONTINUOUS
 62
1
 10
-1.195757E+002
 20
7.6144813E+001
 40
2.5
  1
Code client
 41
7.0E-001
 72
2
 11
-1.388257E+002
 21
7.6144813E+001
  0
TEXT
  8
1
  6
CONTINUOUS
 62
1
 10
-8.7898289E+001
 20
4.9744303E+001
 40
2.5
  1
Perspective du produit
 41
7.0E-001
 72
2
 11
-1.2639829E+002
 21
4.9744303E+001
  0
TEXT
  8
1
  6
CONTINUOUS
 62
1
 10
-8.9648289E+001
 20
4.45441E+001
 40
2.5
  1
Viewpoints of product
 41
7.0E-001
 51
2.5E+001
 72
2
 11
-1.2639829E+002
 21
4.45441E+001
  0
LINE
  8
1
  6
CONTINUOUS
 62
1
 10
-1.2012395E+002
 20
6.5948617E+001
 11
-1.2012395E+002
 21
6.0946215E+001
  0
INSERT
  2
NEW15
  8
1
 10
-1.659161E+002
 20
7.4854863E+001
  0
INSERT
  2
NEW16
  8
1
 10
-1.6496014E+002
 20
4.794845E+001
  0
TEXT
  8
1
  6
CONTINUOUS
 62
1
 10
-3.767887E+001
 20
8.1022302E+001
 40
2.5
  1
Range of contactors
 41
7.0E-001
 51
2.5E+001
 11
-3.767887E+001
 21
7.8522302E+001
 73
3
  0
TEXT
  8
1
  6
CONTINUOUS
 62
1
 10
-3.767887E+001
 20
8.6059999E+001
 40
2.5
  1
Gamme de contacteurs
 41
7.0E-001
 11
-3.767887E+001
 21
8.3559999E+001
 73
3
  0
INSERT
  2
NEW13
  8
1
 10
-3.7072
 20
7.9450523E+001
  0
TEXT
  8
1
  6
CONTINUOUS
 62
1
 10
-1.108257E+002
 20
7.1107116E+001
 40
2.5
  1
Custormer's code
 41
7.0E-001
 51
2.5E+001
 72
2
 11
-1.388257E+002
 21
7.1107116E+001
  0
ENDBLK
  0
BLOCK
  2
NEW13
 10
0.0
 20
0.0
 70
0
  0
LINE
  8
1
  6
CONTINUOUS
 62
1
 10
0.0
 20
0.0
 11
0.0
 21
0.0
  0
LINE
  8
1
  6
CONTINUOUS
 62
1
 10
0.0
 20
0.0
 11
-3.5670726E+001
 21
0.0
  0
LINE
  8
1
  6
CONTINUOUS
 62
1
 10
-3.5670726E+001
 20
0.0
 11
-6.0243177E+001
 21
-1.6725278E+001
  0
INSERT
  2
_AH16
  8
1
 10
-6.0243177E+001
 20
-1.6725278E+001
 41
3.5001001
 43
3.5001001
 42
3.5001001
 50
3.4241224E+001
  0
ENDBLK
  0
BLOCK
  2
NEW14
 10
0.0
 20
0.0
 70
0
  0
LINE
  8
1
  6
CONTINUOUS
 62
1
 10
0.0
 20
0.0
 11
0.0
 21
0.0
  0
LINE
  8
1
  6
CONTINUOUS
 62
1
 10
0.0
 20
0.0
 11
-1.7457667E+001
 21
0.0
  0
LINE
  8
1
  6
CONTINUOUS
 62
1
 10
-1.7457667E+001
 20
0.0
 11
-6.0769125E+001
 21
2.7703735E+001
  0
INSERT
  2
_AH16
  8
1
 10
-6.0769125E+001
 20
2.7703735E+001
 41
3.5001001
 43
3.5001001
 42
3.5001001
 50
3.273954E+002
  0
ENDBLK
  0
BLOCK
  2
NEW15
 10
0.0
 20
0.0
 70
0
  0
LINE
  8
1
  6
CONTINUOUS
 62
1
 10
0.0
 20
0.0
 11
0.0
 21
0.0
  0
LINE
  8
1
  6
CONTINUOUS
 62
1
 10
0.0
 20
0.0
 11
2.9907721E+001
 21
0.0
  0
LINE
  8
1
  6
CONTINUOUS
 62
1
 10
2.9907721E+001
 20
0.0
 11
4.5792145E+001
 21
-1.1407447E+001
  0
INSERT
  2
_AH16
  8
1
 10
4.5792145E+001
 20
-1.1407447E+001
 41
3.5001001
 43
3.5001001
 42
3.5001001
 50
1.4431587E+002
  0
ENDBLK
  0
BLOCK
  2
NEW16
 10
0.0
 20
0.0
 70
0
  0
LINE
  8
1
  6
CONTINUOUS
 62
1
 10
0.0
 20
0.0
 11
0.0
 21
0.0
  0
LINE
  8
1
  6
CONTINUOUS
 62
1
 10
0.0
 20
0.0
 11
3.9740397E+001
 21
0.0
  0
LINE
  8
1
  6
CONTINUOUS
 62
1
 10
3.9740397E+001
 20
0.0
 11
5.0009766E+001
 21
-2.323688
  0
INSERT
  2
_AH16
  8
1
 10
5.0009766E+001
 20
-2.323688
 41
3.5001001
 43
3.5001001
 42
3.5001001
 50
1.6725017E+002
  0
ENDBLK
  0
BLOCK
  2
NEW17
 10
0.0
 20
0.0
 70
0
  0
LINE
  8
1
  6
CONTINUOUS
 62
1
 10
0.0
 20
0.0
 11
0.0
 21
0.0
  0
LINE
  8
1
  6
CONTINUOUS
 62
1
 10
0.0
 20
0.0
 11
-3.2710499E+001
 21
0.0
  0
LINE
  8
1
  6
CONTINUOUS
 62
1
 10
-3.2710499E+001
 20
0.0
 11
-6.4986928E+001
 21
1.845953E+001
  0
LINE
  8
1
  6
CONTINUOUS
 62
1
 10
-1.0695038E+002
 20
5.0624762E+001
 11
-1.0695038E+002
 21
4.0624762E+001
  0
ENDBLK
  0
BLOCK
  2
TSYD
 10
0.0
 20
0.0
 70
0
  0
LINE
  8
1
  6
CONTINUOUS
 62
1
 10
5.95E+001
 20
-1.7895542E+002
 11
6.15E+001
 21
-1.7895542E+002
  0
LINE
  8
1
  6
CONTINUOUS
 62
1
 10
5.95E+001
 20
-1.8395542E+002
 11
6.05E+001
 21
-1.7795542E+002
  0
LINE
  8
1
  6
CONTINUOUS
 62
1
 10
5.95E+001
 20
-1.8395542E+002
 11
5.95E+001
 21
-1.93E+002
  0
LINE
  8
1
  6
CONTINUOUS
 62
1
 10
4.65E+001
 20
-1.3751215E+002
 11
5.3E+001
 21
-1.3751215E+002
  0
LINE
  8
1
  6
CONTINUOUS
 62
1
 10
7.25E+001
 20
-1.5651215E+002
 11
7.75E+001
 21
-1.5651215E+002
  0
LINE
  8
1
  6
CONTINUOUS
 62
1
 10
6.55E+001
 20
-1.5651215E+002
 11
7.05E+001
 21
-1.5651215E+002
  0
LINE
  8
1
  6
CONTINUOUS
 62
1
 10
6.35E+001
 20
-1.5651215E+002
 11
6.45E+001
 21
-1.5651215E+002
  0
LINE
  8
1
  6
CONTINUOUS
 62
1
 10
5.75E+001
 20
-1.5651215E+002
 11
6.25E+001
 21
-1.5651215E+002
  0
LINE
  8
1
  6
CONTINUOUS
 62
1
 10
5.55E+001
 20
-1.5651215E+002
 11
5.65E+001
 21
-1.5651215E+002
  0
LINE
  8
1
  6
CONTINUOUS
 62
1
 10
5.55E+001
 20
-1.5651215E+002
 11
5.55E+001
 21
-1.6051215E+002
  0
LINE
  8
1
  6
CONTINUOUS
 62
1
 10
5.55E+001
 20
-1.6251215E+002
 11
5.55E+001
 21
-1.6151215E+002
  0
LINE
  8
1
  6
CONTINUOUS
 62
1
 10
5.55E+001
 20
-1.6851215E+002
 11
5.55E+001
 21
-1.6351215E+002
  0
LINE
  8
1
  6
CONTINUOUS
 62
1
 10
5.55E+001
 20
-1.7051215E+002
 11
5.55E+001
 21
-1.6951215E+002
  0
LINE
  8
1
  6
CONTINUOUS
 62
1
 10
5.55E+001
 20
-1.7151215E+002
 11
5.55E+001
 21
-1.7351215E+002
  0
LINE
  8
1
  6
CONTINUOUS
 62
1
 10
5.85E+001
 20
-1.7351215E+002
 11
5.55E+001
 21
-1.7351215E+002
  0
LINE
  8
1
  6
CONTINUOUS
 62
1
 10
6.05E+001
 20
-1.7351215E+002
 11
6.55E+001
 21
-1.7351215E+002
  0
LINE
  8
1
  6
CONTINUOUS
 62
1
 10
6.75E+001
 20
-1.7351215E+002
 11
6.65E+001
 21
-1.7351215E+002
  0
LINE
  8
1
  6
CONTINUOUS
 62
1
 10
7.35E+001
 20
-1.7351215E+002
 11
6.85E+001
 21
-1.7351215E+002
  0
LINE
  8
1
  6
CONTINUOUS
 62
1
 10
7.55E+001
 20
-1.7351215E+002
 11
7.45E+001
 21
-1.7351215E+002
  0
LINE
  8
1
  6
CONTINUOUS
 62
1
 10
8.15E+001
 20
-1.7351215E+002
 11
7.65E+001
 21
-1.7351215E+002
  0
LINE
  8
1
  6
CONTINUOUS
 62
1
 10
8.5
 20
-1.2453217E+002
 11
1.45E+001
 21
-1.2453217E+002
  0
LINE
  8
1
  6
CONTINUOUS
 62
1
 10
8.5
 20
-1.2453217E+002
 11
8.5
 21
-1.2543494E+002
  0
LINE
  8
1
  6
CONTINUOUS
 62
1
 10
8.5
 20
-1.4953217E+002
 11
1.45E+001
 21
-1.4953217E+002
  0
TEXT
  8
1
  6
CONTINUOUS
 62
1
 10
5.875E+001
 20
-2.0411862E+002
 40
2.0
  1
Y
 41
7.5E-001
  0
TEXT
  8
1
  6
CONTINUOUS
 62
1
 10
5.05E+001
 20
-1.9536862E+002
 40
2.0
  1
KM2
 41
7.5E-001
  0
TEXT
  8
1
  6
CONTINUOUS
 62
1
 10
7.35E+001
 20
-1.9536862E+002
 40
2.0
  1
KM3
 41
7.5E-001
  0
TEXT
  8
1
  6
CONTINUOUS
 62
1
 10
5.4E+001
 20
-1.8232404E+002
 40
2.0
  1
KM3
 41
7.5E-001
  0
TEXT
  8
1
  6
CONTINUOUS
 62
1
 10
7.7E+001
 20
-1.8232404E+002
 40
2.0
  1
KM2
 41
7.5E-001
  0
TEXT
  8
1
  6
CONTINUOUS
 62
1
 10
5.875E+001
 20
-1.7795542E+002
 40
2.0
  1
21
 41
7.5E-001
 50
9.0E+001
  0
TEXT
  8
1
  6
CONTINUOUS
 62
1
 10
5.875E+001
 20
-1.8695542E+002
 40
2.0
  1
22
 41
7.5E-001
 50
9.0E+001
  0
LINE
  8
1
  6
CONTINUOUS
 62
1
 10
4.2E+001
 20
-1.2803217E+002
 11
4.05E+001
 21
-1.2803217E+002
  0
TEXT
  8
1
  6
CONTINUOUS
 62
1
 10
3.82E+001
 20
-1.3103217E+002
 40
2.0
  1
O
 41
7.5E-001
  0
LINE
  8
1
  6
CONTINUOUS
 62
1
 10
4.05E+001
 20
-1.2803217E+002
 11
4.05E+001
 21
-1.3203217E+002
  0
LINE
  8
1
  6
HIDDEN
 62
1
 10
4.7E+001
 20
-1.3003217E+002
 11
4.05E+001
 21
-1.3003217E+002
  0
LINE
  8
1
  6
CONTINUOUS
 62
1
 10
4.2E+001
 20
-1.3203217E+002
 11
4.05E+001
 21
-1.3203217E+002
  0
LINE
  8
1
  6
CONTINUOUS
 62
1
 10
4.65E+001
 20
-1.3253217E+002
 11
4.75E+001
 21
-1.2653217E+002
  0
LINE
  8
1
  6
CONTINUOUS
 62
1
 10
4.65E+001
 20
-1.2753217E+002
 11
4.85E+001
 21
-1.2753217E+002
  0
LINE
  8
1
  6
CONTINUOUS
 62
1
 10
4.65E+001
 20
-1.4753217E+002
 11
4.45E+001
 21
-1.4253217E+002
  0
LINE
  8
1
  6
CONTINUOUS
 62
1
 10
4.65E+001
 20
-1.2251215E+002
 11
4.65E+001
 21
-1.2753217E+002
  0
LINE
  8
1
  6
CONTINUOUS
 62
1
 10
4.65E+001
 20
-1.3253217E+002
 11
4.65E+001
 21
-1.4253217E+002
  0
LINE
  8
1
  6
CONTINUOUS
 62
1
 10
4.65E+001
 20
-1.5251215E+002
 11
4.65E+001
 21
-1.4753217E+002
  0
LINE
  8
1
  6
CONTINUOUS
 62
1
 10
1.55E+001
 20
-1.2451215E+002
 11
1.65E+001
 21
-1.2451215E+002
  0
LINE
  8
1
  6
CONTINUOUS
 62
1
 10
4.2E+001
 20
-1.4303217E+002
 11
4.05E+001
 21
-1.4303217E+002
  0
TEXT
  8
1
  6
CONTINUOUS
 62
1
 10
3.82E+001
 20
-1.4603217E+002
 40
2.0
  1
I
 41
7.5E-001
  0
LINE
  8
1
  6
CONTINUOUS
 62
1
 10
4.05E+001
 20
-1.4303217E+002
 11
4.05E+001
 21
-1.4703217E+002
  0
LINE
  8
1
  6
CONTINUOUS
 62
1
 10
4.2E+001
 20
-1.4703217E+002
 11
4.05E+001
 21
-1.4703217E+002
  0
LINE
  8
1
  6
HIDDEN
 62
1
 10
4.55E+001
 20
-1.4503217E+002
 11
4.05E+001
 21
-1.4503217E+002
  0
LINE
  8
1
  6
HIDDEN
 62
1
 10
4.60344E+001
 20
-1.1551215E+002
 11
5.709297E+001
 21
-1.1551215E+002
  0
LINE
  8
1
  6
CONTINUOUS
 62
1
 10
2.25E+001
 20
-1.2551215E+002
 11
2.25E+001
 21
-1.2451215E+002
  0
LINE
  8
1
  6
CONTINUOUS
 62
1
 10
1.75E+001
 20
-1.2451215E+002
 11
2.25E+001
 21
-1.2451215E+002
  0
LINE
  8
1
  6
CONTINUOUS
 62
1
 10
8.5
 20
-1.2651215E+002
 11
8.5
 21
-1.2751215E+002
  0
LINE
  8
1
  6
CONTINUOUS
 62
1
 10
8.5
 20
-1.2851215E+002
 11
8.5
 21
-1.3351215E+002
  0
LINE
  8
1
  6
CONTINUOUS
 62
1
 10
7.2E+001
 20
-1.1801215E+002
 11
7.3E+001
 21
-1.1201215E+002
  0
LINE
  8
1
  6
CONTINUOUS
 62
1
 10
7.2E+001
 20
-1.1301215E+002
 11
7.4E+001
 21
-1.1301215E+002
  0
LINE
  8
1
  6
CONTINUOUS
 62
1
 10
7.2E+001
 20
-1.1301215E+002
 11
7.2E+001
 21
-1.02E+002
  0
LINE
  8
1
  6
CONTINUOUS
 62
1
 10
8.5
 20
-1.3451215E+002
 11
8.5
 21
-1.3551215E+002
  0
LINE
  8
1
  6
CONTINUOUS
 62
1
 10
7.2E+001
 20
-1.1801215E+002
 11
7.2E+001
 21
-1.2251215E+002
  0
LINE
  8
1
  6
CONTINUOUS
 62
1
 10
8.5
 20
-1.4151215E+002
 11
8.5
 21
-1.3651215E+002
  0
LINE
  8
1
  6
CONTINUOUS
 62
1
 10
6.009297E+001
 20
-1.1351215E+002
 11
6.409297E+001
 21
-1.1551215E+002
  0
LINE
  8
1
  6
CONTINUOUS
 62
1
 10
6.009297E+001
 20
-1.1351215E+002
 11
6.009297E+001
 21
-1.1551215E+002
  0
LINE
  8
1
  6
CONTINUOUS
 62
1
 10
6.009297E+001
 20
-1.1551215E+002
 11
6.409297E+001
 21
-1.1551215E+002
  0
LINE
  8
1
  6
CONTINUOUS
 62
1
 10
4.709297E+001
 20
-1.1351215E+002
 11
5.109297E+001
 21
-1.1551215E+002
  0
LINE
  8
1
  6
CONTINUOUS
 62
1
 10
4.709297E+001
 20
-1.1351215E+002
 11
4.709297E+001
 21
-1.1551215E+002
  0
LINE
  8
1
  6
CONTINUOUS
 62
1
 10
4.709297E+001
 20
-1.1551215E+002
 11
5.109297E+001
 21
-1.1551215E+002
  0
LINE
  8
1
  6
HIDDEN
 62
1
 10
6.409297E+001
 20
-1.1451215E+002
 11
6.409297E+001
 21
-1.1001215E+002
  0
LINE
  8
1
  6
HIDDEN
 62
1
 10
6.409297E+001
 20
-1.1001215E+002
 11
5.609297E+001
 21
-1.1001215E+002
  0
LINE
  8
1
  6
HIDDEN
 62
1
 10
6.509297E+001
 20
-1.1451215E+002
 11
7.2583333E+001
 21
-1.1451215E+002
  0
LINE
  8
1
  6
HIDDEN
 62
1
 10
6.509297E+001
 20
-1.0901215E+002
 11
6.509297E+001
 21
-1.1451215E+002
  0
LINE
  8
1
  6
HIDDEN
 62
1
 10
5.609297E+001
 20
-1.0901215E+002
 11
6.509297E+001
 21
-1.0901215E+002
  0
LINE
  8
1
  6
CONTINUOUS
 62
1
 10
5.609297E+001
 20
-1.0751215E+002
 11
5.609297E+001
 21
-1.1151215E+002
  0
LINE
  8
1
  6
CONTINUOUS
 62
1
 10
5.759297E+001
 20
-1.1151215E+002
 11
5.609297E+001
 21
-1.1151215E+002
  0
LINE
  8
1
  6
CONTINUOUS
 62
1
 10
5.759297E+001
 20
-1.0751215E+002
 11
5.609297E+001
 21
-1.0751215E+002
  0
TEXT
  8
1
  6
CONTINUOUS
 62
1
 10
5.209297E+001
 20
-1.0951215E+002
 40
2.0
  1
O
 41
7.5E-001
  0
TEXT
  8
1
  6
CONTINUOUS
 62
1
 10
5.379297E+001
 20
-1.1151215E+002
 40
2.0
  1
R
 41
7.5E-001
  0
LINE
  8
1
  6
CONTINUOUS
 62
1
 10
5.429297E+001
 20
-1.0811215E+002
 11
5.269297E+001
 21
-1.1131215E+002
  0
LINE
  8
1
  6
HIDDEN
 62
1
 10
5.109297E+001
 20
-1.1451215E+002
 11
5.109297E+001
 21
-1.1001215E+002
  0
LINE
  8
1
  6
HIDDEN
 62
1
 10
5.109297E+001
 20
-1.1001215E+002
 11
4.309297E+001
 21
-1.1001215E+002
  0
LINE
  8
1
  6
CONTINUOUS
 62
1
 10
4.459297E+001
 20
-1.1151215E+002
 11
4.309297E+001
 21
-1.1151215E+002
  0
LINE
  8
1
  6
CONTINUOUS
 62
1
 10
4.309297E+001
 20
-1.0751215E+002
 11
4.309297E+001
 21
-1.1151215E+002
  0
LINE
  8
1
  6
CONTINUOUS
 62
1
 10
4.459297E+001
 20
-1.0751215E+002
 11
4.309297E+001
 21
-1.0751215E+002
  0
TEXT
  8
1
  6
CONTINUOUS
 62
1
 10
4.079297E+001
 20
-1.1151215E+002
 40
2.0
  1
R
 41
7.5E-001
  0
LINE
  8
1
  6
HIDDEN
 62
1
 10
6.409297E+001
 20
-1.1551215E+002
 11
7.5E+001
 21
-1.1551215E+002
  0
LINE
  8
1
  6
CONTINUOUS
 62
1
 10
7.5E+001
 20
-1.15E+002
 11
7.5E+001
 21
-1.16E+002
  0
LINE
  8
1
  6
CONTINUOUS
 62
1
 10
7.5E+001
 20
-1.15E+002
 11
7.7E+001
 21
-1.15E+002
  0
LINE
  8
1
  6
CONTINUOUS
 62
1
 10
7.5E+001
 20
-1.16E+002
 11
7.7E+001
 21
-1.16E+002
  0
LINE
  8
1
  6
CONTINUOUS
 62
1
 10
7.7E+001
 20
-1.16E+002
 11
7.7E+001
 21
-1.17E+002
  0
LINE
  8
1
  6
CONTINUOUS
 62
1
 10
7.7E+001
 20
-1.15E+002
 11
7.7E+001
 21
-1.14E+002
  0
TEXT
  8
1
  6
CONTINUOUS
 62
1
 10
7.75E+001
 20
-1.1636862E+002
 40
2.0
  1
FR1
 41
7.5E-001
  0
LINE
  8
1
  6
CONTINUOUS
 62
1
 10
8.5
 20
-1.4251215E+002
 11
8.5
 21
-1.4351215E+002
  0
LINE
  8
1
  6
CONTINUOUS
 62
1
 10
8.5
 20
-1.4451215E+002
 11
8.5
 21
-1.4961318E+002
  0
LINE
  8
1
  6
CONTINUOUS
 62
1
 10
4.65E+001
 20
-1.2251215E+002
 11
5.3E+001
 21
-1.2251215E+002
  0
LINE
  8
1
  6
CONTINUOUS
 62
1
 10
2.25E+001
 20
-1.4751215E+002
 11
2.25E+001
 21
-1.4951215E+002
  0
LINE
  8
1
  6
SHORT_DASH
 62
1
 10
5.3E+001
 20
-1.2251215E+002
 11
7.2E+001
 21
-1.2251215E+002
  0
LINE
  8
1
  6
CONTINUOUS
 62
1
 10
1.75E+001
 20
-1.4951215E+002
 11
2.25E+001
 21
-1.4951215E+002
  0
LINE
  8
1
  6
CONTINUOUS
 62
1
 10
1.65E+001
 20
-1.4951215E+002
 11
1.55E+001
 21
-1.4951215E+002
  0
LINE
  8
1
  6
CONTINUOUS
 62
1
 10
2.25E+001
 20
-1.2651215E+002
 11
2.25E+001
 21
-1.2751215E+002
  0
LINE
  8
1
  6
CONTINUOUS
 62
1
 10
2.25E+001
 20
-1.2851215E+002
 11
2.25E+001
 21
-1.3351215E+002
  0
LINE
  8
1
  6
CONTINUOUS
 62
1
 10
2.25E+001
 20
-1.3451215E+002
 11
2.25E+001
 21
-1.3551215E+002
  0
LINE
  8
1
  6
CONTINUOUS
 62
1
 10
2.25E+001
 20
-1.3651215E+002
 11
2.25E+001
 21
-1.4151215E+002
  0
LINE
  8
1
  6
CONTINUOUS
 62
1
 10
2.25E+001
 20
-1.4251215E+002
 11
2.25E+001
 21
-1.4351215E+002
  0
LINE
  8
1
  6
CONTINUOUS
 62
1
 10
2.05E+001
 20
-1.4153217E+002
 11
1.85E+001
 21
-1.3653217E+002
  0
LINE
  8
1
  6
CONTINUOUS
 62
1
 10
2.25E+001
 20
-1.4451215E+002
 11
2.25E+001
 21
-1.4951215E+002
  0
LINE
  8
1
  6
CONTINUOUS
 62
1
 10
2.05E+001
 20
-1.2251215E+002
 11
2.05E+001
 21
-1.3685476E+002
  0
LINE
  8
1
  6
CONTINUOUS
 62
1
 10
2.05E+001
 20
-1.5251215E+002
 11
2.05E+001
 21
-1.4153217E+002
  0
LINE
  8
1
  6
CONTINUOUS
 62
1
 10
7.2E+001
 20
-1.5251215E+002
 11
1.08E+002
 21
-1.5251215E+002
  0
LINE
  8
1
  6
CONTINUOUS
 62
1
 10
1.35E+001
 20
-1.3703217E+002
 11
1.35E+001
 21
-1.4103217E+002
  0
LINE
  8
1
  6
SHORT_DASH
 62
1
 10
2.55E+001
 20
-1.2251215E+002
 11
3.15E+001
 21
-1.2251215E+002
  0
LINE
  8
1
  6
CONTINUOUS
 62
1
 10
2.05E+001
 20
-1.2251215E+002
 11
2.55E+001
 21
-1.2251215E+002
  0
LINE
  8
1
  6
CONTINUOUS
 62
1
 10
2.05E+001
 20
-1.5251215E+002
 11
2.55E+001
 21
-1.5251215E+002
  0
LINE
  8
1
  6
SHORT_DASH
 62
1
 10
2.55E+001
 20
-1.5251215E+002
 11
3.15E+001
 21
-1.5251215E+002
  0
LINE
  8
1
  6
CONTINUOUS
 62
1
 10
1.1863913E+001
 20
-1.3757217E+002
 11
1.0263913E+001
 21
-1.4077217E+002
  0
TEXT
  8
1
  6
CONTINUOUS
 62
1
 10
9.6639133
 20
-1.3897217E+002
 40
2.0
  1
O
 41
7.5E-001
  0
TEXT
  8
1
  6
CONTINUOUS
 62
1
 10
1.1363913E+001
 20
-1.4097217E+002
 40
2.0
  1
I
 41
7.5E-001
  0
LINE
  8
1
  6
CONTINUOUS
 62
1
 10
3.65E+001
 20
-1.2453217E+002
 11
3.65E+001
 21
-1.2543494E+002
  0
LINE
  8
1
  6
CONTINUOUS
 62
1
 10
3.65E+001
 20
-1.2651215E+002
 11
3.65E+001
 21
-1.2751215E+002
  0
LINE
  8
1
  6
CONTINUOUS
 62
1
 10
4.55E+001
 20
-1.4951215E+002
 11
5.05E+001
 21
-1.4951215E+002
  0
LINE
  8
1
  6
CONTINUOUS
 62
1
 10
3.65E+001
 20
-1.2851215E+002
 11
3.65E+001
 21
-1.3351215E+002
  0
LINE
  8
1
  6
CONTINUOUS
 62
1
 10
4.45E+001
 20
-1.4951215E+002
 11
4.35E+001
 21
-1.4951215E+002
  0
LINE
  8
1
  6
HIDDEN
 62
1
 10
1.65E+001
 20
-1.3903217E+002
 11
1.95E+001
 21
-1.3903217E+002
  0
LINE
  8
1
  6
CONTINUOUS
 62
1
 10
1.5E+001
 20
-1.3903217E+002
 11
1.575E+001
 21
-1.4053217E+002
  0
LINE
  8
1
  6
CONTINUOUS
 62
1
 10
1.575E+001
 20
-1.4053217E+002
 11
1.65E+001
 21
-1.3903217E+002
  0
LINE
  8
1
  6
HIDDEN
 62
1
 10
1.5E+001
 20
-1.3903217E+002
 11
1.35E+001
 21
-1.3903217E+002
  0
LINE
  8
1
  6
CONTINUOUS
 62
1
 10
3.65E+001
 20
-1.3451215E+002
 11
3.65E+001
 21
-1.3551215E+002
  0
LINE
  8
1
  6
CONTINUOUS
 62
1
 10
3.65E+001
 20
-1.4151215E+002
 11
3.65E+001
 21
-1.3651215E+002
  0
TEXT
  8
1
  6
CONTINUOUS
 62
1
 10
3.2E+001
 20
-1.2353619E+002
 40
2.0
  1
96
 41
7.5E-001
  0
LINE
  8
1
  6
CONTINUOUS
 62
1
 10
3.65E+001
 20
-1.4251215E+002
 11
3.65E+001
 21
-1.4351215E+002
  0
TEXT
  8
1
  6
CONTINUOUS
 62
1
 10
3.2E+001
 20
-1.5353619E+002
 40
2.0
  1
24
 41
7.5E-001
  0
LINE
  8
1
  6
CONTINUOUS
 62
1
 10
3.65E+001
 20
-1.4451215E+002
 11
3.65E+001
 21
-1.4961318E+002
  0
LINE
  8
1
  6
CONTINUOUS
 62
1
 10
5.05E+001
 20
-1.4451215E+002
 11
5.05E+001
 21
-1.4951215E+002
  0
LINE
  8
1
  6
CONTINUOUS
 62
1
 10
5.05E+001
 20
-1.3651215E+002
 11
5.05E+001
 21
-1.4151215E+002
  0
LINE
  8
1
  6
CONTINUOUS
 62
1
 10
2.0969238E+001
 20
-1.02E+002
 11
7.7E+001
 21
-1.02E+002
  0
LINE
  8
1
  6
CONTINUOUS
 62
1
 10
5.95E+001
 20
-2.01E+002
 11
1.08E+002
 21
-2.01E+002
  0
LINE
  8
1
  6
CONTINUOUS
 62
1
 10
5.05E+001
 20
-1.4251215E+002
 11
5.05E+001
 21
-1.4351215E+002
  0
LINE
  8
1
  6
SHORT_DASH
 62
1
 10
1.2E+001
 20
-1.05E+002
 11
2.4086443E+001
 21
-1.05E+002
  0
LINE
  8
1
  6
CONTINUOUS
 62
1
 10
2.4086443E+001
 20
-1.05E+002
 11
2.4086443E+001
 21
-1.02E+002
  0
LINE
  8
1
  6
CONTINUOUS
 62
1
 10
3.65E+001
 20
-1.2453217E+002
 11
4.25E+001
 21
-1.2453217E+002
  0
LINE
  8
1
  6
SHORT_DASH
 62
1
 10
1.2E+001
 20
-1.98E+002
 11
2.4086443E+001
 21
-1.98E+002
  0
LINE
  8
1
  6
SHORT_DASH
 62
1
 10
1.2E+001
 20
-1.95E+002
 11
2.4086443E+001
 21
-1.95E+002
  0
LINE
  8
1
  6
CONTINUOUS
 62
1
 10
2.4086443E+001
 20
-1.95E+002
 11
2.4086443E+001
 21
-2.01E+002
  0
LINE
  8
1
  6
CONTINUOUS
 62
1
 10
4.35E+001
 20
-1.2451215E+002
 11
4.45E+001
 21
-1.2451215E+002
  0
LINE
  8
1
  6
CONTINUOUS
 62
1
 10
4.55E+001
 20
-1.2451215E+002
 11
5.05E+001
 21
-1.2451215E+002
  0
LINE
  8
1
  6
SHORT_DASH
 62
1
 10
5.3E+001
 20
-1.5251215E+002
 11
7.2E+001
 21
-1.5251215E+002
  0
LINE
  8
1
  6
CONTINUOUS
 62
1
 10
4.65E+001
 20
-1.5251215E+002
 11
5.3E+001
 21
-1.5251215E+002
  0
LINE
  8
1
  6
SHORT_DASH
 62
1
 10
5.3E+001
 20
-1.3751215E+002
 11
1.08E+002
 21
-1.3751215E+002
  0
LINE
  8
1
  6
CONTINUOUS
 62
1
 10
5.05E+001
 20
-1.3451215E+002
 11
5.05E+001
 21
-1.3551215E+002
  0
LINE
  8
1
  6
CONTINUOUS
 62
1
 10
5.05E+001
 20
-1.2851215E+002
 11
5.05E+001
 21
-1.3351215E+002
  0
LINE
  8
1
  6
CONTINUOUS
 62
1
 10
5.05E+001
 20
-1.2651215E+002
 11
5.05E+001
 21
-1.2751215E+002
  0
LINE
  8
1
  6
CONTINUOUS
 62
1
 10
5.05E+001
 20
-1.2551215E+002
 11
5.05E+001
 21
-1.2451215E+002
  0
LINE
  8
1
  6
CONTINUOUS
 62
1
 10
3.65E+001
 20
-1.4953217E+002
 11
4.25E+001
 21
-1.4953217E+002
  0
LINE
  8
1
  6
CONTINUOUS
 62
1
 10
2.1E+001
 20
-2.01E+002
 11
5.95E+001
 21
-2.01E+002
  0
LINE
  8
1
  6
CONTINUOUS
 62
1
 10
5.55E+001
 20
-1.96E+002
 11
6.35E+001
 21
-1.96E+002
  0
LINE
  8
1
  6
CONTINUOUS
 62
1
 10
5.55E+001
 20
-1.93E+002
 11
6.35E+001
 21
-1.93E+002
  0
LINE
  8
1
  6
CONTINUOUS
 62
1
 10
5.55E+001
 20
-1.93E+002
 11
5.55E+001
 21
-1.96E+002
  0
LINE
  8
1
  6
CONTINUOUS
 62
1
 10
6.35E+001
 20
-1.93E+002
 11
6.35E+001
 21
-1.96E+002
  0
LINE
  8
1
  6
CONTINUOUS
 62
1
 10
5.95E+001
 20
-1.96E+002
 11
5.95E+001
 21
-2.01E+002
  0
LINE
  8
1
  6
CONTINUOUS
 62
1
 10
6.6E+001
 20
-1.6251215E+002
 11
6.8E+001
 21
-1.6251215E+002
  0
LINE
  8
1
  6
CONTINUOUS
 62
1
 10
7.2E+001
 20
-1.6251215E+002
 11
7.2E+001
 21
-1.5251215E+002
  0
LINE
  8
1
  6
CONTINUOUS
 62
1
 10
7.2E+001
 20
-1.6751215E+002
 11
7.2E+001
 21
-1.6963014E+002
  0
LINE
  8
1
  6
CONTINUOUS
 62
1
 10
6.6E+001
 20
-1.6751215E+002
 11
6.7E+001
 21
-1.6151215E+002
  0
LINE
  8
1
  6
CONTINUOUS
 62
1
 10
7.2E+001
 20
-1.6751215E+002
 11
7.0E+001
 21
-1.6251215E+002
  0
TEXT
  8
1
  6
CONTINUOUS
 62
1
 10
7.125E+001
 20
-1.6026215E+002
 40
2.0
  1
15
 41
7.5E-001
 50
9.0E+001
  0
LINE
  8
1
  6
CONTINUOUS
 62
1
 10
6.105051E+001
 20
-1.6451215E+002
 11
6.65E+001
 21
-1.6451215E+002
  0
LINE
  8
1
  6
CONTINUOUS
 62
1
 10
6.105051E+001
 20
-1.6551215E+002
 11
6.6416667E+001
 21
-1.6551215E+002
  0
LINE
  8
1
  6
CONTINUOUS
 62
1
 10
6.6E+001
 20
-1.6751215E+002
 11
6.6E+001
 21
-1.6963014E+002
  0
LINE
  8
1
  6
CONTINUOUS
 62
1
 10
6.6E+001
 20
-1.6251215E+002
 11
6.6E+001
 21
-1.6051215E+002
  0
LINE
  8
1
  6
HIDDEN
 62
1
 10
6.6416667E+001
 20
-1.6501215E+002
 11
7.705051E+001
 21
-1.6501215E+002
  0
ARC
  8
1
  6
CONTINUOUS
 62
1
 10
6.35E+001
 20
-1.6501215E+002
 40
2.5
 50
1.1356542E+002
 51
2.4643458E+002
  0
LINE
  8
1
  6
CONTINUOUS
 62
1
 10
5.95E+001
 20
-1.6051215E+002
 11
6.6E+001
 21
-1.6051215E+002
  0
LINE
  8
1
  6
CONTINUOUS
 62
1
 10
5.95E+001
 20
-1.6051215E+002
 11
5.95E+001
 21
-1.7895542E+002
  0
LINE
  8
1
  6
CONTINUOUS
 62
1
 10
7.2E+001
 20
-1.6963014E+002
 11
6.6E+001
 21
-1.6963014E+002
  0
TEXT
  8
1
  6
CONTINUOUS
 62
1
 10
5.875E+001
 20
-1.7331215E+002
 40
2.0
  1
16
 41
7.5E-001
 50
9.0E+001
  0
LINE
  8
1
  6
CONTINUOUS
 62
1
 10
7.2E+001
 20
-1.6051215E+002
 11
8.25E+001
 21
-1.6051215E+002
  0
LINE
  8
1
  6
CONTINUOUS
 62
1
 10
7.755051E+001
 20
-1.6451215E+002
 11
8.13E+001
 21
-1.6451215E+002
  0
LINE
  8
1
  6
CONTINUOUS
 62
1
 10
7.755051E+001
 20
-1.6551215E+002
 11
8.17E+001
 21
-1.6551215E+002
  0
ARC
  8
1
  6
CONTINUOUS
 62
1
 10
8.0E+001
 20
-1.6501215E+002
 40
2.5
 50
1.1356542E+002
 51
2.4643458E+002
  0
TEXT
  8
1
  6
CONTINUOUS
 62
1
 10
5.7E+001
 20
-1.5951215E+002
 40
2.0
  1
KT
 41
7.5E-001
  0
TEXT
  8
1
  6
CONTINUOUS
 62
1
 10
7.225E+001
 20
-1.7006215E+002
 40
2.0
  1
t1+t2
 41
7.5E-001
  0
TEXT
  8
1
  6
CONTINUOUS
 62
1
 10
6.025E+001
 20
-1.7006215E+002
 40
2.0
  1
t1
 41
7.5E-001
  0
TEXT
  8
1
  6
CONTINUOUS
 62
1
 10
7.125E+001
 20
-1.1201215E+002
 40
2.0
  1
95
 41
7.5E-001
 50
9.0E+001
  0
TEXT
  8
1
  6
CONTINUOUS
 62
1
 10
7.125E+001
 20
-1.2101215E+002
 40
2.0
  1
96
 41
7.5E-001
 50
9.0E+001
  0
TEXT
  8
1
  6
CONTINUOUS
 62
1
 10
5.875E+001
 20
-1.92E+002
 40
2.0
  1
A1
 41
7.5E-001
 50
9.0E+001
  0
TEXT
  8
1
  6
CONTINUOUS
 62
1
 10
5.875E+001
 20
-2.0E+002
 40
2.0
  1
A2
 41
7.5E-001
 50
9.0E+001
  0
LINE
  8
1
  6
CONTINUOUS
 62
1
 10
8.25E+001
 20
-1.7895542E+002
 11
8.45E+001
 21
-1.7895542E+002
  0
LINE
  8
1
  6
CONTINUOUS
 62
1
 10
8.25E+001
 20
-1.8395542E+002
 11
8.35E+001
 21
-1.7795542E+002
  0
LINE
  8
1
  6
CONTINUOUS
 62
1
 10
8.25E+001
 20
-1.8395542E+002
 11
8.25E+001
 21
-1.93E+002
  0
LINE
  8
1
  6
CONTINUOUS
 62
1
 10
1.005E+002
 20
-1.84E+002
 11
9.85E+001
 21
-1.79E+002
  0
LINE
  8
1
  6
CONTINUOUS
 62
1
 10
1.08E+002
 20
-1.84E+002
 11
1.06E+002
 21
-1.79E+002
  0
LINE
  8
1
  6
CONTINUOUS
 62
1
 10
1.08E+002
 20
-1.84E+002
 11
1.08E+002
 21
-1.8751215E+002
  0
LINE
  8
1
  6
CONTINUOUS
 62
1
 10
1.005E+002
 20
-1.8751215E+002
 11
1.005E+002
 21
-1.84E+002
  0
LINE
  8
1
  6
CONTINUOUS
 62
1
 10
1.005E+002
 20
-1.8751215E+002
 11
1.08E+002
 21
-1.8751215E+002
  0
LINE
  8
1
  6
CONTINUOUS
 62
1
 10
9.35E+001
 20
-1.7351215E+002
 11
9.85E+001
 21
-1.7351215E+002
  0
LINE
  8
1
  6
CONTINUOUS
 62
1
 10
9.85E+001
 20
-1.7051215E+002
 11
9.85E+001
 21
-1.7351215E+002
  0
LINE
  8
1
  6
CONTINUOUS
 62
1
 10
9.85E+001
 20
-1.6851215E+002
 11
9.85E+001
 21
-1.6951215E+002
  0
LINE
  8
1
  6
CONTINUOUS
 62
1
 10
9.85E+001
 20
-1.6251215E+002
 11
9.85E+001
 21
-1.6751215E+002
  0
LINE
  8
1
  6
CONTINUOUS
 62
1
 10
9.85E+001
 20
-1.6051215E+002
 11
9.85E+001
 21
-1.6151215E+002
  0
LINE
  8
1
  6
CONTINUOUS
 62
1
 10
9.85E+001
 20
-1.5651215E+002
 11
9.85E+001
 21
-1.5951215E+002
  0
LINE
  8
1
  6
CONTINUOUS
 62
1
 10
9.65E+001
 20
-1.5651215E+002
 11
9.85E+001
 21
-1.5651215E+002
  0
LINE
  8
1
  6
CONTINUOUS
 62
1
 10
9.45E+001
 20
-1.5651215E+002
 11
9.55E+001
 21
-1.5651215E+002
  0
LINE
  8
1
  6
CONTINUOUS
 62
1
 10
8.85E+001
 20
-1.5651215E+002
 11
9.35E+001
 21
-1.5651215E+002
  0
LINE
  8
1
  6
CONTINUOUS
 62
1
 10
8.65E+001
 20
-1.5651215E+002
 11
8.75E+001
 21
-1.5651215E+002
  0
LINE
  8
1
  6
CONTINUOUS
 62
1
 10
8.05E+001
 20
-1.5651215E+002
 11
8.55E+001
 21
-1.5651215E+002
  0
LINE
  8
1
  6
CONTINUOUS
 62
1
 10
7.85E+001
 20
-1.5651215E+002
 11
7.95E+001
 21
-1.5651215E+002
  0
LINE
  8
1
  6
CONTINUOUS
 62
1
 10
8.45E+001
 20
-1.7351215E+002
 11
8.35E+001
 21
-1.7351215E+002
  0
LINE
  8
1
  6
CONTINUOUS
 62
1
 10
9.05E+001
 20
-1.7351215E+002
 11
8.55E+001
 21
-1.7351215E+002
  0
LINE
  8
1
  6
CONTINUOUS
 62
1
 10
9.25E+001
 20
-1.7351215E+002
 11
9.15E+001
 21
-1.7351215E+002
  0
TEXT
  8
1
  6
CONTINUOUS
 62
1
 10
9.975E+001
 20
-1.78E+002
 40
2.0
  1
13
 41
7.5E-001
 50
9.0E+001
  0
TEXT
  8
1
  6
CONTINUOUS
 62
1
 10
9.975E+001
 20
-1.87E+002
 40
2.0
  1
14
 41
7.5E-001
 50
9.0E+001
  0
TEXT
  8
1
  6
CONTINUOUS
 62
1
 10
1.0725E+002
 20
-1.78E+002
 40
2.0
  1
13
 41
7.5E-001
 50
9.0E+001
  0
TEXT
  8
1
  6
CONTINUOUS
 62
1
 10
1.0725E+002
 20
-1.87E+002
 40
2.0
  1
14
 41
7.5E-001
 50
9.0E+001
  0
TEXT
  8
1
  6
CONTINUOUS
 62
1
 10
9.9E+001
 20
-1.9536862E+002
 40
2.0
  1
KM1
 41
7.5E-001
  0
TEXT
  8
1
  6
CONTINUOUS
 62
1
 10
1.0725E+002
 20
-2.0411862E+002
 40
2.0
  1
L
 41
7.5E-001
  0
TEXT
  8
1
  6
CONTINUOUS
 62
1
 10
9.4E+001
 20
-1.8236862E+002
 40
2.0
  1
KM2
 41
7.5E-001
  0
TEXT
  8
1
  6
CONTINUOUS
 62
1
 10
1.015E+002
 20
-1.8236862E+002
 40
2.0
  1
KM1
 41
7.5E-001
  0
TEXT
  8
1
  6
CONTINUOUS
 62
1
 10
8.175E+001
 20
-1.7795542E+002
 40
2.0
  1
21
 41
7.5E-001
 50
9.0E+001
  0
TEXT
  8
1
  6
CONTINUOUS
 62
1
 10
8.175E+001
 20
-1.8695542E+002
 40
2.0
  1
22
 41
7.5E-001
 50
9.0E+001
  0
LINE
  8
1
  6
CONTINUOUS
 62
1
 10
1.005E+002
 20
-1.7351215E+002
 11
1.08E+002
 21
-1.7351215E+002
  0
LINE
  8
1
  6
CONTINUOUS
 62
1
 10
1.08E+002
 20
-1.7351215E+002
 11
1.08E+002
 21
-1.48E+002
  0
LINE
  8
1
  6
CONTINUOUS
 62
1
 10
1.08E+002
 20
-1.8751215E+002
 11
1.08E+002
 21
-1.93E+002
  0
TEXT
  8
1
  6
CONTINUOUS
 62
1
 10
1.0725E+002
 20
-1.42E+002
 40
2.0
  1
23
 41
7.5E-001
 50
9.0E+001
  0
TEXT
  8
1
  6
CONTINUOUS
 62
1
 10
1.015E+002
 20
-1.4636862E+002
 40
2.0
  1
KM1
 41
7.5E-001
  0
TEXT
  8
1
  6
CONTINUOUS
 62
1
 10
1.0725E+002
 20
-1.51E+002
 40
2.0
  1
24
 41
7.5E-001
 50
9.0E+001
  0
LINE
  8
1
  6
CONTINUOUS
 62
1
 10
1.08E+002
 20
-1.48E+002
 11
1.06E+002
 21
-1.43E+002
  0
LINE
  8
1
  6
CONTINUOUS
 62
1
 10
1.08E+002
 20
-1.3751215E+002
 11
1.08E+002
 21
-1.4398714E+002
  0
LINE
  8
1
  6
CONTINUOUS
 62
1
 10
1.08E+002
 20
-1.7351215E+002
 11
1.08E+002
 21
-1.7898714E+002
  0
LINE
  8
1
  6
CONTINUOUS
 62
1
 10
1.005E+002
 20
-1.7351215E+002
 11
1.005E+002
 21
-1.7898714E+002
  0
LINE
  8
1
  6
CONTINUOUS
 62
1
 10
7.85E+001
 20
-1.96E+002
 11
8.65E+001
 21
-1.96E+002
  0
LINE
  8
1
  6
CONTINUOUS
 62
1
 10
7.85E+001
 20
-1.93E+002
 11
8.65E+001
 21
-1.93E+002
  0
LINE
  8
1
  6
CONTINUOUS
 62
1
 10
7.85E+001
 20
-1.93E+002
 11
7.85E+001
 21
-1.96E+002
  0
LINE
  8
1
  6
CONTINUOUS
 62
1
 10
8.65E+001
 20
-1.93E+002
 11
8.65E+001
 21
-1.96E+002
  0
LINE
  8
1
  6
CONTINUOUS
 62
1
 10
8.25E+001
 20
-1.96E+002
 11
8.25E+001
 21
-2.01E+002
  0
LINE
  8
1
  6
CONTINUOUS
 62
1
 10
1.04E+002
 20
-1.96E+002
 11
1.12E+002
 21
-1.96E+002
  0
LINE
  8
1
  6
CONTINUOUS
 62
1
 10
1.04E+002
 20
-1.93E+002
 11
1.12E+002
 21
-1.93E+002
  0
LINE
  8
1
  6
CONTINUOUS
 62
1
 10
1.04E+002
 20
-1.93E+002
 11
1.04E+002
 21
-1.96E+002
  0
LINE
  8
1
  6
CONTINUOUS
 62
1
 10
1.12E+002
 20
-1.93E+002
 11
1.12E+002
 21
-1.96E+002
  0
LINE
  8
1
  6
CONTINUOUS
 62
1
 10
1.08E+002
 20
-1.96E+002
 11
1.08E+002
 21
-2.01E+002
  0
LINE
  8
1
  6
CONTINUOUS
 62
1
 10
8.7E+001
 20
-1.6701215E+002
 11
8.7E+001
 21
-1.6301215E+002
  0
LINE
  8
1
  6
CONTINUOUS
 62
1
 10
8.25E+001
 20
-1.6751215E+002
 11
8.05E+001
 21
-1.6251215E+002
  0
LINE
  8
1
  6
CONTINUOUS
 62
1
 10
8.25E+001
 20
-1.6751215E+002
 11
8.25E+001
 21
-1.7895542E+002
  0
LINE
  8
1
  6
CONTINUOUS
 62
1
 10
8.25E+001
 20
-1.6251215E+002
 11
8.25E+001
 21
-1.6051215E+002
  0
LINE
  8
1
  6
CONTINUOUS
 62
1
 10
9.5E+001
 20
-1.6701215E+002
 11
9.5E+001
 21
-1.6301215E+002
  0
LINE
  8
1
  6
CONTINUOUS
 62
1
 10
9.7E+001
 20
-1.6701215E+002
 11
9.7E+001
 21
-1.6301215E+002
  0
LINE
  8
1
  6
CONTINUOUS
 62
1
 10
8.7E+001
 20
-1.6301215E+002
 11
9.7E+001
 21
-1.6301215E+002
  0
LINE
  8
1
  6
CONTINUOUS
 62
1
 10
8.7E+001
 20
-1.6701215E+002
 11
9.7E+001
 21
-1.6701215E+002
  0
LINE
  8
1
  6
CONTINUOUS
 62
1
 10
9.7E+001
 20
-1.6301215E+002
 11
9.5E+001
 21
-1.6701215E+002
  0
LINE
  8
1
  6
CONTINUOUS
 62
1
 10
9.5E+001
 20
-1.6301215E+002
 11
9.7E+001
 21
-1.6701215E+002
  0
LINE
  8
1
  6
CONTINUOUS
 62
1
 10
9.1E+001
 20
-1.6301215E+002
 11
9.1E+001
 21
-1.5251215E+002
  0
LINE
  8
1
  6
CONTINUOUS
 62
1
 10
9.1E+001
 20
-1.6701215E+002
 11
9.1E+001
 21
-2.01E+002
  0
LINE
  8
1
  6
HIDDEN
 62
1
 10
8.15E+001
 20
-1.6501215E+002
 11
8.7E+001
 21
-1.6501215E+002
  0
TEXT
  8
1
  6
CONTINUOUS
 62
1
 10
9.05E+001
 20
-1.5996215E+002
 40
2.0
  1
A1
 41
7.5E-001
 50
9.0E+001
  0
TEXT
  8
1
  6
CONTINUOUS
 62
1
 10
9.025E+001
 20
-1.7311215E+002
 40
2.0
  1
A2
 41
7.5E-001
 50
9.0E+001
  0
TEXT
  8
1
  6
CONTINUOUS
 62
1
 10
8.175E+001
 20
-1.7331215E+002
 40
2.0
  1
18
 41
7.5E-001
 50
9.0E+001
  0
LINE
  8
1
  6
CONTINUOUS
 62
1
 10
8.25E+001
 20
-2.0211215E+002
 11
8.1341567E+001
 21
-2.0411862E+002
  0
LINE
  8
1
  6
CONTINUOUS
 62
1
 10
8.25E+001
 20
-2.0211215E+002
 11
8.3658433E+001
 21
-2.0411862E+002
  0
TEXT
  8
1
  6
CONTINUOUS
 62
1
 10
1.0725E+002
 20
-1.92E+002
 40
2.0
  1
A1
 41
7.5E-001
 50
9.0E+001
  0
TEXT
  8
1
  6
CONTINUOUS
 62
1
 10
1.0725E+002
 20
-2.0E+002
 40
2.0
  1
A2
 41
7.5E-001
 50
9.0E+001
  0
TEXT
  8
1
  6
CONTINUOUS
 62
1
 10
8.175E+001
 20
-1.92E+002
 40
2.0
  1
A1
 41
7.5E-001
 50
9.0E+001
  0
TEXT
  8
1
  6
CONTINUOUS
 62
1
 10
8.175E+001
 20
-2.0E+002
 40
2.0
  1
A2
 41
7.5E-001
 50
9.0E+001
  0
TEXT
  8
1
  6
CONTINUOUS
 62
1
 10
1.392E+002
 20
-1.4701213E+002
 40
2.0
  1
I
 41
7.5E-001
  0
LINE
  8
1
  6
CONTINUOUS
 62
1
 10
1.565E+002
 20
-1.3751215E+002
 11
1.475E+002
 21
-1.3751215E+002
  0
LINE
  8
1
  6
CONTINUOUS
 62
1
 10
1.475E+002
 20
-1.4851213E+002
 11
1.455E+002
 21
-1.4351213E+002
  0
LINE
  8
1
  6
CONTINUOUS
 62
1
 10
1.475E+002
 20
-1.3751215E+002
 11
1.475E+002
 21
-1.4351213E+002
  0
LINE
  8
1
  6
CONTINUOUS
 62
1
 10
1.475E+002
 20
-1.5251215E+002
 11
1.475E+002
 21
-1.4851213E+002
  0
LINE
  8
1
  6
CONTINUOUS
 62
1
 10
1.43E+002
 20
-1.4401213E+002
 11
1.415E+002
 21
-1.4401213E+002
  0
LINE
  8
1
  6
CONTINUOUS
 62
1
 10
1.415E+002
 20
-1.4401213E+002
 11
1.415E+002
 21
-1.4801213E+002
  0
LINE
  8
1
  6
CONTINUOUS
 62
1
 10
1.43E+002
 20
-1.4801213E+002
 11
1.415E+002
 21
-1.4801213E+002
  0
LINE
  8
1
  6
HIDDEN
 62
1
 10
1.465E+002
 20
-1.4601213E+002
 11
1.415E+002
 21
-1.4601213E+002
  0
TEXT
  8
1
  6
CONTINUOUS
 62
1
 10
1.6175E+002
 20
-1.4251213E+002
 40
2.0
  1
47
 41
7.5E-001
 50
9.0E+001
  0
TEXT
  8
1
  6
CONTINUOUS
 62
1
 10
1.6175E+002
 20
-1.5151213E+002
 40
2.0
  1
48
 41
7.5E-001
 50
9.0E+001
  0
TEXT
  8
1
  6
CONTINUOUS
 62
1
 10
1.4674847E+002
 20
-1.3517566E+002
 40
2.0
  1
A30/40
 41
7.5E-001
 50
9.0E+001
  0
TEXT
  8
1
  6
CONTINUOUS
 62
1
 10
1.6174847E+002
 20
-1.3517566E+002
 40
2.0
  1
A50/63/75
 41
7.5E-001
 50
9.0E+001
  0
LINE
  8
1
  6
CONTINUOUS
 62
1
 10
1.565E+002
 20
-1.5251215E+002
 11
1.475E+002
 21
-1.5251215E+002
  0
LINE
  8
1
  6
CONTINUOUS
 62
1
 10
1.415E+002
 20
-1.3751215E+002
 11
1.325E+002
 21
-1.3751215E+002
  0
LINE
  8
1
  6
CONTINUOUS
 62
1
 10
1.325E+002
 20
-1.4851213E+002
 11
1.305E+002
 21
-1.4351213E+002
  0
LINE
  8
1
  6
CONTINUOUS
 62
1
 10
1.325E+002
 20
-1.3751215E+002
 11
1.325E+002
 21
-1.4351213E+002
  0
LINE
  8
1
  6
CONTINUOUS
 62
1
 10
1.325E+002
 20
-1.5251215E+002
 11
1.325E+002
 21
-1.4851213E+002
  0
LINE
  8
1
  6
HIDDEN
 62
1
 10
1.315E+002
 20
-1.4601213E+002
 11
1.265E+002
 21
-1.4601213E+002
  0
LINE
  8
1
  6
CONTINUOUS
 62
1
 10
1.415E+002
 20
-1.5251215E+002
 11
1.325E+002
 21
-1.5251215E+002
  0
TEXT
  8
1
  6
CONTINUOUS
 62
1
 10
1.3175E+002
 20
-1.4203217E+002
 40
2.0
  1
57
 41
7.5E-001
 50
9.0E+001
  0
TEXT
  8
1
  6
CONTINUOUS
 62
1
 10
1.3175E+002
 20
-1.5103217E+002
 40
2.0
  1
58
 41
7.5E-001
 50
9.0E+001
  0
TEXT
  8
1
  6
CONTINUOUS
 62
1
 10
1.242E+002
 20
-1.4701213E+002
 40
2.0
  1
I
 41
7.5E-001
  0
LINE
  8
1
  6
CONTINUOUS
 62
1
 10
1.28E+002
 20
-1.4401213E+002
 11
1.265E+002
 21
-1.4401213E+002
  0
LINE
  8
1
  6
CONTINUOUS
 62
1
 10
1.265E+002
 20
-1.4401213E+002
 11
1.265E+002
 21
-1.4801213E+002
  0
LINE
  8
1
  6
CONTINUOUS
 62
1
 10
1.28E+002
 20
-1.4801213E+002
 11
1.265E+002
 21
-1.4801213E+002
  0
LINE
  8
1
  6
CONTINUOUS
 62
1
 10
1.625E+002
 20
-1.4803217E+002
 11
1.605E+002
 21
-1.4303217E+002
  0
LINE
  8
1
  6
CONTINUOUS
 62
1
 10
1.625E+002
 20
-1.3751215E+002
 11
1.625E+002
 21
-1.4303217E+002
  0
LINE
  8
1
  6
CONTINUOUS
 62
1
 10
1.625E+002
 20
-1.5251215E+002
 11
1.625E+002
 21
-1.4803217E+002
  0
LINE
  8
1
  6
CONTINUOUS
 62
1
 10
1.58E+002
 20
-1.4353217E+002
 11
1.565E+002
 21
-1.4353217E+002
  0
TEXT
  8
1
  6
CONTINUOUS
 62
1
 10
1.542E+002
 20
-1.4653217E+002
 40
2.0
  1
I
 41
7.5E-001
  0
LINE
  8
1
  6
CONTINUOUS
 62
1
 10
1.565E+002
 20
-1.4353217E+002
 11
1.565E+002
 21
-1.4753217E+002
  0
LINE
  8
1
  6
CONTINUOUS
 62
1
 10
1.58E+002
 20
-1.4753217E+002
 11
1.565E+002
 21
-1.4753217E+002
  0
LINE
  8
1
  6
HIDDEN
 62
1
 10
1.615E+002
 20
-1.4553217E+002
 11
1.565E+002
 21
-1.4553217E+002
  0
TEXT
  8
1
  6
CONTINUOUS
 62
1
 10
1.4675E+002
 20
-1.4203217E+002
 40
2.0
  1
67
 41
7.5E-001
 50
9.0E+001
  0
TEXT
  8
1
  6
CONTINUOUS
 62
1
 10
1.4675E+002
 20
-1.5103217E+002
 40
2.0
  1
68
 41
7.5E-001
 50
9.0E+001
  0
LINE
  8
1
  6
CONTINUOUS
 62
1
 10
1.665E+002
 20
-1.7895542E+002
 11
1.685E+002
 21
-1.7895542E+002
  0
LINE
  8
1
  6
CONTINUOUS
 62
1
 10
1.665E+002
 20
-1.8395542E+002
 11
1.675E+002
 21
-1.7795542E+002
  0
LINE
  8
1
  6
CONTINUOUS
 62
1
 10
1.895E+002
 20
-1.7895542E+002
 11
1.915E+002
 21
-1.7895542E+002
  0
LINE
  8
1
  6
CONTINUOUS
 62
1
 10
1.895E+002
 20
-1.8395542E+002
 11
1.905E+002
 21
-1.7795542E+002
  0
LINE
  8
1
  6
CONTINUOUS
 62
1
 10
1.895E+002
 20
-1.8395542E+002
 11
1.895E+002
 21
-1.93E+002
  0
LINE
  8
1
  6
CONTINUOUS
 62
1
 10
1.665E+002
 20
-1.8395542E+002
 11
1.665E+002
 21
-1.93E+002
  0
LINE
  8
1
  6
CONTINUOUS
 62
1
 10
2.075E+002
 20
-1.84E+002
 11
2.055E+002
 21
-1.79E+002
  0
LINE
  8
1
  6
CONTINUOUS
 62
1
 10
2.15E+002
 20
-1.84E+002
 11
2.13E+002
 21
-1.79E+002
  0
LINE
  8
1
  6
CONTINUOUS
 62
1
 10
2.15E+002
 20
-1.84E+002
 11
2.15E+002
 21
-1.8751215E+002
  0
LINE
  8
1
  6
CONTINUOUS
 62
1
 10
2.075E+002
 20
-1.8751215E+002
 11
2.075E+002
 21
-1.84E+002
  0
LINE
  8
1
  6
CONTINUOUS
 62
1
 10
2.075E+002
 20
-1.8751215E+002
 11
2.15E+002
 21
-1.8751215E+002
  0
LINE
  8
1
  6
CONTINUOUS
 62
1
 10
2.005E+002
 20
-1.7351215E+002
 11
2.055E+002
 21
-1.7351215E+002
  0
LINE
  8
1
  6
CONTINUOUS
 62
1
 10
2.055E+002
 20
-1.7051215E+002
 11
2.055E+002
 21
-1.7351215E+002
  0
LINE
  8
1
  6
CONTINUOUS
 62
1
 10
2.055E+002
 20
-1.6851215E+002
 11
2.055E+002
 21
-1.6951215E+002
  0
LINE
  8
1
  6
CONTINUOUS
 62
1
 10
2.055E+002
 20
-1.6251215E+002
 11
2.055E+002
 21
-1.6751215E+002
  0
LINE
  8
1
  6
CONTINUOUS
 62
1
 10
2.055E+002
 20
-1.6051215E+002
 11
2.055E+002
 21
-1.6151215E+002
  0
LINE
  8
1
  6
CONTINUOUS
 62
1
 10
2.055E+002
 20
-1.5651215E+002
 11
2.055E+002
 21
-1.5951215E+002
  0
LINE
  8
1
  6
CONTINUOUS
 62
1
 10
2.035E+002
 20
-1.5651215E+002
 11
2.055E+002
 21
-1.5651215E+002
  0
LINE
  8
1
  6
CONTINUOUS
 62
1
 10
2.015E+002
 20
-1.5651215E+002
 11
2.025E+002
 21
-1.5651215E+002
  0
LINE
  8
1
  6
CONTINUOUS
 62
1
 10
1.955E+002
 20
-1.5651215E+002
 11
2.005E+002
 21
-1.5651215E+002
  0
LINE
  8
1
  6
CONTINUOUS
 62
1
 10
1.935E+002
 20
-1.5651215E+002
 11
1.945E+002
 21
-1.5651215E+002
  0
LINE
  8
1
  6
CONTINUOUS
 62
1
 10
1.875E+002
 20
-1.5651215E+002
 11
1.925E+002
 21
-1.5651215E+002
  0
LINE
  8
1
  6
SHORT_DASH
 62
1
 10
1.31E+002
 20
-1.98E+002
 11
1.4308644E+002
 21
-1.98E+002
  0
LINE
  8
1
  6
SHORT_DASH
 62
1
 10
1.31E+002
 20
-1.95E+002
 11
1.4308644E+002
 21
-1.95E+002
  0
LINE
  8
1
  6
CONTINUOUS
 62
1
 10
1.4308644E+002
 20
-1.95E+002
 11
1.4308644E+002
 21
-2.01E+002
  0
LINE
  8
1
  6
CONTINUOUS
 62
1
 10
1.855E+002
 20
-1.5651215E+002
 11
1.865E+002
 21
-1.5651215E+002
  0
LINE
  8
1
  6
CONTINUOUS
 62
1
 10
1.795E+002
 20
-1.5651215E+002
 11
1.845E+002
 21
-1.5651215E+002
  0
LINE
  8
1
  6
CONTINUOUS
 62
1
 10
1.725E+002
 20
-1.5651215E+002
 11
1.775E+002
 21
-1.5651215E+002
  0
LINE
  8
1
  6
CONTINUOUS
 62
1
 10
1.405E+002
 20
-2.01E+002
 11
2.15E+002
 21
-2.01E+002
  0
LINE
  8
1
  6
CONTINUOUS
 62
1
 10
1.705E+002
 20
-1.5651215E+002
 11
1.715E+002
 21
-1.5651215E+002
  0
LINE
  8
1
  6
CONTINUOUS
 62
1
 10
1.645E+002
 20
-1.5651215E+002
 11
1.695E+002
 21
-1.5651215E+002
  0
LINE
  8
1
  6
CONTINUOUS
 62
1
 10
1.625E+002
 20
-1.5651215E+002
 11
1.635E+002
 21
-1.5651215E+002
  0
LINE
  8
1
  6
CONTINUOUS
 62
1
 10
1.625E+002
 20
-1.5651215E+002
 11
1.625E+002
 21
-1.6051215E+002
  0
LINE
  8
1
  6
CONTINUOUS
 62
1
 10
1.625E+002
 20
-1.6251215E+002
 11
1.625E+002
 21
-1.6151215E+002
  0
LINE
  8
1
  6
CONTINUOUS
 62
1
 10
1.625E+002
 20
-1.6851215E+002
 11
1.625E+002
 21
-1.6351215E+002
  0
LINE
  8
1
  6
CONTINUOUS
 62
1
 10
1.625E+002
 20
-1.7051215E+002
 11
1.625E+002
 21
-1.6951215E+002
  0
LINE
  8
1
  6
CONTINUOUS
 62
1
 10
1.625E+002
 20
-1.7151215E+002
 11
1.625E+002
 21
-1.7351215E+002
  0
LINE
  8
1
  6
CONTINUOUS
 62
1
 10
1.655E+002
 20
-1.7351215E+002
 11
1.625E+002
 21
-1.7351215E+002
  0
LINE
  8
1
  6
CONTINUOUS
 62
1
 10
1.675E+002
 20
-1.7351215E+002
 11
1.725E+002
 21
-1.7351215E+002
  0
LINE
  8
1
  6
CONTINUOUS
 62
1
 10
1.745E+002
 20
-1.7351215E+002
 11
1.735E+002
 21
-1.7351215E+002
  0
LINE
  8
1
  6
CONTINUOUS
 62
1
 10
1.805E+002
 20
-1.7351215E+002
 11
1.755E+002
 21
-1.7351215E+002
  0
LINE
  8
1
  6
CONTINUOUS
 62
1
 10
1.825E+002
 20
-1.7351215E+002
 11
1.815E+002
 21
-1.7351215E+002
  0
LINE
  8
1
  6
CONTINUOUS
 62
1
 10
1.885E+002
 20
-1.7351215E+002
 11
1.835E+002
 21
-1.7351215E+002
  0
LINE
  8
1
  6
CONTINUOUS
 62
1
 10
1.915E+002
 20
-1.7351215E+002
 11
1.905E+002
 21
-1.7351215E+002
  0
LINE
  8
1
  6
CONTINUOUS
 62
1
 10
1.975E+002
 20
-1.7351215E+002
 11
1.925E+002
 21
-1.7351215E+002
  0
LINE
  8
1
  6
CONTINUOUS
 62
1
 10
1.995E+002
 20
-1.7351215E+002
 11
1.985E+002
 21
-1.7351215E+002
  0
TEXT
  8
1
  6
CONTINUOUS
 62
1
 10
2.0675E+002
 20
-1.78E+002
 40
2.0
  1
13
 41
7.5E-001
 50
9.0E+001
  0
TEXT
  8
1
  6
CONTINUOUS
 62
1
 10
2.0675E+002
 20
-1.87E+002
 40
2.0
  1
14
 41
7.5E-001
 50
9.0E+001
  0
TEXT
  8
1
  6
CONTINUOUS
 62
1
 10
2.1425E+002
 20
-1.78E+002
 40
2.0
  1
13
 41
7.5E-001
 50
9.0E+001
  0
TEXT
  8
1
  6
CONTINUOUS
 62
1
 10
2.1425E+002
 20
-1.87E+002
 40
2.0
  1
14
 41
7.5E-001
 50
9.0E+001
  0
TEXT
  8
1
  6
CONTINUOUS
 62
1
 10
1.6575E+002
 20
-2.0411862E+002
 40
2.0
  1
Y
 41
7.5E-001
  0
TEXT
  8
1
  6
CONTINUOUS
 62
1
 10
1.575E+002
 20
-1.9536862E+002
 40
2.0
  1
KM2
 41
7.5E-001
  0
TEXT
  8
1
  6
CONTINUOUS
 62
1
 10
1.805E+002
 20
-1.9536862E+002
 40
2.0
  1
KM3
 41
7.5E-001
  0
TEXT
  8
1
  6
CONTINUOUS
 62
1
 10
2.06E+002
 20
-1.9536862E+002
 40
2.0
  1
KM1
 41
7.5E-001
  0
TEXT
  8
1
  6
CONTINUOUS
 62
1
 10
2.1425E+002
 20
-2.0411862E+002
 40
2.0
  1
L
 41
7.5E-001
  0
TEXT
  8
1
  6
CONTINUOUS
 62
1
 10
2.01E+002
 20
-1.8236862E+002
 40
2.0
  1
KM2
 41
7.5E-001
  0
TEXT
  8
1
  6
CONTINUOUS
 62
1
 10
2.085E+002
 20
-1.8236862E+002
 40
2.0
  1
KM1
 41
7.5E-001
  0
TEXT
  8
1
  6
CONTINUOUS
 62
1
 10
1.61E+002
 20
-1.8232404E+002
 40
2.0
  1
KM3
 41
7.5E-001
  0
TEXT
  8
1
  6
CONTINUOUS
 62
1
 10
1.84E+002
 20
-1.8232404E+002
 40
2.0
  1
KM2
 41
7.5E-001
  0
TEXT
  8
1
  6
CONTINUOUS
 62
1
 10
1.8875E+002
 20
-1.7795542E+002
 40
2.0
  1
21
 41
7.5E-001
 50
9.0E+001
  0
TEXT
  8
1
  6
CONTINUOUS
 62
1
 10
1.8875E+002
 20
-1.8695542E+002
 40
2.0
  1
22
 41
7.5E-001
 50
9.0E+001
  0
TEXT
  8
1
  6
CONTINUOUS
 62
1
 10
1.6575E+002
 20
-1.7795542E+002
 40
2.0
  1
21
 41
7.5E-001
 50
9.0E+001
  0
TEXT
  8
1
  6
CONTINUOUS
 62
1
 10
1.6575E+002
 20
-1.8695542E+002
 40
2.0
  1
22
 41
7.5E-001
 50
9.0E+001
  0
LINE
  8
1
  6
CONTINUOUS
 62
1
 10
2.075E+002
 20
-1.7351215E+002
 11
2.15E+002
 21
-1.7351215E+002
  0
LINE
  8
1
  6
CONTINUOUS
 62
1
 10
2.15E+002
 20
-1.7351215E+002
 11
2.15E+002
 21
-1.49E+002
  0
LINE
  8
1
  6
CONTINUOUS
 62
1
 10
1.625E+002
 20
-1.5251215E+002
 11
2.15E+002
 21
-1.5251215E+002
  0
LINE
  8
1
  6
CONTINUOUS
 62
1
 10
2.15E+002
 20
-1.8751215E+002
 11
2.15E+002
 21
-1.93E+002
  0
TEXT
  8
1
  6
CONTINUOUS
 62
1
 10
2.1425E+002
 20
-1.42E+002
 40
2.0
  1
23
 41
7.5E-001
 50
9.0E+001
  0
TEXT
  8
1
  6
CONTINUOUS
 62
1
 10
2.085E+002
 20
-1.4636862E+002
 40
2.0
  1
KM1
 41
7.5E-001
  0
TEXT
  8
1
  6
CONTINUOUS
 62
1
 10
2.1425E+002
 20
-1.51E+002
 40
2.0
  1
24
 41
7.5E-001
 50
9.0E+001
  0
LINE
  8
1
  6
CONTINUOUS
 62
1
 10
2.15E+002
 20
-1.48E+002
 11
2.13E+002
 21
-1.43E+002
  0
LINE
  8
1
  6
CONTINUOUS
 62
1
 10
2.15E+002
 20
-1.48E+002
 11
2.15E+002
 21
-1.5251215E+002
  0
LINE
  8
1
  6
CONTINUOUS
 62
1
 10
2.15E+002
 20
-1.3751215E+002
 11
2.15E+002
 21
-1.4398714E+002
  0
LINE
  8
1
  6
CONTINUOUS
 62
1
 10
2.15E+002
 20
-1.7351215E+002
 11
2.15E+002
 21
-1.7898714E+002
  0
LINE
  8
1
  6
CONTINUOUS
 62
1
 10
2.075E+002
 20
-1.7351215E+002
 11
2.075E+002
 21
-1.7898714E+002
  0
LINE
  8
1
  6
CONTINUOUS
 62
1
 10
1.855E+002
 20
-1.96E+002
 11
1.935E+002
 21
-1.96E+002
  0
LINE
  8
1
  6
CONTINUOUS
 62
1
 10
1.625E+002
 20
-1.96E+002
 11
1.705E+002
 21
-1.96E+002
  0
LINE
  8
1
  6
CONTINUOUS
 62
1
 10
1.625E+002
 20
-1.93E+002
 11
1.705E+002
 21
-1.93E+002
  0
LINE
  8
1
  6
CONTINUOUS
 62
1
 10
1.855E+002
 20
-1.93E+002
 11
1.935E+002
 21
-1.93E+002
  0
LINE
  8
1
  6
CONTINUOUS
 62
1
 10
1.625E+002
 20
-1.93E+002
 11
1.625E+002
 21
-1.96E+002
  0
LINE
  8
1
  6
CONTINUOUS
 62
1
 10
1.705E+002
 20
-1.93E+002
 11
1.705E+002
 21
-1.96E+002
  0
LINE
  8
1
  6
CONTINUOUS
 62
1
 10
1.855E+002
 20
-1.93E+002
 11
1.855E+002
 21
-1.96E+002
  0
LINE
  8
1
  6
CONTINUOUS
 62
1
 10
1.935E+002
 20
-1.93E+002
 11
1.935E+002
 21
-1.96E+002
  0
LINE
  8
1
  6
CONTINUOUS
 62
1
 10
1.895E+002
 20
-1.96E+002
 11
1.895E+002
 21
-2.01E+002
  0
LINE
  8
1
  6
CONTINUOUS
 62
1
 10
1.665E+002
 20
-1.96E+002
 11
1.665E+002
 21
-2.01E+002
  0
LINE
  8
1
  6
CONTINUOUS
 62
1
 10
2.11E+002
 20
-1.96E+002
 11
2.19E+002
 21
-1.96E+002
  0
LINE
  8
1
  6
CONTINUOUS
 62
1
 10
2.11E+002
 20
-1.93E+002
 11
2.19E+002
 21
-1.93E+002
  0
LINE
  8
1
  6
CONTINUOUS
 62
1
 10
2.11E+002
 20
-1.93E+002
 11
2.11E+002
 21
-1.96E+002
  0
LINE
  8
1
  6
CONTINUOUS
 62
1
 10
2.15E+002
 20
-1.96E+002
 11
2.15E+002
 21
-2.01E+002
  0
LINE
  8
1
  6
CONTINUOUS
 62
1
 10
1.73E+002
 20
-1.6251215E+002
 11
1.75E+002
 21
-1.6251215E+002
  0
LINE
  8
1
  6
CONTINUOUS
 62
1
 10
1.79E+002
 20
-1.6251215E+002
 11
1.79E+002
 21
-1.5251215E+002
  0
LINE
  8
1
  6
CONTINUOUS
 62
1
 10
1.79E+002
 20
-1.6751215E+002
 11
1.79E+002
 21
-1.6963014E+002
  0
LINE
  8
1
  6
CONTINUOUS
 62
1
 10
1.73E+002
 20
-1.6751215E+002
 11
1.74E+002
 21
-1.6151215E+002
  0
LINE
  8
1
  6
CONTINUOUS
 62
1
 10
1.79E+002
 20
-1.6751215E+002
 11
1.77E+002
 21
-1.6251215E+002
  0
TEXT
  8
1
  6
CONTINUOUS
 62
1
 10
1.7825E+002
 20
-1.6026215E+002
 40
2.0
  1
15
 41
7.5E-001
 50
9.0E+001
  0
LINE
  8
1
  6
CONTINUOUS
 62
1
 10
1.6805051E+002
 20
-1.6451215E+002
 11
1.735E+002
 21
-1.6451215E+002
  0
LINE
  8
1
  6
CONTINUOUS
 62
1
 10
1.6805051E+002
 20
-1.6551215E+002
 11
1.7341667E+002
 21
-1.6551215E+002
  0
LINE
  8
1
  6
CONTINUOUS
 62
1
 10
1.73E+002
 20
-1.6751215E+002
 11
1.73E+002
 21
-1.6963014E+002
  0
LINE
  8
1
  6
CONTINUOUS
 62
1
 10
1.73E+002
 20
-1.6251215E+002
 11
1.73E+002
 21
-1.6051215E+002
  0
LINE
  8
1
  6
HIDDEN
 62
1
 10
1.7341667E+002
 20
-1.6501215E+002
 11
1.8405051E+002
 21
-1.6501215E+002
  0
ARC
  8
1
  6
CONTINUOUS
 62
1
 10
1.705E+002
 20
-1.6501215E+002
 40
2.5
 50
1.1356542E+002
 51
2.4643458E+002
  0
LINE
  8
1
  6
CONTINUOUS
 62
1
 10
1.665E+002
 20
-1.6051215E+002
 11
1.73E+002
 21
-1.6051215E+002
  0
LINE
  8
1
  6
CONTINUOUS
 62
1
 10
1.665E+002
 20
-1.6051215E+002
 11
1.665E+002
 21
-1.7895542E+002
  0
LINE
  8
1
  6
CONTINUOUS
 62
1
 10
1.79E+002
 20
-1.6963014E+002
 11
1.73E+002
 21
-1.6963014E+002
  0
TEXT
  8
1
  6
CONTINUOUS
 62
1
 10
1.6575E+002
 20
-1.7331215E+002
 40
2.0
  1
16
 41
7.5E-001
 50
9.0E+001
  0
LINE
  8
1
  6
CONTINUOUS
 62
1
 10
1.79E+002
 20
-1.6051215E+002
 11
1.895E+002
 21
-1.6051215E+002
  0
LINE
  8
1
  6
CONTINUOUS
 62
1
 10
1.94E+002
 20
-1.6701215E+002
 11
1.94E+002
 21
-1.6301215E+002
  0
LINE
  8
1
  6
CONTINUOUS
 62
1
 10
1.895E+002
 20
-1.6751215E+002
 11
1.875E+002
 21
-1.6251215E+002
  0
LINE
  8
1
  6
CONTINUOUS
 62
1
 10
1.8455051E+002
 20
-1.6451215E+002
 11
1.883E+002
 21
-1.6451215E+002
  0
LINE
  8
1
  6
CONTINUOUS
 62
1
 10
1.8455051E+002
 20
-1.6551215E+002
 11
1.887E+002
 21
-1.6551215E+002
  0
LINE
  8
1
  6
CONTINUOUS
 62
1
 10
1.895E+002
 20
-1.6751215E+002
 11
1.895E+002
 21
-1.7895542E+002
  0
LINE
  8
1
  6
CONTINUOUS
 62
1
 10
1.895E+002
 20
-1.6251215E+002
 11
1.895E+002
 21
-1.6051215E+002
  0
ARC
  8
1
  6
CONTINUOUS
 62
1
 10
1.87E+002
 20
-1.6501215E+002
 40
2.5
 50
1.1356542E+002
 51
2.4643458E+002
  0
LINE
  8
1
  6
CONTINUOUS
 62
1
 10
2.02E+002
 20
-1.6701215E+002
 11
2.02E+002
 21
-1.6301215E+002
  0
LINE
  8
1
  6
CONTINUOUS
 62
1
 10
2.04E+002
 20
-1.6701215E+002
 11
2.04E+002
 21
-1.6301215E+002
  0
LINE
  8
1
  6
CONTINUOUS
 62
1
 10
1.94E+002
 20
-1.6301215E+002
 11
2.04E+002
 21
-1.6301215E+002
  0
LINE
  8
1
  6
CONTINUOUS
 62
1
 10
1.94E+002
 20
-1.6701215E+002
 11
2.04E+002
 21
-1.6701215E+002
  0
LINE
  8
1
  6
CONTINUOUS
 62
1
 10
2.04E+002
 20
-1.6301215E+002
 11
2.02E+002
 21
-1.6701215E+002
  0
LINE
  8
1
  6
CONTINUOUS
 62
1
 10
2.02E+002
 20
-1.6301215E+002
 11
2.04E+002
 21
-1.6701215E+002
  0
LINE
  8
1
  6
CONTINUOUS
 62
1
 10
1.98E+002
 20
-1.6301215E+002
 11
1.98E+002
 21
-1.5251215E+002
  0
LINE
  8
1
  6
CONTINUOUS
 62
1
 10
1.98E+002
 20
-1.6701215E+002
 11
1.98E+002
 21
-2.01E+002
  0
LINE
  8
1
  6
HIDDEN
 62
1
 10
1.885E+002
 20
-1.6501215E+002
 11
1.94E+002
 21
-1.6501215E+002
  0
TEXT
  8
1
  6
CONTINUOUS
 62
1
 10
1.975E+002
 20
-1.5996215E+002
 40
2.0
  1
A1
 41
7.5E-001
 50
9.0E+001
  0
TEXT
  8
1
  6
CONTINUOUS
 62
1
 10
1.9725E+002
 20
-1.7311215E+002
 40
2.0
  1
A2
 41
7.5E-001
 50
9.0E+001
  0
TEXT
  8
1
  6
CONTINUOUS
 62
1
 10
1.64E+002
 20
-1.5951215E+002
 40
2.0
  1
KT
 41
7.5E-001
  0
TEXT
  8
1
  6
CONTINUOUS
 62
1
 10
1.7925E+002
 20
-1.7006215E+002
 40
2.0
  1
t1+t2
 41
7.5E-001
  0
TEXT
  8
1
  6
CONTINUOUS
 62
1
 10
1.6725E+002
 20
-1.7006215E+002
 40
2.0
  1
t1
 41
7.5E-001
  0
TEXT
  8
1
  6
CONTINUOUS
 62
1
 10
1.8875E+002
 20
-1.7331215E+002
 40
2.0
  1
18
 41
7.5E-001
 50
9.0E+001
  0
TEXT
  8
1
  6
CONTINUOUS
 62
1
 10
2.1425E+002
 20
-1.92E+002
 40
2.0
  1
A1
 41
7.5E-001
 50
9.0E+001
  0
TEXT
  8
1
  6
CONTINUOUS
 62
1
 10
2.1425E+002
 20
-2.0E+002
 40
2.0
  1
A2
 41
7.5E-001
 50
9.0E+001
  0
TEXT
  8
1
  6
CONTINUOUS
 62
1
 10
1.8875E+002
 20
-1.92E+002
 40
2.0
  1
A1
 41
7.5E-001
 50
9.0E+001
  0
TEXT
  8
1
  6
CONTINUOUS
 62
1
 10
1.8875E+002
 20
-2.0E+002
 40
2.0
  1
A2
 41
7.5E-001
 50
9.0E+001
  0
TEXT
  8
1
  6
CONTINUOUS
 62
1
 10
1.6575E+002
 20
-1.92E+002
 40
2.0
  1
A1
 41
7.5E-001
 50
9.0E+001
  0
TEXT
  8
1
  6
CONTINUOUS
 62
1
 10
1.6575E+002
 20
-2.0E+002
 40
2.0
  1
A2
 41
7.5E-001
 50
9.0E+001
  0
LINE
  8
1
  6
CONTINUOUS
 62
1
 10
1.625E+002
 20
-1.3751215E+002
 11
2.15E+002
 21
-1.3751215E+002
  0
LINE
  8
1
  6
CONTINUOUS
 62
1
 10
1.79E+002
 20
-1.1801215E+002
 11
1.79E+002
 21
-1.3751215E+002
  0
LINE
  8
1
  6
CONTINUOUS
 62
1
 10
1.895E+002
 20
-2.0211215E+002
 11
1.8834157E+002
 21
-2.0411862E+002
  0
LINE
  8
1
  6
CONTINUOUS
 62
1
 10
1.895E+002
 20
-2.0211215E+002
 11
1.9065843E+002
 21
-2.0411862E+002
  0
LINE
  8
1
  6
CONTINUOUS
 62
1
 10
1.79E+002
 20
-1.1801215E+002
 11
1.8E+002
 21
-1.1201215E+002
  0
LINE
  8
1
  6
CONTINUOUS
 62
1
 10
1.79E+002
 20
-1.1301215E+002
 11
1.81E+002
 21
-1.1301215E+002
  0
LINE
  8
1
  6
CONTINUOUS
 62
1
 10
1.79E+002
 20
-1.1301215E+002
 11
1.79E+002
 21
-1.02E+002
  0
LINE
  8
1
  6
CONTINUOUS
 62
1
 10
1.6709297E+002
 20
-1.1351215E+002
 11
1.7109297E+002
 21
-1.1551215E+002
  0
LINE
  8
1
  6
CONTINUOUS
 62
1
 10
1.6709297E+002
 20
-1.1351215E+002
 11
1.6709297E+002
 21
-1.1551215E+002
  0
LINE
  8
1
  6
CONTINUOUS
 62
1
 10
1.6609297E+002
 20
-1.1551215E+002
 11
1.7109297E+002
 21
-1.1551215E+002
  0
LINE
  8
1
  6
HIDDEN
 62
1
 10
1.7109297E+002
 20
-1.1451215E+002
 11
1.7109297E+002
 21
-1.1001215E+002
  0
LINE
  8
1
  6
HIDDEN
 62
1
 10
1.7109297E+002
 20
-1.1001215E+002
 11
1.6309297E+002
 21
-1.1001215E+002
  0
LINE
  8
1
  6
HIDDEN
 62
1
 10
1.7209297E+002
 20
-1.1451215E+002
 11
1.7958333E+002
 21
-1.1451215E+002
  0
LINE
  8
1
  6
HIDDEN
 62
1
 10
1.7209297E+002
 20
-1.0901215E+002
 11
1.7209297E+002
 21
-1.1451215E+002
  0
LINE
  8
1
  6
HIDDEN
 62
1
 10
1.6309297E+002
 20
-1.0901215E+002
 11
1.7209297E+002
 21
-1.0901215E+002
  0
LINE
  8
1
  6
CONTINUOUS
 62
1
 10
1.6309297E+002
 20
-1.0751215E+002
 11
1.6309297E+002
 21
-1.1151215E+002
  0
LINE
  8
1
  6
CONTINUOUS
 62
1
 10
1.6459297E+002
 20
-1.1151215E+002
 11
1.6309297E+002
 21
-1.1151215E+002
  0
LINE
  8
1
  6
CONTINUOUS
 62
1
 10
1.6459297E+002
 20
-1.0751215E+002
 11
1.6309297E+002
 21
-1.0751215E+002
  0
TEXT
  8
1
  6
CONTINUOUS
 62
1
 10
1.5909297E+002
 20
-1.0951215E+002
 40
2.0
  1
O
 41
7.5E-001
  0
TEXT
  8
1
  6
CONTINUOUS
 62
1
 10
1.6079297E+002
 20
-1.1151215E+002
 40
2.0
  1
R
 41
7.5E-001
  0
LINE
  8
1
  6
CONTINUOUS
 62
1
 10
1.6129297E+002
 20
-1.0811215E+002
 11
1.5969297E+002
 21
-1.1131215E+002
  0
LINE
  8
1
  6
HIDDEN
 62
1
 10
1.7109297E+002
 20
-1.1551215E+002
 11
1.82E+002
 21
-1.1551215E+002
  0
LINE
  8
1
  6
CONTINUOUS
 62
1
 10
1.82E+002
 20
-1.15E+002
 11
1.82E+002
 21
-1.16E+002
  0
LINE
  8
1
  6
CONTINUOUS
 62
1
 10
1.82E+002
 20
-1.15E+002
 11
1.84E+002
 21
-1.15E+002
  0
LINE
  8
1
  6
CONTINUOUS
 62
1
 10
1.82E+002
 20
-1.16E+002
 11
1.84E+002
 21
-1.16E+002
  0
LINE
  8
1
  6
CONTINUOUS
 62
1
 10
1.84E+002
 20
-1.16E+002
 11
1.84E+002
 21
-1.17E+002
  0
LINE
  8
1
  6
CONTINUOUS
 62
1
 10
1.84E+002
 20
-1.15E+002
 11
1.84E+002
 21
-1.14E+002
  0
LINE
  8
1
  6
CONTINUOUS
 62
1
 10
1.6863893E+002
 20
-1.02E+002
 11
1.87E+002
 21
-1.02E+002
  0
LINE
  8
1
  6
SHORT_DASH
 62
1
 10
1.5959355E+002
 20
-1.05E+002
 11
1.7167999E+002
 21
-1.05E+002
  0
LINE
  8
1
  6
CONTINUOUS
 62
1
 10
1.7167999E+002
 20
-1.05E+002
 11
1.7167999E+002
 21
-1.02E+002
  0
TEXT
  8
1
  6
CONTINUOUS
 62
1
 10
1.845E+002
 20
-1.1636862E+002
 40
2.0
  1
FR1
 41
7.5E-001
  0
TEXT
  8
1
  6
CONTINUOUS
 62
1
 10
1.7825E+002
 20
-1.1201215E+002
 40
2.0
  1
95
 41
7.5E-001
 50
9.0E+001
  0
TEXT
  8
1
  6
CONTINUOUS
 62
1
 10
1.7825E+002
 20
-1.2101215E+002
 40
2.0
  1
96
 41
7.5E-001
 50
9.0E+001
  0
LINE
  8
1
  6
CONTINUOUS
 62
1
 10
2.19E+002
 20
-1.93E+002
 11
2.19E+002
 21
-1.96E+002
  0
INSERT
  2
*TX480
  8
1
 10
8.5
 20
-1.0302404E+002
  0
INSERT
  2
*TX481
  8
1
 10
8.5
 20
-1.9602404E+002
  0
INSERT
  2
*TX482
  8
1
 10
3.0084761E+001
 20
-9.3E+001
  0
INSERT
  2
*TX483
  8
1
 10
1.3174847E+002
 20
-1.3517566E+002
  0
INSERT
  2
*TX484
  8
1
 10
1.275E+002
 20
-1.9602404E+002
  0
INSERT
  2
*TX485
  8
1
 10
1.5609355E+002
 20
-1.0302404E+002
  0
INSERT
  2
*TX486
  8
1
 10
1.7067831E+002
 20
-9.3E+001
  0
POINT
  8
Drafting_Hidden_Entities
  6
CONTINUOUS
 62
1
 10
0.0
 20
0.0
  0
ENDBLK
  0
BLOCK
  2
*XH157
  3
*XH
 10
0.0
 20
0.0
 70
65
  0
LINE
  8
1
  6
CONTINUOUS
 62
7
 10
-5.0147275E-002
 20
-5.0147275E-002
 11
5.0147275E-002
 21
5.0147275E-002
  0
LINE
  8
1
  6
CONTINUOUS
 62
7
 10
-9.8194609E-002
 20
1.846481E-001
 11
1.2291826E-001
 21
4.0576097E-001
  0
LINE
  8
1
  6
CONTINUOUS
 62
7
 10
-1.4624194E-001
 20
4.1944348E-001
 11
1.9568924E-001
 21
7.6137466E-001
  0
LINE
  8
1
  6
CONTINUOUS
 62
7
 10
-1.9428928E-001
 20
6.5423886E-001
 11
2.6846022E-001
 21
1.1169884
  0
LINE
  8
1
  6
CONTINUOUS
 62
7
 10
-2.4233661E-001
 20
8.8903424E-001
 11
3.412312E-001
 21
1.4726021
  0
LINE
  8
1
  6
CONTINUOUS
 62
7
 10
-2.9038395E-001
 20
1.1238296
 11
4.1400218E-001
 21
1.8282157
  0
LINE
  8
1
  6
CONTINUOUS
 62
7
 10
-3.3843128E-001
 20
1.358625
 11
2.4855716E-001
 21
1.9456134
  0
LINE
  8
1
  6
CONTINUOUS
 62
7
 10
-3.8647862E-001
 20
1.5934204
 11
-3.4285551E-002
 21
1.9456134
  0
LINE
  8
1
  6
CONTINUOUS
 62
7
 10
-4.3452595E-001
 20
1.8282157
 11
-3.1712826E-001
 21
1.9456134
  0
ENDBLK
  0
BLOCK
  2
*XH158
  3
*XH
 10
0.0
 20
0.0
 70
65
  0
LINE
  8
1
  6
CONTINUOUS
 62
7
 10
-5.0147275E-002
 20
-5.0147275E-002
 11
5.0147275E-002
 21
5.0147275E-002
  0
LINE
  8
1
  6
CONTINUOUS
 62
7
 10
-9.8194609E-002
 20
1.846481E-001
 11
1.2291826E-001
 21
4.0576097E-001
  0
LINE
  8
1
  6
CONTINUOUS
 62
7
 10
-1.4624194E-001
 20
4.1944348E-001
 11
1.9568924E-001
 21
7.6137466E-001
  0
LINE
  8
1
  6
CONTINUOUS
 62
7
 10
-1.9428928E-001
 20
6.5423886E-001
 11
2.6846022E-001
 21
1.1169884
  0
LINE
  8
1
  6
CONTINUOUS
 62
7
 10
-2.4233661E-001
 20
8.8903424E-001
 11
3.412312E-001
 21
1.4726021
  0
LINE
  8
1
  6
CONTINUOUS
 62
7
 10
-2.9038395E-001
 20
1.1238296
 11
4.1400218E-001
 21
1.8282157
  0
LINE
  8
1
  6
CONTINUOUS
 62
7
 10
-3.3843128E-001
 20
1.358625
 11
2.4855716E-001
 21
1.9456134
  0
LINE
  8
1
  6
CONTINUOUS
 62
7
 10
-3.8647862E-001
 20
1.5934204
 11
-3.4285551E-002
 21
1.9456134
  0
LINE
  8
1
  6
CONTINUOUS
 62
7
 10
-4.3452595E-001
 20
1.8282157
 11
-3.1712826E-001
 21
1.9456134
  0
ENDBLK
  0
BLOCK
  2
SE0
 10
0.0
 20
0.0
 70
0
  0
LINE
  8
2
  6
CENTERLINE
 62
7
 10
1.1554039E+001
 20
1.8851369E+002
 11
8.3790389
 21
1.8851369E+002
  0
LINE
  8
2
  6
CENTERLINE
 62
7
 10
9.9665389
 20
1.9010119E+002
 11
9.9665389
 21
1.8692619E+002
  0
LINE
  8
2
  6
CENTERLINE
 62
7
 10
1.3141539E+001
 20
1.8851369E+002
 11
1.5641539E+001
 21
1.8851369E+002
  0
LINE
  8
2
  6
CENTERLINE
 62
7
 10
9.9665389
 20
1.9168869E+002
 11
9.9665389
 21
1.9418869E+002
  0
LINE
  8
2
  6
CENTERLINE
 62
7
 10
6.7915389
 20
1.8851369E+002
 11
4.2915389
 21
1.8851369E+002
  0
LINE
  8
2
  6
CENTERLINE
 62
7
 10
9.9665389
 20
1.8533869E+002
 11
9.9665389
 21
1.8283869E+002
  0
ENDBLK
  0
BLOCK
  2
SE1
 10
0.0
 20
0.0
 70
0
  0
LINE
  8
2
  6
CENTERLINE
 62
7
 10
1.1554039E+001
 20
1.0851369E+002
 11
8.3790389
 21
1.0851369E+002
  0
LINE
  8
2
  6
CENTERLINE
 62
7
 10
9.9665389
 20
1.1010119E+002
 11
9.9665389
 21
1.0692619E+002
  0
LINE
  8
2
  6
CENTERLINE
 62
7
 10
1.3141539E+001
 20
1.0851369E+002
 11
1.5641539E+001
 21
1.0851369E+002
  0
LINE
  8
2
  6
CENTERLINE
 62
7
 10
9.9665389
 20
1.1168869E+002
 11
9.9665389
 21
1.1418869E+002
  0
LINE
  8
2
  6
CENTERLINE
 62
7
 10
6.7915389
 20
1.0851369E+002
 11
4.2915389
 21
1.0851369E+002
  0
LINE
  8
2
  6
CENTERLINE
 62
7
 10
9.9665389
 20
1.0533869E+002
 11
9.9665389
 21
1.0283869E+002
  0
ENDBLK
  0
BLOCK
  2
SE2
 10
0.0
 20
0.0
 70
0
  0
LINE
  8
2
  6
CENTERLINE
 62
7
 10
1.1554039E+001
 20
2.851369E+001
 11
8.3790389
 21
2.851369E+001
  0
LINE
  8
2
  6
CENTERLINE
 62
7
 10
9.9665389
 20
3.010119E+001
 11
9.9665389
 21
2.692619E+001
  0
LINE
  8
2
  6
CENTERLINE
 62
7
 10
1.3141539E+001
 20
2.851369E+001
 11
1.5641539E+001
 21
2.851369E+001
  0
LINE
  8
2
  6
CENTERLINE
 62
7
 10
9.9665389
 20
3.168869E+001
 11
9.9665389
 21
3.418869E+001
  0
LINE
  8
2
  6
CENTERLINE
 62
7
 10
6.7915389
 20
2.851369E+001
 11
4.2915389
 21
2.851369E+001
  0
LINE
  8
2
  6
CENTERLINE
 62
7
 10
9.9665389
 20
2.533869E+001
 11
9.9665389
 21
2.283869E+001
  0
ENDBLK
  0
BLOCK
  2
SE3
 10
0.0
 20
0.0
 70
0
  0
LINE
  8
2
  6
CENTERLINE
 62
7
 10
1.1554039E+001
 20
2.6851369E+002
 11
8.3790389
 21
2.6851369E+002
  0
LINE
  8
2
  6
CENTERLINE
 62
7
 10
9.9665389
 20
2.7010119E+002
 11
9.9665389
 21
2.6692619E+002
  0
LINE
  8
2
  6
CENTERLINE
 62
7
 10
1.3141539E+001
 20
2.6851369E+002
 11
1.5641539E+001
 21
2.6851369E+002
  0
LINE
  8
2
  6
CENTERLINE
 62
7
 10
9.9665389
 20
2.7168869E+002
 11
9.9665389
 21
2.7418869E+002
  0
LINE
  8
2
  6
CENTERLINE
 62
7
 10
6.7915389
 20
2.6851369E+002
 11
4.2915389
 21
2.6851369E+002
  0
LINE
  8
2
  6
CENTERLINE
 62
7
 10
9.9665389
 20
2.6533869E+002
 11
9.9665389
 21
2.6283869E+002
  0
ENDBLK
  0
BLOCK
  2
A3N
 10
0.0
 20
0.0
 70
0
  0
ATTDEF
  8
1
  6
CONTINUOUS
 62
5
 10
3.6549644E+002
 20
2.7E+001
 40
2.0
  1
FPEM123456P0001
 41
6.5E-001
 11
3.6549644E+002
 21
2.6E+001
  3
ANCIEN_ Plan
  2
ANCIEN_Plan
 70
0
 73
2
 74
2
  0
ATTDEF
  8
1
  6
CONTINUOUS
 62
5
 10
3.6549644E+002
 20
1.1E+001
 40
4.0
  1
FPEM470778P0001
 41
7.5E-001
 72
1
 11
3.5649644E+002
 21
9.0
  3
N°PLAN
  2
N°PLAN
 70
0
 73
2
 74
2
  0
ATTDEF
  8
1
  6
CONTINUOUS
 62
5
 10
3.6549644E+002
 20
2.3005401E+001
 40
2.0
  1
OEM-12345
 41
7.5E-001
 11
3.6549644E+002
 21
2.2005401E+001
  3
N°OEM
  2
N°OEM
 70
0
 73
2
 74
2
  0
ATTDEF
  8
1
  6
CONTINUOUS
 62
5
 10
2.929758E+002
 20
1.38E+001
 40
1.6
  1
PLAN D'ENSEMBLE
 41
9.0E-001
 72
1
 11
2.864958E+002
 21
1.3E+001
  3
TYPE_PLAN
  2
TYPE_PLAN
 70
0
 73
2
 74
2
  0
ATTDEF
  8
1
  6
CONTINUOUS
 62
5
 10
3.014958E+002
 20
1.025E+001
 40
2.5
  1
DWA, DYA9...16-30 sans relais
 41
7.5E-001
 72
1
 11
2.864958E+002
 21
9.0
  3
DESIGNATION_PLAN
  2
DESIGNATION_PLAN
 70
0
 73
2
 74
2
  0
ATTDEF
  8
1
  6
CONTINUOUS
 62
5
 10
3.898708E+002
 20
8.75
 40
2.5
  1
A
 41
7.5E-001
 72
1
 11
3.879958E+002
 21
7.5
  3
ID
  2
ID
 70
0
 73
2
 74
2
  0
ATTDEF
  8
1
  6
CONTINUOUS
 62
5
 10
3.5575484E+002
 20
1.6659209E+001
 40
2.75
  1
A4
 41
7.5E-001
 72
1
 11
3.5369234E+002
 21
1.5284209E+001
  3
A?
  2
A?
 70
0
 73
2
 74
2
  0
ATTDEF
  8
1
  6
CONTINUOUS
 62
5
 10
3.7155166E+002
 20
1.6659209E+001
 40
2.75
  1
1
 41
7.5E-001
 72
1
 11
3.6639541E+002
 21
1.5284209E+001
  3
Folio
  2
Folio
 70
0
 73
2
 74
2
  0
ATTDEF
  8
1
  6
CONTINUOUS
 62
5
 10
3.8530093E+002
 20
1.6659209E+001
 40
2.75
  1
1
 41
7.5E-001
 72
1
 11
3.7911343E+002
 21
1.5284209E+001
  3
Folios
  2
Folios
 70
0
 73
2
 74
2
  0
ATTDEF
  8
1
  6
CONTINUOUS
 62
5
 10
3.4833212E+002
 20
3.925E+001
 40
2.5
  1
 
 11
3.4833212E+002
 21
3.8E+001
  3
N°OE_Origine
  2
N°OE_Origine
 70
0
 73
2
 74
2
  0
ATTDEF
  8
1
  6
CONTINUOUS
 62
5
 10
3.4833212E+002
 20
3.5E+001
 40
2.0
  1
P.BLANCHET le 01.01.04
 41
7.5E-001
 11
3.4833212E+002
 21
3.4E+001
  3
CONTROLEUR_Origine
  2
CONTROLEUR_Origine
 70
0
 73
2
 74
2
  0
ATTDEF
  8
1
  6
CONTINUOUS
 62
5
 10
3.4833212E+002
 20
3.1E+001
 40
2.0
  1
C.ECOCHARD le 01.01.04
 41
7.5E-001
 11
3.4833212E+002
 21
3.0E+001
  3
DESSINATEUR_Origine
  2
DESSINATEUR_Origine
 70
0
 73
2
 74
2
  0
ATTDEF
  8
1
  6
CONTINUOUS
 62
5
 10
2.2580669E+002
 20
2.725E+001
 40
2.5
  1
A
 41
7.5E-001
 72
1
 11
2.2299419E+002
 21
2.6E+001
  3
ID1
  2
ID1
 70
0
 73
2
 74
2
  0
ATTDEF
  8
1
  6
CONTINUOUS
 62
5
 10
2.2580669E+002
 20
3.125E+001
 40
2.5
  1
 
 41
7.5E-001
 72
1
 11
2.2299419E+002
 21
3.0E+001
  3
ID2
  2
ID2
 70
0
 73
2
 74
2
  0
ATTDEF
  8
1
  6
CONTINUOUS
 62
5
 10
2.2580669E+002
 20
3.525E+001
 40
2.5
  1
 
 41
7.5E-001
 72
1
 11
2.2299419E+002
 21
3.4E+001
  3
ID3
  2
ID3
 70
0
 73
2
 74
2
  0
ATTDEF
  8
1
  6
CONTINUOUS
 62
5
 10
2.2580669E+002
 20
3.925E+001
 40
2.5
  1
 
 41
7.5E-001
 72
1
 11
2.2299419E+002
 21
3.8E+001
  3
ID4
  2
ID4
 70
0
 73
2
 74
2
  0
ATTDEF
  8
1
  6
CONTINUOUS
 62
5
 10
3.4424644E+002
 20
2.1551214E+001
 40
6.0
  1
1:4
 41
7.5E-001
 72
1
 11
3.3749644E+002
 21
1.8551214E+001
  3
Ech
  2
Ech
 70
0
 73
2
 74
2
  0
POLYLINE
  8
1
  6
CONTINUOUS
 62
7
 66
1
 40
5.0E-001
 41
5.0E-001
 70
0
  0
VERTEX
  8
1
 42
0.0
 10
1.0E+001
 20
2.72E+002
 70
0
  0
VERTEX
  8
1
 42
0.0
 10
1.0E+001
 20
4.0E+001
 70
0
  0
SEQEND
  0
POLYLINE
  8
1
  6
CONTINUOUS
 62
7
 66
1
 40
5.0E-001
 41
5.0E-001
 70
0
  0
VERTEX
  8
1
 42
0.0
 10
1.0E+001
 20
4.0E+001
 70
0
  0
VERTEX
  8
1
 42
0.0
 10
1.0065101E+001
 20
5.0
 70
0
  0
SEQEND
  0
POLYLINE
  8
1
  6
CONTINUOUS
 62
7
 66
1
 40
5.0E-001
 41
5.0E-001
 70
0
  0
VERTEX
  8
1
 42
0.0
 10
1.0065101E+001
 20
5.0
 70
0
  0
VERTEX
  8
1
 42
0.0
 10
3.9049515E+002
 20
5.0
 70
0
  0
SEQEND
  0
POLYLINE
  8
1
  6
CONTINUOUS
 62
7
 66
1
 40
5.0E-001
 41
5.0E-001
 70
0
  0
VERTEX
  8
1
 42
0.0
 10
3.9049515E+002
 20
1.0E+001
 70
0
  0
VERTEX
  8
1
 42
0.0
 10
3.9049515E+002
 20
5.0
 70
0
  0
SEQEND
  0
TEXT
  8
1
  6
CONTINUOUS
 62
7
 10
3.5670343E+002
 20
1.7697775E+001
 40
1.5
  1
Format
 41
6.5E-001
 72
1
 11
3.5377843E+002
 21
1.7697775E+001
  0
TEXT
  8
1
  6
CONTINUOUS
 62
7
 10
3.7175835E+002
 20
1.7697775E+001
 40
1.5
  1
Feuille n%%d
 41
6.5E-001
 72
1
 11
3.6688335E+002
 21
1.7697775E+001
  0
TEXT
  8
1
  6
CONTINUOUS
 62
7
 10
3.8447593E+002
 20
1.7697775E+001
 40
1.5
  1
Nb Feuilles
 41
6.5E-001
 72
1
 11
3.7911343E+002
 21
1.7697775E+001
  0
LINE
  8
1
  6
CONTINUOUS
 62
1
 10
0.0
 20
4.0E+001
 11
0.0
 21
4.1E+001
  0
TEXT
  8
1
  6
CONTINUOUS
 62
7
 10
3.6049644E+002
 20
2.3005401E+001
 40
2.0
  1
PROJET
 41
7.5E-001
 72
1
 11
3.5599644E+002
 21
2.2005401E+001
 73
2
  0
TEXT
  8
1
  6
CONTINUOUS
 62
7
 10
8.75
 20
6.0087564E+001
 40
1.25
  1
autorisation écrite.
 41
7.5E-001
 50
9.0E+001
 11
8.75
 21
5.9462564E+001
 73
2
  0
TEXT
  8
1
  6
CONTINUOUS
 62
7
 10
3.6399644E+002
 20
2.7E+001
 40
2.0
  1
Issu de/Remplace
 41
5.0E-001
 72
1
 11
3.5599644E+002
 21
2.6E+001
 73
2
  0
TEXT
  8
1
  6
CONTINUOUS
 62
7
 10
3.4668394E+002
 20
3.8875E+001
 40
1.75
  1
ORDRE EXECUTION
 41
7.0E-001
 72
1
 11
3.3749644E+002
 21
3.8E+001
 73
2
  0
TEXT
  8
1
  6
CONTINUOUS
 62
7
 10
3.4484644E+002
 20
3.4875E+001
 40
1.75
  1
CONTROLE PAR
 41
7.0E-001
 72
1
 11
3.3749644E+002
 21
3.4E+001
 73
2
  0
TEXT
  8
1
  6
CONTINUOUS
 62
7
 10
3.4423394E+002
 20
3.0875E+001
 40
1.75
  1
REALISE PAR
 41
7.0E-001
 72
1
 11
3.3749644E+002
 21
3.0E+001
 73
2
  0
LINE
  8
2
  6
CONTINUOUS
 62
7
 10
9.5000647E+001
 20
2.72E+002
 11
9.5000647E+001
 21
2.77E+002
  0
LINE
  8
2
  6
CONTINUOUS
 62
7
 10
4.7500323E+001
 20
2.72E+002
 11
4.7500323E+001
 21
2.77E+002
  0
LINE
  8
2
  6
CONTINUOUS
 62
7
 10
1.4250097E+002
 20
2.72E+002
 11
1.4250097E+002
 21
2.77E+002
  0
TEXT
  8
2
  6
CONTINUOUS
 62
7
 10
7.0162765E+001
 20
2.7829144E+002
 40
2.5
  1
H
 11
7.0162765E+001
 21
2.7579144E+002
 73
3
  0
TEXT
  8
2
  6
CONTINUOUS
 62
7
 10
2.2581586E+001
 20
2.7829144E+002
 40
2.5
  1
I
 11
2.2581586E+001
 21
2.7579144E+002
 73
3
  0
TEXT
  8
2
  6
CONTINUOUS
 62
7
 10
1.1758442E+002
 20
2.7829144E+002
 40
2.5
  1
G
 11
1.1758442E+002
 21
2.7579144E+002
 73
3
  0
TEXT
  8
2
  6
CONTINUOUS
 62
7
 10
1.6500049E+002
 20
2.7575E+002
 40
2.5
  1
F
 72
1
 11
1.6375049E+002
 21
2.745E+002
 73
2
  0
TEXT
  8
2
  6
CONTINUOUS
 62
7
 10
3.8679278E+002
 20
2.4625255E+002
 40
2.5
  1
4
 11
3.8679278E+002
 21
2.4375255E+002
 73
3
  0
LINE
  8
2
  6
CONTINUOUS
 62
7
 10
0.0
 20
2.77E+002
 11
0.0
 21
0.0
  0
LINE
  8
2
  6
CONTINUOUS
 62
7
 10
3.9049515E+002
 20
2.77E+002
 11
0.0
 21
2.77E+002
  0
LINE
  8
2
  6
CONTINUOUS
 62
7
 10
3.7273041E+002
 20
1.3E+001
 11
3.7273041E+002
 21
2.0010803E+001
  0
LINE
  8
2
  6
CONTINUOUS
 62
7
 10
3.6006041E+002
 20
1.3E+001
 11
3.6006041E+002
 21
2.0010803E+001
  0
POLYLINE
  8
1
  6
CONTINUOUS
 62
7
 66
1
 40
5.0E-001
 41
5.0E-001
 70
0
  0
VERTEX
  8
1
 42
0.0
 10
3.9049644E+002
 20
1.0E+001
 70
0
  0
VERTEX
  8
1
 42
0.0
 10
3.8549644E+002
 20
1.0E+001
 70
0
  0
SEQEND
  0
TEXT
  8
2
  6
CONTINUOUS
 62
7
 10
2.2483169E+002
 20
2.2875E+001
 40
1.75
  1
IND
 41
7.0E-001
 72
1
 11
2.2299419E+002
 21
2.2E+001
 73
2
  0
TEXT
  8
2
  6
CONTINUOUS
 62
7
 10
2.2644467E+002
 20
3.1E+001
 40
2.0
  1
Modifications
 41
6.5E-001
 50
9.0E+001
 72
1
 11
2.1799467E+002
 21
3.0E+001
 73
2
  0
LINE
  8
2
  6
CONTINUOUS
 62
7
 10
3.6449644E+002
 20
2.0010803E+001
 11
3.6449644E+002
 21
2.8E+001
  0
LINE
  8
2
  6
CONTINUOUS
 62
7
 10
3.8549644E+002
 20
2.0010803E+001
 11
3.4749644E+002
 21
2.0010803E+001
  0
LINE
  8
2
  6
CONTINUOUS
 62
7
 10
3.4749644E+002
 20
2.4E+001
 11
3.8549644E+002
 21
2.4E+001
  0
LINE
  8
2
  6
CONTINUOUS
 62
7
 10
3.4749644E+002
 20
1.3E+001
 11
3.4749644E+002
 21
4.0E+001
  0
POLYLINE
  8
1
  6
CONTINUOUS
 62
7
 66
1
 40
5.0E-001
 41
5.0E-001
 70
0
  0
VERTEX
  8
1
 42
0.0
 10
3.2749644E+002
 20
1.3E+001
 70
0
  0
VERTEX
  8
1
 42
0.0
 10
3.8549644E+002
 20
1.3E+001
 70
0
  0
SEQEND
  0
LINE
  8
2
  6
CONTINUOUS
 62
7
 10
2.4549515E+002
 20
1.6000915E+001
 11
3.2749644E+002
 21
1.6000915E+001
  0
LINE
  8
2
  6
CONTINUOUS
 62
7
 10
2.2549419E+002
 20
4.0E+001
 11
2.2549419E+002
 21
2.0E+001
  0
LINE
  8
2
  6
CONTINUOUS
 62
7
 10
2.2049419E+002
 20
4.0E+001
 11
2.2049419E+002
 21
2.0E+001
  0
LINE
  8
2
  6
CONTINUOUS
 62
7
 10
2.8749644E+002
 20
4.0E+001
 11
2.8749644E+002
 21
2.0E+001
  0
LINE
  8
2
  6
CONTINUOUS
 62
7
 10
3.8549644E+002
 20
3.2E+001
 11
2.2049419E+002
 21
3.2E+001
  0
LINE
  8
2
  6
CONTINUOUS
 62
7
 10
3.8549644E+002
 20
3.6E+001
 11
2.2049419E+002
 21
3.6E+001
  0
LINE
  8
2
  6
CONTINUOUS
 62
7
 10
2.2049419E+002
 20
2.8E+001
 11
3.8549644E+002
 21
2.8E+001
  0
LINE
  8
2
  6
CONTINUOUS
 62
7
 10
3.2749644E+002
 20
2.4E+001
 11
2.2049419E+002
 21
2.4E+001
  0
POLYLINE
  8
1
  6
CONTINUOUS
 62
7
 66
1
 40
5.0E-001
 41
5.0E-001
 70
0
  0
VERTEX
  8
1
 42
0.0
 10
3.2749644E+002
 20
5.0
 70
0
  0
VERTEX
  8
1
 42
0.0
 10
3.2749644E+002
 20
4.0E+001
 70
0
  0
SEQEND
  0
LINE
  8
2
  6
CONTINUOUS
 62
7
 10
3.2749644E+002
 20
2.0E+001
 11
2.1549515E+002
 21
2.0E+001
  0
LINE
  8
2
  6
CONTINUOUS
 62
7
 10
2.4549515E+002
 20
5.0
 11
2.4549515E+002
 21
2.0E+001
  0
POLYLINE
  8
1
  6
CONTINUOUS
 62
7
 66
1
 40
5.0E-001
 41
5.0E-001
 70
0
  0
VERTEX
  8
1
 42
0.0
 10
3.8549644E+002
 20
4.0E+001
 70
0
  0
VERTEX
  8
1
 42
0.0
 10
2.1549515E+002
 20
4.0E+001
 70
0
  0
SEQEND
  0
CIRCLE
  8
2
  6
CONTINUOUS
 62
7
 10
-6.124541
 20
1.8151881E+002
 40
2.5
  0
INSERT
  2
SE0
  8
2
 10
-1.609108E+001
 20
-6.9948784
  0
CIRCLE
  8
2
  6
CONTINUOUS
 62
7
 10
-6.124541
 20
1.0151881E+002
 40
2.5
  0
INSERT
  2
SE1
  8
2
 10
-1.609108E+001
 20
-6.9948784
  0
CIRCLE
  8
2
  6
CONTINUOUS
 62
7
 10
-6.124541
 20
2.1518811E+001
 40
2.5
  0
INSERT
  2
SE2
  8
2
 10
-1.609108E+001
 20
-6.9948784
  0
CIRCLE
  8
2
  6
CONTINUOUS
 62
7
 10
-6.124541
 20
2.6151881E+002
 40
2.5
  0
INSERT
  2
SE3
  8
2
 10
-1.609108E+001
 20
-6.9948784
  0
LINE
  8
2
  6
CONTINUOUS
 62
7
 10
0.0
 20
0.0
 11
3.9049515E+002
 21
0.0
  0
LINE
  8
2
  6
CONTINUOUS
 62
7
 10
-8.9879611
 20
1.3551881E+002
 11
-2.8976631
 21
1.3551881E+002
  0
LINE
  8
2
  6
CONTINUOUS
 62
7
 10
1.0E+001
 20
2.72E+002
 11
1.0E+001
 21
5.0
  0
POLYLINE
  8
1
  6
CONTINUOUS
 62
7
 66
1
 40
5.0E-001
 41
5.0E-001
 70
0
  0
VERTEX
  8
1
 42
0.0
 10
1.0E+001
 20
2.72E+002
 70
0
  0
VERTEX
  8
1
 42
0.0
 10
3.8549644E+002
 20
2.72E+002
 70
0
  0
SEQEND
  0
TEXT
  8
2
  6
CONTINUOUS
 62
7
 10
1.25
 20
6.7
 40
1.4
  1
We reserve all rights in this document and in the
 41
7.5E-001
 50
9.0E+001
 11
1.25
 21
6.0
 73
2
  0
TEXT
  8
2
  6
CONTINUOUS
 62
7
 10
3.75
 20
6.7
 40
1.4
  1
information contained therein. Reproduction, use
 41
7.5E-001
 50
9.0E+001
 11
3.75
 21
6.0
 73
2
  0
TEXT
  8
2
  6
CONTINUOUS
 62
7
 10
6.25
 20
6.7
 40
1.4
  1
or disclosure to third parties without express
 41
7.5E-001
 50
9.0E+001
 11
6.25
 21
6.0
 73
2
  0
TEXT
  8
2
  6
CONTINUOUS
 62
7
 10
8.75
 20
6.7
 40
1.4
  1
autority is strictly forbidden
 41
7.5E-001
 50
9.0E+001
 11
8.75
 21
6.0
 73
2
  0
TEXT
  8
2
  6
CONTINUOUS
 62
7
 10
1.25
 20
6.0162564E+001
 40
1.4
  1
Ce document, propriété exclusive de notre
 41
7.5E-001
 50
9.0E+001
 11
1.25
 21
5.9462564E+001
 73
2
  0
TEXT
  8
2
  6
CONTINUOUS
 62
7
 10
3.75
 20
6.0162564E+001
 40
1.4
  1
société, est strictement confidentiel. Il ne peut
 41
7.5E-001
 50
9.0E+001
 11
3.75
 21
5.9462564E+001
 73
2
  0
TEXT
  8
2
  6
CONTINUOUS
 62
7
 10
6.25
 20
6.0162564E+001
 40
1.4
  1
être communiqué, copié ou reproduit sans son
 41
7.5E-001
 50
9.0E+001
 11
6.25
 21
5.9462564E+001
 73
2
  0
LINE
  8
2
  6
CONTINUOUS
 62
7
 10
1.0E+001
 20
5.0
 11
0.0
 21
5.0
  0
LINE
  8
2
  6
CONTINUOUS
 62
7
 10
3.0749644E+002
 20
2.0E+001
 11
3.0749644E+002
 21
4.0E+001
  0
LINE
  8
2
  6
CONTINUOUS
 62
7
 10
2.9749644E+002
 20
1.6000915E+001
 11
2.9749644E+002
 21
4.0E+001
  0
LINE
  8
2
  6
CONTINUOUS
 62
7
 10
3.1449644E+002
 20
2.0E+001
 11
3.1449644E+002
 21
4.0E+001
  0
TEXT
  8
1
  6
CONTINUOUS
 62
7
 10
2.2649419E+002
 20
2.2875E+001
 40
1.75
  1
DESCRIPTION
 41
7.0E-001
 11
2.2649419E+002
 21
2.2E+001
 73
2
  0
TEXT
  8
1
  6
CONTINUOUS
 62
7
 10
2.9494644E+002
 20
2.2875E+001
 40
1.75
  1
DATE
 41
7.0E-001
 72
1
 11
2.9249644E+002
 21
2.2E+001
 73
2
  0
TEXT
  8
1
  6
CONTINUOUS
 62
7
 10
3.0494644E+002
 20
2.2875E+001
 40
1.75
  1
N°OE
 41
7.0E-001
 72
1
 11
3.0249644E+002
 21
2.2E+001
 73
2
  0
TEXT
  8
1
  6
CONTINUOUS
 62
7
 10
3.1362144E+002
 20
2.2875E+001
 40
1.75
  1
Auteur
 41
5.0E-001
 72
1
 11
3.1099644E+002
 21
2.2E+001
 73
2
  0
TEXT
  8
1
  6
CONTINUOUS
 62
7
 10
3.2554644E+002
 20
2.2875E+001
 40
1.75
  1
Controlé
 41
6.5E-001
 72
1
 11
3.2099644E+002
 21
2.2E+001
 73
2
  0
TEXT
  8
1
  6
CONTINUOUS
 62
7
 10
3.2689644E+002
 20
1.9000457E+001
 40
2.0
  1
Service responsable: OEM
 41
6.0E-001
 72
1
 11
3.1249644E+002
 21
1.8000457E+001
 73
2
  0
TEXT
  8
1
  6
CONTINUOUS
 62
7
 10
2.4649515E+002
 20
1.9250457E+001
 40
2.5
  1
ABB Entrelec
 41
7.5E-001
 11
2.4649515E+002
 21
1.8000457E+001
 73
2
  0
TEXT
  8
1
  6
CONTINUOUS
 62
7
 10
2.4649515E+002
 20
1.4686428E+001
 40
1.5
  1
Titre
 11
2.4649515E+002
 21
1.3936428E+001
 73
2
  0
TEXT
  8
1
  6
CONTINUOUS
 62
7
 10
3.4143394E+002
 20
2.675E+001
 40
1.5
  1
ECHELLE
 41
7.5E-001
 72
1
 11
3.3749644E+002
 21
2.6E+001
 73
2
  0
TEXT
  8
2
  6
CONTINUOUS
 62
7
 10
3.8710271E+002
 20
3.8454406E+001
 40
2.5
  1
1
 41
6.65E-001
 11
3.8710271E+002
 21
3.5954406E+001
 73
3
  0
TEXT
  8
2
  6
CONTINUOUS
 62
7
 10
3.8676438E+002
 20
1.0780311E+002
 40
2.5
  1
2
 11
3.8676438E+002
 21
1.0530311E+002
 73
3
  0
TEXT
  8
2
  6
CONTINUOUS
 62
7
 10
3.8687801E+002
 20
1.7698651E+002
 40
2.5
  1
3
 11
3.8687801E+002
 21
1.7448651E+002
 73
3
  0
LINE
  8
2
  6
CONTINUOUS
 62
7
 10
3.8549644E+002
 20
6.925E+001
 11
3.9049515E+002
 21
6.925E+001
  0
LINE
  8
2
  6
CONTINUOUS
 62
7
 10
3.8549644E+002
 20
2.0775E+002
 11
3.9049515E+002
 21
2.0775E+002
  0
LINE
  8
2
  6
CONTINUOUS
 62
7
 10
3.9049515E+002
 20
1.385E+002
 11
3.8549644E+002
 21
1.385E+002
  0
POLYLINE
  8
1
  6
CONTINUOUS
 62
7
 66
1
 40
5.0E-001
 41
5.0E-001
 70
0
  0
VERTEX
  8
1
 42
0.0
 10
3.8549644E+002
 20
5.0
 70
0
  0
VERTEX
  8
1
 42
0.0
 10
3.8549644E+002
 20
2.72E+002
 70
0
  0
SEQEND
  0
LINE
  8
1
  6
CONTINUOUS
 62
7
 10
2.2205175E+002
 20
1.25E+001
 11
2.2405715E+002
 21
1.25E+001
  0
LINE
  8
1
  6
CONTINUOUS
 62
7
 10
2.2205175E+002
 20
1.25E+001
 11
2.2324315E+002
 21
1.5904E+001
  0
LINE
  8
1
  6
CONTINUOUS
 62
7
 10
2.2324315E+002
 20
1.5904E+001
 11
2.2405715E+002
 21
1.5904E+001
  0
LINE
  8
1
  6
CONTINUOUS
 62
7
 10
2.2405715E+002
 20
1.25E+001
 11
2.2405715E+002
 21
1.5904E+001
  0
LINE
  8
1
  6
CONTINUOUS
 62
7
 10
2.2464915E+002
 20
1.25E+001
 11
2.2665455E+002
 21
1.25E+001
  0
LINE
  8
1
  6
CONTINUOUS
 62
7
 10
2.2546315E+002
 20
1.5904E+001
 11
2.2665455E+002
 21
1.25E+001
  0
LINE
  8
1
  6
CONTINUOUS
 62
7
 10
2.2464915E+002
 20
1.5904E+001
 11
2.2546315E+002
 21
1.5904E+001
  0
LINE
  8
1
  6
CONTINUOUS
 62
7
 10
2.2464915E+002
 20
1.25E+001
 11
2.2464915E+002
 21
1.5904E+001
  0
LINE
  8
1
  6
CONTINUOUS
 62
7
 10
2.2405715E+002
 20
9.984
 11
2.2405715E+002
 21
1.1908E+001
  0
LINE
  8
1
  6
CONTINUOUS
 62
7
 10
2.2302115E+002
 20
9.984
 11
2.2405715E+002
 21
9.984
  0
LINE
  8
1
  6
CONTINUOUS
 62
7
 10
2.2250315E+002
 20
8.504
 11
2.2302115E+002
 21
9.984
  0
LINE
  8
1
  6
CONTINUOUS
 62
7
 10
2.2065315E+002
 20
8.504
 11
2.2250315E+002
 21
8.504
  0
LINE
  8
1
  6
CONTINUOUS
 62
7
 10
2.2065315E+002
 20
8.504
 11
2.2184455E+002
 21
1.1908E+001
  0
LINE
  8
1
  6
CONTINUOUS
 62
7
 10
2.2184455E+002
 20
1.1908E+001
 11
2.2405715E+002
 21
1.1908E+001
  0
LINE
  8
1
  6
CONTINUOUS
 62
7
 10
2.2464915E+002
 20
1.1908E+001
 11
2.2686175E+002
 21
1.1908E+001
  0
LINE
  8
1
  6
CONTINUOUS
 62
7
 10
2.2686175E+002
 20
1.1908E+001
 11
2.2805315E+002
 21
8.504
  0
LINE
  8
1
  6
CONTINUOUS
 62
7
 10
2.2620315E+002
 20
8.504
 11
2.2805315E+002
 21
8.504
  0
LINE
  8
1
  6
CONTINUOUS
 62
7
 10
2.2620315E+002
 20
8.504
 11
2.2568515E+002
 21
9.984
  0
LINE
  8
1
  6
CONTINUOUS
 62
7
 10
2.2464915E+002
 20
9.984
 11
2.2568515E+002
 21
9.984
  0
LINE
  8
1
  6
CONTINUOUS
 62
7
 10
2.2464915E+002
 20
9.984
 11
2.2464915E+002
 21
1.1908E+001
  0
LINE
  8
1
  6
CONTINUOUS
 62
7
 10
2.2857115E+002
 20
1.25E+001
 11
2.3049515E+002
 21
1.25E+001
  0
LINE
  8
1
  6
CONTINUOUS
 62
7
 10
2.2857115E+002
 20
1.5904E+001
 11
2.2857115E+002
 21
1.25E+001
  0
LINE
  8
1
  6
CONTINUOUS
 62
7
 10
2.2857115E+002
 20
1.5904E+001
 11
2.3049515E+002
 21
1.5904E+001
  0
LINE
  8
1
  6
CONTINUOUS
 62
7
 10
2.3049515E+002
 20
1.5904E+001
 11
2.3049515E+002
 21
1.25E+001
  0
LINE
  8
1
  6
CONTINUOUS
 62
7
 10
2.3108715E+002
 20
1.25E+001
 11
2.3286315E+002
 21
1.25E+001
  0
ARC
  8
1
  6
CONTINUOUS
 62
7
 10
2.3153115E+002
 20
1.0724E+001
 40
2.22
 50
5.3130102E+001
 51
6.8407484E+001
  0
ARC
  8
1
  6
CONTINUOUS
 62
7
 10
2.3153115E+002
 20
1.4239E+001
 40
1.665
 50
2.9938468E+002
 51
4.5E+002
  0
LINE
  8
1
  6
CONTINUOUS
 62
7
 10
2.3108715E+002
 20
1.5904E+001
 11
2.3153115E+002
 21
1.5904E+001
  0
LINE
  8
1
  6
CONTINUOUS
 62
7
 10
2.3108715E+002
 20
1.5904E+001
 11
2.3108715E+002
 21
1.25E+001
  0
LINE
  8
1
  6
CONTINUOUS
 62
7
 10
2.3049515E+002
 20
1.1908E+001
 11
2.3049515E+002
 21
8.504
  0
LINE
  8
1
  6
CONTINUOUS
 62
7
 10
2.2857115E+002
 20
8.504
 11
2.3049515E+002
 21
8.504
  0
LINE
  8
1
  6
CONTINUOUS
 62
7
 10
2.2857115E+002
 20
1.1908E+001
 11
2.2857115E+002
 21
8.504
  0
LINE
  8
1
  6
CONTINUOUS
 62
7
 10
2.2857115E+002
 20
1.1908E+001
 11
2.3049515E+002
 21
1.1908E+001
  0
LINE
  8
1
  6
CONTINUOUS
 62
7
 10
2.3108715E+002
 20
1.1908E+001
 11
2.3340906E+002
 21
1.1908E+001
  0
ARC
  8
1
  6
CONTINUOUS
 62
7
 10
2.3153115E+002
 20
1.0724E+001
 40
2.22
 50
2.7E+002
 51
3.9223095E+002
  0
LINE
  8
1
  6
CONTINUOUS
 62
7
 10
2.3108715E+002
 20
8.504
 11
2.3153115E+002
 21
8.504
  0
LINE
  8
1
  6
CONTINUOUS
 62
7
 10
2.3108715E+002
 20
1.1908E+001
 11
2.3108715E+002
 21
8.504
  0
LINE
  8
1
  6
CONTINUOUS
 62
7
 10
2.3434315E+002
 20
1.25E+001
 11
2.3626715E+002
 21
1.25E+001
  0
LINE
  8
1
  6
CONTINUOUS
 62
7
 10
2.3434315E+002
 20
1.5904E+001
 11
2.3434315E+002
 21
1.25E+001
  0
LINE
  8
1
  6
CONTINUOUS
 62
7
 10
2.3434315E+002
 20
1.5904E+001
 11
2.3626715E+002
 21
1.5904E+001
  0
LINE
  8
1
  6
CONTINUOUS
 62
7
 10
2.3626715E+002
 20
1.5904E+001
 11
2.3626715E+002
 21
1.25E+001
  0
LINE
  8
1
  6
CONTINUOUS
 62
7
 10
2.3685915E+002
 20
1.5904E+001
 11
2.3685915E+002
 21
1.25E+001
  0
LINE
  8
1
  6
CONTINUOUS
 62
7
 10
2.3685915E+002
 20
1.5904E+001
 11
2.3730315E+002
 21
1.5904E+001
  0
ARC
  8
1
  6
CONTINUOUS
 62
7
 10
2.3730315E+002
 20
1.4239E+001
 40
1.665
 50
2.9938468E+002
 51
4.5E+002
  0
ARC
  8
1
  6
CONTINUOUS
 62
7
 10
2.3730315E+002
 20
1.0724E+001
 40
2.22
 50
5.3130102E+001
 51
6.8407484E+001
  0
LINE
  8
1
  6
CONTINUOUS
 62
7
 10
2.3685915E+002
 20
1.25E+001
 11
2.3863515E+002
 21
1.25E+001
  0
LINE
  8
1
  6
CONTINUOUS
 62
7
 10
2.3626715E+002
 20
1.1908E+001
 11
2.3626715E+002
 21
8.504
  0
LINE
  8
1
  6
CONTINUOUS
 62
7
 10
2.3434315E+002
 20
8.504
 11
2.3626715E+002
 21
8.504
  0
LINE
  8
1
  6
CONTINUOUS
 62
7
 10
2.3434315E+002
 20
1.1908E+001
 11
2.3434315E+002
 21
8.504
  0
LINE
  8
1
  6
CONTINUOUS
 62
7
 10
2.3434315E+002
 20
1.1908E+001
 11
2.3626715E+002
 21
1.1908E+001
  0
LINE
  8
1
  6
CONTINUOUS
 62
7
 10
2.3685915E+002
 20
1.1908E+001
 11
2.3918106E+002
 21
1.1908E+001
  0
ARC
  8
1
  6
CONTINUOUS
 62
7
 10
2.3730315E+002
 20
1.0724E+001
 40
2.22
 50
2.7E+002
 51
3.9223095E+002
  0
LINE
  8
1
  6
CONTINUOUS
 62
7
 10
2.3685915E+002
 20
8.504
 11
2.3730315E+002
 21
8.504
  0
LINE
  8
1
  6
CONTINUOUS
 62
7
 10
2.3685915E+002
 20
1.1908E+001
 11
2.3685915E+002
 21
8.504
  0
LINE
  8
1
  6
CONTINUOUS
 62
7
 10
1.0E+001
 20
5.8462564E+001
 11
0.0
 21
5.8462564E+001
  0
LINE
  8
1
  6
CONTINUOUS
 62
7
 10
0.0
 20
1.1192513E+002
 11
1.0E+001
 21
1.1192513E+002
  0
ATTDEF
  8
1
  6
CONTINUOUS
 62
5
 10
2.2649419E+002
 20
2.6875E+001
 40
1.75
  1
 
 41
7.5E-001
 11
2.2649419E+002
 21
2.6E+001
  3
DESC-1
  2
DESC-1
 70
0
 73
2
 74
2
  0
ATTDEF
  8
1
  6
CONTINUOUS
 62
5
 10
2.2649419E+002
 20
3.0875E+001
 40
1.75
  1
 
 41
7.5E-001
 11
2.2649419E+002
 21
3.0E+001
  3
DESC-2
  2
DESC-2
 70
0
 73
2
 74
2
  0
ATTDEF
  8
1
  6
CONTINUOUS
 62
5
 10
2.2649419E+002
 20
3.4875E+001
 40
1.75
  1
 
 41
7.5E-001
 11
2.2649419E+002
 21
3.4E+001
  3
DESC-3
  2
DESC-3
 70
0
 73
2
 74
2
  0
ATTDEF
  8
1
  6
CONTINUOUS
 62
5
 10
2.2649419E+002
 20
3.8875E+001
 40
1.75
  1
 
 41
7.5E-001
 11
2.2649419E+002
 21
3.8E+001
  3
DESC-4
  2
DESC-4
 70
0
 73
2
 74
2
  0
ATTDEF
  8
1
  6
CONTINUOUS
 62
5
 10
2.9519644E+002
 20
2.69E+001
 40
1.8
  1
01.01.04
 41
6.0E-001
 72
1
 11
2.9249644E+002
 21
2.6E+001
  3
DATE1
  2
DATE1
 70
0
 73
2
 74
2
  0
ATTDEF
  8
1
  6
CONTINUOUS
 62
5
 10
2.9519644E+002
 20
3.09E+001
 40
1.8
  1
 
 41
6.0E-001
 72
1
 11
2.9249644E+002
 21
3.0E+001
  3
DATE2
  2
DATE2
 70
0
 73
2
 74
2
  0
ATTDEF
  8
1
  6
CONTINUOUS
 62
5
 10
2.9519644E+002
 20
3.49E+001
 40
1.8
  1
 
 41
6.0E-001
 72
1
 11
2.9249644E+002
 21
3.4E+001
  3
DATE3
  2
DATE3
 70
0
 73
2
 74
2
  0
ATTDEF
  8
1
  6
CONTINUOUS
 62
5
 10
2.9519644E+002
 20
3.89E+001
 40
1.8
  1
 
 41
6.0E-001
 72
1
 11
2.9249644E+002
 21
3.8E+001
  3
DATE4
  2
DATE4
 70
0
 73
2
 74
2
  0
ATTDEF
  8
1
  6
CONTINUOUS
 62
5
 10
3.0452144E+002
 20
2.69E+001
 40
1.8
  1
12345
 41
7.5E-001
 72
1
 11
3.0249644E+002
 21
2.6E+001
  3
OE1
  2
OE1
 70
0
 73
2
 74
2
  0
ATTDEF
  8
1
  6
CONTINUOUS
 62
5
 10
3.0452144E+002
 20
3.09E+001
 40
1.8
  1
 
 41
7.5E-001
 72
1
 11
3.0249644E+002
 21
3.0E+001
  3
OE2
  2
OE2
 70
0
 73
2
 74
2
  0
ATTDEF
  8
1
  6
CONTINUOUS
 62
5
 10
3.0452144E+002
 20
3.49E+001
 40
1.8
  1
 
 41
7.5E-001
 72
1
 11
3.0249644E+002
 21
3.4E+001
  3
OE3
  2
OE3
 70
0
 73
2
 74
2
  0
ATTDEF
  8
1
  6
CONTINUOUS
 62
5
 10
3.0452144E+002
 20
3.89E+001
 40
1.8
  1
 
 41
7.5E-001
 72
1
 11
3.0249644E+002
 21
3.8E+001
  3
OE4
  2
OE4
 70
0
 73
2
 74
2
  0
ATTDEF
  8
1
  6
CONTINUOUS
 62
5
 10
3.1369644E+002
 20
2.69E+001
 40
1.8
  1
 
 41
7.5E-001
 72
1
 11
3.1099644E+002
 21
2.6E+001
  3
AUT1
  2
AUT1
 70
0
 73
2
 74
2
  0
ATTDEF
  8
1
  6
CONTINUOUS
 62
5
 10
3.1369644E+002
 20
3.09E+001
 40
1.8
  1
 
 41
7.5E-001
 72
1
 11
3.1099644E+002
 21
3.0E+001
  3
AUT2
  2
AUT2
 70
0
 73
2
 74
2
  0
ATTDEF
  8
1
  6
CONTINUOUS
 62
5
 10
3.1369644E+002
 20
3.49E+001
 40
1.8
  1
 
 41
7.5E-001
 72
1
 11
3.1099644E+002
 21
3.4E+001
  3
AUT3
  2
AUT3
 70
0
 73
2
 74
2
  0
ATTDEF
  8
1
  6
CONTINUOUS
 62
5
 10
3.1369644E+002
 20
3.89E+001
 40
1.8
  1
 
 41
7.5E-001
 72
1
 11
3.1099644E+002
 21
3.8E+001
  3
AUT4
  2
AUT4
 70
0
 73
2
 74
2
  0
ATTDEF
  8
1
  6
CONTINUOUS
 62
5
 10
3.1540529E+002
 20
2.69E+001
 40
1.8
  1
 
 41
7.5E-001
 11
3.1540529E+002
 21
2.6E+001
  3
CONT1
  2
CONT1
 70
0
 73
2
 74
2
  0
ATTDEF
  8
1
  6
CONTINUOUS
 62
5
 10
3.1540529E+002
 20
3.09E+001
 40
1.8
  1
 
 41
7.5E-001
 11
3.1540529E+002
 21
3.0E+001
  3
CONT2
  2
CONT2
 70
0
 73
2
 74
2
  0
ATTDEF
  8
1
  6
CONTINUOUS
 62
5
 10
3.1540529E+002
 20
3.49E+001
 40
1.8
  1
 
 41
7.5E-001
 11
3.1540529E+002
 21
3.4E+001
  3
CONT3
  2
CONT3
 70
0
 73
2
 74
2
  0
ATTDEF
  8
1
  6
CONTINUOUS
 62
5
 10
3.1540529E+002
 20
3.89E+001
 40
1.8
  1
 
 41
7.5E-001
 11
3.1540529E+002
 21
3.8E+001
  3
CONT4
  2
CONT4
 70
0
 73
2
 74
2
  0
LINE
  8
2
  6
CONTINUOUS
 62
7
 10
2.2749903E+002
 20
2.72E+002
 11
2.2749903E+002
 21
2.77E+002
  0
LINE
  8
1
  6
CONTINUOUS
 62
7
 10
1.85E+002
 20
2.77E+002
 11
1.85E+002
 21
2.72E+002
  0
LINE
  8
1
  6
CONTINUOUS
 62
7
 10
2.6999806E+002
 20
2.77E+002
 11
2.6999806E+002
 21
2.72E+002
  0
LINE
  8
1
  6
CONTINUOUS
 62
7
 10
3.5499612E+002
 20
2.77E+002
 11
3.5499612E+002
 21
2.72E+002
  0
LINE
  8
2
  6
CONTINUOUS
 62
7
 10
3.1249709E+002
 20
2.72E+002
 11
3.1249709E+002
 21
2.77E+002
  0
LINE
  8
2
  6
CONTINUOUS
 62
7
 10
3.9049515E+002
 20
0.0
 11
3.9049515E+002
 21
2.77E+002
  0
POLYLINE
  8
1
  6
CONTINUOUS
 62
7
 66
1
 40
5.0E-001
 41
5.0E-001
 70
0
  0
VERTEX
  8
1
 42
0.0
 10
2.1549515E+002
 20
4.0E+001
 70
0
  0
VERTEX
  8
1
 42
0.0
 10
2.1549515E+002
 20
5.0
 70
0
  0
SEQEND
  0
TEXT
  8
2
  6
CONTINUOUS
 62
7
 10
2.0983526E+002
 20
2.760248E+002
 40
2.5
  1
E
 72
1
 11
2.0858526E+002
 21
2.747748E+002
 73
2
  0
TEXT
  8
2
  6
CONTINUOUS
 62
7
 10
2.4999854E+002
 20
2.7575E+002
 40
2.5
  1
D
 72
1
 11
2.4874854E+002
 21
2.745E+002
 73
2
  0
TEXT
  8
2
  6
CONTINUOUS
 62
7
 10
2.9249757E+002
 20
2.7575E+002
 40
2.5
  1
C
 72
1
 11
2.9124757E+002
 21
2.745E+002
 73
2
  0
TEXT
  8
2
  6
CONTINUOUS
 62
7
 10
3.349966E+002
 20
2.7575E+002
 40
2.5
  1
B
 72
1
 11
3.337466E+002
 21
2.745E+002
 73
2
  0
TEXT
  8
2
  6
CONTINUOUS
 62
7
 10
3.7749563E+002
 20
2.7575E+002
 40
2.5
  1
A
 72
1
 11
3.7624563E+002
 21
2.745E+002
 73
2
  0
POINT
  8
Drafting_Hidden_Entities
  6
CONTINUOUS
 62
1
 10
0.0
 20
0.0
  0
ENDBLK
  0
BLOCK
  2
*TX475
  3
*TX
 10
0.0
 20
0.0
 70
65
  0
TEXT
  8
1
  6
CONTINUOUS
 62
7
 10
0.0
 20
0.0
 40
3.0
  1
Mounting Main-Delta-Star
 41
7.5E-001
 51
1.5E+001
  0
TEXT
  8
1
  6
CONTINUOUS
 62
7
 10
0.0
 20
-4.5
 40
3.0
  1
Protection by Thermal Overload Relay
 41
7.5E-001
 51
1.5E+001
  0
ENDBLK
  0
BLOCK
  2
*TX476
  3
*TX
 10
0.0
 20
0.0
 70
65
  0
TEXT
  8
1
  6
CONTINUOUS
 62
7
 10
0.0
 20
0.0
 40
2.0
  1
Us
 41
7.5E-001
  0
TEXT
  8
1
  6
CONTINUOUS
 62
7
 10
0.0
 20
-3.0
 40
2.0
  1
N
 41
7.5E-001
  0
TEXT
  8
1
  6
CONTINUOUS
 62
7
 10
0.0
 20
-6.0
 40
2.0
  1
KM3:3/L2
 41
7.5E-001
  0
ENDBLK
  0
BLOCK
  2
*TX477
  3
*TX
 10
0.0
 20
0.0
 70
65
  0
TEXT
  8
1
  6
CONTINUOUS
 62
7
 10
0.0
 20
0.0
 40
2.25
  1
Local control
 41
7.5E-001
  0
TEXT
  8
1
  6
CONTINUOUS
 62
7
 10
0.0
 20
-3.375
 40
2.25
  1
betätigung innerhalb
 41
7.5E-001
  0
TEXT
  8
1
  6
CONTINUOUS
 62
7
 10
0.0
 20
-6.75
 40
2.25
  1
Commande locale
 41
7.5E-001
  0
ENDBLK
  0
BLOCK
  2
*TX478
  3
*TX
 10
0.0
 20
0.0
 70
65
  0
TEXT
  8
1
  6
CONTINUOUS
 62
7
 10
0.0
 20
0.0
 40
2.0
  1
KM3:5/L3
 41
7.5E-001
  0
TEXT
  8
1
  6
CONTINUOUS
 62
7
 10
0.0
 20
-3.0
 40
2.0
  1
Us
 41
7.5E-001
  0
ENDBLK
  0
BLOCK
  2
*TX479
  3
*TX
 10
0.0
 20
0.0
 70
65
  0
TEXT
  8
1
  6
CONTINUOUS
 62
7
 10
0.0
 20
0.0
 40
2.0
  1
Us
 41
7.5E-001
  0
TEXT
  8
1
  6
CONTINUOUS
 62
7
 10
0.0
 20
-3.0
 40
2.0
  1
N
 41
7.5E-001
  0
TEXT
  8
1
  6
CONTINUOUS
 62
7
 10
0.0
 20
-6.0
 40
2.0
  1
KM3:3/L2
 41
7.5E-001
  0
ENDBLK
  0
BLOCK
  2
*TX480
  3
*TX
 10
0.0
 20
0.0
 70
65
  0
TEXT
  8
1
  6
CONTINUOUS
 62
1
 10
0.0
 20
0.0
 40
2.0
  1
KM3:5/L3
 41
7.5E-001
  0
TEXT
  8
1
  6
CONTINUOUS
 62
1
 10
0.0
 20
-3.0
 40
2.0
  1
Us
 41
7.5E-001
  0
ENDBLK
  0
BLOCK
  2
*TX481
  3
*TX
 10
0.0
 20
0.0
 70
65
  0
TEXT
  8
1
  6
CONTINUOUS
 62
1
 10
0.0
 20
0.0
 40
2.0
  1
Us
 41
7.5E-001
  0
TEXT
  8
1
  6
CONTINUOUS
 62
1
 10
0.0
 20
-3.0
 40
2.0
  1
N
 41
7.5E-001
  0
TEXT
  8
1
  6
CONTINUOUS
 62
1
 10
0.0
 20
-6.0
 40
2.0
  1
KM3:3/L2
 41
7.5E-001
  0
ENDBLK
  0
BLOCK
  2
*TX482
  3
*TX
 10
0.0
 20
0.0
 70
65
  0
TEXT
  8
1
  6
CONTINUOUS
 62
1
 10
0.0
 20
0.0
 40
2.25
  1
Remote control
 41
7.5E-001
  0
TEXT
  8
1
  6
CONTINUOUS
 62
1
 10
0.0
 20
-3.375
 40
2.25
  1
Fernbetätigung
 41
7.5E-001
  0
TEXT
  8
1
  6
CONTINUOUS
 62
1
 10
0.0
 20
-6.75
 40
2.25
  1
Commande à distance
 41
7.5E-001
  0
ENDBLK
  0
BLOCK
  2
*TX483
  3
*TX
 10
0.0
 20
0.0
 70
65
  0
TEXT
  8
1
  6
CONTINUOUS
 62
1
 10
0.0
 20
0.0
 40
2.0
  1
A9/12/16
 41
7.5E-001
 50
9.0E+001
  0
TEXT
  8
1
  6
CONTINUOUS
 62
1
 10
3.0
 20
0.0
 40
2.0
  1
A26
 41
7.5E-001
 50
9.0E+001
  0
ENDBLK
  0
BLOCK
  2
*TX484
  3
*TX
 10
0.0
 20
0.0
 70
65
  0
TEXT
  8
1
  6
CONTINUOUS
 62
1
 10
0.0
 20
0.0
 40
2.0
  1
Us
 41
7.5E-001
  0
TEXT
  8
1
  6
CONTINUOUS
 62
1
 10
0.0
 20
-3.0
 40
2.0
  1
N
 41
7.5E-001
  0
TEXT
  8
1
  6
CONTINUOUS
 62
1
 10
0.0
 20
-6.0
 40
2.0
  1
KM3:3/L2
 41
7.5E-001
  0
ENDBLK
  0
BLOCK
  2
*TX485
  3
*TX
 10
0.0
 20
0.0
 70
65
  0
TEXT
  8
1
  6
CONTINUOUS
 62
1
 10
0.0
 20
0.0
 40
2.0
  1
KM3:5/L3
 41
7.5E-001
  0
TEXT
  8
1
  6
CONTINUOUS
 62
1
 10
0.0
 20
-3.0
 40
2.0
  1
Us
 41
7.5E-001
  0
ENDBLK
  0
BLOCK
  2
*TX486
  3
*TX
 10
0.0
 20
0.0
 70
65
  0
TEXT
  8
1
  6
CONTINUOUS
 62
1
 10
0.0
 20
0.0
 40
2.25
  1
Local control
 41
7.5E-001
  0
TEXT
  8
1
  6
CONTINUOUS
 62
1
 10
0.0
 20
-3.375
 40
2.25
  1
betätigung innerhalb
 41
7.5E-001
  0
TEXT
  8
1
  6
CONTINUOUS
 62
1
 10
0.0
 20
-6.75
 40
2.25
  1
Commande locale
 41
7.5E-001
  0
ENDBLK
  0
BLOCK
  2
*TX487
  3
*TX
 10
0.0
 20
0.0
 70
65
  0
TEXT
  8
1
  6
CONTINUOUS
 62
7
 10
0.0
 20
0.0
 40
2.25
  1
Magnetic coil for remot reset
 41
7.5E-001
  0
TEXT
  8
1
  6
CONTINUOUS
 62
7
 10
0.0
 20
-3.375
 40
2.25
  1
Fernrückstellspule
 41
7.5E-001
  0
TEXT
  8
1
  6
CONTINUOUS
 62
7
 10
0.0
 20
-6.75
 40
2.25
  1
Bobine pour réarmement à distance
 41
7.5E-001
  0
ENDBLK
  0
BLOCK
  2
*TX488
  3
*TX
 10
0.0
 20
0.0
 70
65
  0
TEXT
  8
1
  6
CONTINUOUS
 62
7
 10
0.0
 20
0.0
 40
2.25
  1
Magnetic coil for remote tripping
 41
7.5E-001
  0
TEXT
  8
1
  6
CONTINUOUS
 62
7
 10
0.0
 20
-3.375
 40
2.25
  1
Fernauslösespule
 41
7.5E-001
  0
TEXT
  8
1
  6
CONTINUOUS
 62
7
 10
0.0
 20
-6.75
 40
2.25
  1
Bobine pour déclenchement à distance
 41
7.5E-001
  0
ENDBLK
  0
BLOCK
  2
*TX489
  3
*TX
 10
0.0
 20
0.0
 70
65
  0
TEXT
  8
1
  6
CONTINUOUS
 62
7
 10
0.0
 20
0.0
 40
2.25
  1
Under voltage
 41
7.5E-001
  0
TEXT
  8
1
  6
CONTINUOUS
 62
7
 10
0.0
 20
-3.375
 40
2.25
  1
Unter Spannung
 41
7.5E-001
  0
TEXT
  8
1
  6
CONTINUOUS
 62
7
 10
0.0
 20
-6.75
 40
2.25
  1
Mise sous tension
 41
7.5E-001
  0
ENDBLK
  0
BLOCK
  2
*TX490
  3
*TX
 10
0.0
 20
0.0
 70
65
  0
TEXT
  8
1
  6
CONTINUOUS
 62
7
 10
0.0
 20
0.0
 40
2.25
  1
Tripping of relay
 41
7.5E-001
  0
TEXT
  8
1
  6
CONTINUOUS
 62
7
 10
0.0
 20
-3.375
 40
2.25
  1
Relais ausgelöst
 41
7.5E-001
  0
TEXT
  8
1
  6
CONTINUOUS
 62
7
 10
0.0
 20
-6.75
 40
2.25
  1
Déclenchement relais
 41
7.5E-001
  0
ENDBLK
  0
BLOCK
  2
*TX491
  3
*TX
 10
0.0
 20
0.0
 70
65
  0
TEXT
  8
1
  6
CONTINUOUS
 62
7
 10
0.0
 20
0.0
 40
2.25
  1
Only for starters A9...30
 41
7.5E-001
  0
TEXT
  8
1
  6
CONTINUOUS
 62
7
 10
0.0
 20
-3.375
 40
2.25
  1
Nur für A9...30 Starters
 41
7.5E-001
  0
TEXT
  8
1
  6
CONTINUOUS
 62
7
 10
0.0
 20
-6.75
 40
2.25
  1
Uniquement pour démarreurs A9...30
 41
7.5E-001
  0
ENDBLK
  0
BLOCK
  2
*TX492
  3
*TX
 10
0.0
 20
0.0
 70
65
  0
TEXT
  8
1
  6
CONTINUOUS
 62
7
 10
0.0
 20
0.0
 40
2.0
  1
KM3:5/L3
 41
7.5E-001
  0
TEXT
  8
1
  6
CONTINUOUS
 62
7
 10
0.0
 20
-3.0
 40
2.0
  1
Us
 41
7.5E-001
  0
ENDBLK
  0
BLOCK
  2
*TX493
  3
*TX
 10
0.0
 20
0.0
 70
65
  0
TEXT
  8
1
  6
CONTINUOUS
 62
7
 10
0.0
 20
0.0
 40
2.0
  1
KM3:5/L3
 41
7.5E-001
  0
TEXT
  8
1
  6
CONTINUOUS
 62
7
 10
0.0
 20
-3.0
 40
2.0
  1
Us
 41
7.5E-001
  0
ENDBLK
  0
BLOCK
  2
*TX494
  3
*TX
 10
0.0
 20
0.0
 70
65
  0
TEXT
  8
1
  6
CONTINUOUS
 62
7
 10
0.0
 20
0.0
 40
2.25
  1
Remote control
 41
7.5E-001
  0
TEXT
  8
1
  6
CONTINUOUS
 62
7
 10
0.0
 20
-3.375
 40
2.25
  1
Fernbetätigung
 41
7.5E-001
  0
TEXT
  8
1
  6
CONTINUOUS
 62
7
 10
0.0
 20
-6.75
 40
2.25
  1
Commande à distance
 41
7.5E-001
  0
ENDBLK
  0
BLOCK
  2
_AH1
 70
0
 10
0.0
 20
0.0
  3
_AH1
  0
LINE
  8
0
  6
CONTINUOUS
 62
0
 10
-1.0
 20
1.66667E-001
 11
0.0
 21
0.0
  0
LINE
  8
0
  6
CONTINUOUS
 62
0
 10
0.0
 20
0.0
 11
-1.0
 21
-1.66667E-001
  0
LINE
  8
0
  6
CONTINUOUS
 62
0
 10
-1.0
 20
1.66667E-001
 11
-1.0
 21
-1.66667E-001
  0
LINE
  8
0
  6
CONTINUOUS
 62
0
 10
0.0
 20
0.0
 11
-1.0
 21
0.0
  0
ENDBLK
  0
BLOCK
  2
_AH2
 70
0
 10
0.0
 20
0.0
  3
_AH2
  0
LINE
  8
0
  6
CONTINUOUS
 62
0
 10
-1.0
 20
1.66667E-001
 11
0.0
 21
0.0
  0
LINE
  8
0
  6
CONTINUOUS
 62
0
 10
0.0
 20
0.0
 11
-1.0
 21
-1.66667E-001
  0
LINE
  8
0
  6
CONTINUOUS
 62
0
 10
0.0
 20
0.0
 11
-1.0
 21
0.0
  0
ENDBLK
  0
BLOCK
  2
*D987
  3
*D
 10
0.0
 20
0.0
 70
65
  0
LINE
  8
1
  6
CONTINUOUS
 62
1
 10
-6.9813441E+001
 20
1.7496977E+002
 11
-6.9813441E+001
 21
1.9015876E+002
  0
LINE
  8
1
  6
CONTINUOUS
 62
1
 10
-1.1181344E+002
 20
1.7496977E+002
 11
-1.1181344E+002
 21
1.9015876E+002
  0
LINE
  8
1
  6
CONTINUOUS
 62
1
 10
-6.9813441E+001
 20
1.8915886E+002
 11
-9.0813441E+001
 21
1.8915886E+002
  0
LINE
  8
1
  6
CONTINUOUS
 62
1
 10
-1.1181344E+002
 20
1.8915886E+002
 11
-9.0813441E+001
 21
1.8915886E+002
  0
INSERT
  2
_AH1
  8
1
 62
1
 10
-6.9813441E+001
 20
1.8915886E+002
 41
3.5001001
 42
3.5001001
 43
3.5001001
 50
0.0
  0
INSERT
  2
_AH1
  8
1
 62
1
 10
-1.1181344E+002
 20
1.8915886E+002
 41
3.5001001
 42
3.5001001
 43
3.5001001
 50
1.8E+002
  0
TEXT
  8
1
  6
CONTINUOUS
 62
1
 10
-9.6438216E+001
 20
1.9015976E+002
 40
2.4999
  1
( 
 41
7.5E-001
 50
3.6E+002
  0
INSERT
  2
_AH1
  8
1
 62
1
 10
-6.9813441E+001
 20
1.8915886E+002
 41
3.5001001
 42
3.5001001
 43
3.5001001
 50
0.0
  0
INSERT
  2
_AH1
  8
1
 62
1
 10
-1.1181344E+002
 20
1.8915886E+002
 41
3.5001001
 42
3.5001001
 43
3.5001001
 50
1.8E+002
  0
TEXT
  8
1
  6
CONTINUOUS
 62
1
 10
-9.2688366E+001
 20
1.9015976E+002
 40
2.4999
  1
42
 41
7.5E-001
 50
3.6E+002
  0
INSERT
  2
_AH1
  8
1
 62
1
 10
-6.9813441E+001
 20
1.8915886E+002
 41
3.5001001
 42
3.5001001
 43
3.5001001
 50
0.0
  0
INSERT
  2
_AH1
  8
1
 62
1
 10
-1.1181344E+002
 20
1.8915886E+002
 41
3.5001001
 42
3.5001001
 43
3.5001001
 50
1.8E+002
  0
TEXT
  8
1
  6
CONTINUOUS
 62
1
 10
-8.8938516E+001
 20
1.9015976E+002
 40
2.4999
  1
 )
 41
7.5E-001
 50
3.6E+002
  0
ENDBLK
  0
BLOCK
  2
*D989
  3
*D
 10
0.0
 20
0.0
 70
65
  0
LINE
  8
1
  6
CONTINUOUS
 62
1
 10
-6.8813541E+001
 20
1.7396987E+002
 11
-4.956358E+001
 21
1.7396987E+002
  0
LINE
  8
1
  6
CONTINUOUS
 62
1
 10
-6.8813541E+001
 20
1.3196987E+002
 11
-4.956358E+001
 21
1.3196987E+002
  0
LINE
  8
1
  6
CONTINUOUS
 62
1
 10
-5.056348E+001
 20
1.7396987E+002
 11
-5.056348E+001
 21
1.5296987E+002
  0
LINE
  8
1
  6
CONTINUOUS
 62
1
 10
-5.056348E+001
 20
1.3196987E+002
 11
-5.056348E+001
 21
1.5296987E+002
  0
INSERT
  2
_AH1
  8
1
 62
1
 10
-5.056348E+001
 20
1.7396987E+002
 41
3.5001001
 42
3.5001001
 43
3.5001001
 50
9.0E+001
  0
INSERT
  2
_AH1
  8
1
 62
1
 10
-5.056348E+001
 20
1.3196987E+002
 41
3.5001001
 42
3.5001001
 43
3.5001001
 50
2.7E+002
  0
TEXT
  8
1
  6
CONTINUOUS
 62
1
 10
-5.156438E+001
 20
1.473451E+002
 40
2.4999
  1
( 
 41
7.5E-001
 50
9.0E+001
  0
INSERT
  2
_AH1
  8
1
 62
1
 10
-5.056348E+001
 20
1.7396987E+002
 41
3.5001001
 42
3.5001001
 43
3.5001001
 50
9.0E+001
  0
INSERT
  2
_AH1
  8
1
 62
1
 10
-5.056348E+001
 20
1.3196987E+002
 41
3.5001001
 42
3.5001001
 43
3.5001001
 50
2.7E+002
  0
TEXT
  8
1
  6
CONTINUOUS
 62
1
 10
-5.156438E+001
 20
1.5109495E+002
 40
2.4999
  1
42
 41
7.5E-001
 50
9.0E+001
  0
INSERT
  2
_AH1
  8
1
 62
1
 10
-5.056348E+001
 20
1.7396987E+002
 41
3.5001001
 42
3.5001001
 43
3.5001001
 50
9.0E+001
  0
INSERT
  2
_AH1
  8
1
 62
1
 10
-5.056348E+001
 20
1.3196987E+002
 41
3.5001001
 42
3.5001001
 43
3.5001001
 50
2.7E+002
  0
TEXT
  8
1
  6
CONTINUOUS
 62
1
 10
-5.156438E+001
 20
1.548448E+002
 40
2.4999
  1
 )
 41
7.5E-001
 50
9.0E+001
  0
ENDBLK
  0
BLOCK
  2
*D1031
  3
*D
 10
0.0
 20
0.0
 70
65
  0
LINE
  8
1
  6
CONTINUOUS
 62
1
 10
-6.1950377E+001
 20
6.9546334E+001
 11
-6.1950377E+001
 21
8.9936355E+001
  0
LINE
  8
1
  6
CONTINUOUS
 62
1
 10
-1.1795038E+002
 20
6.9546334E+001
 11
-1.1795038E+002
 21
8.9936355E+001
  0
LINE
  8
1
  6
CONTINUOUS
 62
1
 10
-6.1950377E+001
 20
8.8936455E+001
 11
-8.9950377E+001
 21
8.8936455E+001
  0
LINE
  8
1
  6
CONTINUOUS
 62
1
 10
-1.1795038E+002
 20
8.8936455E+001
 11
-8.9950377E+001
 21
8.8936455E+001
  0
INSERT
  2
_AH1
  8
1
 62
1
 10
-6.1950377E+001
 20
8.8936455E+001
 41
3.5001001
 42
3.5001001
 43
3.5001001
 50
0.0
  0
INSERT
  2
_AH1
  8
1
 62
1
 10
-1.1795038E+002
 20
8.8936455E+001
 41
3.5001001
 42
3.5001001
 43
3.5001001
 50
1.8E+002
  0
TEXT
  8
1
  6
CONTINUOUS
 62
1
 10
-9.5575152E+001
 20
8.9937355E+001
 40
2.4999
  1
( 
 41
7.5E-001
 50
3.6E+002
  0
INSERT
  2
_AH1
  8
1
 62
1
 10
-6.1950377E+001
 20
8.8936455E+001
 41
3.5001001
 42
3.5001001
 43
3.5001001
 50
0.0
  0
INSERT
  2
_AH1
  8
1
 62
1
 10
-1.1795038E+002
 20
8.8936455E+001
 41
3.5001001
 42
3.5001001
 43
3.5001001
 50
1.8E+002
  0
TEXT
  8
1
  6
CONTINUOUS
 62
1
 10
-9.1825302E+001
 20
8.9937355E+001
 40
2.4999
  1
56
 41
7.5E-001
 50
3.6E+002
  0
INSERT
  2
_AH1
  8
1
 62
1
 10
-6.1950377E+001
 20
8.8936455E+001
 41
3.5001001
 42
3.5001001
 43
3.5001001
 50
0.0
  0
INSERT
  2
_AH1
  8
1
 62
1
 10
-1.1795038E+002
 20
8.8936455E+001
 41
3.5001001
 42
3.5001001
 43
3.5001001
 50
1.8E+002
  0
TEXT
  8
1
  6
CONTINUOUS
 62
1
 10
-8.8075452E+001
 20
8.9937355E+001
 40
2.4999
  1
 )
 41
7.5E-001
 50
3.6E+002
  0
ENDBLK
  0
BLOCK
  2
*D1032
  3
*D
 10
0.0
 20
0.0
 70
65
  0
LINE
  8
1
  6
CONTINUOUS
 62
1
 10
-6.0950477E+001
 20
6.8546434E+001
 11
-3.9121534E+001
 21
6.8546434E+001
  0
LINE
  8
1
  6
CONTINUOUS
 62
1
 10
-6.0950477E+001
 20
3.8546434E+001
 11
-3.9121534E+001
 21
3.8546434E+001
  0
LINE
  8
1
  6
CONTINUOUS
 62
1
 10
-4.0121434E+001
 20
6.8546434E+001
 11
-4.0121434E+001
 21
5.3546434E+001
  0
LINE
  8
1
  6
CONTINUOUS
 62
1
 10
-4.0121434E+001
 20
3.8546434E+001
 11
-4.0121434E+001
 21
5.3546434E+001
  0
INSERT
  2
_AH1
  8
1
 62
1
 10
-4.0121434E+001
 20
6.8546434E+001
 41
3.5001001
 42
3.5001001
 43
3.5001001
 50
9.0E+001
  0
INSERT
  2
_AH1
  8
1
 62
1
 10
-4.0121434E+001
 20
3.8546434E+001
 41
3.5001001
 42
3.5001001
 43
3.5001001
 50
2.7E+002
  0
TEXT
  8
1
  6
CONTINUOUS
 62
1
 10
-4.1122334E+001
 20
4.7921659E+001
 40
2.4999
  1
( 
 41
7.5E-001
 50
9.0E+001
  0
INSERT
  2
_AH1
  8
1
 62
1
 10
-4.0121434E+001
 20
6.8546434E+001
 41
3.5001001
 42
3.5001001
 43
3.5001001
 50
9.0E+001
  0
INSERT
  2
_AH1
  8
1
 62
1
 10
-4.0121434E+001
 20
3.8546434E+001
 41
3.5001001
 42
3.5001001
 43
3.5001001
 50
2.7E+002
  0
TEXT
  8
1
  6
CONTINUOUS
 62
1
 10
-4.1122334E+001
 20
5.1671509E+001
 40
2.4999
  1
30
 41
7.5E-001
 50
9.0E+001
  0
INSERT
  2
_AH1
  8
1
 62
1
 10
-4.0121434E+001
 20
6.8546434E+001
 41
3.5001001
 42
3.5001001
 43
3.5001001
 50
9.0E+001
  0
INSERT
  2
_AH1
  8
1
 62
1
 10
-4.0121434E+001
 20
3.8546434E+001
 41
3.5001001
 42
3.5001001
 43
3.5001001
 50
2.7E+002
  0
TEXT
  8
1
  6
CONTINUOUS
 62
1
 10
-4.1122334E+001
 20
5.5421359E+001
 40
2.4999
  1
 )
 41
7.5E-001
 50
9.0E+001
  0
ENDBLK
  0
BLOCK
  2
*E8712
  3
*E8712
 10
0.0
 20
0.0
 70
65
  0
ARC
  8
1
  6
CONTINUOUS
 62
1
 10
0.0
 20
0.0
 40
1.0
 50
0.0
 51
3.2E+002
  0
ENDBLK
  0
BLOCK
  2
*E8717
  3
*E8717
 10
0.0
 20
0.0
 70
65
  0
ARC
  8
1
  6
CONTINUOUS
 62
1
 10
0.0
 20
0.0
 40
1.0
 50
0.0
 51
3.2E+002
  0
ENDBLK
  0
BLOCK
  2
*E8722
  3
*E8722
 10
0.0
 20
0.0
 70
65
  0
ARC
  8
1
  6
CONTINUOUS
 62
1
 10
0.0
 20
0.0
 40
1.0
 50
0.0
 51
3.2E+002
  0
ENDBLK
  0
BLOCK
  2
*E8727
  3
*E8727
 10
0.0
 20
0.0
 70
65
  0
ARC
  8
1
  6
CONTINUOUS
 62
1
 10
0.0
 20
0.0
 40
1.0
 50
0.0
 51
3.2E+002
  0
ENDBLK
  0
BLOCK
  2
*E8732
  3
*E8732
 10
0.0
 20
0.0
 70
65
  0
ARC
  8
1
  6
CONTINUOUS
 62
1
 10
0.0
 20
0.0
 40
1.0
 50
0.0
 51
3.2E+002
  0
ENDBLK
  0
BLOCK
  2
*E8737
  3
*E8737
 10
0.0
 20
0.0
 70
65
  0
ARC
  8
1
  6
CONTINUOUS
 62
1
 10
0.0
 20
0.0
 40
1.0
 50
0.0
 51
3.2E+002
  0
ENDBLK
  0
BLOCK
  2
*E8742
  3
*E8742
 10
0.0
 20
0.0
 70
65
  0
ARC
  8
1
  6
CONTINUOUS
 62
1
 10
0.0
 20
0.0
 40
1.0
 50
0.0
 51
3.2E+002
  0
ENDBLK
  0
BLOCK
  2
*E8747
  3
*E8747
 10
0.0
 20
0.0
 70
65
  0
ARC
  8
1
  6
CONTINUOUS
 62
1
 10
0.0
 20
0.0
 40
1.0
 50
0.0
 51
3.2E+002
  0
ENDBLK
  0
BLOCK
  2
*E8752
  3
*E8752
 10
0.0
 20
0.0
 70
65
  0
ARC
  8
1
  6
CONTINUOUS
 62
1
 10
0.0
 20
0.0
 40
1.0
 50
0.0
 51
3.2E+002
  0
ENDBLK
  0
BLOCK
  2
*E8757
  3
*E8757
 10
0.0
 20
0.0
 70
65
  0
ARC
  8
1
  6
CONTINUOUS
 62
1
 10
0.0
 20
0.0
 40
1.0
 50
0.0
 51
3.2E+002
  0
ENDBLK
  0
BLOCK
  2
*E8762
  3
*E8762
 10
0.0
 20
0.0
 70
65
  0
ARC
  8
1
  6
CONTINUOUS
 62
1
 10
0.0
 20
0.0
 40
1.0
 50
0.0
 51
3.2E+002
  0
ENDBLK
  0
BLOCK
  2
*E8767
  3
*E8767
 10
0.0
 20
0.0
 70
65
  0
ARC
  8
1
  6
CONTINUOUS
 62
1
 10
0.0
 20
0.0
 40
1.0
 50
0.0
 51
3.2E+002
  0
ENDBLK
  0
BLOCK
  2
*E8772
  3
*E8772
 10
0.0
 20
0.0
 70
65
  0
ARC
  8
1
  6
CONTINUOUS
 62
1
 10
0.0
 20
0.0
 40
1.0
 50
0.0
 51
3.2E+002
  0
ENDBLK
  0
BLOCK
  2
*E8777
  3
*E8777
 10
0.0
 20
0.0
 70
65
  0
ARC
  8
1
  6
CONTINUOUS
 62
1
 10
0.0
 20
0.0
 40
1.0
 50
0.0
 51
3.2E+002
  0
ENDBLK
  0
BLOCK
  2
*E8782
  3
*E8782
 10
0.0
 20
0.0
 70
65
  0
ARC
  8
1
  6
CONTINUOUS
 62
1
 10
0.0
 20
0.0
 40
1.0
 50
0.0
 51
3.2E+002
  0
ENDBLK
  0
BLOCK
  2
*E8787
  3
*E8787
 10
0.0
 20
0.0
 70
65
  0
ARC
  8
1
  6
CONTINUOUS
 62
1
 10
0.0
 20
0.0
 40
1.0
 50
0.0
 51
3.2E+002
  0
ENDBLK
  0
BLOCK
  2
*E8792
  3
*E8792
 10
0.0
 20
0.0
 70
65
  0
ARC
  8
1
  6
CONTINUOUS
 62
1
 10
0.0
 20
0.0
 40
1.0
 50
0.0
 51
3.2E+002
  0
ENDBLK
  0
BLOCK
  2
*E8797
  3
*E8797
 10
0.0
 20
0.0
 70
65
  0
ARC
  8
1
  6
CONTINUOUS
 62
1
 10
0.0
 20
0.0
 40
1.0
 50
0.0
 51
3.2E+002
  0
ENDBLK
  0
BLOCK
  2
*E8802
  3
*E8802
 10
0.0
 20
0.0
 70
65
  0
ARC
  8
1
  6
CONTINUOUS
 62
1
 10
0.0
 20
0.0
 40
1.0
 50
0.0
 51
3.2E+002
  0
ENDBLK
  0
BLOCK
  2
*E8807
  3
*E8807
 10
0.0
 20
0.0
 70
65
  0
ARC
  8
1
  6
CONTINUOUS
 62
1
 10
0.0
 20
0.0
 40
1.0
 50
0.0
 51
3.2E+002
  0
ENDBLK
  0
ENDSEC
  0
SECTION
  2
ENTITIES
  0
LINE
  8
1
  6
CONTINUOUS
 62
7
 10
2.2718969E+002
 20
1.2565888E+002
 11
2.2718969E+002
 21
1.2165886E+002
  0
LINE
  8
1
  6
SHORT_DASH
 62
7
 10
2.3539356E+002
 20
1.2165886E+002
 11
2.2718969E+002
 21
1.2165886E+002
  0
INSERT
  2
*TX475
  8
1
 10
7.9906923E+001
 20
2.6651882E+002
  0
TEXT
  8
1
  6
CONTINUOUS
 62
7
 10
2.1888969E+002
 20
1.2715888E+002
 40
2.0
  1
I
 41
7.5E-001
  0
LINE
  8
1
  6
CONTINUOUS
 62
7
 10
2.2718969E+002
 20
1.2565888E+002
 11
2.2518969E+002
 21
1.3065888E+002
  0
LINE
  8
1
  6
CONTINUOUS
 62
7
 10
2.2718969E+002
 20
1.3665886E+002
 11
2.2718969E+002
 21
1.3065888E+002
  0
LINE
  8
1
  6
CONTINUOUS
 62
7
 10
2.2268969E+002
 20
1.3015888E+002
 11
2.2118969E+002
 21
1.3015888E+002
  0
LINE
  8
1
  6
CONTINUOUS
 62
7
 10
2.2118969E+002
 20
1.3015888E+002
 11
2.2118969E+002
 21
1.2615888E+002
  0
LINE
  8
1
  6
CONTINUOUS
 62
7
 10
2.2268969E+002
 20
1.2615888E+002
 11
2.2118969E+002
 21
1.2615888E+002
  0
LINE
  8
1
  6
HIDDEN
 62
7
 10
2.2618969E+002
 20
1.2815888E+002
 11
2.2118969E+002
 21
1.2815888E+002
  0
LINE
  8
1
  6
CONTINUOUS
 62
7
 10
2.5589356E+002
 20
9.5215586E+001
 11
2.5789356E+002
 21
9.5215586E+001
  0
LINE
  8
1
  6
CONTINUOUS
 62
7
 10
2.5589356E+002
 20
9.0215586E+001
 11
2.5689356E+002
 21
9.6215586E+001
  0
LINE
  8
1
  6
CONTINUOUS
 62
7
 10
2.7889356E+002
 20
9.5215586E+001
 11
2.8089356E+002
 21
9.5215586E+001
  0
LINE
  8
1
  6
CONTINUOUS
 62
7
 10
2.7889356E+002
 20
9.0215586E+001
 11
2.7989356E+002
 21
9.6215586E+001
  0
LINE
  8
1
  6
CONTINUOUS
 62
7
 10
2.7889356E+002
 20
9.0215586E+001
 11
2.7889356E+002
 21
8.1171008E+001
  0
LINE
  8
1
  6
CONTINUOUS
 62
7
 10
2.5589356E+002
 20
9.0215586E+001
 11
2.5589356E+002
 21
8.1171008E+001
  0
LINE
  8
1
  6
CONTINUOUS
 62
7
 10
2.2789356E+002
 20
9.0171008E+001
 11
2.2589356E+002
 21
9.5171008E+001
  0
LINE
  8
1
  6
CONTINUOUS
 62
7
 10
2.3539356E+002
 20
9.0171008E+001
 11
2.3339356E+002
 21
9.5171008E+001
  0
LINE
  8
1
  6
CONTINUOUS
 62
7
 10
2.3539356E+002
 20
9.0171008E+001
 11
2.3539356E+002
 21
8.6658858E+001
  0
LINE
  8
1
  6
CONTINUOUS
 62
7
 10
2.2789356E+002
 20
8.6658858E+001
 11
2.2789356E+002
 21
9.0171008E+001
  0
LINE
  8
1
  6
CONTINUOUS
 62
7
 10
2.2789356E+002
 20
8.6658858E+001
 11
2.3539356E+002
 21
8.6658858E+001
  0
LINE
  8
1
  6
CONTINUOUS
 62
7
 10
2.8989356E+002
 20
1.0065886E+002
 11
2.9489356E+002
 21
1.0065886E+002
  0
LINE
  8
1
  6
CONTINUOUS
 62
7
 10
2.9489356E+002
 20
1.0365886E+002
 11
2.9489356E+002
 21
1.0065886E+002
  0
LINE
  8
1
  6
CONTINUOUS
 62
7
 10
2.9489356E+002
 20
1.0565886E+002
 11
2.9489356E+002
 21
1.0465886E+002
  0
LINE
  8
1
  6
CONTINUOUS
 62
7
 10
2.9489356E+002
 20
1.1165886E+002
 11
2.9489356E+002
 21
1.0665886E+002
  0
LINE
  8
1
  6
CONTINUOUS
 62
7
 10
2.9489356E+002
 20
1.1365886E+002
 11
2.9489356E+002
 21
1.1265886E+002
  0
LINE
  8
1
  6
CONTINUOUS
 62
7
 10
2.9489356E+002
 20
1.1765886E+002
 11
2.9489356E+002
 21
1.1465886E+002
  0
LINE
  8
1
  6
CONTINUOUS
 62
7
 10
2.9289356E+002
 20
1.1765886E+002
 11
2.9489356E+002
 21
1.1765886E+002
  0
LINE
  8
1
  6
CONTINUOUS
 62
7
 10
2.9089356E+002
 20
1.1765886E+002
 11
2.9189356E+002
 21
1.1765886E+002
  0
LINE
  8
1
  6
CONTINUOUS
 62
7
 10
2.8489356E+002
 20
1.1765886E+002
 11
2.8989356E+002
 21
1.1765886E+002
  0
LINE
  8
1
  6
CONTINUOUS
 62
7
 10
2.8289356E+002
 20
1.1765886E+002
 11
2.8389356E+002
 21
1.1765886E+002
  0
LINE
  8
1
  6
CONTINUOUS
 62
7
 10
2.7689356E+002
 20
1.1765886E+002
 11
2.8189356E+002
 21
1.1765886E+002
  0
LINE
  8
1
  6
SHORT_DASH
 62
7
 10
2.0389356E+002
 20
7.6171008E+001
 11
2.1598E+002
 21
7.6171008E+001
  0
LINE
  8
1
  6
SHORT_DASH
 62
7
 10
2.0389356E+002
 20
7.9171008E+001
 11
2.1598E+002
 21
7.9171008E+001
  0
LINE
  8
1
  6
CONTINUOUS
 62
7
 10
2.1598E+002
 20
7.9171008E+001
 11
2.1598E+002
 21
7.3171008E+001
  0
LINE
  8
1
  6
CONTINUOUS
 62
7
 10
2.7489356E+002
 20
1.1765886E+002
 11
2.7589356E+002
 21
1.1765886E+002
  0
LINE
  8
1
  6
CONTINUOUS
 62
7
 10
2.6889356E+002
 20
1.1765886E+002
 11
2.7389356E+002
 21
1.1765886E+002
  0
LINE
  8
1
  6
CONTINUOUS
 62
7
 10
2.6189356E+002
 20
1.1765886E+002
 11
2.6689356E+002
 21
1.1765886E+002
  0
LINE
  8
1
  6
CONTINUOUS
 62
7
 10
2.1339356E+002
 20
7.3171008E+001
 11
2.8739356E+002
 21
7.3171008E+001
  0
LINE
  8
1
  6
CONTINUOUS
 62
7
 10
2.5989356E+002
 20
1.1765886E+002
 11
2.6089356E+002
 21
1.1765886E+002
  0
LINE
  8
1
  6
CONTINUOUS
 62
7
 10
2.5389356E+002
 20
1.1765886E+002
 11
2.5889356E+002
 21
1.1765886E+002
  0
LINE
  8
1
  6
CONTINUOUS
 62
7
 10
2.5689356E+002
 20
1.0065886E+002
 11
2.6189356E+002
 21
1.0065886E+002
  0
LINE
  8
1
  6
CONTINUOUS
 62
7
 10
2.6389356E+002
 20
1.0065886E+002
 11
2.6289356E+002
 21
1.0065886E+002
  0
LINE
  8
1
  6
CONTINUOUS
 62
7
 10
2.6989356E+002
 20
1.0065886E+002
 11
2.6489356E+002
 21
1.0065886E+002
  0
LINE
  8
1
  6
CONTINUOUS
 62
7
 10
2.7189356E+002
 20
1.0065886E+002
 11
2.7089356E+002
 21
1.0065886E+002
  0
LINE
  8
1
  6
CONTINUOUS
 62
7
 10
2.7789356E+002
 20
1.0065886E+002
 11
2.7289356E+002
 21
1.0065886E+002
  0
LINE
  8
1
  6
CONTINUOUS
 62
7
 10
2.8089356E+002
 20
1.0065886E+002
 11
2.7989356E+002
 21
1.0065886E+002
  0
LINE
  8
1
  6
CONTINUOUS
 62
7
 10
2.8689356E+002
 20
1.0065886E+002
 11
2.8189356E+002
 21
1.0065886E+002
  0
LINE
  8
1
  6
CONTINUOUS
 62
7
 10
2.8889356E+002
 20
1.0065886E+002
 11
2.8789356E+002
 21
1.0065886E+002
  0
TEXT
  8
1
  6
CONTINUOUS
 62
7
 10
2.2714356E+002
 20
9.6171008E+001
 40
2.0
  1
13
 41
7.5E-001
 50
9.0E+001
  0
TEXT
  8
1
  6
CONTINUOUS
 62
7
 10
2.2714356E+002
 20
8.7171008E+001
 40
2.0
  1
14
 41
7.5E-001
 50
9.0E+001
  0
TEXT
  8
1
  6
CONTINUOUS
 62
7
 10
2.3464356E+002
 20
9.6171008E+001
 40
2.0
  1
13
 41
7.5E-001
 50
9.0E+001
  0
TEXT
  8
1
  6
CONTINUOUS
 62
7
 10
2.3464356E+002
 20
8.7171008E+001
 40
2.0
  1
14
 41
7.5E-001
 50
9.0E+001
  0
TEXT
  8
1
  6
CONTINUOUS
 62
7
 10
2.7814356E+002
 20
7.0052393E+001
 40
2.0
  1
Y
 41
7.5E-001
  0
TEXT
  8
1
  6
CONTINUOUS
 62
7
 10
2.2639356E+002
 20
7.8802393E+001
 40
2.0
  1
KM1
 41
7.5E-001
  0
TEXT
  8
1
  6
CONTINUOUS
 62
7
 10
2.3464356E+002
 20
7.0052393E+001
 40
2.0
  1
L
 41
7.5E-001
  0
TEXT
  8
1
  6
CONTINUOUS
 62
7
 10
2.2139356E+002
 20
9.1802393E+001
 40
2.0
  1
KM2
 41
7.5E-001
  0
TEXT
  8
1
  6
CONTINUOUS
 62
7
 10
2.2889356E+002
 20
9.1802393E+001
 40
2.0
  1
KM1
 41
7.5E-001
  0
LINE
  8
1
  6
CONTINUOUS
 62
7
 10
2.2789356E+002
 20
1.0065886E+002
 11
2.3539356E+002
 21
1.0065886E+002
  0
LINE
  8
1
  6
CONTINUOUS
 62
7
 10
2.3539356E+002
 20
1.0065886E+002
 11
2.3539356E+002
 21
1.2165886E+002
  0
LINE
  8
1
  6
CONTINUOUS
 62
7
 10
2.3539356E+002
 20
1.2165886E+002
 11
2.8739356E+002
 21
1.2165886E+002
  0
LINE
  8
1
  6
CONTINUOUS
 62
7
 10
2.3539356E+002
 20
8.6658858E+001
 11
2.3539356E+002
 21
8.1171008E+001
  0
TEXT
  8
1
  6
CONTINUOUS
 62
7
 10
2.5114356E+002
 20
1.3217101E+002
 40
2.0
  1
23
 41
7.5E-001
 50
9.0E+001
  0
TEXT
  8
1
  6
CONTINUOUS
 62
7
 10
2.4539356E+002
 20
1.2780239E+002
 40
2.0
  1
KM1
 41
7.5E-001
  0
TEXT
  8
1
  6
CONTINUOUS
 62
7
 10
2.5114356E+002
 20
1.2317101E+002
 40
2.0
  1
24
 41
7.5E-001
 50
9.0E+001
  0
LINE
  8
1
  6
CONTINUOUS
 62
7
 10
2.5189356E+002
 20
1.2617101E+002
 11
2.4989356E+002
 21
1.3117101E+002
  0
LINE
  8
1
  6
CONTINUOUS
 62
7
 10
2.5189356E+002
 20
1.2617101E+002
 11
2.5189356E+002
 21
1.2165886E+002
  0
LINE
  8
1
  6
CONTINUOUS
 62
7
 10
2.5189356E+002
 20
1.3665886E+002
 11
2.5189356E+002
 21
1.3018387E+002
  0
LINE
  8
1
  6
CONTINUOUS
 62
7
 10
2.3539356E+002
 20
1.0065886E+002
 11
2.3539356E+002
 21
9.5183871E+001
  0
LINE
  8
1
  6
CONTINUOUS
 62
7
 10
2.2789356E+002
 20
1.0065886E+002
 11
2.2789356E+002
 21
9.5183871E+001
  0
LINE
  8
1
  6
CONTINUOUS
 62
7
 10
2.7489356E+002
 20
7.8171008E+001
 11
2.8289356E+002
 21
7.8171008E+001
  0
LINE
  8
1
  6
CONTINUOUS
 62
7
 10
2.5189356E+002
 20
7.8171008E+001
 11
2.5989356E+002
 21
7.8171008E+001
  0
LINE
  8
1
  6
CONTINUOUS
 62
7
 10
2.5189356E+002
 20
8.1171008E+001
 11
2.5989356E+002
 21
8.1171008E+001
  0
LINE
  8
1
  6
CONTINUOUS
 62
7
 10
2.7489356E+002
 20
8.1171008E+001
 11
2.8289356E+002
 21
8.1171008E+001
  0
LINE
  8
1
  6
CONTINUOUS
 62
7
 10
2.5189356E+002
 20
8.1171008E+001
 11
2.5189356E+002
 21
7.8171008E+001
  0
LINE
  8
1
  6
CONTINUOUS
 62
7
 10
2.5989356E+002
 20
8.1171008E+001
 11
2.5989356E+002
 21
7.8171008E+001
  0
LINE
  8
1
  6
CONTINUOUS
 62
7
 10
2.7489356E+002
 20
8.1171008E+001
 11
2.7489356E+002
 21
7.8171008E+001
  0
LINE
  8
1
  6
CONTINUOUS
 62
7
 10
2.8289356E+002
 20
8.1171008E+001
 11
2.8289356E+002
 21
7.8171008E+001
  0
LINE
  8
1
  6
CONTINUOUS
 62
7
 10
2.7889356E+002
 20
7.8171008E+001
 11
2.7889356E+002
 21
7.3171008E+001
  0
LINE
  8
1
  6
CONTINUOUS
 62
7
 10
2.5589356E+002
 20
7.8171008E+001
 11
2.5589356E+002
 21
7.3171008E+001
  0
LINE
  8
1
  6
CONTINUOUS
 62
7
 10
2.3139356E+002
 20
7.8171008E+001
 11
2.3939356E+002
 21
7.8171008E+001
  0
LINE
  8
1
  6
CONTINUOUS
 62
7
 10
2.3139356E+002
 20
8.1171008E+001
 11
2.3939356E+002
 21
8.1171008E+001
  0
LINE
  8
1
  6
CONTINUOUS
 62
7
 10
2.3139356E+002
 20
8.1171008E+001
 11
2.3139356E+002
 21
7.8171008E+001
  0
LINE
  8
1
  6
CONTINUOUS
 62
7
 10
2.3539356E+002
 20
7.8171008E+001
 11
2.3539356E+002
 21
7.3171008E+001
  0
LINE
  8
1
  6
CONTINUOUS
 62
7
 10
2.7889356E+002
 20
1.1165886E+002
 11
2.8089356E+002
 21
1.1165886E+002
  0
LINE
  8
1
  6
CONTINUOUS
 62
7
 10
2.6839356E+002
 20
1.1165886E+002
 11
2.6839356E+002
 21
1.2165886E+002
  0
LINE
  8
1
  6
CONTINUOUS
 62
7
 10
2.6839356E+002
 20
1.0665886E+002
 11
2.6839356E+002
 21
1.0454087E+002
  0
LINE
  8
1
  6
CONTINUOUS
 62
7
 10
2.7889356E+002
 20
1.0665886E+002
 11
2.7989356E+002
 21
1.1265886E+002
  0
LINE
  8
1
  6
CONTINUOUS
 62
7
 10
2.6839356E+002
 20
1.0665886E+002
 11
2.6639356E+002
 21
1.1165886E+002
  0
TEXT
  8
1
  6
CONTINUOUS
 62
7
 10
2.6764356E+002
 20
1.1390886E+002
 40
2.0
  1
15
 41
7.5E-001
 50
9.0E+001
  0
LINE
  8
1
  6
CONTINUOUS
 62
7
 10
2.7394407E+002
 20
1.0965886E+002
 11
2.7939356E+002
 21
1.0965886E+002
  0
LINE
  8
1
  6
CONTINUOUS
 62
7
 10
2.7394407E+002
 20
1.0865886E+002
 11
2.7931023E+002
 21
1.0865886E+002
  0
LINE
  8
1
  6
SHORT_DASH
 62
7
 10
2.5489356E+002
 20
1.0915886E+002
 11
2.7344407E+002
 21
1.0915886E+002
  0
ARC
  8
1
  6
CONTINUOUS
 62
7
 10
2.7639356E+002
 20
1.0915886E+002
 40
2.5
 50
1.1356542E+002
 51
2.4643458E+002
  0
LINE
  8
1
  6
CONTINUOUS
 62
7
 10
2.5589356E+002
 20
1.1365886E+002
 11
2.6839356E+002
 21
1.1365886E+002
  0
LINE
  8
1
  6
CONTINUOUS
 62
7
 10
2.5589356E+002
 20
1.1365886E+002
 11
2.5589356E+002
 21
1.1165886E+002
  0
TEXT
  8
1
  6
CONTINUOUS
 62
7
 10
2.5514356E+002
 20
1.0085886E+002
 40
2.0
  1
18
 41
7.5E-001
 50
9.0E+001
  0
LINE
  8
1
  6
CONTINUOUS
 62
7
 10
2.8339356E+002
 20
1.0715886E+002
 11
2.8339356E+002
 21
1.1115886E+002
  0
LINE
  8
1
  6
CONTINUOUS
 62
7
 10
2.5589356E+002
 20
1.0665886E+002
 11
2.5389356E+002
 21
1.1165886E+002
  0
LINE
  8
1
  6
CONTINUOUS
 62
7
 10
2.5094407E+002
 20
1.0965886E+002
 11
2.5469356E+002
 21
1.0965886E+002
  0
LINE
  8
1
  6
CONTINUOUS
 62
7
 10
2.5094407E+002
 20
1.0865886E+002
 11
2.5509356E+002
 21
1.0865886E+002
  0
LINE
  8
1
  6
CONTINUOUS
 62
7
 10
2.7889356E+002
 20
1.0665886E+002
 11
2.7889356E+002
 21
9.5215586E+001
  0
LINE
  8
1
  6
CONTINUOUS
 62
7
 10
2.7889356E+002
 20
1.1165886E+002
 11
2.7889356E+002
 21
1.1365886E+002
  0
ARC
  8
1
  6
CONTINUOUS
 62
7
 10
2.5339356E+002
 20
1.0915886E+002
 40
2.5
 50
1.1356542E+002
 51
2.4643458E+002
  0
LINE
  8
1
  6
CONTINUOUS
 62
7
 10
2.9139356E+002
 20
1.0715886E+002
 11
2.9139356E+002
 21
1.1115886E+002
  0
LINE
  8
1
  6
CONTINUOUS
 62
7
 10
2.9339356E+002
 20
1.0715886E+002
 11
2.9339356E+002
 21
1.1115886E+002
  0
LINE
  8
1
  6
CONTINUOUS
 62
7
 10
2.8339356E+002
 20
1.1115886E+002
 11
2.9339356E+002
 21
1.1115886E+002
  0
LINE
  8
1
  6
CONTINUOUS
 62
7
 10
2.8339356E+002
 20
1.0715886E+002
 11
2.9339356E+002
 21
1.0715886E+002
  0
LINE
  8
1
  6
CONTINUOUS
 62
7
 10
2.9339356E+002
 20
1.1115886E+002
 11
2.9139356E+002
 21
1.0715886E+002
  0
LINE
  8
1
  6
CONTINUOUS
 62
7
 10
2.9139356E+002
 20
1.1115886E+002
 11
2.9339356E+002
 21
1.0715886E+002
  0
LINE
  8
1
  6
CONTINUOUS
 62
7
 10
2.8739356E+002
 20
1.1115886E+002
 11
2.8739356E+002
 21
1.2165886E+002
  0
LINE
  8
1
  6
CONTINUOUS
 62
7
 10
2.8739356E+002
 20
1.0715886E+002
 11
2.8739356E+002
 21
7.3171008E+001
  0
LINE
  8
1
  6
SHORT_DASH
 62
7
 10
2.7931023E+002
 20
1.0915886E+002
 11
2.8339356E+002
 21
1.0915886E+002
  0
TEXT
  8
1
  6
CONTINUOUS
 62
7
 10
2.8689356E+002
 20
1.1420886E+002
 40
2.0
  1
A1
 41
7.5E-001
 50
9.0E+001
  0
TEXT
  8
1
  6
CONTINUOUS
 62
7
 10
2.8664356E+002
 20
1.0105886E+002
 40
2.0
  1
A2
 41
7.5E-001
 50
9.0E+001
  0
TEXT
  8
1
  6
CONTINUOUS
 62
7
 10
2.5339356E+002
 20
1.1465886E+002
 40
2.0
  1
KT
 41
7.5E-001
  0
TEXT
  8
1
  6
CONTINUOUS
 62
7
 10
2.4564356E+002
 20
1.0410886E+002
 40
2.0
  1
t1+t2
 41
7.5E-001
  0
TEXT
  8
1
  6
CONTINUOUS
 62
7
 10
2.7314356E+002
 20
1.0410886E+002
 40
2.0
  1
t1
 41
7.5E-001
  0
TEXT
  8
1
  6
CONTINUOUS
 62
7
 10
2.7814356E+002
 20
1.0085886E+002
 40
2.0
  1
16
 41
7.5E-001
 50
9.0E+001
  0
TEXT
  8
1
  6
CONTINUOUS
 62
7
 10
2.3464356E+002
 20
8.2171008E+001
 40
2.0
  1
A1
 41
7.5E-001
 50
9.0E+001
  0
TEXT
  8
1
  6
CONTINUOUS
 62
7
 10
2.3464356E+002
 20
7.4171008E+001
 40
2.0
  1
A2
 41
7.5E-001
 50
9.0E+001
  0
TEXT
  8
1
  6
CONTINUOUS
 62
7
 10
2.7814356E+002
 20
8.2171008E+001
 40
2.0
  1
A1
 41
7.5E-001
 50
9.0E+001
  0
TEXT
  8
1
  6
CONTINUOUS
 62
7
 10
2.7814356E+002
 20
7.4171008E+001
 40
2.0
  1
A2
 41
7.5E-001
 50
9.0E+001
  0
TEXT
  8
1
  6
CONTINUOUS
 62
7
 10
2.5514356E+002
 20
8.2171008E+001
 40
2.0
  1
A1
 41
7.5E-001
 50
9.0E+001
  0
TEXT
  8
1
  6
CONTINUOUS
 62
7
 10
2.5514356E+002
 20
7.4171008E+001
 40
2.0
  1
A2
 41
7.5E-001
 50
9.0E+001
  0
LINE
  8
1
  6
SHORT_DASH
 62
7
 10
2.2718969E+002
 20
1.3665886E+002
 11
2.5189356E+002
 21
1.3665886E+002
  0
LINE
  8
1
  6
CONTINUOUS
 62
7
 10
2.5189356E+002
 20
1.5615886E+002
 11
2.5189356E+002
 21
1.3665886E+002
  0
LINE
  8
1
  6
CONTINUOUS
 62
7
 10
2.5589356E+002
 20
7.2058858E+001
 11
2.5473513E+002
 21
7.0052393E+001
  0
LINE
  8
1
  6
CONTINUOUS
 62
7
 10
2.5589356E+002
 20
7.2058858E+001
 11
2.5705199E+002
 21
7.0052393E+001
  0
LINE
  8
1
  6
CONTINUOUS
 62
7
 10
2.3939356E+002
 20
8.1171008E+001
 11
2.3939356E+002
 21
7.8171008E+001
  0
LINE
  8
1
  6
SHORT_DASH
 62
7
 10
2.5639356E+002
 20
9.3215586E+001
 11
2.6139356E+002
 21
9.3215586E+001
  0
LINE
  8
1
  6
SHORT_DASH
 62
7
 10
2.7339356E+002
 20
7.9671008E+001
 11
2.6139356E+002
 21
9.3215586E+001
  0
LINE
  8
1
  6
SHORT_DASH
 62
7
 10
2.6858113E+002
 20
7.9671008E+001
 11
2.7489356E+002
 21
7.9671008E+001
  0
LINE
  8
1
  6
SHORT_DASH
 62
7
 10
2.6139356E+002
 20
7.9671008E+001
 11
2.7349744E+002
 21
9.3215586E+001
  0
LINE
  8
1
  6
SHORT_DASH
 62
7
 10
2.7939356E+002
 20
9.3215586E+001
 11
2.7349744E+002
 21
9.3215586E+001
  0
LINE
  8
1
  6
SHORT_DASH
 62
7
 10
2.5989356E+002
 20
7.9671008E+001
 11
2.662577E+002
 21
7.9671008E+001
  0
LINE
  8
1
  6
CONTINUOUS
 62
7
 10
2.6511002E+002
 20
8.1658858E+001
 11
2.6972882E+002
 21
8.1658858E+001
  0
LINE
  8
1
  6
CONTINUOUS
 62
7
 10
2.6511002E+002
 20
8.1658858E+001
 11
2.6741942E+002
 21
7.7658858E+001
  0
LINE
  8
1
  6
CONTINUOUS
 62
7
 10
2.6972882E+002
 20
8.1658858E+001
 11
2.6741942E+002
 21
7.7658858E+001
  0
TEXT
  8
1
  6
CONTINUOUS
 62
7
 10
2.4689356E+002
 20
7.6802393E+001
 40
2.0
  1
KM3
 41
7.5E-001
  0
LINE
  8
1
  6
CONTINUOUS
 62
7
 10
2.759135E+002
 20
9.0191286E+001
 11
2.759135E+002
 21
8.7191286E+001
  0
LINE
  8
1
  6
CONTINUOUS
 62
7
 10
2.784135E+002
 20
9.0191286E+001
 11
2.759135E+002
 21
9.0191286E+001
  0
LINE
  8
1
  6
CONTINUOUS
 62
7
 10
2.759135E+002
 20
8.7191286E+001
 11
2.784135E+002
 21
8.7191286E+001
  0
TEXT
  8
1
  6
CONTINUOUS
 62
7
 10
2.5514356E+002
 20
8.7215586E+001
 40
2.0
  1
02
 41
7.5E-001
 50
9.0E+001
  0
LINE
  8
1
  6
CONTINUOUS
 62
7
 10
2.784135E+002
 20
8.7191286E+001
 11
2.784135E+002
 21
9.0191286E+001
  0
TEXT
  8
1
  6
CONTINUOUS
 62
7
 10
2.5514356E+002
 20
9.6215586E+001
 40
2.0
  1
01
 41
7.5E-001
 50
9.0E+001
  0
LINE
  8
1
  6
CONTINUOUS
 62
7
 10
2.784135E+002
 20
9.9203436E+001
 11
2.759135E+002
 21
9.9203436E+001
  0
LINE
  8
1
  6
CONTINUOUS
 62
7
 10
2.784135E+002
 20
9.6203436E+001
 11
2.784135E+002
 21
9.9203436E+001
  0
LINE
  8
1
  6
CONTINUOUS
 62
7
 10
2.759135E+002
 20
9.6203436E+001
 11
2.784135E+002
 21
9.6203436E+001
  0
LINE
  8
1
  6
CONTINUOUS
 62
7
 10
2.759135E+002
 20
9.9203436E+001
 11
2.759135E+002
 21
9.6203436E+001
  0
TEXT
  8
1
  6
CONTINUOUS
 62
7
 10
2.7814356E+002
 20
9.6215586E+001
 40
2.0
  1
01
 41
7.5E-001
 50
9.0E+001
  0
TEXT
  8
1
  6
CONTINUOUS
 62
7
 10
2.7814356E+002
 20
8.7215586E+001
 40
2.0
  1
02
 41
7.5E-001
 50
9.0E+001
  0
TEXT
  8
1
  6
CONTINUOUS
 62
7
 10
2.6989356E+002
 20
7.6802393E+001
 40
2.0
  1
KM2
 41
7.5E-001
  0
LINE
  8
1
  6
CONTINUOUS
 62
7
 10
2.5473513E+002
 20
7.0052393E+001
 11
2.5705199E+002
 21
7.0052393E+001
  0
LINE
  8
1
  6
CONTINUOUS
 62
7
 10
2.5189356E+002
 20
1.5615886E+002
 11
2.5289356E+002
 21
1.6215886E+002
  0
LINE
  8
1
  6
CONTINUOUS
 62
7
 10
2.5189356E+002
 20
1.6115886E+002
 11
2.5389356E+002
 21
1.6115886E+002
  0
LINE
  8
1
  6
CONTINUOUS
 62
7
 10
2.5189356E+002
 20
1.6115886E+002
 11
2.5189356E+002
 21
1.7217101E+002
  0
LINE
  8
1
  6
CONTINUOUS
 62
7
 10
2.3998653E+002
 20
1.6065886E+002
 11
2.4398653E+002
 21
1.5865886E+002
  0
LINE
  8
1
  6
CONTINUOUS
 62
7
 10
2.3998653E+002
 20
1.6065886E+002
 11
2.3998653E+002
 21
1.5865886E+002
  0
LINE
  8
1
  6
CONTINUOUS
 62
7
 10
2.3898653E+002
 20
1.5865886E+002
 11
2.4398653E+002
 21
1.5865886E+002
  0
LINE
  8
1
  6
HIDDEN
 62
7
 10
2.4398653E+002
 20
1.5965886E+002
 11
2.4398653E+002
 21
1.6415886E+002
  0
LINE
  8
1
  6
HIDDEN
 62
7
 10
2.4398653E+002
 20
1.6415886E+002
 11
2.3598653E+002
 21
1.6415886E+002
  0
LINE
  8
1
  6
HIDDEN
 62
7
 10
2.4498653E+002
 20
1.5965886E+002
 11
2.5247689E+002
 21
1.5965886E+002
  0
LINE
  8
1
  6
HIDDEN
 62
7
 10
2.4498653E+002
 20
1.6515886E+002
 11
2.4498653E+002
 21
1.5965886E+002
  0
LINE
  8
1
  6
HIDDEN
 62
7
 10
2.3598653E+002
 20
1.6515886E+002
 11
2.4498653E+002
 21
1.6515886E+002
  0
LINE
  8
1
  6
CONTINUOUS
 62
7
 10
2.3598653E+002
 20
1.6665886E+002
 11
2.3598653E+002
 21
1.6265886E+002
  0
LINE
  8
1
  6
CONTINUOUS
 62
7
 10
2.3748653E+002
 20
1.6265886E+002
 11
2.3598653E+002
 21
1.6265886E+002
  0
LINE
  8
1
  6
CONTINUOUS
 62
7
 10
2.3748653E+002
 20
1.6665886E+002
 11
2.3598653E+002
 21
1.6665886E+002
  0
TEXT
  8
1
  6
CONTINUOUS
 62
7
 10
2.3198653E+002
 20
1.6465886E+002
 40
2.0
  1
O
 41
7.5E-001
  0
TEXT
  8
1
  6
CONTINUOUS
 62
7
 10
2.3368653E+002
 20
1.6265886E+002
 40
2.0
  1
R
 41
7.5E-001
  0
LINE
  8
1
  6
CONTINUOUS
 62
7
 10
2.3418653E+002
 20
1.6605886E+002
 11
2.3258653E+002
 21
1.6285886E+002
  0
LINE
  8
1
  6
HIDDEN
 62
7
 10
2.4398653E+002
 20
1.5865886E+002
 11
2.5489356E+002
 21
1.5865886E+002
  0
LINE
  8
1
  6
CONTINUOUS
 62
7
 10
2.5489356E+002
 20
1.5917101E+002
 11
2.5489356E+002
 21
1.5817101E+002
  0
LINE
  8
1
  6
CONTINUOUS
 62
7
 10
2.5489356E+002
 20
1.5917101E+002
 11
2.5689356E+002
 21
1.5917101E+002
  0
LINE
  8
1
  6
CONTINUOUS
 62
7
 10
2.5489356E+002
 20
1.5817101E+002
 11
2.5689356E+002
 21
1.5817101E+002
  0
LINE
  8
1
  6
CONTINUOUS
 62
7
 10
2.5689356E+002
 20
1.5817101E+002
 11
2.5689356E+002
 21
1.5717101E+002
  0
LINE
  8
1
  6
CONTINUOUS
 62
7
 10
2.5689356E+002
 20
1.5917101E+002
 11
2.5689356E+002
 21
1.6017101E+002
  0
LINE
  8
1
  6
CONTINUOUS
 62
7
 10
2.4153249E+002
 20
1.7217101E+002
 11
2.5989356E+002
 21
1.7217101E+002
  0
LINE
  8
1
  6
SHORT_DASH
 62
7
 10
2.3248711E+002
 20
1.6917101E+002
 11
2.4457355E+002
 21
1.6917101E+002
  0
LINE
  8
1
  6
CONTINUOUS
 62
7
 10
2.4457355E+002
 20
1.6917101E+002
 11
2.4457355E+002
 21
1.7217101E+002
  0
TEXT
  8
1
  6
CONTINUOUS
 62
7
 10
2.5739356E+002
 20
1.5780239E+002
 40
2.0
  1
FR1
 41
7.5E-001
  0
TEXT
  8
1
  6
CONTINUOUS
 62
7
 10
2.5114356E+002
 20
1.6215886E+002
 40
2.0
  1
95
 41
7.5E-001
 50
9.0E+001
  0
TEXT
  8
1
  6
CONTINUOUS
 62
7
 10
2.5114356E+002
 20
1.5315886E+002
 40
2.0
  1
96
 41
7.5E-001
 50
9.0E+001
  0
LINE
  8
1
  6
CONTINUOUS
 62
7
 10
2.5589356E+002
 20
1.0665886E+002
 11
2.5589356E+002
 21
9.5215586E+001
  0
LINE
  8
1
  6
CONTINUOUS
 62
7
 10
2.6839356E+002
 20
1.0454087E+002
 11
2.7192167E+002
 21
1.0454087E+002
  0
LINE
  8
1
  6
CONTINUOUS
 62
7
 10
2.7192167E+002
 20
1.0454087E+002
 11
2.7192167E+002
 21
1.1365886E+002
  0
LINE
  8
1
  6
CONTINUOUS
 62
7
 10
2.7192167E+002
 20
1.1365886E+002
 11
2.7889356E+002
 21
1.1365886E+002
  0
LINE
  8
1
  6
CONTINUOUS
 62
7
 10
2.4589356E+002
 20
1.1765886E+002
 11
2.5089356E+002
 21
1.1765886E+002
  0
LINE
  8
1
  6
CONTINUOUS
 62
7
 10
2.5189356E+002
 20
1.1765886E+002
 11
2.5289356E+002
 21
1.1765886E+002
  0
LINE
  8
1
  6
CONTINUOUS
 62
7
 10
2.4889356E+002
 20
1.0065886E+002
 11
2.5389356E+002
 21
1.0065886E+002
  0
LINE
  8
1
  6
CONTINUOUS
 62
7
 10
2.5489356E+002
 20
1.0065886E+002
 11
2.5589356E+002
 21
1.0065886E+002
  0
LINE
  8
1
  6
CONTINUOUS
 62
7
 10
2.4589356E+002
 20
1.1765886E+002
 11
2.4589356E+002
 21
1.1465886E+002
  0
LINE
  8
1
  6
CONTINUOUS
 62
7
 10
2.4589356E+002
 20
1.1365886E+002
 11
2.4589356E+002
 21
1.1265886E+002
  0
LINE
  8
1
  6
CONTINUOUS
 62
7
 10
2.4589356E+002
 20
1.1165886E+002
 11
2.4589356E+002
 21
1.0665886E+002
  0
LINE
  8
1
  6
CONTINUOUS
 62
7
 10
2.4589356E+002
 20
1.0565886E+002
 11
2.4589356E+002
 21
1.0465886E+002
  0
LINE
  8
1
  6
CONTINUOUS
 62
7
 10
2.4589356E+002
 20
1.0365886E+002
 11
2.4589356E+002
 21
1.0065886E+002
  0
LINE
  8
1
  6
CONTINUOUS
 62
7
 10
2.4589356E+002
 20
1.0065886E+002
 11
2.4765341E+002
 21
1.0065886E+002
  0
INSERT
  2
*TX476
  8
1
 10
2.0039356E+002
 20
7.8146971E+001
  0
INSERT
  2
*TX477
  8
1
 10
2.4357187E+002
 20
1.8117101E+002
  0
INSERT
  2
*TX478
  8
1
 10
2.2898711E+002
 20
1.7114697E+002
  0
LINE
  8
1
  6
CONTINUOUS
 62
7
 10
1.421576E+002
 20
9.5215586E+001
 11
1.441576E+002
 21
9.5215586E+001
  0
LINE
  8
1
  6
CONTINUOUS
 62
7
 10
1.421576E+002
 20
9.0215586E+001
 11
1.431576E+002
 21
9.6215586E+001
  0
LINE
  8
1
  6
CONTINUOUS
 62
7
 10
1.651576E+002
 20
9.5215586E+001
 11
1.671576E+002
 21
9.5215586E+001
  0
LINE
  8
1
  6
CONTINUOUS
 62
7
 10
1.651576E+002
 20
9.0215586E+001
 11
1.661576E+002
 21
9.6215586E+001
  0
LINE
  8
1
  6
CONTINUOUS
 62
7
 10
1.651576E+002
 20
9.0215586E+001
 11
1.651576E+002
 21
8.1171008E+001
  0
LINE
  8
1
  6
CONTINUOUS
 62
7
 10
1.421576E+002
 20
9.0215586E+001
 11
1.421576E+002
 21
8.1171008E+001
  0
LINE
  8
1
  6
CONTINUOUS
 62
7
 10
1.141576E+002
 20
9.0171008E+001
 11
1.121576E+002
 21
9.5171008E+001
  0
LINE
  8
1
  6
CONTINUOUS
 62
7
 10
1.216576E+002
 20
9.0171008E+001
 11
1.196576E+002
 21
9.5171008E+001
  0
LINE
  8
1
  6
CONTINUOUS
 62
7
 10
1.216576E+002
 20
9.0171008E+001
 11
1.216576E+002
 21
8.6658858E+001
  0
LINE
  8
1
  6
CONTINUOUS
 62
7
 10
1.141576E+002
 20
8.6658858E+001
 11
1.141576E+002
 21
9.0171008E+001
  0
LINE
  8
1
  6
CONTINUOUS
 62
7
 10
1.141576E+002
 20
8.6658858E+001
 11
1.216576E+002
 21
8.6658858E+001
  0
LINE
  8
1
  6
SHORT_DASH
 62
7
 10
9.0157599E+001
 20
7.6171008E+001
 11
1.0224404E+002
 21
7.6171008E+001
  0
LINE
  8
1
  6
SHORT_DASH
 62
7
 10
9.0157599E+001
 20
7.9171008E+001
 11
1.0224404E+002
 21
7.9171008E+001
  0
LINE
  8
1
  6
CONTINUOUS
 62
7
 10
1.0224404E+002
 20
7.9171008E+001
 11
1.0224404E+002
 21
7.3171008E+001
  0
LINE
  8
1
  6
CONTINUOUS
 62
7
 10
9.9657599E+001
 20
7.3171008E+001
 11
1.736576E+002
 21
7.3171008E+001
  0
LINE
  8
1
  6
CONTINUOUS
 62
7
 10
1.431576E+002
 20
1.0065886E+002
 11
1.481576E+002
 21
1.0065886E+002
  0
LINE
  8
1
  6
CONTINUOUS
 62
7
 10
1.501576E+002
 20
1.0065886E+002
 11
1.491576E+002
 21
1.0065886E+002
  0
LINE
  8
1
  6
CONTINUOUS
 62
7
 10
1.561576E+002
 20
1.0065886E+002
 11
1.511576E+002
 21
1.0065886E+002
  0
LINE
  8
1
  6
CONTINUOUS
 62
7
 10
1.581576E+002
 20
1.0065886E+002
 11
1.571576E+002
 21
1.0065886E+002
  0
LINE
  8
1
  6
CONTINUOUS
 62
7
 10
1.641576E+002
 20
1.0065886E+002
 11
1.591576E+002
 21
1.0065886E+002
  0
LINE
  8
1
  6
CONTINUOUS
 62
7
 10
1.671576E+002
 20
1.0065886E+002
 11
1.661576E+002
 21
1.0065886E+002
  0
LINE
  8
1
  6
CONTINUOUS
 62
7
 10
1.731576E+002
 20
1.0065886E+002
 11
1.681576E+002
 21
1.0065886E+002
  0
LINE
  8
1
  6
CONTINUOUS
 62
7
 10
1.751576E+002
 20
1.0065886E+002
 11
1.741576E+002
 21
1.0065886E+002
  0
TEXT
  8
1
  6
CONTINUOUS
 62
7
 10
1.134076E+002
 20
9.6171008E+001
 40
2.0
  1
13
 41
7.5E-001
 50
9.0E+001
  0
TEXT
  8
1
  6
CONTINUOUS
 62
7
 10
1.134076E+002
 20
8.7171008E+001
 40
2.0
  1
14
 41
7.5E-001
 50
9.0E+001
  0
TEXT
  8
1
  6
CONTINUOUS
 62
7
 10
1.209076E+002
 20
9.6171008E+001
 40
2.0
  1
13
 41
7.5E-001
 50
9.0E+001
  0
TEXT
  8
1
  6
CONTINUOUS
 62
7
 10
1.209076E+002
 20
8.7171008E+001
 40
2.0
  1
14
 41
7.5E-001
 50
9.0E+001
  0
TEXT
  8
1
  6
CONTINUOUS
 62
7
 10
1.644076E+002
 20
7.0052393E+001
 40
2.0
  1
Y
 41
7.5E-001
  0
TEXT
  8
1
  6
CONTINUOUS
 62
7
 10
1.126576E+002
 20
7.8802393E+001
 40
2.0
  1
KM1
 41
7.5E-001
  0
TEXT
  8
1
  6
CONTINUOUS
 62
7
 10
1.209076E+002
 20
7.0052393E+001
 40
2.0
  1
L
 41
7.5E-001
  0
TEXT
  8
1
  6
CONTINUOUS
 62
7
 10
1.076576E+002
 20
9.1802393E+001
 40
2.0
  1
KM2
 41
7.5E-001
  0
TEXT
  8
1
  6
CONTINUOUS
 62
7
 10
1.151576E+002
 20
9.1802393E+001
 40
2.0
  1
KM1
 41
7.5E-001
  0
LINE
  8
1
  6
CONTINUOUS
 62
7
 10
1.141576E+002
 20
1.0065886E+002
 11
1.216576E+002
 21
1.0065886E+002
  0
LINE
  8
1
  6
CONTINUOUS
 62
7
 10
1.216576E+002
 20
8.6658858E+001
 11
1.216576E+002
 21
8.1171008E+001
  0
LINE
  8
1
  6
CONTINUOUS
 62
7
 10
1.216576E+002
 20
1.0065886E+002
 11
1.216576E+002
 21
9.5183871E+001
  0
LINE
  8
1
  6
CONTINUOUS
 62
7
 10
1.141576E+002
 20
1.0065886E+002
 11
1.141576E+002
 21
9.5183871E+001
  0
LINE
  8
1
  6
CONTINUOUS
 62
7
 10
1.611576E+002
 20
7.8171008E+001
 11
1.691576E+002
 21
7.8171008E+001
  0
LINE
  8
1
  6
CONTINUOUS
 62
7
 10
1.381576E+002
 20
7.8171008E+001
 11
1.461576E+002
 21
7.8171008E+001
  0
LINE
  8
1
  6
CONTINUOUS
 62
7
 10
1.381576E+002
 20
8.1171008E+001
 11
1.461576E+002
 21
8.1171008E+001
  0
LINE
  8
1
  6
CONTINUOUS
 62
7
 10
1.611576E+002
 20
8.1171008E+001
 11
1.691576E+002
 21
8.1171008E+001
  0
LINE
  8
1
  6
CONTINUOUS
 62
7
 10
1.381576E+002
 20
8.1171008E+001
 11
1.381576E+002
 21
7.8171008E+001
  0
LINE
  8
1
  6
CONTINUOUS
 62
7
 10
1.461576E+002
 20
8.1171008E+001
 11
1.461576E+002
 21
7.8171008E+001
  0
LINE
  8
1
  6
CONTINUOUS
 62
7
 10
1.611576E+002
 20
8.1171008E+001
 11
1.611576E+002
 21
7.8171008E+001
  0
LINE
  8
1
  6
CONTINUOUS
 62
7
 10
1.691576E+002
 20
8.1171008E+001
 11
1.691576E+002
 21
7.8171008E+001
  0
LINE
  8
1
  6
CONTINUOUS
 62
7
 10
1.651576E+002
 20
7.8171008E+001
 11
1.651576E+002
 21
7.3171008E+001
  0
LINE
  8
1
  6
CONTINUOUS
 62
7
 10
1.421576E+002
 20
7.8171008E+001
 11
1.421576E+002
 21
7.3171008E+001
  0
LINE
  8
1
  6
CONTINUOUS
 62
7
 10
1.176576E+002
 20
7.8171008E+001
 11
1.256576E+002
 21
7.8171008E+001
  0
LINE
  8
1
  6
CONTINUOUS
 62
7
 10
1.176576E+002
 20
8.1171008E+001
 11
1.256576E+002
 21
8.1171008E+001
  0
LINE
  8
1
  6
CONTINUOUS
 62
7
 10
1.176576E+002
 20
8.1171008E+001
 11
1.176576E+002
 21
7.8171008E+001
  0
LINE
  8
1
  6
CONTINUOUS
 62
7
 10
1.216576E+002
 20
7.8171008E+001
 11
1.216576E+002
 21
7.3171008E+001
  0
LINE
  8
1
  6
CONTINUOUS
 62
7
 10
1.546576E+002
 20
1.0665886E+002
 11
1.546576E+002
 21
1.0454087E+002
  0
LINE
  8
1
  6
CONTINUOUS
 62
7
 10
1.6020811E+002
 20
1.0965886E+002
 11
1.656576E+002
 21
1.0965886E+002
  0
LINE
  8
1
  6
CONTINUOUS
 62
7
 10
1.6020811E+002
 20
1.0865886E+002
 11
1.6557427E+002
 21
1.0865886E+002
  0
LINE
  8
1
  6
SHORT_DASH
 62
7
 10
1.411576E+002
 20
1.0915886E+002
 11
1.5970811E+002
 21
1.0915886E+002
  0
TEXT
  8
1
  6
CONTINUOUS
 62
7
 10
1.414076E+002
 20
1.0085886E+002
 40
2.0
  1
18
 41
7.5E-001
 50
9.0E+001
  0
LINE
  8
1
  6
CONTINUOUS
 62
7
 10
1.3720811E+002
 20
1.0965886E+002
 11
1.409576E+002
 21
1.0965886E+002
  0
LINE
  8
1
  6
CONTINUOUS
 62
7
 10
1.3720811E+002
 20
1.0865886E+002
 11
1.413576E+002
 21
1.0865886E+002
  0
LINE
  8
1
  6
CONTINUOUS
 62
7
 10
1.651576E+002
 20
1.0665886E+002
 11
1.651576E+002
 21
9.5215586E+001
  0
LINE
  8
1
  6
CONTINUOUS
 62
7
 10
1.736576E+002
 20
1.0715886E+002
 11
1.736576E+002
 21
7.3171008E+001
  0
LINE
  8
1
  6
SHORT_DASH
 62
7
 10
1.6557427E+002
 20
1.0915886E+002
 11
1.696576E+002
 21
1.0915886E+002
  0
TEXT
  8
1
  6
CONTINUOUS
 62
7
 10
1.729076E+002
 20
1.0105886E+002
 40
2.0
  1
A2
 41
7.5E-001
 50
9.0E+001
  0
TEXT
  8
1
  6
CONTINUOUS
 62
7
 10
1.319076E+002
 20
1.0410886E+002
 40
2.0
  1
t1+t2
 41
7.5E-001
  0
TEXT
  8
1
  6
CONTINUOUS
 62
7
 10
1.594076E+002
 20
1.0410886E+002
 40
2.0
  1
t1
 41
7.5E-001
  0
TEXT
  8
1
  6
CONTINUOUS
 62
7
 10
1.644076E+002
 20
1.0085886E+002
 40
2.0
  1
16
 41
7.5E-001
 50
9.0E+001
  0
TEXT
  8
1
  6
CONTINUOUS
 62
7
 10
1.209076E+002
 20
8.2171008E+001
 40
2.0
  1
A1
 41
7.5E-001
 50
9.0E+001
  0
TEXT
  8
1
  6
CONTINUOUS
 62
7
 10
1.209076E+002
 20
7.4171008E+001
 40
2.0
  1
A2
 41
7.5E-001
 50
9.0E+001
  0
TEXT
  8
1
  6
CONTINUOUS
 62
7
 10
1.644076E+002
 20
8.2171008E+001
 40
2.0
  1
A1
 41
7.5E-001
 50
9.0E+001
  0
TEXT
  8
1
  6
CONTINUOUS
 62
7
 10
1.644076E+002
 20
7.4171008E+001
 40
2.0
  1
A2
 41
7.5E-001
 50
9.0E+001
  0
TEXT
  8
1
  6
CONTINUOUS
 62
7
 10
1.414076E+002
 20
8.2171008E+001
 40
2.0
  1
A1
 41
7.5E-001
 50
9.0E+001
  0
TEXT
  8
1
  6
CONTINUOUS
 62
7
 10
1.414076E+002
 20
7.4171008E+001
 40
2.0
  1
A2
 41
7.5E-001
 50
9.0E+001
  0
LINE
  8
1
  6
CONTINUOUS
 62
7
 10
1.421576E+002
 20
7.2058858E+001
 11
1.4099917E+002
 21
7.0052393E+001
  0
LINE
  8
1
  6
CONTINUOUS
 62
7
 10
1.421576E+002
 20
7.2058858E+001
 11
1.4331603E+002
 21
7.0052393E+001
  0
LINE
  8
1
  6
CONTINUOUS
 62
7
 10
1.256576E+002
 20
8.1171008E+001
 11
1.256576E+002
 21
7.8171008E+001
  0
LINE
  8
1
  6
SHORT_DASH
 62
7
 10
1.426576E+002
 20
9.3215586E+001
 11
1.476576E+002
 21
9.3215586E+001
  0
LINE
  8
1
  6
SHORT_DASH
 62
7
 10
1.596576E+002
 20
7.9671008E+001
 11
1.476576E+002
 21
9.3215586E+001
  0
LINE
  8
1
  6
SHORT_DASH
 62
7
 10
1.5484517E+002
 20
7.9671008E+001
 11
1.611576E+002
 21
7.9671008E+001
  0
LINE
  8
1
  6
SHORT_DASH
 62
7
 10
1.476576E+002
 20
7.9671008E+001
 11
1.5976148E+002
 21
9.3215586E+001
  0
LINE
  8
1
  6
SHORT_DASH
 62
7
 10
1.656576E+002
 20
9.3215586E+001
 11
1.5976148E+002
 21
9.3215586E+001
  0
LINE
  8
1
  6
SHORT_DASH
 62
7
 10
1.461576E+002
 20
7.9671008E+001
 11
1.5252174E+002
 21
7.9671008E+001
  0
LINE
  8
1
  6
CONTINUOUS
 62
7
 10
1.5137406E+002
 20
8.1658858E+001
 11
1.5599286E+002
 21
8.1658858E+001
  0
LINE
  8
1
  6
CONTINUOUS
 62
7
 10
1.5137406E+002
 20
8.1658858E+001
 11
1.5368346E+002
 21
7.7658858E+001
  0
LINE
  8
1
  6
CONTINUOUS
 62
7
 10
1.5599286E+002
 20
8.1658858E+001
 11
1.5368346E+002
 21
7.7658858E+001
  0
TEXT
  8
1
  6
CONTINUOUS
 62
7
 10
1.331576E+002
 20
7.6802393E+001
 40
2.0
  1
KM3
 41
7.5E-001
  0
LINE
  8
1
  6
CONTINUOUS
 62
7
 10
1.6217754E+002
 20
9.0191286E+001
 11
1.6217754E+002
 21
8.7191286E+001
  0
LINE
  8
1
  6
CONTINUOUS
 62
7
 10
1.6467754E+002
 20
9.0191286E+001
 11
1.6217754E+002
 21
9.0191286E+001
  0
LINE
  8
1
  6
CONTINUOUS
 62
7
 10
1.6217754E+002
 20
8.7191286E+001
 11
1.6467754E+002
 21
8.7191286E+001
  0
TEXT
  8
1
  6
CONTINUOUS
 62
7
 10
1.414076E+002
 20
8.7215586E+001
 40
2.0
  1
02
 41
7.5E-001
 50
9.0E+001
  0
LINE
  8
1
  6
CONTINUOUS
 62
7
 10
1.6467754E+002
 20
8.7191286E+001
 11
1.6467754E+002
 21
9.0191286E+001
  0
TEXT
  8
1
  6
CONTINUOUS
 62
7
 10
1.414076E+002
 20
9.6215586E+001
 40
2.0
  1
01
 41
7.5E-001
 50
9.0E+001
  0
LINE
  8
1
  6
CONTINUOUS
 62
7
 10
1.6467754E+002
 20
9.9203436E+001
 11
1.6217754E+002
 21
9.9203436E+001
  0
LINE
  8
1
  6
CONTINUOUS
 62
7
 10
1.6467754E+002
 20
9.6203436E+001
 11
1.6467754E+002
 21
9.9203436E+001
  0
LINE
  8
1
  6
CONTINUOUS
 62
7
 10
1.6217754E+002
 20
9.6203436E+001
 11
1.6467754E+002
 21
9.6203436E+001
  0
LINE
  8
1
  6
CONTINUOUS
 62
7
 10
1.6217754E+002
 20
9.9203436E+001
 11
1.6217754E+002
 21
9.6203436E+001
  0
TEXT
  8
1
  6
CONTINUOUS
 62
7
 10
1.644076E+002
 20
9.6215586E+001
 40
2.0
  1
01
 41
7.5E-001
 50
9.0E+001
  0
TEXT
  8
1
  6
CONTINUOUS
 62
7
 10
1.644076E+002
 20
8.7215586E+001
 40
2.0
  1
02
 41
7.5E-001
 50
9.0E+001
  0
TEXT
  8
1
  6
CONTINUOUS
 62
7
 10
1.561576E+002
 20
7.6802393E+001
 40
2.0
  1
KM2
 41
7.5E-001
  0
LINE
  8
1
  6
CONTINUOUS
 62
7
 10
1.4099917E+002
 20
7.0052393E+001
 11
1.4331603E+002
 21
7.0052393E+001
  0
LINE
  8
1
  6
CONTINUOUS
 62
7
 10
1.421576E+002
 20
1.0665886E+002
 11
1.421576E+002
 21
9.5215586E+001
  0
LINE
  8
1
  6
CONTINUOUS
 62
7
 10
1.546576E+002
 20
1.0454087E+002
 11
1.5818571E+002
 21
1.0454087E+002
  0
LINE
  8
1
  6
CONTINUOUS
 62
7
 10
1.351576E+002
 20
1.0065886E+002
 11
1.401576E+002
 21
1.0065886E+002
  0
LINE
  8
1
  6
CONTINUOUS
 62
7
 10
1.411576E+002
 20
1.0065886E+002
 11
1.421576E+002
 21
1.0065886E+002
  0
LINE
  8
1
  6
CONTINUOUS
 62
7
 10
1.321576E+002
 20
1.0565886E+002
 11
1.321576E+002
 21
1.0465886E+002
  0
LINE
  8
1
  6
CONTINUOUS
 62
7
 10
1.321576E+002
 20
1.0365886E+002
 11
1.321576E+002
 21
1.0065886E+002
  0
LINE
  8
1
  6
CONTINUOUS
 62
7
 10
1.321576E+002
 20
1.0065886E+002
 11
1.3391745E+002
 21
1.0065886E+002
  0
INSERT
  2
*TX479
  8
1
 10
8.6657599E+001
 20
7.8146971E+001
  0
LINE
  8
1
  6
CONTINUOUS
 62
7
 10
1.216576E+002
 20
1.0065886E+002
 11
1.216576E+002
 21
1.2165886E+002
  0
LINE
  8
1
  6
CONTINUOUS
 62
7
 10
1.761576E+002
 20
1.0065886E+002
 11
1.811576E+002
 21
1.0065886E+002
  0
LINE
  8
1
  6
CONTINUOUS
 62
7
 10
1.811576E+002
 20
1.0365886E+002
 11
1.811576E+002
 21
1.0065886E+002
  0
LINE
  8
1
  6
CONTINUOUS
 62
7
 10
1.811576E+002
 20
1.0565886E+002
 11
1.811576E+002
 21
1.0465886E+002
  0
LINE
  8
1
  6
CONTINUOUS
 62
7
 10
1.811576E+002
 20
1.1165886E+002
 11
1.811576E+002
 21
1.0665886E+002
  0
LINE
  8
1
  6
CONTINUOUS
 62
7
 10
1.811576E+002
 20
1.1365886E+002
 11
1.811576E+002
 21
1.1265886E+002
  0
LINE
  8
1
  6
CONTINUOUS
 62
7
 10
1.811576E+002
 20
1.1765886E+002
 11
1.811576E+002
 21
1.1465886E+002
  0
LINE
  8
1
  6
CONTINUOUS
 62
7
 10
1.791576E+002
 20
1.1765886E+002
 11
1.811576E+002
 21
1.1765886E+002
  0
LINE
  8
1
  6
CONTINUOUS
 62
7
 10
1.771576E+002
 20
1.1765886E+002
 11
1.781576E+002
 21
1.1765886E+002
  0
LINE
  8
1
  6
CONTINUOUS
 62
7
 10
1.711576E+002
 20
1.1765886E+002
 11
1.761576E+002
 21
1.1765886E+002
  0
LINE
  8
1
  6
CONTINUOUS
 62
7
 10
1.691576E+002
 20
1.1765886E+002
 11
1.701576E+002
 21
1.1765886E+002
  0
LINE
  8
1
  6
CONTINUOUS
 62
7
 10
1.631576E+002
 20
1.1765886E+002
 11
1.681576E+002
 21
1.1765886E+002
  0
LINE
  8
1
  6
CONTINUOUS
 62
7
 10
1.611576E+002
 20
1.1765886E+002
 11
1.621576E+002
 21
1.1765886E+002
  0
LINE
  8
1
  6
CONTINUOUS
 62
7
 10
1.551576E+002
 20
1.1765886E+002
 11
1.601576E+002
 21
1.1765886E+002
  0
LINE
  8
1
  6
CONTINUOUS
 62
7
 10
1.481576E+002
 20
1.1765886E+002
 11
1.531576E+002
 21
1.1765886E+002
  0
LINE
  8
1
  6
CONTINUOUS
 62
7
 10
1.461576E+002
 20
1.1765886E+002
 11
1.471576E+002
 21
1.1765886E+002
  0
LINE
  8
1
  6
CONTINUOUS
 62
7
 10
1.401576E+002
 20
1.1765886E+002
 11
1.451576E+002
 21
1.1765886E+002
  0
TEXT
  8
1
  6
CONTINUOUS
 62
7
 10
1.374076E+002
 20
1.3217101E+002
 40
2.0
  1
23
 41
7.5E-001
 50
9.0E+001
  0
TEXT
  8
1
  6
CONTINUOUS
 62
7
 10
1.316576E+002
 20
1.2780239E+002
 40
2.0
  1
KM1
 41
7.5E-001
  0
TEXT
  8
1
  6
CONTINUOUS
 62
7
 10
1.374076E+002
 20
1.2317101E+002
 40
2.0
  1
24
 41
7.5E-001
 50
9.0E+001
  0
LINE
  8
1
  6
CONTINUOUS
 62
7
 10
1.381576E+002
 20
1.2617101E+002
 11
1.361576E+002
 21
1.3117101E+002
  0
LINE
  8
1
  6
CONTINUOUS
 62
7
 10
1.381576E+002
 20
1.2617101E+002
 11
1.381576E+002
 21
1.2165886E+002
  0
LINE
  8
1
  6
CONTINUOUS
 62
7
 10
1.381576E+002
 20
1.3665886E+002
 11
1.381576E+002
 21
1.3018387E+002
  0
LINE
  8
1
  6
CONTINUOUS
 62
7
 10
1.651576E+002
 20
1.1165886E+002
 11
1.671576E+002
 21
1.1165886E+002
  0
LINE
  8
1
  6
CONTINUOUS
 62
7
 10
1.546576E+002
 20
1.1165886E+002
 11
1.546576E+002
 21
1.2165886E+002
  0
LINE
  8
1
  6
CONTINUOUS
 62
7
 10
1.651576E+002
 20
1.0665886E+002
 11
1.661576E+002
 21
1.1265886E+002
  0
LINE
  8
1
  6
CONTINUOUS
 62
7
 10
1.546576E+002
 20
1.0665886E+002
 11
1.526576E+002
 21
1.1165886E+002
  0
TEXT
  8
1
  6
CONTINUOUS
 62
7
 10
1.539076E+002
 20
1.1390886E+002
 40
2.0
  1
15
 41
7.5E-001
 50
9.0E+001
  0
ARC
  8
1
  6
CONTINUOUS
 62
7
 10
1.626576E+002
 20
1.0915886E+002
 40
2.5
 50
1.1356542E+002
 51
2.4643458E+002
  0
LINE
  8
1
  6
CONTINUOUS
 62
7
 10
1.421576E+002
 20
1.1365886E+002
 11
1.546576E+002
 21
1.1365886E+002
  0
LINE
  8
1
  6
CONTINUOUS
 62
7
 10
1.421576E+002
 20
1.1365886E+002
 11
1.421576E+002
 21
1.1165886E+002
  0
LINE
  8
1
  6
CONTINUOUS
 62
7
 10
1.696576E+002
 20
1.0715886E+002
 11
1.696576E+002
 21
1.1115886E+002
  0
LINE
  8
1
  6
CONTINUOUS
 62
7
 10
1.421576E+002
 20
1.0665886E+002
 11
1.401576E+002
 21
1.1165886E+002
  0
LINE
  8
1
  6
CONTINUOUS
 62
7
 10
1.651576E+002
 20
1.1165886E+002
 11
1.651576E+002
 21
1.1365886E+002
  0
ARC
  8
1
  6
CONTINUOUS
 62
7
 10
1.396576E+002
 20
1.0915886E+002
 40
2.5
 50
1.1356542E+002
 51
2.4643458E+002
  0
LINE
  8
1
  6
CONTINUOUS
 62
7
 10
1.776576E+002
 20
1.0715886E+002
 11
1.776576E+002
 21
1.1115886E+002
  0
LINE
  8
1
  6
CONTINUOUS
 62
7
 10
1.796576E+002
 20
1.0715886E+002
 11
1.796576E+002
 21
1.1115886E+002
  0
LINE
  8
1
  6
CONTINUOUS
 62
7
 10
1.696576E+002
 20
1.1115886E+002
 11
1.796576E+002
 21
1.1115886E+002
  0
LINE
  8
1
  6
CONTINUOUS
 62
7
 10
1.696576E+002
 20
1.0715886E+002
 11
1.796576E+002
 21
1.0715886E+002
  0
LINE
  8
1
  6
CONTINUOUS
 62
7
 10
1.796576E+002
 20
1.1115886E+002
 11
1.776576E+002
 21
1.0715886E+002
  0
LINE
  8
1
  6
CONTINUOUS
 62
7
 10
1.776576E+002
 20
1.1115886E+002
 11
1.796576E+002
 21
1.0715886E+002
  0
LINE
  8
1
  6
CONTINUOUS
 62
7
 10
1.736576E+002
 20
1.1115886E+002
 11
1.736576E+002
 21
1.2165886E+002
  0
TEXT
  8
1
  6
CONTINUOUS
 62
7
 10
1.731576E+002
 20
1.1420886E+002
 40
2.0
  1
A1
 41
7.5E-001
 50
9.0E+001
  0
TEXT
  8
1
  6
CONTINUOUS
 62
7
 10
1.396576E+002
 20
1.1465886E+002
 40
2.0
  1
KT
 41
7.5E-001
  0
LINE
  8
1
  6
CONTINUOUS
 62
7
 10
1.5818571E+002
 20
1.0454087E+002
 11
1.5818571E+002
 21
1.1365886E+002
  0
LINE
  8
1
  6
CONTINUOUS
 62
7
 10
1.5818571E+002
 20
1.1365886E+002
 11
1.651576E+002
 21
1.1365886E+002
  0
LINE
  8
1
  6
CONTINUOUS
 62
7
 10
1.321576E+002
 20
1.1765886E+002
 11
1.371576E+002
 21
1.1765886E+002
  0
LINE
  8
1
  6
CONTINUOUS
 62
7
 10
1.381576E+002
 20
1.1765886E+002
 11
1.391576E+002
 21
1.1765886E+002
  0
LINE
  8
1
  6
CONTINUOUS
 62
7
 10
1.321576E+002
 20
1.1765886E+002
 11
1.321576E+002
 21
1.1465886E+002
  0
LINE
  8
1
  6
CONTINUOUS
 62
7
 10
1.321576E+002
 20
1.1365886E+002
 11
1.321576E+002
 21
1.1265886E+002
  0
LINE
  8
1
  6
CONTINUOUS
 62
7
 10
1.321576E+002
 20
1.1165886E+002
 11
1.321576E+002
 21
1.0665886E+002
  0
LINE
  8
1
  6
CONTINUOUS
 62
7
 10
1.216576E+002
 20
1.2165886E+002
 11
1.736576E+002
 21
1.2165886E+002
  0
TEXT
  8
1
  6
CONTINUOUS
 62
7
 10
8.039416E+001
 20
2.7139119E+002
 40
4.0
  1
STAR-DELTA STARTER / STERN-DREIECK-ANLASSER / DEMARREUR ETOILE-TRIANGLE   
 41
7.5E-001
  0
TEXT
  8
1
  6
CONTINUOUS
 62
7
 10
2.9372716E+002
 20
2.5367101E+002
 40
2.25
  1
Adjunction/Zusatz/Adjonction
 41
7.5E-001
  0
TEXT
  8
1
  6
CONTINUOUS
 62
7
 10
2.8697716E+002
 20
2.4467101E+002
 40
2.25
  1
(1) DR
 41
7.5E-001
  0
TEXT
  8
1
  6
CONTINUOUS
 62
7
 10
2.9972716E+002
 20
2.2367101E+002
 40
2.25
  1
On/Ein/Marche
 41
7.5E-001
  0
TEXT
  8
1
  6
CONTINUOUS
 62
7
 10
2.9972716E+002
 20
2.1917101E+002
 40
2.25
  1
Off/Aus/Arrêt
 41
7.5E-001
  0
TEXT
  8
1
  6
CONTINUOUS
 62
7
 10
2.9372716E+002
 20
2.2367101E+002
 40
2.25
  1
H1
 41
7.5E-001
  0
TEXT
  8
1
  6
CONTINUOUS
 62
7
 10
2.9372716E+002
 20
2.1917101E+002
 40
2.25
  1
H2
 41
7.5E-001
  0
TEXT
  8
1
  6
CONTINUOUS
 62
7
 10
2.9372716E+002
 20
2.1067101E+002
 40
2.25
  1
H3
 41
7.5E-001
  0
TEXT
  8
1
  6
CONTINUOUS
 62
7
 10
2.9372716E+002
 20
1.9917101E+002
 40
2.25
  1
H9
 41
7.5E-001
  0
TEXT
  8
1
  6
CONTINUOUS
 62
7
 10
2.8822716E+002
 20
1.8717101E+002
 40
2.25
  1
(1)
 41
7.5E-001
  0
TEXT
  8
1
  6
CONTINUOUS
 62
7
 10
2.9526655E+002
 20
1.7467101E+002
 40
2.25
  1
Adjunction/Zusatz/Adjonction
 41
7.5E-001
  0
LINE
  8
1
  6
CONTINUOUS
 62
7
 10
3.3272716E+002
 20
1.5117101E+002
 11
3.3072716E+002
 21
1.5617101E+002
  0
LINE
  8
1
  6
CONTINUOUS
 62
7
 10
3.3272716E+002
 20
1.5617101E+002
 11
3.3272716E+002
 21
1.7217101E+002
  0
TEXT
  8
1
  6
CONTINUOUS
 62
7
 10
2.8697716E+002
 20
2.3215886E+002
 40
2.25
  1
(1) DS
 41
7.5E-001
  0
TEXT
  8
1
  6
CONTINUOUS
 62
7
 10
3.3197716E+002
 20
1.4767101E+002
 40
2.0
  1
98
 41
7.5E-001
 50
9.0E+001
  0
TEXT
  8
1
  6
CONTINUOUS
 62
7
 10
3.3197716E+002
 20
1.5717101E+002
 40
2.0
  1
97
 41
7.5E-001
 50
9.0E+001
  0
LINE
  8
1
  6
CONTINUOUS
 62
7
 10
3.6072716E+002
 20
1.7217101E+002
 11
3.6072716E+002
 21
8.1671008E+001
  0
LINE
  8
1
  6
CONTINUOUS
 62
7
 10
2.9872716E+002
 20
7.3171008E+001
 11
3.0772716E+002
 21
7.3171008E+001
  0
LINE
  8
1
  6
CONTINUOUS
 62
7
 10
3.3654663E+002
 20
1.7217101E+002
 11
3.5172716E+002
 21
1.7217101E+002
  0
CIRCLE
  8
1
  6
CONTINUOUS
 62
7
 10
3.6072716E+002
 20
7.9671008E+001
 40
2.0
  0
LINE
  8
1
  6
CONTINUOUS
 62
7
 10
3.5931295E+002
 20
8.1085222E+001
 11
3.6214138E+002
 21
7.8256794E+001
  0
LINE
  8
1
  6
CONTINUOUS
 62
7
 10
3.6214138E+002
 20
8.1085222E+001
 11
3.5931295E+002
 21
7.8256794E+001
  0
LINE
  8
1
  6
CONTINUOUS
 62
7
 10
3.6072716E+002
 20
7.7671008E+001
 11
3.6072716E+002
 21
7.3171008E+001
  0
CIRCLE
  8
1
  6
CONTINUOUS
 62
7
 10
3.5172716E+002
 20
7.9671008E+001
 40
2.0
  0
LINE
  8
1
  6
CONTINUOUS
 62
7
 10
3.5031295E+002
 20
8.1085222E+001
 11
3.5314138E+002
 21
7.8256794E+001
  0
LINE
  8
1
  6
CONTINUOUS
 62
7
 10
3.5314138E+002
 20
8.1085222E+001
 11
3.5031295E+002
 21
7.8256794E+001
  0
CIRCLE
  8
1
  6
CONTINUOUS
 62
7
 10
3.4272716E+002
 20
7.9671008E+001
 40
2.0
  0
LINE
  8
1
  6
CONTINUOUS
 62
7
 10
3.4131295E+002
 20
8.1085222E+001
 11
3.4414138E+002
 21
7.8256794E+001
  0
LINE
  8
1
  6
CONTINUOUS
 62
7
 10
3.4414138E+002
 20
8.1085222E+001
 11
3.4131295E+002
 21
7.8256794E+001
  0
LINE
  8
1
  6
CONTINUOUS
 62
7
 10
3.5172716E+002
 20
7.7671008E+001
 11
3.5172716E+002
 21
7.3171008E+001
  0
LINE
  8
1
  6
CONTINUOUS
 62
7
 10
3.4272716E+002
 20
7.7671008E+001
 11
3.4272716E+002
 21
7.3171008E+001
  0
LINE
  8
1
  6
CONTINUOUS
 62
7
 10
3.547423E+002
 20
7.3171008E+001
 11
3.6072716E+002
 21
7.3171008E+001
  0
LINE
  8
1
  6
CONTINUOUS
 62
7
 10
3.4587124E+002
 20
7.3171008E+001
 11
3.5172716E+002
 21
7.3171008E+001
  0
LINE
  8
1
  6
CONTINUOUS
 62
7
 10
3.5172716E+002
 20
8.1671008E+001
 11
3.5172716E+002
 21
1.0420271E+002
  0
LINE
  8
1
  6
CONTINUOUS
 62
7
 10
3.4272716E+002
 20
8.1671008E+001
 11
3.4272716E+002
 21
1.4917101E+002
  0
LINE
  8
1
  6
CONTINUOUS
 62
7
 10
3.3272716E+002
 20
8.1171008E+001
 11
3.3272716E+002
 21
9.0215586E+001
  0
LINE
  8
1
  6
CONTINUOUS
 62
7
 10
3.2872716E+002
 20
8.1171008E+001
 11
3.2872716E+002
 21
7.8171008E+001
  0
TEXT
  8
1
  6
CONTINUOUS
 62
7
 10
3.2552716E+002
 20
7.8802393E+001
 40
2.0
  1
DR
 41
7.5E-001
  0
LINE
  8
1
  6
CONTINUOUS
 62
7
 10
3.2872716E+002
 20
8.1171008E+001
 11
3.3672716E+002
 21
8.1171008E+001
  0
LINE
  8
1
  6
CONTINUOUS
 62
7
 10
3.2872716E+002
 20
7.8171008E+001
 11
3.3672716E+002
 21
7.8171008E+001
  0
LINE
  8
1
  6
CONTINUOUS
 62
7
 10
3.3672716E+002
 20
8.1171008E+001
 11
3.3672716E+002
 21
7.8171008E+001
  0
LINE
  8
1
  6
CONTINUOUS
 62
7
 10
3.3272716E+002
 20
7.8171008E+001
 11
3.3272716E+002
 21
7.3171008E+001
  0
TEXT
  8
1
  6
CONTINUOUS
 62
7
 10
3.3752716E+002
 20
7.8802393E+001
 40
2.0
  1
H9
 41
7.5E-001
  0
TEXT
  8
1
  6
CONTINUOUS
 62
7
 10
3.4658672E+002
 20
7.8802393E+001
 40
2.0
  1
H2
 41
7.5E-001
  0
TEXT
  8
1
  6
CONTINUOUS
 62
7
 10
3.5558672E+002
 20
7.8802393E+001
 40
2.0
  1
H3
 41
7.5E-001
  0
LINE
  8
1
  6
CONTINUOUS
 62
7
 10
3.1522716E+002
 20
8.1171008E+001
 11
3.1522716E+002
 21
7.8171008E+001
  0
TEXT
  8
1
  6
CONTINUOUS
 62
7
 10
3.1202716E+002
 20
7.8802393E+001
 40
2.0
  1
DS
 41
7.5E-001
  0
LINE
  8
1
  6
CONTINUOUS
 62
7
 10
3.1522716E+002
 20
8.1171008E+001
 11
3.2322716E+002
 21
8.1171008E+001
  0
LINE
  8
1
  6
CONTINUOUS
 62
7
 10
3.1522716E+002
 20
7.8171008E+001
 11
3.2322716E+002
 21
7.8171008E+001
  0
LINE
  8
1
  6
CONTINUOUS
 62
7
 10
3.2322716E+002
 20
8.1171008E+001
 11
3.2322716E+002
 21
7.8171008E+001
  0
LINE
  8
1
  6
CONTINUOUS
 62
7
 10
3.1922716E+002
 20
7.8171008E+001
 11
3.1922716E+002
 21
7.3171008E+001
  0
LINE
  8
1
  6
CONTINUOUS
 62
7
 10
3.1922716E+002
 20
8.1171008E+001
 11
3.1922716E+002
 21
9.0215586E+001
  0
TEXT
  8
1
  6
CONTINUOUS
 62
7
 10
3.0252716E+002
 20
7.8802393E+001
 40
2.0
  1
H1
 41
7.5E-001
  0
LINE
  8
1
  6
CONTINUOUS
 62
7
 10
3.0914138E+002
 20
8.1085222E+001
 11
3.0631295E+002
 21
7.8256794E+001
  0
LINE
  8
1
  6
CONTINUOUS
 62
7
 10
3.0631295E+002
 20
8.1085222E+001
 11
3.0914138E+002
 21
7.8256794E+001
  0
CIRCLE
  8
1
  6
CONTINUOUS
 62
7
 10
3.0772716E+002
 20
7.9671008E+001
 40
2.0
  0
LINE
  8
1
  6
CONTINUOUS
 62
7
 10
3.0772716E+002
 20
8.1671008E+001
 11
3.0772716E+002
 21
8.7171008E+001
  0
LINE
  8
1
  6
CONTINUOUS
 62
7
 10
3.0772716E+002
 20
7.7671008E+001
 11
3.0772716E+002
 21
7.3171008E+001
  0
LINE
  8
1
  6
CONTINUOUS
 62
7
 10
3.547423E+002
 20
1.7217101E+002
 11
3.6072716E+002
 21
1.7217101E+002
  0
LINE
  8
1
  6
CONTINUOUS
 62
7
 10
3.5172716E+002
 20
1.0920271E+002
 11
3.5372716E+002
 21
1.0920271E+002
  0
LINE
  8
1
  6
CONTINUOUS
 62
7
 10
3.5172716E+002
 20
1.0420271E+002
 11
3.5272716E+002
 21
1.1020271E+002
  0
TEXT
  8
1
  6
CONTINUOUS
 62
7
 10
3.4622716E+002
 20
1.058341E+002
 40
2.0
  1
KM3
 41
7.5E-001
  0
TEXT
  8
1
  6
CONTINUOUS
 62
7
 10
3.5097716E+002
 20
1.1020271E+002
 40
2.0
  1
21
 41
7.5E-001
 50
9.0E+001
  0
TEXT
  8
1
  6
CONTINUOUS
 62
7
 10
3.5097716E+002
 20
1.0120271E+002
 40
2.0
  1
22
 41
7.5E-001
 50
9.0E+001
  0
LINE
  8
1
  6
CONTINUOUS
 62
7
 10
3.5172716E+002
 20
1.2320271E+002
 11
3.5372716E+002
 21
1.2320271E+002
  0
LINE
  8
1
  6
CONTINUOUS
 62
7
 10
3.5172716E+002
 20
1.1820271E+002
 11
3.5272716E+002
 21
1.2420271E+002
  0
TEXT
  8
1
  6
CONTINUOUS
 62
7
 10
3.5097716E+002
 20
1.2420271E+002
 40
2.0
  1
21
 41
7.5E-001
 50
9.0E+001
  0
TEXT
  8
1
  6
CONTINUOUS
 62
7
 10
3.5097716E+002
 20
1.1520271E+002
 40
2.0
  1
22
 41
7.5E-001
 50
9.0E+001
  0
TEXT
  8
1
  6
CONTINUOUS
 62
7
 10
3.4622716E+002
 20
1.198341E+002
 40
2.0
  1
KM2
 41
7.5E-001
  0
LINE
  8
1
  6
HIDDEN
 62
7
 10
3.3172716E+002
 20
1.5367101E+002
 11
3.3572716E+002
 21
1.5367101E+002
  0
LINE
  8
1
  6
CONTINUOUS
 62
7
 10
1.126576E+002
 20
1.3665886E+002
 11
1.191576E+002
 21
1.3665886E+002
  0
LINE
  8
1
  6
CONTINUOUS
 62
7
 10
3.3572716E+002
 20
1.5418316E+002
 11
3.3772716E+002
 21
1.5418316E+002
  0
LINE
  8
1
  6
CONTINUOUS
 62
7
 10
3.3572716E+002
 20
1.5318316E+002
 11
3.3772716E+002
 21
1.5318316E+002
  0
LINE
  8
1
  6
CONTINUOUS
 62
7
 10
3.3772716E+002
 20
1.5318316E+002
 11
3.3772716E+002
 21
1.5218316E+002
  0
LINE
  8
1
  6
CONTINUOUS
 62
7
 10
3.3572716E+002
 20
1.5418316E+002
 11
3.3572716E+002
 21
1.5318316E+002
  0
TEXT
  8
1
  6
CONTINUOUS
 62
7
 10
3.3822716E+002
 20
1.5281454E+002
 40
2.0
  1
FR1
 41
7.5E-001
  0
LINE
  8
1
  6
CONTINUOUS
 62
7
 10
3.3772716E+002
 20
1.5418316E+002
 11
3.3772716E+002
 21
1.5518316E+002
  0
LINE
  8
1
  6
CONTINUOUS
 62
7
 10
3.4022716E+002
 20
1.4917101E+002
 11
3.4272716E+002
 21
1.4917101E+002
  0
TEXT
  8
1
  6
CONTINUOUS
 62
7
 10
3.3672716E+002
 20
1.4817101E+002
 40
2.0
  1
98
 41
7.5E-001
  0
LINE
  8
1
  6
CONTINUOUS
 62
7
 10
3.5172716E+002
 20
1.2320271E+002
 11
3.5172716E+002
 21
1.7217101E+002
  0
LINE
  8
1
  6
CONTINUOUS
 62
7
 10
3.5172716E+002
 20
1.0920271E+002
 11
3.5172716E+002
 21
1.1820271E+002
  0
LINE
  8
1
  6
CONTINUOUS
 62
7
 10
3.3272716E+002
 20
1.7217101E+002
 11
3.0822716E+002
 21
1.7217101E+002
  0
LINE
  8
1
  6
CONTINUOUS
 62
7
 10
2.9872716E+002
 20
1.4565886E+002
 11
3.1922716E+002
 21
1.4565886E+002
  0
LINE
  8
1
  6
CONTINUOUS
 62
7
 10
7.4657599E+001
 20
1.4963884E+002
 11
8.0657599E+001
 21
1.4963884E+002
  0
LINE
  8
1
  6
CONTINUOUS
 62
7
 10
3.1922716E+002
 20
9.0215586E+001
 11
3.1722716E+002
 21
9.5215586E+001
  0
LINE
  8
1
  6
CONTINUOUS
 62
7
 10
3.1472716E+002
 20
9.4715586E+001
 11
3.1322716E+002
 21
9.4715586E+001
  0
TEXT
  8
1
  6
CONTINUOUS
 62
7
 10
3.0992716E+002
 20
9.1715586E+001
 40
2.0
  1
S1
 41
7.5E-001
  0
LINE
  8
1
  6
CONTINUOUS
 62
7
 10
3.1322716E+002
 20
9.4715586E+001
 11
3.1322716E+002
 21
9.0715586E+001
  0
LINE
  8
1
  6
CONTINUOUS
 62
7
 10
3.1472716E+002
 20
9.0715586E+001
 11
3.1322716E+002
 21
9.0715586E+001
  0
LINE
  8
1
  6
HIDDEN
 62
7
 10
3.1822716E+002
 20
9.2715586E+001
 11
3.1322716E+002
 21
9.2715586E+001
  0
LINE
  8
1
  6
CONTINUOUS
 62
7
 10
3.3272716E+002
 20
9.0215586E+001
 11
3.3072716E+002
 21
9.5215586E+001
  0
LINE
  8
1
  6
CONTINUOUS
 62
7
 10
3.2822716E+002
 20
9.4715586E+001
 11
3.2672716E+002
 21
9.4715586E+001
  0
TEXT
  8
1
  6
CONTINUOUS
 62
7
 10
3.2342716E+002
 20
9.1715586E+001
 40
2.0
  1
S2
 41
7.5E-001
  0
LINE
  8
1
  6
CONTINUOUS
 62
7
 10
3.2672716E+002
 20
9.4715586E+001
 11
3.2672716E+002
 21
9.0715586E+001
  0
LINE
  8
1
  6
CONTINUOUS
 62
7
 10
3.2822716E+002
 20
9.0715586E+001
 11
3.2672716E+002
 21
9.0715586E+001
  0
LINE
  8
1
  6
HIDDEN
 62
7
 10
3.3172716E+002
 20
9.2715586E+001
 11
3.2672716E+002
 21
9.2715586E+001
  0
LINE
  8
1
  6
CONTINUOUS
 62
7
 10
7.4657599E+001
 20
1.4963884E+002
 11
7.4657599E+001
 21
1.4873606E+002
  0
LINE
  8
1
  6
CONTINUOUS
 62
7
 10
7.4657599E+001
 20
1.2463884E+002
 11
8.0657599E+001
 21
1.2463884E+002
  0
TEXT
  8
1
  6
CONTINUOUS
 62
7
 10
2.9522716E+002
 20
1.4465886E+002
 40
2.0
  1
96
 41
7.5E-001
  0
LINE
  8
1
  6
SHORT_DASH
 62
7
 10
2.9918179E+002
 20
1.6917101E+002
 11
3.1126823E+002
 21
1.6917101E+002
  0
LINE
  8
1
  6
CONTINUOUS
 62
7
 10
3.1126823E+002
 20
1.6917101E+002
 11
3.1126823E+002
 21
1.7217101E+002
  0
LINE
  8
1
  6
CONTINUOUS
 62
7
 10
3.1003614E+002
 20
7.3171008E+001
 11
3.1922716E+002
 21
7.3171008E+001
  0
LINE
  8
1
  6
CONTINUOUS
 62
7
 10
3.2198573E+002
 20
7.3171008E+001
 11
3.3272716E+002
 21
7.3171008E+001
  0
LINE
  8
1
  6
CONTINUOUS
 62
7
 10
3.3491939E+002
 20
7.3171008E+001
 11
3.4272716E+002
 21
7.3171008E+001
  0
TEXT
  8
1
  6
CONTINUOUS
 62
7
 10
2.9522716E+002
 20
7.2171008E+001
 40
2.0
  1
A2
 41
7.5E-001
  0
LINE
  8
1
  6
CONTINUOUS
 62
7
 10
3.0477208E+002
 20
8.7171008E+001
 11
3.0772716E+002
 21
8.7171008E+001
  0
TEXT
  8
1
  6
CONTINUOUS
 62
7
 10
2.9522716E+002
 20
8.6171008E+001
 40
2.0
  1
KM1:A1
 41
7.5E-001
  0
LINE
  8
1
  6
CONTINUOUS
 62
7
 10
1.081576E+002
 20
1.4613884E+002
 11
1.066576E+002
 21
1.4613884E+002
  0
TEXT
  8
1
  6
CONTINUOUS
 62
7
 10
1.043576E+002
 20
1.4313884E+002
 40
2.0
  1
O
 41
7.5E-001
  0
LINE
  8
1
  6
CONTINUOUS
 62
7
 10
1.066576E+002
 20
1.4613884E+002
 11
1.066576E+002
 21
1.4213884E+002
  0
LINE
  8
1
  6
HIDDEN
 62
7
 10
1.131576E+002
 20
1.4413884E+002
 11
1.066576E+002
 21
1.4413884E+002
  0
LINE
  8
1
  6
CONTINUOUS
 62
7
 10
1.081576E+002
 20
1.4213884E+002
 11
1.066576E+002
 21
1.4213884E+002
  0
LINE
  8
1
  6
CONTINUOUS
 62
7
 10
1.126576E+002
 20
1.4163884E+002
 11
1.136576E+002
 21
1.4763884E+002
  0
LINE
  8
1
  6
CONTINUOUS
 62
7
 10
1.126576E+002
 20
1.4663884E+002
 11
1.146576E+002
 21
1.4663884E+002
  0
LINE
  8
1
  6
CONTINUOUS
 62
7
 10
1.126576E+002
 20
1.2663884E+002
 11
1.106576E+002
 21
1.3163884E+002
  0
LINE
  8
1
  6
CONTINUOUS
 62
7
 10
1.126576E+002
 20
1.5165886E+002
 11
1.126576E+002
 21
1.4663884E+002
  0
LINE
  8
1
  6
CONTINUOUS
 62
7
 10
1.126576E+002
 20
1.4163884E+002
 11
1.126576E+002
 21
1.3163884E+002
  0
LINE
  8
1
  6
CONTINUOUS
 62
7
 10
1.126576E+002
 20
1.2165886E+002
 11
1.126576E+002
 21
1.2663884E+002
  0
LINE
  8
1
  6
CONTINUOUS
 62
7
 10
8.1657599E+001
 20
1.4965886E+002
 11
8.2657599E+001
 21
1.4965886E+002
  0
LINE
  8
1
  6
CONTINUOUS
 62
7
 10
1.081576E+002
 20
1.3113884E+002
 11
1.066576E+002
 21
1.3113884E+002
  0
TEXT
  8
1
  6
CONTINUOUS
 62
7
 10
1.043576E+002
 20
1.2813884E+002
 40
2.0
  1
I
 41
7.5E-001
  0
LINE
  8
1
  6
CONTINUOUS
 62
7
 10
1.066576E+002
 20
1.3113884E+002
 11
1.066576E+002
 21
1.2713884E+002
  0
LINE
  8
1
  6
CONTINUOUS
 62
7
 10
1.081576E+002
 20
1.2713884E+002
 11
1.066576E+002
 21
1.2713884E+002
  0
LINE
  8
1
  6
HIDDEN
 62
7
 10
1.116576E+002
 20
1.2913884E+002
 11
1.066576E+002
 21
1.2913884E+002
  0
LINE
  8
1
  6
HIDDEN
 62
7
 10
1.12192E+002
 20
1.5865886E+002
 11
1.2325057E+002
 21
1.5865886E+002
  0
LINE
  8
1
  6
CONTINUOUS
 62
7
 10
8.8657599E+001
 20
1.4865886E+002
 11
8.8657599E+001
 21
1.4965886E+002
  0
LINE
  8
1
  6
CONTINUOUS
 62
7
 10
8.3657599E+001
 20
1.4965886E+002
 11
8.8657599E+001
 21
1.4965886E+002
  0
LINE
  8
1
  6
CONTINUOUS
 62
7
 10
7.4657599E+001
 20
1.4765886E+002
 11
7.4657599E+001
 21
1.4665886E+002
  0
LINE
  8
1
  6
CONTINUOUS
 62
7
 10
7.4657599E+001
 20
1.4565886E+002
 11
7.4657599E+001
 21
1.4065886E+002
  0
LINE
  8
1
  6
CONTINUOUS
 62
7
 10
1.381576E+002
 20
1.5615886E+002
 11
1.391576E+002
 21
1.6215886E+002
  0
LINE
  8
1
  6
CONTINUOUS
 62
7
 10
1.381576E+002
 20
1.6115886E+002
 11
1.401576E+002
 21
1.6115886E+002
  0
LINE
  8
1
  6
CONTINUOUS
 62
7
 10
1.381576E+002
 20
1.6115886E+002
 11
1.381576E+002
 21
1.7217101E+002
  0
LINE
  8
1
  6
CONTINUOUS
 62
7
 10
7.4657599E+001
 20
1.3965886E+002
 11
7.4657599E+001
 21
1.3865886E+002
  0
LINE
  8
1
  6
CONTINUOUS
 62
7
 10
1.381576E+002
 20
1.5615886E+002
 11
1.381576E+002
 21
1.5165886E+002
  0
LINE
  8
1
  6
CONTINUOUS
 62
7
 10
7.4657599E+001
 20
1.3265886E+002
 11
7.4657599E+001
 21
1.3765886E+002
  0
LINE
  8
1
  6
CONTINUOUS
 62
7
 10
1.2625057E+002
 20
1.6065886E+002
 11
1.3025057E+002
 21
1.5865886E+002
  0
LINE
  8
1
  6
CONTINUOUS
 62
7
 10
1.2625057E+002
 20
1.6065886E+002
 11
1.2625057E+002
 21
1.5865886E+002
  0
LINE
  8
1
  6
CONTINUOUS
 62
7
 10
1.2625057E+002
 20
1.5865886E+002
 11
1.3025057E+002
 21
1.5865886E+002
  0
LINE
  8
1
  6
CONTINUOUS
 62
7
 10
1.1325057E+002
 20
1.6065886E+002
 11
1.1725057E+002
 21
1.5865886E+002
  0
LINE
  8
1
  6
CONTINUOUS
 62
7
 10
1.1325057E+002
 20
1.6065886E+002
 11
1.1325057E+002
 21
1.5865886E+002
  0
LINE
  8
1
  6
CONTINUOUS
 62
7
 10
1.1325057E+002
 20
1.5865886E+002
 11
1.1725057E+002
 21
1.5865886E+002
  0
LINE
  8
1
  6
HIDDEN
 62
7
 10
1.3025057E+002
 20
1.5965886E+002
 11
1.3025057E+002
 21
1.6415886E+002
  0
LINE
  8
1
  6
HIDDEN
 62
7
 10
1.3025057E+002
 20
1.6415886E+002
 11
1.2225057E+002
 21
1.6415886E+002
  0
LINE
  8
1
  6
HIDDEN
 62
7
 10
1.3125057E+002
 20
1.5965886E+002
 11
1.3874093E+002
 21
1.5965886E+002
  0
LINE
  8
1
  6
HIDDEN
 62
7
 10
1.3125057E+002
 20
1.6515886E+002
 11
1.3125057E+002
 21
1.5965886E+002
  0
LINE
  8
1
  6
HIDDEN
 62
7
 10
1.2225057E+002
 20
1.6515886E+002
 11
1.3125057E+002
 21
1.6515886E+002
  0
LINE
  8
1
  6
CONTINUOUS
 62
7
 10
1.2225057E+002
 20
1.6665886E+002
 11
1.2225057E+002
 21
1.6265886E+002
  0
LINE
  8
1
  6
CONTINUOUS
 62
7
 10
1.2375057E+002
 20
1.6265886E+002
 11
1.2225057E+002
 21
1.6265886E+002
  0
LINE
  8
1
  6
CONTINUOUS
 62
7
 10
1.2375057E+002
 20
1.6665886E+002
 11
1.2225057E+002
 21
1.6665886E+002
  0
TEXT
  8
1
  6
CONTINUOUS
 62
7
 10
1.1825057E+002
 20
1.6465886E+002
 40
2.0
  1
O
 41
7.5E-001
  0
TEXT
  8
1
  6
CONTINUOUS
 62
7
 10
1.1995057E+002
 20
1.6265886E+002
 40
2.0
  1
R
 41
7.5E-001
  0
LINE
  8
1
  6
CONTINUOUS
 62
7
 10
1.2045057E+002
 20
1.6605886E+002
 11
1.1885057E+002
 21
1.6285886E+002
  0
LINE
  8
1
  6
HIDDEN
 62
7
 10
1.1725057E+002
 20
1.5965886E+002
 11
1.1725057E+002
 21
1.6415886E+002
  0
LINE
  8
1
  6
HIDDEN
 62
7
 10
1.1725057E+002
 20
1.6415886E+002
 11
1.0925057E+002
 21
1.6415886E+002
  0
LINE
  8
1
  6
CONTINUOUS
 62
7
 10
1.1075057E+002
 20
1.6265886E+002
 11
1.0925057E+002
 21
1.6265886E+002
  0
LINE
  8
1
  6
CONTINUOUS
 62
7
 10
1.0925057E+002
 20
1.6665886E+002
 11
1.0925057E+002
 21
1.6265886E+002
  0
LINE
  8
1
  6
CONTINUOUS
 62
7
 10
1.1075057E+002
 20
1.6665886E+002
 11
1.0925057E+002
 21
1.6665886E+002
  0
TEXT
  8
1
  6
CONTINUOUS
 62
7
 10
1.0695057E+002
 20
1.6265886E+002
 40
2.0
  1
R
 41
7.5E-001
  0
LINE
  8
1
  6
HIDDEN
 62
7
 10
1.3025057E+002
 20
1.5865886E+002
 11
1.411576E+002
 21
1.5865886E+002
  0
LINE
  8
1
  6
CONTINUOUS
 62
7
 10
1.411576E+002
 20
1.5917101E+002
 11
1.411576E+002
 21
1.5817101E+002
  0
LINE
  8
1
  6
CONTINUOUS
 62
7
 10
1.411576E+002
 20
1.5917101E+002
 11
1.431576E+002
 21
1.5917101E+002
  0
LINE
  8
1
  6
CONTINUOUS
 62
7
 10
1.411576E+002
 20
1.5817101E+002
 11
1.431576E+002
 21
1.5817101E+002
  0
LINE
  8
1
  6
CONTINUOUS
 62
7
 10
1.431576E+002
 20
1.5817101E+002
 11
1.431576E+002
 21
1.5717101E+002
  0
LINE
  8
1
  6
CONTINUOUS
 62
7
 10
1.431576E+002
 20
1.5917101E+002
 11
1.431576E+002
 21
1.6017101E+002
  0
TEXT
  8
1
  6
CONTINUOUS
 62
7
 10
1.436576E+002
 20
1.5780239E+002
 40
2.0
  1
FR1
 41
7.5E-001
  0
LINE
  8
1
  6
CONTINUOUS
 62
7
 10
7.4657599E+001
 20
1.3165886E+002
 11
7.4657599E+001
 21
1.3065886E+002
  0
LINE
  8
1
  6
CONTINUOUS
 62
7
 10
7.4657599E+001
 20
1.2965886E+002
 11
7.4657599E+001
 21
1.2455783E+002
  0
LINE
  8
1
  6
CONTINUOUS
 62
7
 10
1.126576E+002
 20
1.5165886E+002
 11
1.191576E+002
 21
1.5165886E+002
  0
LINE
  8
1
  6
CONTINUOUS
 62
7
 10
8.8657599E+001
 20
1.2665886E+002
 11
8.8657599E+001
 21
1.2465886E+002
  0
LINE
  8
1
  6
SHORT_DASH
 62
7
 10
1.191576E+002
 20
1.5165886E+002
 11
1.381576E+002
 21
1.5165886E+002
  0
LINE
  8
1
  6
CONTINUOUS
 62
7
 10
8.3657599E+001
 20
1.2465886E+002
 11
8.8657599E+001
 21
1.2465886E+002
  0
LINE
  8
1
  6
CONTINUOUS
 62
7
 10
8.2657599E+001
 20
1.2465886E+002
 11
8.1657599E+001
 21
1.2465886E+002
  0
LINE
  8
1
  6
CONTINUOUS
 62
7
 10
8.8657599E+001
 20
1.4765886E+002
 11
8.8657599E+001
 21
1.4665886E+002
  0
LINE
  8
1
  6
CONTINUOUS
 62
7
 10
8.8657599E+001
 20
1.4565886E+002
 11
8.8657599E+001
 21
1.4065886E+002
  0
LINE
  8
1
  6
CONTINUOUS
 62
7
 10
8.8657599E+001
 20
1.3965886E+002
 11
8.8657599E+001
 21
1.3865886E+002
  0
LINE
  8
1
  6
CONTINUOUS
 62
7
 10
8.8657599E+001
 20
1.3765886E+002
 11
8.8657599E+001
 21
1.3265886E+002
  0
LINE
  8
1
  6
CONTINUOUS
 62
7
 10
8.8657599E+001
 20
1.3165886E+002
 11
8.8657599E+001
 21
1.3065886E+002
  0
LINE
  8
1
  6
CONTINUOUS
 62
7
 10
8.6657599E+001
 20
1.3263884E+002
 11
8.4657599E+001
 21
1.3763884E+002
  0
LINE
  8
1
  6
CONTINUOUS
 62
7
 10
8.8657599E+001
 20
1.2965886E+002
 11
8.8657599E+001
 21
1.2465886E+002
  0
LINE
  8
1
  6
CONTINUOUS
 62
7
 10
8.6657599E+001
 20
1.5165886E+002
 11
8.6657599E+001
 21
1.3731625E+002
  0
LINE
  8
1
  6
CONTINUOUS
 62
7
 10
8.6657599E+001
 20
1.2165886E+002
 11
8.6657599E+001
 21
1.3263884E+002
  0
LINE
  8
1
  6
CONTINUOUS
 62
7
 10
7.9657599E+001
 20
1.3713884E+002
 11
7.9657599E+001
 21
1.3313884E+002
  0
LINE
  8
1
  6
SHORT_DASH
 62
7
 10
9.1657599E+001
 20
1.5165886E+002
 11
9.7657599E+001
 21
1.5165886E+002
  0
LINE
  8
1
  6
CONTINUOUS
 62
7
 10
8.6657599E+001
 20
1.5165886E+002
 11
9.1657599E+001
 21
1.5165886E+002
  0
LINE
  8
1
  6
CONTINUOUS
 62
7
 10
8.6657599E+001
 20
1.2165886E+002
 11
9.1657599E+001
 21
1.2165886E+002
  0
LINE
  8
1
  6
SHORT_DASH
 62
7
 10
9.1657599E+001
 20
1.2165886E+002
 11
9.7657599E+001
 21
1.2165886E+002
  0
LINE
  8
1
  6
CONTINUOUS
 62
7
 10
7.8021512E+001
 20
1.3659883E+002
 11
7.6421512E+001
 21
1.3339883E+002
  0
TEXT
  8
1
  6
CONTINUOUS
 62
7
 10
7.5821512E+001
 20
1.3519883E+002
 40
2.0
  1
O
 41
7.5E-001
  0
TEXT
  8
1
  6
CONTINUOUS
 62
7
 10
7.7521512E+001
 20
1.3319883E+002
 40
2.0
  1
I
 41
7.5E-001
  0
LINE
  8
1
  6
CONTINUOUS
 62
7
 10
1.026576E+002
 20
1.4963884E+002
 11
1.026576E+002
 21
1.4873606E+002
  0
LINE
  8
1
  6
CONTINUOUS
 62
7
 10
1.026576E+002
 20
1.4765886E+002
 11
1.026576E+002
 21
1.4665886E+002
  0
LINE
  8
1
  6
CONTINUOUS
 62
7
 10
1.116576E+002
 20
1.2465886E+002
 11
1.166576E+002
 21
1.2465886E+002
  0
LINE
  8
1
  6
CONTINUOUS
 62
7
 10
1.026576E+002
 20
1.4565886E+002
 11
1.026576E+002
 21
1.4065886E+002
  0
LINE
  8
1
  6
CONTINUOUS
 62
7
 10
1.106576E+002
 20
1.2465886E+002
 11
1.096576E+002
 21
1.2465886E+002
  0
LINE
  8
1
  6
HIDDEN
 62
7
 10
8.2657599E+001
 20
1.3513884E+002
 11
8.5657599E+001
 21
1.3513884E+002
  0
LINE
  8
1
  6
CONTINUOUS
 62
7
 10
8.1157599E+001
 20
1.3513884E+002
 11
8.1907599E+001
 21
1.3363884E+002
  0
LINE
  8
1
  6
CONTINUOUS
 62
7
 10
8.1907599E+001
 20
1.3363884E+002
 11
8.2657599E+001
 21
1.3513884E+002
  0
LINE
  8
1
  6
HIDDEN
 62
7
 10
8.1157599E+001
 20
1.3513884E+002
 11
7.9657599E+001
 21
1.3513884E+002
  0
LINE
  8
1
  6
CONTINUOUS
 62
7
 10
1.026576E+002
 20
1.3965886E+002
 11
1.026576E+002
 21
1.3865886E+002
  0
LINE
  8
1
  6
CONTINUOUS
 62
7
 10
1.026576E+002
 20
1.3265886E+002
 11
1.026576E+002
 21
1.3765886E+002
  0
TEXT
  8
1
  6
CONTINUOUS
 62
7
 10
9.8157599E+001
 20
1.5063482E+002
 40
2.0
  1
96
 41
7.5E-001
  0
LINE
  8
1
  6
CONTINUOUS
 62
7
 10
1.026576E+002
 20
1.3165886E+002
 11
1.026576E+002
 21
1.3065886E+002
  0
TEXT
  8
1
  6
CONTINUOUS
 62
7
 10
9.8157599E+001
 20
1.2063482E+002
 40
2.0
  1
24
 41
7.5E-001
  0
LINE
  8
1
  6
CONTINUOUS
 62
7
 10
1.026576E+002
 20
1.2965886E+002
 11
1.026576E+002
 21
1.2455783E+002
  0
LINE
  8
1
  6
CONTINUOUS
 62
7
 10
1.166576E+002
 20
1.2965886E+002
 11
1.166576E+002
 21
1.2465886E+002
  0
LINE
  8
1
  6
CONTINUOUS
 62
7
 10
1.166576E+002
 20
1.3765886E+002
 11
1.166576E+002
 21
1.3265886E+002
  0
LINE
  8
1
  6
CONTINUOUS
 62
7
 10
8.7126837E+001
 20
1.7217101E+002
 11
1.431576E+002
 21
1.7217101E+002
  0
LINE
  8
1
  6
CONTINUOUS
 62
7
 10
1.166576E+002
 20
1.3165886E+002
 11
1.166576E+002
 21
1.3065886E+002
  0
LINE
  8
1
  6
SHORT_DASH
 62
7
 10
7.8157599E+001
 20
1.6917101E+002
 11
9.0244042E+001
 21
1.6917101E+002
  0
LINE
  8
1
  6
CONTINUOUS
 62
7
 10
9.0244042E+001
 20
1.6917101E+002
 11
9.0244042E+001
 21
1.7217101E+002
  0
LINE
  8
1
  6
CONTINUOUS
 62
7
 10
1.026576E+002
 20
1.4963884E+002
 11
1.086576E+002
 21
1.4963884E+002
  0
LINE
  8
1
  6
CONTINUOUS
 62
7
 10
3.0922716E+002
 20
8.8215586E+001
 11
3.0922716E+002
 21
8.9217957E+001
  0
LINE
  8
1
  6
CONTINUOUS
 62
7
 10
1.096576E+002
 20
1.4965886E+002
 11
1.106576E+002
 21
1.4965886E+002
  0
LINE
  8
1
  6
CONTINUOUS
 62
7
 10
1.116576E+002
 20
1.4965886E+002
 11
1.166576E+002
 21
1.4965886E+002
  0
LINE
  8
1
  6
SHORT_DASH
 62
7
 10
1.126576E+002
 20
1.2165886E+002
 11
1.216576E+002
 21
1.2165886E+002
  0
LINE
  8
1
  6
CONTINUOUS
 62
7
 10
3.3272716E+002
 20
9.5168434E+001
 11
3.3272716E+002
 21
1.5117101E+002
  0
LINE
  8
1
  6
CONTINUOUS
 62
7
 10
3.1922716E+002
 20
9.5171008E+001
 11
3.1922716E+002
 21
1.4565886E+002
  0
LINE
  8
1
  6
SHORT_DASH
 62
7
 10
1.191576E+002
 20
1.3665886E+002
 11
1.381576E+002
 21
1.3665886E+002
  0
LINE
  8
1
  6
CONTINUOUS
 62
7
 10
1.166576E+002
 20
1.3965886E+002
 11
1.166576E+002
 21
1.3865886E+002
  0
LINE
  8
1
  6
CONTINUOUS
 62
7
 10
1.166576E+002
 20
1.4565886E+002
 11
1.166576E+002
 21
1.4065886E+002
  0
LINE
  8
1
  6
CONTINUOUS
 62
7
 10
1.166576E+002
 20
1.4765886E+002
 11
1.166576E+002
 21
1.4665886E+002
  0
LINE
  8
1
  6
CONTINUOUS
 62
7
 10
1.166576E+002
 20
1.4865886E+002
 11
1.166576E+002
 21
1.4965886E+002
  0
LINE
  8
1
  6
CONTINUOUS
 62
7
 10
1.026576E+002
 20
1.2463884E+002
 11
1.086576E+002
 21
1.2463884E+002
  0
TEXT
  8
1
  6
CONTINUOUS
 62
7
 10
3.1847716E+002
 20
8.2171008E+001
 40
2.0
  1
E1
 41
7.5E-001
 50
9.0E+001
  0
TEXT
  8
1
  6
CONTINUOUS
 62
7
 10
3.1847716E+002
 20
7.4171008E+001
 40
2.0
  1
E2
 41
7.5E-001
 50
9.0E+001
  0
TEXT
  8
1
  6
CONTINUOUS
 62
7
 10
3.3197716E+002
 20
8.2171008E+001
 40
2.0
  1
E1
 41
7.5E-001
 50
9.0E+001
  0
TEXT
  8
1
  6
CONTINUOUS
 62
7
 10
3.3197716E+002
 20
7.4171008E+001
 40
2.0
  1
E2
 41
7.5E-001
 50
9.0E+001
  0
TEXT
  8
1
  6
CONTINUOUS
 62
7
 10
3.0697716E+002
 20
8.2171008E+001
 40
2.0
  1
X1
 41
7.5E-001
 50
9.0E+001
  0
TEXT
  8
1
  6
CONTINUOUS
 62
7
 10
3.0697716E+002
 20
7.4171008E+001
 40
2.0
  1
X2
 41
7.5E-001
 50
9.0E+001
  0
TEXT
  8
1
  6
CONTINUOUS
 62
7
 10
3.4197716E+002
 20
8.2171008E+001
 40
2.0
  1
X1
 41
7.5E-001
 50
9.0E+001
  0
TEXT
  8
1
  6
CONTINUOUS
 62
7
 10
3.4197716E+002
 20
7.4171008E+001
 40
2.0
  1
X2
 41
7.5E-001
 50
9.0E+001
  0
TEXT
  8
1
  6
CONTINUOUS
 62
7
 10
3.5097716E+002
 20
8.2171008E+001
 40
2.0
  1
X1
 41
7.5E-001
 50
9.0E+001
  0
TEXT
  8
1
  6
CONTINUOUS
 62
7
 10
3.5097716E+002
 20
7.4171008E+001
 40
2.0
  1
X2
 41
7.5E-001
 50
9.0E+001
  0
TEXT
  8
1
  6
CONTINUOUS
 62
7
 10
3.5997716E+002
 20
8.2171008E+001
 40
2.0
  1
X1
 41
7.5E-001
 50
9.0E+001
  0
TEXT
  8
1
  6
CONTINUOUS
 62
7
 10
3.5997716E+002
 20
7.4171008E+001
 40
2.0
  1
X2
 41
7.5E-001
 50
9.0E+001
  0
LINE
  8
1
  6
CONTINUOUS
 62
7
 10
3.0922716E+002
 20
9.7215586E+001
 11
3.1418125E+002
 21
9.7215586E+001
  0
LINE
  8
1
  6
CONTINUOUS
 62
7
 10
3.1522716E+002
 20
9.7215586E+001
 11
3.1631947E+002
 21
9.7215586E+001
  0
LINE
  8
1
  6
CONTINUOUS
 62
7
 10
3.1722716E+002
 20
9.7215586E+001
 11
3.2122716E+002
 21
9.7215586E+001
  0
LINE
  8
1
  6
CONTINUOUS
 62
7
 10
3.0922716E+002
 20
9.0215586E+001
 11
3.0922716E+002
 21
9.5215586E+001
  0
LINE
  8
1
  6
CONTINUOUS
 62
7
 10
3.2122716E+002
 20
9.7215586E+001
 11
3.2122716E+002
 21
9.6215586E+001
  0
LINE
  8
1
  6
CONTINUOUS
 62
7
 10
3.2122716E+002
 20
9.5215586E+001
 11
3.2122716E+002
 21
9.0355987E+001
  0
LINE
  8
1
  6
CONTINUOUS
 62
7
 10
3.2122716E+002
 20
8.8215586E+001
 11
3.1622716E+002
 21
8.8215586E+001
  0
LINE
  8
1
  6
CONTINUOUS
 62
7
 10
3.2122716E+002
 20
8.9215586E+001
 11
3.2122716E+002
 21
8.8215586E+001
  0
LINE
  8
1
  6
CONTINUOUS
 62
7
 10
3.1522716E+002
 20
8.8215586E+001
 11
3.1422716E+002
 21
8.8215586E+001
  0
LINE
  8
1
  6
CONTINUOUS
 62
7
 10
3.1322716E+002
 20
8.8215586E+001
 11
3.0922716E+002
 21
8.8215586E+001
  0
LINE
  8
1
  6
CONTINUOUS
 62
7
 10
3.0922716E+002
 20
9.6215586E+001
 11
3.0922716E+002
 21
9.7215586E+001
  0
LINE
  8
1
  6
CONTINUOUS
 62
7
 10
3.3472716E+002
 20
8.9215586E+001
 11
3.3472716E+002
 21
8.8215586E+001
  0
LINE
  8
1
  6
CONTINUOUS
 62
7
 10
3.3472716E+002
 20
8.8215586E+001
 11
3.2972716E+002
 21
8.8215586E+001
  0
LINE
  8
1
  6
CONTINUOUS
 62
7
 10
3.3472716E+002
 20
9.5215586E+001
 11
3.3472716E+002
 21
9.0355987E+001
  0
LINE
  8
1
  6
CONTINUOUS
 62
7
 10
3.3472716E+002
 20
9.7215586E+001
 11
3.3472716E+002
 21
9.6215586E+001
  0
LINE
  8
1
  6
CONTINUOUS
 62
7
 10
3.3072716E+002
 20
9.7215586E+001
 11
3.3472716E+002
 21
9.7215586E+001
  0
LINE
  8
1
  6
CONTINUOUS
 62
7
 10
3.2272716E+002
 20
9.7215586E+001
 11
3.2768125E+002
 21
9.7215586E+001
  0
LINE
  8
1
  6
CONTINUOUS
 62
7
 10
3.2272716E+002
 20
9.6215586E+001
 11
3.2272716E+002
 21
9.7215586E+001
  0
LINE
  8
1
  6
CONTINUOUS
 62
7
 10
3.2272716E+002
 20
9.0215586E+001
 11
3.2272716E+002
 21
9.5215586E+001
  0
LINE
  8
1
  6
CONTINUOUS
 62
7
 10
3.2272716E+002
 20
8.8215586E+001
 11
3.2272716E+002
 21
8.9217957E+001
  0
LINE
  8
1
  6
CONTINUOUS
 62
7
 10
3.2672716E+002
 20
8.8215586E+001
 11
3.2272716E+002
 21
8.8215586E+001
  0
LINE
  8
1
  6
CONTINUOUS
 62
7
 10
3.2872716E+002
 20
8.8215586E+001
 11
3.2772716E+002
 21
8.8215586E+001
  0
LINE
  8
1
  6
CONTINUOUS
 62
7
 10
3.2872716E+002
 20
9.7215586E+001
 11
3.2981947E+002
 21
9.7215586E+001
  0
TEXT
  8
1
  6
CONTINUOUS
 62
7
 10
1.374076E+002
 20
1.6215886E+002
 40
2.0
  1
95
 41
7.5E-001
 50
9.0E+001
  0
TEXT
  8
1
  6
CONTINUOUS
 62
7
 10
1.374076E+002
 20
1.5315886E+002
 40
2.0
  1
96
 41
7.5E-001
 50
9.0E+001
  0
INSERT
  2
*TX487
  8
1
 10
2.9972716E+002
 20
2.4867101E+002
  0
INSERT
  2
*TX488
  8
1
 10
2.9972716E+002
 20
2.3617101E+002
  0
INSERT
  2
*TX489
  8
1
 10
2.9972716E+002
 20
2.1417101E+002
  0
INSERT
  2
*TX490
  8
1
 10
2.9972716E+002
 20
2.0217101E+002
  0
INSERT
  2
*TX491
  8
1
 10
2.9422716E+002
 20
1.9017101E+002
  0
INSERT
  2
*TX492
  8
1
 10
2.9568179E+002
 20
1.7114697E+002
  0
INSERT
  2
*TX493
  8
1
 10
7.4657599E+001
 20
1.7114697E+002
  0
INSERT
  2
*TX494
  8
1
 10
9.624236E+001
 20
1.8117101E+002
  0
ARC
  8
1
  6
CONTINUOUS
 62
7
 10
2.7703003E+002
 20
2.3375734E+002
 40
1.25
 50
9.0E+001
 51
2.7E+002
  0
ARC
  8
1
  6
CONTINUOUS
 62
7
 10
2.7203003E+002
 20
2.3376949E+002
 40
1.25
 50
9.0E+001
 51
2.7E+002
  0
ARC
  8
1
  6
CONTINUOUS
 62
7
 10
2.6703003E+002
 20
2.3376949E+002
 40
1.25
 50
9.0E+001
 51
2.7E+002
  0
ARC
  8
1
  6
CONTINUOUS
 62
7
 10
2.1203003E+002
 20
2.3376949E+002
 40
1.25
 50
9.0E+001
 51
2.7E+002
  0
ARC
  8
1
  6
CONTINUOUS
 62
7
 10
2.1703003E+002
 20
2.3376949E+002
 40
1.25
 50
9.0E+001
 51
2.7E+002
  0
ARC
  8
1
  6
CONTINUOUS
 62
7
 10
2.2203003E+002
 20
2.3376949E+002
 40
1.25
 50
9.0E+001
 51
2.7E+002
  0
ARC
  8
1
  6
CONTINUOUS
 62
7
 10
1.5203003E+002
 20
2.3376949E+002
 40
1.25
 50
9.0E+001
 51
2.7E+002
  0
ARC
  8
1
  6
CONTINUOUS
 62
7
 10
1.5703003E+002
 20
2.3376949E+002
 40
1.25
 50
9.0E+001
 51
2.7E+002
  0
LINE
  8
1
  6
CONTINUOUS
 62
7
 10
8.1351977E+001
 20
2.3851949E+002
 11
8.1351977E+001
 21
2.3451949E+002
  0
LINE
  8
1
  6
CONTINUOUS
 62
7
 10
8.1351977E+001
 20
2.3251949E+002
 11
8.1351977E+001
 21
2.3351949E+002
  0
LINE
  8
1
  6
CONTINUOUS
 62
7
 10
8.1351977E+001
 20
2.2651949E+002
 11
8.1351977E+001
 21
2.3151949E+002
  0
LINE
  8
1
  6
CONTINUOUS
 62
7
 10
8.1351977E+001
 20
2.2451949E+002
 11
8.1351977E+001
 21
2.2551949E+002
  0
LINE
  8
1
  6
CONTINUOUS
 62
7
 10
8.1351977E+001
 20
2.2351949E+002
 11
8.1351977E+001
 21
2.2151949E+002
  0
LINE
  8
1
  6
CONTINUOUS
 62
7
 10
8.4351977E+001
 20
2.2151949E+002
 11
8.1351977E+001
 21
2.2151949E+002
  0
LINE
  8
1
  6
CONTINUOUS
 62
7
 10
8.6351977E+001
 20
2.2151949E+002
 11
9.1351977E+001
 21
2.2151949E+002
  0
LINE
  8
1
  6
CONTINUOUS
 62
7
 10
9.3351977E+001
 20
2.2151949E+002
 11
9.2351977E+001
 21
2.2151949E+002
  0
LINE
  8
1
  6
CONTINUOUS
 62
7
 10
9.9351977E+001
 20
2.2151949E+002
 11
9.4351977E+001
 21
2.2151949E+002
  0
LINE
  8
1
  6
CONTINUOUS
 62
7
 10
1.0735198E+002
 20
2.2151949E+002
 11
1.0235198E+002
 21
2.2151949E+002
  0
LINE
  8
1
  6
CONTINUOUS
 62
7
 10
1.0135198E+002
 20
2.2151949E+002
 11
1.0035198E+002
 21
2.2151949E+002
  0
LINE
  8
1
  6
CONTINUOUS
 62
7
 10
1.1035198E+002
 20
2.2151949E+002
 11
1.0935198E+002
 21
2.2151949E+002
  0
LINE
  8
1
  6
CONTINUOUS
 62
7
 10
1.1635198E+002
 20
2.2151949E+002
 11
1.1135198E+002
 21
2.2151949E+002
  0
LINE
  8
1
  6
CONTINUOUS
 62
7
 10
1.1935198E+002
 20
2.2151949E+002
 11
1.2435198E+002
 21
2.2151949E+002
  0
LINE
  8
1
  6
CONTINUOUS
 62
7
 10
1.2435198E+002
 20
2.2451949E+002
 11
1.2435198E+002
 21
2.2151949E+002
  0
LINE
  8
1
  6
CONTINUOUS
 62
7
 10
1.1835198E+002
 20
2.2151949E+002
 11
1.1735198E+002
 21
2.2151949E+002
  0
LINE
  8
1
  6
CONTINUOUS
 62
7
 10
1.2435198E+002
 20
2.2651949E+002
 11
1.2435198E+002
 21
2.2551949E+002
  0
LINE
  8
1
  6
CONTINUOUS
 62
7
 10
1.2435198E+002
 20
2.3251949E+002
 11
1.2435198E+002
 21
2.2751949E+002
  0
LINE
  8
1
  6
CONTINUOUS
 62
7
 10
1.2435198E+002
 20
2.3451949E+002
 11
1.2435198E+002
 21
2.3351949E+002
  0
LINE
  8
1
  6
CONTINUOUS
 62
7
 10
1.2435198E+002
 20
2.3851949E+002
 11
1.2435198E+002
 21
2.3551949E+002
  0
LINE
  8
1
  6
CONTINUOUS
 62
7
 10
1.2235198E+002
 20
2.3851949E+002
 11
1.2435198E+002
 21
2.3851949E+002
  0
LINE
  8
1
  6
CONTINUOUS
 62
7
 10
1.2035198E+002
 20
2.3851949E+002
 11
1.2135198E+002
 21
2.3851949E+002
  0
LINE
  8
1
  6
CONTINUOUS
 62
7
 10
1.1435198E+002
 20
2.3851949E+002
 11
1.1935198E+002
 21
2.3851949E+002
  0
LINE
  8
1
  6
CONTINUOUS
 62
7
 10
1.1235198E+002
 20
2.3851949E+002
 11
1.1335198E+002
 21
2.3851949E+002
  0
LINE
  8
1
  6
CONTINUOUS
 62
7
 10
1.0635198E+002
 20
2.3851949E+002
 11
1.1135198E+002
 21
2.3851949E+002
  0
LINE
  8
1
  6
CONTINUOUS
 62
7
 10
1.0435198E+002
 20
2.3851949E+002
 11
1.0535198E+002
 21
2.3851949E+002
  0
LINE
  8
1
  6
CONTINUOUS
 62
7
 10
9.8351977E+001
 20
2.3851949E+002
 11
1.0335198E+002
 21
2.3851949E+002
  0
LINE
  8
1
  6
CONTINUOUS
 62
7
 10
9.1351977E+001
 20
2.3851949E+002
 11
9.6351977E+001
 21
2.3851949E+002
  0
LINE
  8
1
  6
CONTINUOUS
 62
7
 10
8.9351977E+001
 20
2.3851949E+002
 11
9.0351977E+001
 21
2.3851949E+002
  0
LINE
  8
1
  6
CONTINUOUS
 62
7
 10
8.3351977E+001
 20
2.3851949E+002
 11
8.8351977E+001
 21
2.3851949E+002
  0
LINE
  8
1
  6
CONTINUOUS
 62
7
 10
8.1351977E+001
 20
2.3851949E+002
 11
8.2351977E+001
 21
2.3851949E+002
  0
ARC
  8
1
  6
CONTINUOUS
 62
7
 10
1.6203003E+002
 20
2.3376949E+002
 40
1.25
 50
9.0E+001
 51
2.7E+002
  0
TEXT
  8
1
  6
CONTINUOUS
 62
7
 10
1.7128003E+002
 20
2.3759587E+002
 40
2.0
  1
23
 41
7.5E-001
 50
9.0E+001
  0
LINE
  8
1
  6
SHORT_DASH
 62
7
 10
2.3989886E+002
 20
2.300788E+002
 11
2.5403003E+002
 21
2.300788E+002
  0
LINE
  8
1
  6
CONTINUOUS
 62
7
 10
2.3274449E+002
 20
2.325788E+002
 11
2.3474449E+002
 21
2.325788E+002
  0
LINE
  8
1
  6
CENTERLINE
 62
7
 10
7.9263625E+001
 20
2.5701949E+002
 11
7.9263625E+001
 21
1.9401949E+002
  0
LINE
  8
1
  6
CENTERLINE
 62
7
 10
7.9263625E+001
 20
2.5701949E+002
 11
2.8526362E+002
 21
2.5701949E+002
  0
LINE
  8
1
  6
CENTERLINE
 62
7
 10
7.9263625E+001
 20
1.9401949E+002
 11
2.8526362E+002
 21
1.9401949E+002
  0
LINE
  8
1
  6
CONTINUOUS
 62
7
 10
2.3274449E+002
 20
2.275788E+002
 11
2.3274449E+002
 21
2.2057926E+002
  0
TEXT
  8
1
  6
CONTINUOUS
 62
7
 10
2.3199449E+002
 20
2.245788E+002
 40
2.0
  1
02
 41
7.5E-001
 50
9.0E+001
  0
TEXT
  8
1
  6
CONTINUOUS
 62
7
 10
2.3199449E+002
 20
2.335788E+002
 40
2.0
  1
01
 41
7.5E-001
 50
9.0E+001
  0
LINE
  8
1
  6
CONTINUOUS
 62
7
 10
2.3274449E+002
 20
2.325788E+002
 11
2.3274449E+002
 21
2.3957926E+002
  0
LINE
  8
1
  6
CONTINUOUS
 62
7
 10
2.3274449E+002
 20
2.275788E+002
 11
2.3374449E+002
 21
2.335788E+002
  0
LINE
  8
1
  6
CONTINUOUS
 62
7
 10
2.4474422E+002
 20
2.325788E+002
 11
2.4674422E+002
 21
2.325788E+002
  0
LINE
  8
1
  6
SHORT_DASH
 62
7
 10
2.0703003E+002
 20
2.300788E+002
 11
2.3758945E+002
 21
2.300788E+002
  0
LINE
  8
1
  6
CONTINUOUS
 62
7
 10
2.5403003E+002
 20
2.3201949E+002
 11
2.5403003E+002
 21
2.2813811E+002
  0
LINE
  8
1
  6
CONTINUOUS
 62
7
 10
2.6203003E+002
 20
2.3201949E+002
 11
2.6203003E+002
 21
2.2813811E+002
  0
LINE
  8
1
  6
CONTINUOUS
 62
7
 10
2.6203003E+002
 20
2.3201949E+002
 11
2.5403003E+002
 21
2.3201949E+002
  0
LINE
  8
1
  6
CONTINUOUS
 62
7
 10
2.6203003E+002
 20
2.2813811E+002
 11
2.5403003E+002
 21
2.2813811E+002
  0
LINE
  8
1
  6
CONTINUOUS
 62
7
 10
2.5803003E+002
 20
2.3201949E+002
 11
2.5803003E+002
 21
2.3701949E+002
  0
LINE
  8
1
  6
CONTINUOUS
 62
7
 10
2.5803003E+002
 20
2.2813811E+002
 11
2.5803003E+002
 21
2.2301949E+002
  0
TEXT
  8
1
  6
CONTINUOUS
 62
7
 10
2.4903003E+002
 20
2.3101949E+002
 40
2.0
  1
KM2
 41
7.5E-001
  0
TEXT
  8
1
  6
CONTINUOUS
 62
7
 10
2.5728003E+002
 20
2.3301949E+002
 40
2.0
  1
A1
 41
7.5E-001
 50
9.0E+001
  0
TEXT
  8
1
  6
CONTINUOUS
 62
7
 10
2.5728003E+002
 20
2.2401949E+002
 40
2.0
  1
A2
 41
7.5E-001
 50
9.0E+001
  0
POLYLINE
  8
1
  6
CONTINUOUS
 62
7
 66
1
 40
5.0E-001
 41
5.0E-001
 70
0
  0
VERTEX
  8
1
 42
0.0
 10
2.6703003E+002
 20
2.3251949E+002
 70
0
  0
VERTEX
  8
1
 42
0.0
 10
2.6703003E+002
 20
2.5101949E+002
 70
0
  0
SEQEND
  0
POLYLINE
  8
1
  6
CONTINUOUS
 62
7
 66
1
 40
5.0E-001
 41
5.0E-001
 70
0
  0
VERTEX
  8
1
 42
0.0
 10
2.6703003E+002
 20
2.2751949E+002
 70
0
  0
VERTEX
  8
1
 42
0.0
 10
2.6703003E+002
 20
2.1596975E+002
 70
0
  0
SEQEND
  0
LINE
  8
1
  6
CONTINUOUS
 62
7
 10
2.4474422E+002
 20
2.275788E+002
 11
2.4474422E+002
 21
2.2057926E+002
  0
POLYLINE
  8
1
  6
CONTINUOUS
 62
7
 66
1
 40
5.0E-001
 41
5.0E-001
 70
0
  0
VERTEX
  8
1
 42
0.0
 10
2.7203003E+002
 20
2.3251949E+002
 70
0
  0
VERTEX
  8
1
 42
0.0
 10
2.7203003E+002
 20
2.5101949E+002
 70
0
  0
SEQEND
  0
POLYLINE
  8
1
  6
CONTINUOUS
 62
7
 66
1
 40
5.0E-001
 41
5.0E-001
 70
0
  0
VERTEX
  8
1
 42
0.0
 10
2.7203003E+002
 20
2.2751949E+002
 70
0
  0
VERTEX
  8
1
 42
0.0
 10
2.7203003E+002
 20
2.1396975E+002
 70
0
  0
SEQEND
  0
TEXT
  8
1
  6
CONTINUOUS
 62
7
 10
2.4399422E+002
 20
2.245788E+002
 40
2.0
  1
02
 41
7.5E-001
 50
9.0E+001
  0
POLYLINE
  8
1
  6
CONTINUOUS
 62
7
 66
1
 40
5.0E-001
 41
5.0E-001
 70
0
  0
VERTEX
  8
1
 42
0.0
 10
2.7703003E+002
 20
2.3250734E+002
 70
0
  0
VERTEX
  8
1
 42
0.0
 10
2.7703003E+002
 20
2.5101949E+002
 70
0
  0
SEQEND
  0
POLYLINE
  8
1
  6
CONTINUOUS
 62
7
 66
1
 40
5.0E-001
 41
5.0E-001
 70
0
  0
VERTEX
  8
1
 42
0.0
 10
2.7703003E+002
 20
2.2751949E+002
 70
0
  0
VERTEX
  8
1
 42
0.0
 10
2.7703003E+002
 20
2.1196975E+002
 70
0
  0
SEQEND
  0
TEXT
  8
1
  6
CONTINUOUS
 62
7
 10
2.4399422E+002
 20
2.335788E+002
 40
2.0
  1
01
 41
7.5E-001
 50
9.0E+001
  0
POLYLINE
  8
1
  6
CONTINUOUS
 62
7
 66
1
 40
5.0E-001
 41
5.0E-001
 70
0
  0
VERTEX
  8
1
 42
0.0
 10
2.6703003E+002
 20
2.5101949E+002
 70
0
  0
VERTEX
  8
1
 42
0.0
 10
2.7703003E+002
 20
2.5101949E+002
 70
0
  0
SEQEND
  0
LINE
  8
1
  6
CONTINUOUS
 62
7
 10
2.8203003E+002
 20
2.3251949E+002
 11
2.8203003E+002
 21
2.4401949E+002
  0
LINE
  8
1
  6
CONTINUOUS
 62
7
 10
2.8203003E+002
 20
2.2751949E+002
 11
2.8203003E+002
 21
2.1601949E+002
  0
LINE
  8
1
  6
CONTINUOUS
 62
7
 10
1.7203003E+002
 20
2.2751949E+002
 11
1.7003003E+002
 21
2.3251949E+002
  0
LINE
  8
1
  6
CONTINUOUS
 62
7
 10
1.7203003E+002
 20
2.2751949E+002
 11
1.7203003E+002
 21
2.1601949E+002
  0
TEXT
  8
1
  6
CONTINUOUS
 62
7
 10
1.7128003E+002
 20
2.1901949E+002
 40
2.0
  1
24
 41
7.5E-001
 50
9.0E+001
  0
LINE
  8
1
  6
CONTINUOUS
 62
7
 10
1.7203003E+002
 20
2.3251949E+002
 11
1.7203003E+002
 21
2.4401949E+002
  0
LINE
  8
1
  6
CONTINUOUS
 62
7
 10
2.8203003E+002
 20
2.2751949E+002
 11
2.8003003E+002
 21
2.3251949E+002
  0
POLYLINE
  8
1
  6
CONTINUOUS
 62
7
 66
1
 40
5.0E-001
 41
5.0E-001
 70
0
  0
VERTEX
  8
1
 42
0.0
 10
2.7703003E+002
 20
2.2751949E+002
 70
0
  0
VERTEX
  8
1
 42
0.0
 10
2.7503003E+002
 20
2.3251949E+002
 70
0
  0
SEQEND
  0
POLYLINE
  8
1
  6
CONTINUOUS
 62
7
 66
1
 40
5.0E-001
 41
5.0E-001
 70
0
  0
VERTEX
  8
1
 42
0.0
 10
2.7203003E+002
 20
2.2751949E+002
 70
0
  0
VERTEX
  8
1
 42
0.0
 10
2.7003003E+002
 20
2.3251949E+002
 70
0
  0
SEQEND
  0
POLYLINE
  8
1
  6
CONTINUOUS
 62
7
 66
1
 40
5.0E-001
 41
5.0E-001
 70
0
  0
VERTEX
  8
1
 42
0.0
 10
2.6703003E+002
 20
2.2751949E+002
 70
0
  0
VERTEX
  8
1
 42
0.0
 10
2.6503003E+002
 20
2.3251949E+002
 70
0
  0
SEQEND
  0
TEXT
  8
1
  6
CONTINUOUS
 62
7
 10
2.6628003E+002
 20
2.3808158E+002
 40
2.0
  1
1/L1
 41
7.5E-001
 50
9.0E+001
  0
TEXT
  8
1
  6
CONTINUOUS
 62
7
 10
2.7128003E+002
 20
2.3808158E+002
 40
2.0
  1
3/L2
 41
7.5E-001
 50
9.0E+001
  0
TEXT
  8
1
  6
CONTINUOUS
 62
7
 10
2.7628003E+002
 20
2.3808158E+002
 40
2.0
  1
5/L3
 41
7.5E-001
 50
9.0E+001
  0
TEXT
  8
1
  6
CONTINUOUS
 62
7
 10
2.8128003E+002
 20
2.3808158E+002
 40
2.0
  1
13
 41
7.5E-001
 50
9.0E+001
  0
TEXT
  8
1
  6
CONTINUOUS
 62
7
 10
2.6628003E+002
 20
2.1901949E+002
 40
2.0
  1
2/T1
 41
7.5E-001
 50
9.0E+001
  0
TEXT
  8
1
  6
CONTINUOUS
 62
7
 10
2.7128003E+002
 20
2.1901949E+002
 40
2.0
  1
4/T2
 41
7.5E-001
 50
9.0E+001
  0
TEXT
  8
1
  6
CONTINUOUS
 62
7
 10
2.7628003E+002
 20
2.1901949E+002
 40
2.0
  1
6/T3
 41
7.5E-001
 50
9.0E+001
  0
TEXT
  8
1
  6
CONTINUOUS
 62
7
 10
2.8128003E+002
 20
2.1901949E+002
 40
2.0
  1
14
 41
7.5E-001
 50
9.0E+001
  0
LINE
  8
1
  6
CONTINUOUS
 62
7
 10
1.9903003E+002
 20
2.3201949E+002
 11
1.9903003E+002
 21
2.2813811E+002
  0
LINE
  8
1
  6
CONTINUOUS
 62
7
 10
2.0703003E+002
 20
2.3201949E+002
 11
2.0703003E+002
 21
2.2813811E+002
  0
LINE
  8
1
  6
CONTINUOUS
 62
7
 10
2.0703003E+002
 20
2.3201949E+002
 11
1.9903003E+002
 21
2.3201949E+002
  0
LINE
  8
1
  6
CONTINUOUS
 62
7
 10
2.0703003E+002
 20
2.2813811E+002
 11
1.9903003E+002
 21
2.2813811E+002
  0
LINE
  8
1
  6
CONTINUOUS
 62
7
 10
2.0303003E+002
 20
2.3201949E+002
 11
2.0303003E+002
 21
2.3701949E+002
  0
LINE
  8
1
  6
CONTINUOUS
 62
7
 10
2.0303003E+002
 20
2.2813811E+002
 11
2.0303003E+002
 21
2.2301949E+002
  0
TEXT
  8
1
  6
CONTINUOUS
 62
7
 10
1.9403003E+002
 20
2.3101949E+002
 40
2.0
  1
KM3
 41
7.5E-001
  0
TEXT
  8
1
  6
CONTINUOUS
 62
7
 10
2.0228003E+002
 20
2.3301949E+002
 40
2.0
  1
A1
 41
7.5E-001
 50
9.0E+001
  0
TEXT
  8
1
  6
CONTINUOUS
 62
7
 10
2.0228003E+002
 20
2.2401949E+002
 40
2.0
  1
A2
 41
7.5E-001
 50
9.0E+001
  0
POLYLINE
  8
1
  6
CONTINUOUS
 62
7
 66
1
 40
5.0E-001
 41
5.0E-001
 70
0
  0
VERTEX
  8
1
 42
0.0
 10
2.1203003E+002
 20
2.3251949E+002
 70
0
  0
VERTEX
  8
1
 42
0.0
 10
2.1203003E+002
 20
2.5501949E+002
 70
0
  0
SEQEND
  0
POLYLINE
  8
1
  6
CONTINUOUS
 62
7
 66
1
 40
5.0E-001
 41
5.0E-001
 70
0
  0
VERTEX
  8
1
 42
0.0
 10
2.1203003E+002
 20
2.2751949E+002
 70
0
  0
VERTEX
  8
1
 42
0.0
 10
2.1203003E+002
 20
2.1196975E+002
 70
0
  0
SEQEND
  0
LINE
  8
1
  6
CONTINUOUS
 62
7
 10
2.4474422E+002
 20
2.325788E+002
 11
2.4474422E+002
 21
2.3957926E+002
  0
POLYLINE
  8
1
  6
CONTINUOUS
 62
7
 66
1
 40
5.0E-001
 41
5.0E-001
 70
0
  0
VERTEX
  8
1
 42
0.0
 10
2.1703003E+002
 20
2.3251949E+002
 70
0
  0
VERTEX
  8
1
 42
0.0
 10
2.1703003E+002
 20
2.5301949E+002
 70
0
  0
SEQEND
  0
POLYLINE
  8
1
  6
CONTINUOUS
 62
7
 66
1
 40
5.0E-001
 41
5.0E-001
 70
0
  0
VERTEX
  8
1
 42
0.0
 10
2.1703003E+002
 20
2.2751949E+002
 70
0
  0
VERTEX
  8
1
 42
0.0
 10
2.1703003E+002
 20
2.1396975E+002
 70
0
  0
SEQEND
  0
POLYLINE
  8
1
  6
CONTINUOUS
 62
7
 66
1
 40
5.0E-001
 41
5.0E-001
 70
0
  0
VERTEX
  8
1
 42
0.0
 10
2.2203003E+002
 20
2.3251949E+002
 70
0
  0
VERTEX
  8
1
 42
0.0
 10
2.2203003E+002
 20
2.5101949E+002
 70
0
  0
SEQEND
  0
POLYLINE
  8
1
  6
CONTINUOUS
 62
7
 66
1
 40
5.0E-001
 41
5.0E-001
 70
0
  0
VERTEX
  8
1
 42
0.0
 10
2.2203003E+002
 20
2.2751949E+002
 70
0
  0
VERTEX
  8
1
 42
0.0
 10
2.2203003E+002
 20
2.1596975E+002
 70
0
  0
SEQEND
  0
LINE
  8
1
  6
CONTINUOUS
 62
7
 10
2.4474422E+002
 20
2.275788E+002
 11
2.4574422E+002
 21
2.335788E+002
  0
LINE
  8
1
  6
CONTINUOUS
 62
7
 10
2.4176415E+002
 20
2.3656665E+002
 11
2.4176415E+002
 21
2.3356665E+002
  0
POLYLINE
  8
1
  6
CONTINUOUS
 62
7
 66
1
 40
5.0E-001
 41
5.0E-001
 70
0
  0
VERTEX
  8
1
 42
0.0
 10
2.2203003E+002
 20
2.2751949E+002
 70
0
  0
VERTEX
  8
1
 42
0.0
 10
2.2003003E+002
 20
2.3251949E+002
 70
0
  0
SEQEND
  0
POLYLINE
  8
1
  6
CONTINUOUS
 62
7
 66
1
 40
5.0E-001
 41
5.0E-001
 70
0
  0
VERTEX
  8
1
 42
0.0
 10
2.1703003E+002
 20
2.2751949E+002
 70
0
  0
VERTEX
  8
1
 42
0.0
 10
2.1503003E+002
 20
2.3251949E+002
 70
0
  0
SEQEND
  0
POLYLINE
  8
1
  6
CONTINUOUS
 62
7
 66
1
 40
5.0E-001
 41
5.0E-001
 70
0
  0
VERTEX
  8
1
 42
0.0
 10
2.1203003E+002
 20
2.2751949E+002
 70
0
  0
VERTEX
  8
1
 42
0.0
 10
2.1003003E+002
 20
2.3251949E+002
 70
0
  0
SEQEND
  0
TEXT
  8
1
  6
CONTINUOUS
 62
7
 10
2.1128003E+002
 20
2.3759587E+002
 40
2.0
  1
1/L1
 41
7.5E-001
 50
9.0E+001
  0
TEXT
  8
1
  6
CONTINUOUS
 62
7
 10
2.1628003E+002
 20
2.3759587E+002
 40
2.0
  1
3/L2
 41
7.5E-001
 50
9.0E+001
  0
TEXT
  8
1
  6
CONTINUOUS
 62
7
 10
2.2128003E+002
 20
2.3759587E+002
 40
2.0
  1
5/L3
 41
7.5E-001
 50
9.0E+001
  0
TEXT
  8
1
  6
CONTINUOUS
 62
7
 10
2.1128003E+002
 20
2.1901949E+002
 40
2.0
  1
2/T1
 41
7.5E-001
 50
9.0E+001
  0
TEXT
  8
1
  6
CONTINUOUS
 62
7
 10
2.1628003E+002
 20
2.1901949E+002
 40
2.0
  1
4/T2
 41
7.5E-001
 50
9.0E+001
  0
TEXT
  8
1
  6
CONTINUOUS
 62
7
 10
2.2128003E+002
 20
2.1901949E+002
 40
2.0
  1
6/T3
 41
7.5E-001
 50
9.0E+001
  0
LINE
  8
1
  6
CONTINUOUS
 62
7
 10
1.3903003E+002
 20
2.3201949E+002
 11
1.3903003E+002
 21
2.2813811E+002
  0
LINE
  8
1
  6
CONTINUOUS
 62
7
 10
1.4703003E+002
 20
2.3201949E+002
 11
1.4703003E+002
 21
2.2813811E+002
  0
LINE
  8
1
  6
CONTINUOUS
 62
7
 10
1.4703003E+002
 20
2.3201949E+002
 11
1.3903003E+002
 21
2.3201949E+002
  0
LINE
  8
1
  6
CONTINUOUS
 62
7
 10
1.4703003E+002
 20
2.2813811E+002
 11
1.3903003E+002
 21
2.2813811E+002
  0
LINE
  8
1
  6
CONTINUOUS
 62
7
 10
1.4303003E+002
 20
2.3201949E+002
 11
1.4303003E+002
 21
2.3701949E+002
  0
LINE
  8
1
  6
CONTINUOUS
 62
7
 10
1.4303003E+002
 20
2.2813811E+002
 11
1.4303003E+002
 21
2.2301949E+002
  0
TEXT
  8
1
  6
CONTINUOUS
 62
7
 10
1.3403003E+002
 20
2.3101949E+002
 40
2.0
  1
KM1
 41
7.5E-001
  0
TEXT
  8
1
  6
CONTINUOUS
 62
7
 10
1.4228003E+002
 20
2.3301949E+002
 40
2.0
  1
A1
 41
7.5E-001
 50
9.0E+001
  0
TEXT
  8
1
  6
CONTINUOUS
 62
7
 10
1.4228003E+002
 20
2.2401949E+002
 40
2.0
  1
A2
 41
7.5E-001
 50
9.0E+001
  0
POLYLINE
  8
1
  6
CONTINUOUS
 62
7
 66
1
 40
5.0E-001
 41
5.0E-001
 70
0
  0
VERTEX
  8
1
 42
0.0
 10
1.5203003E+002
 20
2.3251949E+002
 70
0
  0
VERTEX
  8
1
 42
0.0
 10
1.5203003E+002
 20
2.5501949E+002
 70
0
  0
SEQEND
  0
POLYLINE
  8
1
  6
CONTINUOUS
 62
7
 66
1
 40
5.0E-001
 41
5.0E-001
 70
0
  0
VERTEX
  8
1
 42
0.0
 10
1.5203003E+002
 20
2.2751949E+002
 70
0
  0
VERTEX
  8
1
 42
0.0
 10
1.5203003E+002
 20
2.1596975E+002
 70
0
  0
SEQEND
  0
LINE
  8
1
  6
CONTINUOUS
 62
7
 10
2.4176415E+002
 20
2.3356665E+002
 11
2.4426415E+002
 21
2.3356665E+002
  0
POLYLINE
  8
1
  6
CONTINUOUS
 62
7
 66
1
 40
5.0E-001
 41
5.0E-001
 70
0
  0
VERTEX
  8
1
 42
0.0
 10
1.5703003E+002
 20
2.3251949E+002
 70
0
  0
VERTEX
  8
1
 42
0.0
 10
1.5703003E+002
 20
2.5301949E+002
 70
0
  0
SEQEND
  0
POLYLINE
  8
1
  6
CONTINUOUS
 62
7
 66
1
 40
5.0E-001
 41
5.0E-001
 70
0
  0
VERTEX
  8
1
 42
0.0
 10
1.5703003E+002
 20
2.2751949E+002
 70
0
  0
VERTEX
  8
1
 42
0.0
 10
1.5703003E+002
 20
2.1596975E+002
 70
0
  0
SEQEND
  0
LINE
  8
1
  6
CONTINUOUS
 62
7
 10
2.4426415E+002
 20
2.3356665E+002
 11
2.4426415E+002
 21
2.3656665E+002
  0
POLYLINE
  8
1
  6
CONTINUOUS
 62
7
 66
1
 40
5.0E-001
 41
5.0E-001
 70
0
  0
VERTEX
  8
1
 42
0.0
 10
1.6203003E+002
 20
2.3251949E+002
 70
0
  0
VERTEX
  8
1
 42
0.0
 10
1.6203003E+002
 20
2.5101949E+002
 70
0
  0
SEQEND
  0
POLYLINE
  8
1
  6
CONTINUOUS
 62
7
 66
1
 40
5.0E-001
 41
5.0E-001
 70
0
  0
VERTEX
  8
1
 42
0.0
 10
1.6203003E+002
 20
2.2751949E+002
 70
0
  0
VERTEX
  8
1
 42
0.0
 10
1.6203003E+002
 20
2.1596975E+002
 70
0
  0
SEQEND
  0
LINE
  8
1
  6
CONTINUOUS
 62
7
 10
2.4426415E+002
 20
2.3656665E+002
 11
2.4176415E+002
 21
2.3656665E+002
  0
LINE
  8
1
  6
CONTINUOUS
 62
7
 10
1.6703003E+002
 20
2.3251949E+002
 11
1.6703003E+002
 21
2.4401949E+002
  0
LINE
  8
1
  6
CONTINUOUS
 62
7
 10
1.6703003E+002
 20
2.2751949E+002
 11
1.6703003E+002
 21
2.1601949E+002
  0
LINE
  8
1
  6
CONTINUOUS
 62
7
 10
1.6703003E+002
 20
2.2751949E+002
 11
1.6503003E+002
 21
2.3251949E+002
  0
POLYLINE
  8
1
  6
CONTINUOUS
 62
7
 66
1
 40
5.0E-001
 41
5.0E-001
 70
0
  0
VERTEX
  8
1
 42
0.0
 10
1.6203003E+002
 20
2.2751949E+002
 70
0
  0
VERTEX
  8
1
 42
0.0
 10
1.6003003E+002
 20
2.3251949E+002
 70
0
  0
SEQEND
  0
POLYLINE
  8
1
  6
CONTINUOUS
 62
7
 66
1
 40
5.0E-001
 41
5.0E-001
 70
0
  0
VERTEX
  8
1
 42
0.0
 10
1.5703003E+002
 20
2.2751949E+002
 70
0
  0
VERTEX
  8
1
 42
0.0
 10
1.5503003E+002
 20
2.3251949E+002
 70
0
  0
SEQEND
  0
POLYLINE
  8
1
  6
CONTINUOUS
 62
7
 66
1
 40
5.0E-001
 41
5.0E-001
 70
0
  0
VERTEX
  8
1
 42
0.0
 10
1.5203003E+002
 20
2.2751949E+002
 70
0
  0
VERTEX
  8
1
 42
0.0
 10
1.5003003E+002
 20
2.3251949E+002
 70
0
  0
SEQEND
  0
TEXT
  8
1
  6
CONTINUOUS
 62
7
 10
1.5128003E+002
 20
2.3759587E+002
 40
2.0
  1
1/L1
 41
7.5E-001
 50
9.0E+001
  0
TEXT
  8
1
  6
CONTINUOUS
 62
7
 10
1.5628003E+002
 20
2.3759587E+002
 40
2.0
  1
3/L2
 41
7.5E-001
 50
9.0E+001
  0
TEXT
  8
1
  6
CONTINUOUS
 62
7
 10
1.6128003E+002
 20
2.3759587E+002
 40
2.0
  1
5/L3
 41
7.5E-001
 50
9.0E+001
  0
TEXT
  8
1
  6
CONTINUOUS
 62
7
 10
1.6628003E+002
 20
2.3759587E+002
 40
2.0
  1
13
 41
7.5E-001
 50
9.0E+001
  0
TEXT
  8
1
  6
CONTINUOUS
 62
7
 10
1.5128003E+002
 20
2.1901949E+002
 40
2.0
  1
2/T1
 41
7.5E-001
 50
9.0E+001
  0
TEXT
  8
1
  6
CONTINUOUS
 62
7
 10
1.5628003E+002
 20
2.1901949E+002
 40
2.0
  1
4/T2
 41
7.5E-001
 50
9.0E+001
  0
TEXT
  8
1
  6
CONTINUOUS
 62
7
 10
1.6128003E+002
 20
2.1901949E+002
 40
2.0
  1
6/T3
 41
7.5E-001
 50
9.0E+001
  0
TEXT
  8
1
  6
CONTINUOUS
 62
7
 10
1.6628003E+002
 20
2.1901949E+002
 40
2.0
  1
14
 41
7.5E-001
 50
9.0E+001
  0
LINE
  8
1
  6
SHORT_DASH
 62
7
 10
1.4703003E+002
 20
2.3001949E+002
 11
1.7103003E+002
 21
2.3001949E+002
  0
POLYLINE
  8
1
  6
CONTINUOUS
 62
7
 66
1
 40
5.0E-001
 41
5.0E-001
 70
0
  0
VERTEX
  8
1
 42
0.0
 10
1.5203003E+002
 20
2.1596975E+002
 70
0
  0
VERTEX
  8
1
 42
0.0
 10
1.5203003E+002
 20
2.0776949E+002
 70
0
  0
SEQEND
  0
POLYLINE
  8
1
  6
CONTINUOUS
 62
7
 66
1
 40
5.0E-001
 41
5.0E-001
 70
0
  0
VERTEX
  8
1
 42
0.0
 10
1.6203003E+002
 20
2.1596975E+002
 70
0
  0
VERTEX
  8
1
 42
0.0
 10
1.6203003E+002
 20
2.0776949E+002
 70
0
  0
SEQEND
  0
LINE
  8
1
  6
CONTINUOUS
 62
7
 10
2.4426415E+002
 20
2.245545E+002
 11
2.4426415E+002
 21
2.275545E+002
  0
LINE
  8
1
  6
CONTINUOUS
 62
7
 10
2.4426415E+002
 20
2.275545E+002
 11
2.4176415E+002
 21
2.275545E+002
  0
LINE
  8
1
  6
CONTINUOUS
 62
7
 10
2.4176415E+002
 20
2.275545E+002
 11
2.4176415E+002
 21
2.245545E+002
  0
LINE
  8
1
  6
HIDDEN
 62
7
 10
1.1497146E+002
 20
2.0651949E+002
 11
1.2503003E+002
 21
2.0651949E+002
  0
LINE
  8
1
  6
CONTINUOUS
 62
7
 10
1.4853003E+002
 20
2.0901949E+002
 11
1.6353003E+002
 21
2.0901949E+002
  0
LINE
  8
1
  6
CONTINUOUS
 62
7
 10
1.4853003E+002
 20
2.0401949E+002
 11
1.6353003E+002
 21
2.0401949E+002
  0
LINE
  8
1
  6
CONTINUOUS
 62
7
 10
1.4853003E+002
 20
2.0901949E+002
 11
1.4853003E+002
 21
2.0401949E+002
  0
LINE
  8
1
  6
CONTINUOUS
 62
7
 10
1.6353003E+002
 20
2.0901949E+002
 11
1.6353003E+002
 21
2.0401949E+002
  0
LINE
  8
1
  6
CONTINUOUS
 62
7
 10
1.4953003E+002
 20
2.0776949E+002
 11
1.5203003E+002
 21
2.0776949E+002
  0
LINE
  8
1
  6
CONTINUOUS
 62
7
 10
1.4953003E+002
 20
2.0526949E+002
 11
1.5203003E+002
 21
2.0526949E+002
  0
LINE
  8
1
  6
CONTINUOUS
 62
7
 10
1.5453003E+002
 20
2.0776949E+002
 11
1.5703003E+002
 21
2.0776949E+002
  0
LINE
  8
1
  6
CONTINUOUS
 62
7
 10
1.5453003E+002
 20
2.0526949E+002
 11
1.5703003E+002
 21
2.0526949E+002
  0
LINE
  8
1
  6
CONTINUOUS
 62
7
 10
1.4953003E+002
 20
2.0776949E+002
 11
1.4953003E+002
 21
2.0526949E+002
  0
LINE
  8
1
  6
CONTINUOUS
 62
7
 10
1.5453003E+002
 20
2.0526949E+002
 11
1.5453003E+002
 21
2.0776949E+002
  0
LINE
  8
1
  6
CONTINUOUS
 62
7
 10
1.5953003E+002
 20
2.0776949E+002
 11
1.5953003E+002
 21
2.0526949E+002
  0
LINE
  8
1
  6
CONTINUOUS
 62
7
 10
1.5953003E+002
 20
2.0776949E+002
 11
1.6203003E+002
 21
2.0776949E+002
  0
LINE
  8
1
  6
CONTINUOUS
 62
7
 10
1.5953003E+002
 20
2.0526949E+002
 11
1.6203003E+002
 21
2.0526949E+002
  0
POLYLINE
  8
1
  6
CONTINUOUS
 62
7
 66
1
 40
5.0E-001
 41
5.0E-001
 70
0
  0
VERTEX
  8
1
 42
0.0
 10
1.5203003E+002
 20
2.0526949E+002
 70
0
  0
VERTEX
  8
1
 42
0.0
 10
1.5203003E+002
 20
1.9401949E+002
 70
0
  0
SEQEND
  0
POLYLINE
  8
1
  6
CONTINUOUS
 62
7
 66
1
 40
5.0E-001
 41
5.0E-001
 70
0
  0
VERTEX
  8
1
 42
0.0
 10
1.5703003E+002
 20
2.0776949E+002
 70
0
  0
VERTEX
  8
1
 42
0.0
 10
1.5703003E+002
 20
2.1596975E+002
 70
0
  0
SEQEND
  0
POLYLINE
  8
1
  6
CONTINUOUS
 62
7
 66
1
 40
5.0E-001
 41
5.0E-001
 70
0
  0
VERTEX
  8
1
 42
0.0
 10
1.6203003E+002
 20
2.0526949E+002
 70
0
  0
VERTEX
  8
1
 42
0.0
 10
1.6203003E+002
 20
1.9401949E+002
 70
0
  0
SEQEND
  0
POLYLINE
  8
1
  6
CONTINUOUS
 62
7
 66
1
 40
5.0E-001
 41
5.0E-001
 70
0
  0
VERTEX
  8
1
 42
0.0
 10
1.5703003E+002
 20
1.9401949E+002
 70
0
  0
VERTEX
  8
1
 42
0.0
 10
1.5703003E+002
 20
2.0526949E+002
 70
0
  0
SEQEND
  0
LINE
  8
1
  6
CONTINUOUS
 62
7
 10
2.4176415E+002
 20
2.245545E+002
 11
2.4426415E+002
 21
2.245545E+002
  0
LINE
  8
1
  6
CONTINUOUS
 62
7
 10
1.4493706E+002
 20
2.0901949E+002
 11
1.4493706E+002
 21
2.1401949E+002
  0
LINE
  8
1
  6
CONTINUOUS
 62
7
 10
1.4493706E+002
 20
2.0401949E+002
 11
1.4293706E+002
 21
2.0901949E+002
  0
LINE
  8
1
  6
CONTINUOUS
 62
7
 10
1.4493706E+002
 20
2.0401949E+002
 11
1.4493706E+002
 21
1.9901949E+002
  0
LINE
  8
1
  6
CONTINUOUS
 62
7
 10
2.3643475E+002
 20
2.320788E+002
 11
2.3874415E+002
 21
2.280788E+002
  0
LINE
  8
1
  6
CONTINUOUS
 62
7
 10
1.3993706E+002
 20
2.0401949E+002
 11
1.4093706E+002
 21
2.1001949E+002
  0
LINE
  8
1
  6
CONTINUOUS
 62
7
 10
1.3993706E+002
 20
2.0901949E+002
 11
1.4193706E+002
 21
2.0901949E+002
  0
LINE
  8
1
  6
CONTINUOUS
 62
7
 10
1.3993706E+002
 20
2.0901949E+002
 11
1.3993706E+002
 21
2.1401949E+002
  0
LINE
  8
1
  6
CONTINUOUS
 62
7
 10
2.3643475E+002
 20
2.320788E+002
 11
2.4105356E+002
 21
2.320788E+002
  0
LINE
  8
1
  6
CONTINUOUS
 62
7
 10
1.3993706E+002
 20
2.0401949E+002
 11
1.3993706E+002
 21
1.9901949E+002
  0
LINE
  8
1
  6
CONTINUOUS
 62
7
 10
1.2803003E+002
 20
2.0851949E+002
 11
1.3203003E+002
 21
2.0651949E+002
  0
LINE
  8
1
  6
CONTINUOUS
 62
7
 10
1.2803003E+002
 20
2.0851949E+002
 11
1.2803003E+002
 21
2.0651949E+002
  0
LINE
  8
1
  6
CONTINUOUS
 62
7
 10
1.2803003E+002
 20
2.0651949E+002
 11
1.3203003E+002
 21
2.0651949E+002
  0
LINE
  8
1
  6
CONTINUOUS
 62
7
 10
1.1603003E+002
 20
2.0851949E+002
 11
1.2003003E+002
 21
2.0651949E+002
  0
LINE
  8
1
  6
CONTINUOUS
 62
7
 10
1.1603003E+002
 20
2.0851949E+002
 11
1.1603003E+002
 21
2.0651949E+002
  0
LINE
  8
1
  6
CONTINUOUS
 62
7
 10
1.1603003E+002
 20
2.0651949E+002
 11
1.2003003E+002
 21
2.0651949E+002
  0
LINE
  8
1
  6
HIDDEN
 62
7
 10
1.3203003E+002
 20
2.0751949E+002
 11
1.3203003E+002
 21
2.1201949E+002
  0
LINE
  8
1
  6
HIDDEN
 62
7
 10
1.3203003E+002
 20
2.1201949E+002
 11
1.2503003E+002
 21
2.1201949E+002
  0
LINE
  8
1
  6
HIDDEN
 62
7
 10
1.3303003E+002
 20
2.0751949E+002
 11
1.4052039E+002
 21
2.0751949E+002
  0
LINE
  8
1
  6
HIDDEN
 62
7
 10
1.3303003E+002
 20
2.1301949E+002
 11
1.3303003E+002
 21
2.0751949E+002
  0
LINE
  8
1
  6
HIDDEN
 62
7
 10
1.2503003E+002
 20
2.1301949E+002
 11
1.3303003E+002
 21
2.1301949E+002
  0
LINE
  8
1
  6
CONTINUOUS
 62
7
 10
1.2503003E+002
 20
2.1451949E+002
 11
1.2503003E+002
 21
2.1051949E+002
  0
LINE
  8
1
  6
CONTINUOUS
 62
7
 10
1.2653003E+002
 20
2.1051949E+002
 11
1.2503003E+002
 21
2.1051949E+002
  0
LINE
  8
1
  6
CONTINUOUS
 62
7
 10
1.2653003E+002
 20
2.1451949E+002
 11
1.2503003E+002
 21
2.1451949E+002
  0
TEXT
  8
1
  6
CONTINUOUS
 62
7
 10
1.2103003E+002
 20
2.1251949E+002
 40
2.0
  1
O
 41
7.5E-001
  0
TEXT
  8
1
  6
CONTINUOUS
 62
7
 10
1.2273003E+002
 20
2.1051949E+002
 40
2.0
  1
R
 41
7.5E-001
  0
LINE
  8
1
  6
CONTINUOUS
 62
7
 10
1.2323003E+002
 20
2.1391949E+002
 11
1.2163003E+002
 21
2.1071949E+002
  0
LINE
  8
1
  6
HIDDEN
 62
7
 10
1.2003003E+002
 20
2.0751949E+002
 11
1.2003003E+002
 21
2.1201949E+002
  0
LINE
  8
1
  6
HIDDEN
 62
7
 10
1.2003003E+002
 20
2.1201949E+002
 11
1.1303003E+002
 21
2.1201949E+002
  0
LINE
  8
1
  6
CONTINUOUS
 62
7
 10
1.1453003E+002
 20
2.1051949E+002
 11
1.1303003E+002
 21
2.1051949E+002
  0
LINE
  8
1
  6
CONTINUOUS
 62
7
 10
1.1303003E+002
 20
2.1451949E+002
 11
1.1303003E+002
 21
2.1051949E+002
  0
LINE
  8
1
  6
CONTINUOUS
 62
7
 10
1.1453003E+002
 20
2.1451949E+002
 11
1.1303003E+002
 21
2.1451949E+002
  0
TEXT
  8
1
  6
CONTINUOUS
 62
7
 10
1.1073003E+002
 20
2.1051949E+002
 40
2.0
  1
R
 41
7.5E-001
  0
LINE
  8
1
  6
CONTINUOUS
 62
7
 10
2.4105356E+002
 20
2.320788E+002
 11
2.3874415E+002
 21
2.280788E+002
  0
LINE
  8
1
  6
HIDDEN
 62
7
 10
1.2743036E+002
 20
2.0651949E+002
 11
1.4953003E+002
 21
2.0651949E+002
  0
TEXT
  8
1
  6
CONTINUOUS
 62
7
 10
1.6403003E+002
 20
2.0501949E+002
 40
2.0
  1
FR1
 41
7.5E-001
  0
LINE
  8
1
  6
CONTINUOUS
 62
7
 10
2.2953003E+002
 20
2.3807926E+002
 11
2.3453003E+002
 21
2.3807926E+002
  0
LINE
  8
1
  6
CONTINUOUS
 62
7
 10
9.1851977E+001
 20
2.3251949E+002
 11
9.3851977E+001
 21
2.3251949E+002
  0
LINE
  8
1
  6
CONTINUOUS
 62
7
 10
9.7851977E+001
 20
2.3251949E+002
 11
9.7851977E+001
 21
2.3451949E+002
  0
LINE
  8
1
  6
CONTINUOUS
 62
7
 10
9.7851977E+001
 20
2.2751949E+002
 11
9.7851977E+001
 21
2.254015E+002
  0
LINE
  8
1
  6
CONTINUOUS
 62
7
 10
9.1851977E+001
 20
2.2751949E+002
 11
9.2851977E+001
 21
2.3351949E+002
  0
LINE
  8
1
  6
CONTINUOUS
 62
7
 10
9.7851977E+001
 20
2.2751949E+002
 11
9.5851977E+001
 21
2.3251949E+002
  0
TEXT
  8
1
  6
CONTINUOUS
 62
7
 10
9.7101977E+001
 20
2.3476949E+002
 40
2.0
  1
15
 41
7.5E-001
 50
9.0E+001
  0
LINE
  8
1
  6
CONTINUOUS
 62
7
 10
8.6902487E+001
 20
2.3051949E+002
 11
9.2351977E+001
 21
2.3051949E+002
  0
LINE
  8
1
  6
CONTINUOUS
 62
7
 10
8.6902487E+001
 20
2.2951949E+002
 11
9.2268644E+001
 21
2.2951949E+002
  0
LINE
  8
1
  6
CONTINUOUS
 62
7
 10
9.1851977E+001
 20
2.2751949E+002
 11
9.1851977E+001
 21
2.254015E+002
  0
LINE
  8
1
  6
CONTINUOUS
 62
7
 10
9.1851977E+001
 20
2.3251949E+002
 11
9.1851977E+001
 21
2.3451949E+002
  0
LINE
  8
1
  6
CONTINUOUS
 62
7
 10
2.3553003E+002
 20
2.3807926E+002
 11
2.3653003E+002
 21
2.3807926E+002
  0
LINE
  8
1
  6
HIDDEN
 62
7
 10
9.2268644E+001
 20
2.3001949E+002
 11
1.0290249E+002
 21
2.3001949E+002
  0
ARC
  8
1
  6
CONTINUOUS
 62
7
 10
8.9351977E+001
 20
2.3001949E+002
 40
2.5
 50
1.1356542E+002
 51
2.4643458E+002
  0
LINE
  8
1
  6
CONTINUOUS
 62
7
 10
8.5351977E+001
 20
2.3451949E+002
 11
9.1851977E+001
 21
2.3451949E+002
  0
LINE
  8
1
  6
CONTINUOUS
 62
7
 10
8.5351977E+001
 20
2.3451949E+002
 11
8.5351977E+001
 21
2.1701949E+002
  0
LINE
  8
1
  6
CONTINUOUS
 62
7
 10
9.7851977E+001
 20
2.254015E+002
 11
9.1851977E+001
 21
2.254015E+002
  0
TEXT
  8
1
  6
CONTINUOUS
 62
7
 10
8.4601977E+001
 20
2.2171949E+002
 40
2.0
  1
16
 41
7.5E-001
 50
9.0E+001
  0
LINE
  8
1
  6
CONTINUOUS
 62
7
 10
9.7851977E+001
 20
2.3451949E+002
 11
1.0835198E+002
 21
2.3451949E+002
  0
LINE
  8
1
  6
CONTINUOUS
 62
7
 10
2.2953003E+002
 20
2.3307926E+002
 11
2.2953003E+002
 21
2.3807926E+002
  0
LINE
  8
1
  6
CONTINUOUS
 62
7
 10
1.1285198E+002
 20
2.2801949E+002
 11
1.1285198E+002
 21
2.3201949E+002
  0
LINE
  8
1
  6
CONTINUOUS
 62
7
 10
2.2953003E+002
 20
2.3107926E+002
 11
2.2953003E+002
 21
2.3207926E+002
  0
LINE
  8
1
  6
CONTINUOUS
 62
7
 10
1.0835198E+002
 20
2.2751949E+002
 11
1.0635198E+002
 21
2.3251949E+002
  0
LINE
  8
1
  6
CONTINUOUS
 62
7
 10
1.0340249E+002
 20
2.3051949E+002
 11
1.0715198E+002
 21
2.3051949E+002
  0
LINE
  8
1
  6
CONTINUOUS
 62
7
 10
1.0340249E+002
 20
2.2951949E+002
 11
1.0755198E+002
 21
2.2951949E+002
  0
LINE
  8
1
  6
CONTINUOUS
 62
7
 10
1.0835198E+002
 20
2.2751949E+002
 11
1.0835198E+002
 21
2.1701949E+002
  0
LINE
  8
1
  6
CONTINUOUS
 62
7
 10
1.0835198E+002
 20
2.3251949E+002
 11
1.0835198E+002
 21
2.3451949E+002
  0
ARC
  8
1
  6
CONTINUOUS
 62
7
 10
1.0585198E+002
 20
2.3001949E+002
 40
2.5
 50
1.1356542E+002
 51
2.4643458E+002
  0
LINE
  8
1
  6
CONTINUOUS
 62
7
 10
1.2085198E+002
 20
2.2801949E+002
 11
1.2085198E+002
 21
2.3201949E+002
  0
LINE
  8
1
  6
CONTINUOUS
 62
7
 10
1.2285198E+002
 20
2.2801949E+002
 11
1.2285198E+002
 21
2.3201949E+002
  0
LINE
  8
1
  6
CONTINUOUS
 62
7
 10
1.1285198E+002
 20
2.3201949E+002
 11
1.2285198E+002
 21
2.3201949E+002
  0
LINE
  8
1
  6
CONTINUOUS
 62
7
 10
1.1285198E+002
 20
2.2801949E+002
 11
1.2285198E+002
 21
2.2801949E+002
  0
LINE
  8
1
  6
CONTINUOUS
 62
7
 10
1.2285198E+002
 20
2.3201949E+002
 11
1.2085198E+002
 21
2.2801949E+002
  0
LINE
  8
1
  6
CONTINUOUS
 62
7
 10
1.2085198E+002
 20
2.3201949E+002
 11
1.2285198E+002
 21
2.2801949E+002
  0
LINE
  8
1
  6
CONTINUOUS
 62
7
 10
1.1685198E+002
 20
2.3201949E+002
 11
1.1685198E+002
 21
2.4297845E+002
  0
LINE
  8
1
  6
CONTINUOUS
 62
7
 10
1.1685198E+002
 20
2.2801949E+002
 11
1.1685198E+002
 21
2.1706053E+002
  0
LINE
  8
1
  6
HIDDEN
 62
7
 10
1.0735198E+002
 20
2.3001949E+002
 11
1.1285198E+002
 21
2.3001949E+002
  0
TEXT
  8
1
  6
CONTINUOUS
 62
7
 10
1.1635198E+002
 20
2.3506949E+002
 40
2.0
  1
A1
 41
7.5E-001
 50
9.0E+001
  0
TEXT
  8
1
  6
CONTINUOUS
 62
7
 10
1.1610198E+002
 20
2.2191949E+002
 40
2.0
  1
A2
 41
7.5E-001
 50
9.0E+001
  0
LINE
  8
1
  6
CONTINUOUS
 62
7
 10
2.3753003E+002
 20
2.3807926E+002
 11
2.4253003E+002
 21
2.3807926E+002
  0
LINE
  8
1
  6
CONTINUOUS
 62
7
 10
2.4353003E+002
 20
2.2207926E+002
 11
2.4453003E+002
 21
2.2207926E+002
  0
TEXT
  8
1
  6
CONTINUOUS
 62
7
 10
8.2851977E+001
 20
2.3551949E+002
 40
2.0
  1
KT
 41
7.5E-001
  0
TEXT
  8
1
  6
CONTINUOUS
 62
7
 10
9.8101977E+001
 20
2.2496949E+002
 40
2.0
  1
t1+t2
 41
7.5E-001
  0
TEXT
  8
1
  6
CONTINUOUS
 62
7
 10
8.6101977E+001
 20
2.2496949E+002
 40
2.0
  1
t1
 41
7.5E-001
  0
TEXT
  8
1
  6
CONTINUOUS
 62
7
 10
1.0760198E+002
 20
2.2171949E+002
 40
2.0
  1
18
 41
7.5E-001
 50
9.0E+001
  0
LINE
  8
1
  6
CONTINUOUS
 62
7
 10
2.4553003E+002
 20
2.3807926E+002
 11
2.4753003E+002
 21
2.3807926E+002
  0
LINE
  8
1
  6
CONTINUOUS
 62
7
 10
2.2953003E+002
 20
2.2507926E+002
 11
2.2953003E+002
 21
2.3007926E+002
  0
LINE
  8
1
  6
CONTINUOUS
 62
7
 10
2.2953003E+002
 20
2.2307926E+002
 11
2.2953003E+002
 21
2.2207926E+002
  0
LINE
  8
1
  6
CONTINUOUS
 62
7
 10
2.4753003E+002
 20
2.3307926E+002
 11
2.4753003E+002
 21
2.3807926E+002
  0
LINE
  8
1
  6
CONTINUOUS
 62
7
 10
2.4753003E+002
 20
2.3107926E+002
 11
2.4753003E+002
 21
2.3207926E+002
  0
LINE
  8
1
  6
CONTINUOUS
 62
7
 10
2.4753003E+002
 20
2.2507926E+002
 11
2.4753003E+002
 21
2.3007926E+002
  0
LINE
  8
1
  6
CONTINUOUS
 62
7
 10
2.4753003E+002
 20
2.2207926E+002
 11
2.4753003E+002
 21
2.2407926E+002
  0
LINE
  8
1
  6
CONTINUOUS
 62
7
 10
2.2953003E+002
 20
2.2207926E+002
 11
2.3453003E+002
 21
2.2207926E+002
  0
TEXT
  8
1
  6
CONTINUOUS
 62
7
 10
1.5128003E+002
 20
1.9597224E+002
 40
2.0
  1
2/T1
 41
7.5E-001
 50
9.0E+001
  0
TEXT
  8
1
  6
CONTINUOUS
 62
7
 10
1.5628003E+002
 20
1.9597224E+002
 40
2.0
  1
4/T2
 41
7.5E-001
 50
9.0E+001
  0
TEXT
  8
1
  6
CONTINUOUS
 62
7
 10
1.6128003E+002
 20
1.9597224E+002
 40
2.0
  1
6/T3
 41
7.5E-001
 50
9.0E+001
  0
LINE
  8
1
  6
CONTINUOUS
 62
7
 10
2.3553003E+002
 20
2.2207926E+002
 11
2.3653003E+002
 21
2.2207926E+002
  0
LINE
  8
1
  6
CONTINUOUS
 62
7
 10
2.3753003E+002
 20
2.2207926E+002
 11
2.4253003E+002
 21
2.2207926E+002
  0
LINE
  8
1
  6
CONTINUOUS
 62
7
 10
2.4553003E+002
 20
2.2207926E+002
 11
2.4753003E+002
 21
2.2207926E+002
  0
TEXT
  8
1
  6
CONTINUOUS
 62
7
 10
1.3918706E+002
 20
2.1001949E+002
 40
2.0
  1
95
 41
7.5E-001
 50
9.0E+001
  0
TEXT
  8
1
  6
CONTINUOUS
 62
7
 10
1.3918706E+002
 20
2.0101949E+002
 40
2.0
  1
96
 41
7.5E-001
 50
9.0E+001
  0
TEXT
  8
1
  6
CONTINUOUS
 62
7
 10
1.4418706E+002
 20
2.1001949E+002
 40
2.0
  1
97
 41
7.5E-001
 50
9.0E+001
  0
TEXT
  8
1
  6
CONTINUOUS
 62
7
 10
1.4418706E+002
 20
2.0101949E+002
 40
2.0
  1
98
 41
7.5E-001
 50
9.0E+001
  0
LINE
  8
1
  6
HIDDEN
 62
7
 10
1.5203003E+002
 20
1.9514802E+002
 11
1.5203003E+002
 21
1.7901949E+002
  0
LINE
  8
1
  6
HIDDEN
 62
7
 10
1.5703003E+002
 20
1.8401949E+002
 11
1.5703003E+002
 21
1.9401949E+002
  0
LINE
  8
1
  6
HIDDEN
 62
7
 10
1.5703003E+002
 20
1.8401949E+002
 11
1.7953003E+002
 21
1.8401949E+002
  0
CIRCLE
  8
1
  6
CONTINUOUS
 62
7
 10
1.8603003E+002
 20
1.8401949E+002
 40
6.5
  0
LINE
  8
1
  6
HIDDEN
 62
7
 10
1.6203003E+002
 20
1.8901949E+002
 11
1.8187671E+002
 21
1.8901949E+002
  0
LINE
  8
1
  6
HIDDEN
 62
7
 10
1.5203003E+002
 20
1.7901949E+002
 11
1.8187671E+002
 21
1.7901949E+002
  0
LINE
  8
1
  6
HIDDEN
 62
7
 10
1.9018334E+002
 20
1.8901949E+002
 11
2.1503003E+002
 21
1.8901949E+002
  0
LINE
  8
1
  6
HIDDEN
 62
7
 10
1.9253003E+002
 20
1.8401949E+002
 11
2.1003003E+002
 21
1.8401949E+002
  0
LINE
  8
1
  6
HIDDEN
 62
7
 10
1.9018334E+002
 20
1.7901949E+002
 11
2.2003003E+002
 21
1.7901949E+002
  0
ARC
  8
1
  6
CONTINUOUS
 62
7
 10
1.8603003E+002
 20
1.8401949E+002
 40
3.5
 50
0.0
 51
1.8E+002
  0
LINE
  8
1
  6
CONTINUOUS
 62
7
 10
1.8953003E+002
 20
1.8401949E+002
 11
1.8953003E+002
 21
1.8101949E+002
  0
LINE
  8
1
  6
CONTINUOUS
 62
7
 10
1.8953003E+002
 20
1.8101949E+002
 11
1.8997831E+002
 21
1.8321016E+002
  0
LINE
  8
1
  6
CONTINUOUS
 62
7
 10
1.8953003E+002
 20
1.8101949E+002
 11
1.8908174E+002
 21
1.8321016E+002
  0
LINE
  8
1
  6
CONTINUOUS
 62
7
 10
1.8908174E+002
 20
1.8321016E+002
 11
1.8997831E+002
 21
1.8321016E+002
  0
TEXT
  8
1
  6
CONTINUOUS
 62
7
 10
1.7453003E+002
 20
1.8476949E+002
 40
2.0
  1
V1
 41
7.5E-001
  0
TEXT
  8
1
  6
CONTINUOUS
 62
7
 10
1.7453003E+002
 20
1.8976949E+002
 40
2.0
  1
W1
 41
7.5E-001
  0
TEXT
  8
1
  6
CONTINUOUS
 62
7
 10
1.7453003E+002
 20
1.7976949E+002
 40
2.0
  1
U1
 41
7.5E-001
  0
TEXT
  8
1
  6
CONTINUOUS
 62
7
 10
1.9353003E+002
 20
1.8476949E+002
 40
2.0
  1
V2
 41
7.5E-001
  0
TEXT
  8
1
  6
CONTINUOUS
 62
7
 10
1.9353003E+002
 20
1.8976949E+002
 40
2.0
  1
W2
 41
7.5E-001
  0
TEXT
  8
1
  6
CONTINUOUS
 62
7
 10
1.9353003E+002
 20
1.7976949E+002
 40
2.0
  1
U2
 41
7.5E-001
  0
LINE
  8
1
  6
HIDDEN
 62
7
 10
1.5703003E+002
 20
1.9401949E+002
 11
1.5703003E+002
 21
1.8401949E+002
  0
LINE
  8
1
  6
HIDDEN
 62
7
 10
1.6203003E+002
 20
1.9401949E+002
 11
1.6203003E+002
 21
1.8901949E+002
  0
CIRCLE
  8
1
  6
CONTINUOUS
 62
7
 10
1.8603003E+002
 20
1.5801949E+002
 40
6.5
  0
LINE
  8
1
  6
HIDDEN
 62
7
 10
1.9268334E+002
 20
1.5301949E+002
 11
2.1003003E+002
 21
1.5301949E+002
  0
LINE
  8
1
  6
HIDDEN
 62
7
 10
1.9253003E+002
 20
1.5801949E+002
 11
2.2003003E+002
 21
1.5801949E+002
  0
LINE
  8
1
  6
HIDDEN
 62
7
 10
1.9018334E+002
 20
1.6301949E+002
 11
2.1503003E+002
 21
1.6301949E+002
  0
LINE
  8
1
  6
HIDDEN
 62
7
 10
1.6203003E+002
 20
1.6301949E+002
 11
1.8187671E+002
 21
1.6301949E+002
  0
LINE
  8
1
  6
HIDDEN
 62
7
 10
1.5203003E+002
 20
1.5801949E+002
 11
1.7953003E+002
 21
1.5801949E+002
  0
LINE
  8
1
  6
HIDDEN
 62
7
 10
1.5703003E+002
 20
1.5301949E+002
 11
1.8187671E+002
 21
1.5301949E+002
  0
ARC
  8
1
  6
CONTINUOUS
 62
7
 10
1.8603003E+002
 20
1.5801949E+002
 40
3.5
 50
0.0
 51
1.8E+002
  0
LINE
  8
1
  6
CONTINUOUS
 62
7
 10
1.8297831E+002
 20
1.5721016E+002
 11
1.8208174E+002
 21
1.5721016E+002
  0
LINE
  8
1
  6
CONTINUOUS
 62
7
 10
1.8253003E+002
 20
1.5501949E+002
 11
1.8208174E+002
 21
1.5721016E+002
  0
LINE
  8
1
  6
CONTINUOUS
 62
7
 10
1.8253003E+002
 20
1.5501949E+002
 11
1.8297831E+002
 21
1.5721016E+002
  0
LINE
  8
1
  6
CONTINUOUS
 62
7
 10
1.8253003E+002
 20
1.5801949E+002
 11
1.8253003E+002
 21
1.5501949E+002
  0
TEXT
  8
1
  6
CONTINUOUS
 62
7
 10
1.7453003E+002
 20
1.6376949E+002
 40
2.0
  1
W1
 41
7.5E-001
  0
TEXT
  8
1
  6
CONTINUOUS
 62
7
 10
1.7453003E+002
 20
1.5876949E+002
 40
2.0
  1
V1
 41
7.5E-001
  0
TEXT
  8
1
  6
CONTINUOUS
 62
7
 10
1.7453003E+002
 20
1.5376949E+002
 40
2.0
  1
U1
 41
7.5E-001
  0
TEXT
  8
1
  6
CONTINUOUS
 62
7
 10
1.9353003E+002
 20
1.6376949E+002
 40
2.0
  1
W2
 41
7.5E-001
  0
TEXT
  8
1
  6
CONTINUOUS
 62
7
 10
1.9353003E+002
 20
1.5876949E+002
 40
2.0
  1
V2
 41
7.5E-001
  0
TEXT
  8
1
  6
CONTINUOUS
 62
7
 10
1.9353003E+002
 20
1.5376949E+002
 40
2.0
  1
U2
 41
7.5E-001
  0
LINE
  8
1
  6
HIDDEN
 62
7
 10
2.1003003E+002
 20
1.7414802E+002
 11
2.1003003E+002
 21
1.5301949E+002
  0
LINE
  8
1
  6
HIDDEN
 62
7
 10
2.1503003E+002
 20
1.6301949E+002
 11
2.1503003E+002
 21
1.7399462E+002
  0
LINE
  8
1
  6
HIDDEN
 62
7
 10
2.2003003E+002
 20
1.7422327E+002
 11
2.2003003E+002
 21
1.5801949E+002
  0
LINE
  8
1
  6
HIDDEN
 62
7
 10
1.6203003E+002
 20
1.7414802E+002
 11
1.6203003E+002
 21
1.6301949E+002
  0
LINE
  8
1
  6
HIDDEN
 62
7
 10
1.5703003E+002
 20
1.5301949E+002
 11
1.5703003E+002
 21
1.7399462E+002
  0
LINE
  8
1
  6
HIDDEN
 62
7
 10
1.5203003E+002
 20
1.7422327E+002
 11
1.5203003E+002
 21
1.5801949E+002
  0
LINE
  8
1
  6
SHORT_DASH
 62
7
 10
2.6203003E+002
 20
2.300788E+002
 11
2.810063E+002
 21
2.300788E+002
  0
POLYLINE
  8
1
  6
CONTINUOUS
 62
7
 66
1
 40
5.0E-001
 41
5.0E-001
 70
0
  0
VERTEX
  8
1
 42
0.0
 10
2.1203003E+002
 20
2.5501949E+002
 70
0
  0
VERTEX
  8
1
 42
0.0
 10
1.5203003E+002
 20
2.5501949E+002
 70
0
  0
SEQEND
  0
POLYLINE
  8
1
  6
CONTINUOUS
 62
7
 66
1
 40
5.0E-001
 41
5.0E-001
 70
0
  0
VERTEX
  8
1
 42
0.0
 10
2.1703003E+002
 20
2.5301949E+002
 70
0
  0
VERTEX
  8
1
 42
0.0
 10
1.5703003E+002
 20
2.5301949E+002
 70
0
  0
SEQEND
  0
POLYLINE
  8
1
  6
CONTINUOUS
 62
7
 66
1
 40
5.0E-001
 41
5.0E-001
 70
0
  0
VERTEX
  8
1
 42
0.0
 10
2.2203003E+002
 20
2.5101949E+002
 70
0
  0
VERTEX
  8
1
 42
0.0
 10
1.6203003E+002
 20
2.5101949E+002
 70
0
  0
SEQEND
  0
LINE
  8
1
  6
HIDDEN
 62
7
 10
1.5003003E+002
 20
2.4576949E+002
 11
1.5003003E+002
 21
2.5701949E+002
  0
LINE
  8
1
  6
HIDDEN
 62
7
 10
1.5203003E+002
 20
2.4376949E+002
 11
1.5203003E+002
 21
2.4376949E+002
  0
LINE
  8
1
  6
HIDDEN
 62
7
 10
1.5003003E+002
 20
2.4576949E+002
 11
1.5203003E+002
 21
2.4376949E+002
  0
LINE
  8
1
  6
HIDDEN
 62
7
 10
1.5503003E+002
 20
2.4576949E+002
 11
1.5503003E+002
 21
2.5701949E+002
  0
LINE
  8
1
  6
HIDDEN
 62
7
 10
1.5503003E+002
 20
2.4576949E+002
 11
1.5703003E+002
 21
2.4376949E+002
  0
LINE
  8
1
  6
HIDDEN
 62
7
 10
1.6003003E+002
 20
2.4576949E+002
 11
1.6003003E+002
 21
2.5701949E+002
  0
LINE
  8
1
  6
HIDDEN
 62
7
 10
1.6003003E+002
 20
2.4576949E+002
 11
1.6203003E+002
 21
2.4376949E+002
  0
POLYLINE
  8
1
  6
CONTINUOUS
 62
7
 66
1
 40
5.0E-001
 41
5.0E-001
 70
0
  0
VERTEX
  8
1
 42
0.0
 10
2.2203003E+002
 20
2.1596975E+002
 70
0
  0
VERTEX
  8
1
 42
0.0
 10
2.6703003E+002
 20
2.1596975E+002
 70
0
  0
SEQEND
  0
POLYLINE
  8
1
  6
CONTINUOUS
 62
7
 66
1
 40
5.0E-001
 41
5.0E-001
 70
0
  0
VERTEX
  8
1
 42
0.0
 10
2.1703003E+002
 20
2.1396975E+002
 70
0
  0
VERTEX
  8
1
 42
0.0
 10
2.7203003E+002
 20
2.1396975E+002
 70
0
  0
SEQEND
  0
POLYLINE
  8
1
  6
CONTINUOUS
 62
7
 66
1
 40
5.0E-001
 41
5.0E-001
 70
0
  0
VERTEX
  8
1
 42
0.0
 10
2.1203003E+002
 20
2.1196975E+002
 70
0
  0
VERTEX
  8
1
 42
0.0
 10
2.7703003E+002
 20
2.1196975E+002
 70
0
  0
SEQEND
  0
LINE
  8
1
  6
HIDDEN
 62
7
 10
2.1003003E+002
 20
2.1589339E+002
 11
2.1003003E+002
 21
1.8401949E+002
  0
LINE
  8
1
  6
HIDDEN
 62
7
 10
2.1003003E+002
 20
2.1589339E+002
 11
2.1203003E+002
 21
2.1789339E+002
  0
LINE
  8
1
  6
HIDDEN
 62
7
 10
2.1503003E+002
 20
2.1589339E+002
 11
2.1703003E+002
 21
2.1789339E+002
  0
LINE
  8
1
  6
HIDDEN
 62
7
 10
2.1503003E+002
 20
2.1589339E+002
 11
2.1503003E+002
 21
1.8901949E+002
  0
LINE
  8
1
  6
HIDDEN
 62
7
 10
2.2003003E+002
 20
2.1589339E+002
 11
2.2203003E+002
 21
2.1789339E+002
  0
LINE
  8
1
  6
HIDDEN
 62
7
 10
2.2003003E+002
 20
2.1589339E+002
 11
2.2003003E+002
 21
1.7901949E+002
  0
LINE
  8
1
  6
CENTERLINE
 62
7
 10
2.8526362E+002
 20
2.5701949E+002
 11
2.8526362E+002
 21
1.9401949E+002
  0
INSERT
  2
*XH157
  8
1
 10
1.8954029E+002
 20
1.8126455E+002
  0
INSERT
  2
*XH158
  8
1
 10
1.8251976E+002
 20
1.5526455E+002
 41
1.0
 43
1.0
 42
-1.0
 50
1.8E+002
  0
INSERT
  2
A3N
  8
1
 10
1.9E+001
 20
1.1E+001
 66
1
  0
ATTRIB
  8
1
  6
CONTINUOUS
 62
5
 10
3.8449644E+002
 20
3.8E+001
 40
2.0
  1
 
 41
6.5E-001
 11
3.8449644E+002
 21
3.7E+001
  2
ANCIEN_ Plan
 70
0
 73
2
 74
2
  0
ATTRIB
  8
1
  6
CONTINUOUS
 62
5
 10
3.9049644E+002
 20
2.2E+001
 40
4.0
  1
FPTS307894
 41
7.5E-001
 72
1
 11
3.7549644E+002
 21
2.0E+001
  2
N°PLAN
 70
0
 73
2
 74
2
  0
ATTRIB
  8
1
  6
CONTINUOUS
 62
5
 10
3.8449644E+002
 20
3.4005401E+001
 40
2.0
  1
 
 41
7.5E-001
 11
3.8449644E+002
 21
3.3005401E+001
  2
N°OEM
 70
0
 73
2
 74
2
  0
ATTRIB
  8
1
  6
CONTINUOUS
 62
5
 10
3.371758E+002
 20
2.48E+001
 40
1.6
  1
DEMARREUR ETOILE-TRIANGLE A9...40 + VE (LTE)
 41
9.0E-001
 72
1
 11
3.054958E+002
 21
2.4E+001
  2
TYPE_PLAN
 70
0
 73
2
 74
2
  0
ATTRIB
  8
1
  6
CONTINUOUS
 62
5
 10
3.401833E+002
 20
2.125E+001
 40
2.5
  1
A9...40 STAR-DELTA STARTER + VE (MDS)
 41
7.5E-001
 72
1
 11
3.054958E+002
 21
2.0E+001
  2
DESIGNATION_PLAN
 70
0
 73
2
 74
2
  0
ATTRIB
  8
1
  6
CONTINUOUS
 62
5
 10
4.079333E+002
 20
1.975E+001
 40
2.5
  1
A
 41
7.5E-001
 72
1
 11
4.069958E+002
 21
1.85E+001
  2
ID
 70
0
 73
2
 74
2
  0
ATTRIB
  8
1
  6
CONTINUOUS
 62
5
 10
3.7475484E+002
 20
2.7659209E+001
 40
2.75
  1
A3
 41
7.5E-001
 72
1
 11
3.7269234E+002
 21
2.6284209E+001
  2
A?
 70
0
 73
2
 74
2
  0
ATTRIB
  8
1
  6
CONTINUOUS
 62
5
 10
3.8642666E+002
 20
2.7659209E+001
 40
2.75
  1
1
 41
7.5E-001
 72
1
 11
3.8539541E+002
 21
2.6284209E+001
  2
Folio
 70
0
 73
2
 74
2
  0
ATTRIB
  8
1
  6
CONTINUOUS
 62
5
 10
3.9914468E+002
 20
2.7659209E+001
 40
2.75
  1
1
 41
7.5E-001
 72
1
 11
3.9811343E+002
 21
2.6284209E+001
  2
Folios
 70
0
 73
2
 74
2
  0
ATTRIB
  8
1
  6
CONTINUOUS
 62
5
 10
3.6733212E+002
 20
5.025E+001
 40
2.5
  1
EO-18636
 11
3.6733212E+002
 21
4.9E+001
  2
N°OE_Origine
 70
0
 73
2
 74
2
  0
ATTRIB
  8
1
  6
CONTINUOUS
 62
5
 10
3.6733212E+002
 20
4.6E+001
 40
2.0
  1
P.BLANCHET le 10.08.05
 41
7.5E-001
 11
3.6733212E+002
 21
4.5E+001
  2
CONTROLEUR_Origine
 70
0
 73
2
 74
2
  0
ATTRIB
  8
1
  6
CONTINUOUS
 62
5
 10
3.6733212E+002
 20
4.2E+001
 40
2.0
  1
C.ECOCHARD le 10.08.05
 41
7.5E-001
 11
3.6733212E+002
 21
4.1E+001
  2
DESSINATEUR_Origine
 70
0
 73
2
 74
2
  0
ATTRIB
  8
1
  6
CONTINUOUS
 62
5
 10
2.4293169E+002
 20
3.825E+001
 40
2.5
  1
A
 41
7.5E-001
 72
1
 11
2.4199419E+002
 21
3.7E+001
  2
ID1
 70
0
 73
2
 74
2
  0
ATTRIB
  8
1
  6
CONTINUOUS
 62
5
 10
2.4293169E+002
 20
4.225E+001
 40
2.5
  1
 
 41
7.5E-001
 72
1
 11
2.4199419E+002
 21
4.1E+001
  2
ID2
 70
0
 73
2
 74
2
  0
ATTRIB
  8
1
  6
CONTINUOUS
 62
5
 10
2.4293169E+002
 20
4.625E+001
 40
2.5
  1
 
 41
7.5E-001
 72
1
 11
2.4199419E+002
 21
4.5E+001
  2
ID3
 70
0
 73
2
 74
2
  0
ATTRIB
  8
1
  6
CONTINUOUS
 62
5
 10
2.4293169E+002
 20
5.025E+001
 40
2.5
  1
 
 41
7.5E-001
 72
1
 11
2.4199419E+002
 21
4.9E+001
  2
ID4
 70
0
 73
2
 74
2
  0
ATTRIB
  8
1
  6
CONTINUOUS
 62
5
 10
3.5874644E+002
 20
3.2551214E+001
 40
6.0
  1
/
 41
7.5E-001
 72
1
 11
3.5649644E+002
 21
2.9551214E+001
  2
Ech
 70
0
 73
2
 74
2
  0
ATTRIB
  8
1
  6
CONTINUOUS
 62
5
 10
2.4549419E+002
 20
3.7875E+001
 40
1.75
  1
Edition originale
 41
7.5E-001
 11
2.4549419E+002
 21
3.7E+001
  2
DESC-1
 70
0
 73
2
 74
2
  0
ATTRIB
  8
1
  6
CONTINUOUS
 62
5
 10
2.4549419E+002
 20
4.1875E+001
 40
1.75
  1
 
 41
7.5E-001
 11
2.4549419E+002
 21
4.1E+001
  2
DESC-2
 70
0
 73
2
 74
2
  0
ATTRIB
  8
1
  6
CONTINUOUS
 62
5
 10
2.4549419E+002
 20
4.5875E+001
 40
1.75
  1
 
 41
7.5E-001
 11
2.4549419E+002
 21
4.5E+001
  2
DESC-3
 70
0
 73
2
 74
2
  0
ATTRIB
  8
1
  6
CONTINUOUS
 62
5
 10
2.4549419E+002
 20
4.9875E+001
 40
1.75
  1
 
 41
7.5E-001
 11
2.4549419E+002
 21
4.9E+001
  2
DESC-4
 70
0
 73
2
 74
2
  0
ATTRIB
  8
1
  6
CONTINUOUS
 62
5
 10
3.1581644E+002
 20
3.79E+001
 40
1.8
  1
10.08.05
 41
6.0E-001
 72
1
 11
3.1149644E+002
 21
3.7E+001
  2
DATE1
 70
0
 73
2
 74
2
  0
ATTRIB
  8
1
  6
CONTINUOUS
 62
5
 10
3.1203644E+002
 20
4.19E+001
 40
1.8
  1
 
 41
6.0E-001
 72
1
 11
3.1149644E+002
 21
4.1E+001
  2
DATE2
 70
0
 73
2
 74
2
  0
ATTRIB
  8
1
  6
CONTINUOUS
 62
5
 10
3.1203644E+002
 20
4.59E+001
 40
1.8
  1
 
 41
6.0E-001
 72
1
 11
3.1149644E+002
 21
4.5E+001
  2
DATE3
 70
0
 73
2
 74
2
  0
ATTRIB
  8
1
  6
CONTINUOUS
 62
5
 10
3.1203644E+002
 20
4.99E+001
 40
1.8
  1
 
 41
6.0E-001
 72
1
 11
3.1149644E+002
 21
4.9E+001
  2
DATE4
 70
0
 73
2
 74
2
  0
ATTRIB
  8
1
  6
CONTINUOUS
 62
5
 10
3.2487144E+002
 20
3.79E+001
 40
1.8
  1
18636
 41
7.5E-001
 72
1
 11
3.2149644E+002
 21
3.7E+001
  2
OE1
 70
0
 73
2
 74
2
  0
ATTRIB
  8
1
  6
CONTINUOUS
 62
5
 10
3.2217144E+002
 20
4.19E+001
 40
1.8
  1
 
 41
7.5E-001
 72
1
 11
3.2149644E+002
 21
4.1E+001
  2
OE2
 70
0
 73
2
 74
2
  0
ATTRIB
  8
1
  6
CONTINUOUS
 62
5
 10
3.2217144E+002
 20
4.59E+001
 40
1.8
  1
 
 41
7.5E-001
 72
1
 11
3.2149644E+002
 21
4.5E+001
  2
OE3
 70
0
 73
2
 74
2
  0
ATTRIB
  8
1
  6
CONTINUOUS
 62
5
 10
3.2217144E+002
 20
4.99E+001
 40
1.8
  1
 
 41
7.5E-001
 72
1
 11
3.2149644E+002
 21
4.9E+001
  2
OE4
 70
0
 73
2
 74
2
  0
ATTRIB
  8
1
  6
CONTINUOUS
 62
5
 10
3.3134644E+002
 20
3.79E+001
 40
1.8
  1
CE
 41
7.5E-001
 72
1
 11
3.2999644E+002
 21
3.7E+001
  2
AUT1
 70
0
 73
2
 74
2
  0
ATTRIB
  8
1
  6
CONTINUOUS
 62
5
 10
3.3067144E+002
 20
4.19E+001
 40
1.8
  1
 
 41
7.5E-001
 72
1
 11
3.2999644E+002
 21
4.1E+001
  2
AUT2
 70
0
 73
2
 74
2
  0
ATTRIB
  8
1
  6
CONTINUOUS
 62
5
 10
3.3067144E+002
 20
4.59E+001
 40
1.8
  1
 
 41
7.5E-001
 72
1
 11
3.2999644E+002
 21
4.5E+001
  2
AUT3
 70
0
 73
2
 74
2
  0
ATTRIB
  8
1
  6
CONTINUOUS
 62
5
 10
3.3067144E+002
 20
4.99E+001
 40
1.8
  1
 
 41
7.5E-001
 72
1
 11
3.2999644E+002
 21
4.9E+001
  2
AUT4
 70
0
 73
2
 74
2
  0
ATTRIB
  8
1
  6
CONTINUOUS
 62
5
 10
3.3440529E+002
 20
3.79E+001
 40
1.8
  1
PB
 41
7.5E-001
 11
3.3440529E+002
 21
3.7E+001
  2
CONT1
 70
0
 73
2
 74
2
  0
ATTRIB
  8
1
  6
CONTINUOUS
 62
5
 10
3.3440529E+002
 20
4.19E+001
 40
1.8
  1
 
 41
7.5E-001
 11
3.3440529E+002
 21
4.1E+001
  2
CONT2
 70
0
 73
2
 74
2
  0
ATTRIB
  8
1
  6
CONTINUOUS
 62
5
 10
3.3440529E+002
 20
4.59E+001
 40
1.8
  1
 
 41
7.5E-001
 11
3.3440529E+002
 21
4.5E+001
  2
CONT3
 70
0
 73
2
 74
2
  0
ATTRIB
  8
1
  6
CONTINUOUS
 62
5
 10
3.3440529E+002
 20
4.99E+001
 40
1.8
  1
 
 41
7.5E-001
 11
3.3440529E+002
 21
4.9E+001
  2
CONT4
 70
0
 73
2
 74
2
  0
SEQEND
  0
ENDSEC
  0
EOF
