  0
SECTION
  2
HEADER
  9
$ACADVER
  1
AC1009
999
I-DEAS 8 Not Encoded
  9
$EXTMIN
 10
0.0
 20
0.0
  9
$EXTMAX
 10
2.1E+002
 20
2.97E+002
  9
$TEXTSIZE
 40
1.25E-001
  9
$LTSCALE
 40
1.0
  9
$CLAYER
  8
1
  9
$CECOLOR
 62
1
  9
$DIMASZ
 40
1.25E-001
  9
$DIMEXO
 40
6.25E-002
  9
$DIMDLI
 40
2.5E-001
  9
$DIMEXE
 40
1.25E-001
  9
$DIMTP
 40
5.0E-003
  9
$DIMTM
 40
-5.0E-003
  9
$DIMTXT
 40
3.0
  9
$DIMLIM
 70
0
  9
$DIMTIH
 70
1
  9
$DIMTOH
 70
1
  9
$DIMSE1
 70
0
  9
$DIMSE2
 70
0
  9
$DIMTAD
 70
0
  9
$DIMASO
 70
1
  9
$DIMALT
 70
0
  9
$DIMALTD
 70
0
  9
$DIMTOFL
 70
1
  9
$DIMTIX
 70
0
  9
$DIMSAH
 70
0
  9
$DIMTFAC
 40
1.0
  9
$DIMGAP
 40
6.25E-002
  9
$LUNITS
 70
2
  9
$LUPREC
 70
3
  9
$FILLETRAD
 40
1.0E+001
  9
$AUNITS
 70
0
  9
$AUPREC
 70
1
  9
$CHAMFERA
 40
6.0
  9
$CHAMFERB
 40
6.0
  9
$ANGBASE
 50
0.0
  9
$ANGDIR
 70
0
  9
$PEXTMIN
 10
0.0
 20
0.0
 30
0.0
  9
$PEXTMAX
 10
2.1E+002
 20
2.97E+002
 30
0.0
  9
$PLIMMIN
 10
0.0
 20
0.0
  9
$PLIMMAX
 10
2.1E+002
 20
2.97E+002
  9
$PDMODE
 70
2
  9
$PDSIZE
 40
-1.0E-002
  9
$SPLINETYPE
 70
6
  9
$TILEMODE
 70
0
  0
ENDSEC
  0
SECTION
  2
TABLES
  0
TABLE
  2
VPORT
 70
2
  0
VPORT
  2
*Active
 70
0
 10
0.0
 20
0.0
 11
2.1E+002
 21
2.97E+002
 12
1.05E+002
 22
1.485E+002
 13
0.0
 23
0.0
 14
1.0
 24
1.0
 15
0.0
 25
0.0
 16
0.0
 26
0.0
 36
1.0
 17
0.0
 27
0.0
 37
0.0
 40
2.97E+002
 41
7.0707071E-001
 42
5.0E+001
 43
0.0
 44
0.0
 50
0.0
 51
0.0
 71
0
 72
100
 73
1
 74
3
 75
0
 76
0
 77
0
 78
0
  0
ENDTAB
  0
TABLE
  2
LTYPE
 70
7
  0
LTYPE
  2
HIDDENNEW00
  3
_ 
 70
64
 72
65
 73
3
 40
4.5
 49
1.5
 49
-1.5
 49
1.5
  0
LTYPE
  2
HIDDENNEW01
  3
_ 
 70
64
 72
65
 73
3
 40
4.5
 49
1.5
 49
-1.5
 49
1.5
  0
LTYPE
  2
HIDDEN
  3
_ 
 70
64
 72
65
 73
3
 40
4.5
 49
1.5
 49
-1.5
 49
1.5
  0
LTYPE
  2
CENTERLINE
  3
_ 
 70
64
 72
65
 73
5
 40
3.0E+001
 49
1.2E+001
 49
-1.5
 49
3.0
 49
-1.5
 49
1.2E+001
  0
LTYPE
  2
PHANTOM
  3
_ 
 70
64
 72
65
 73
7
 40
2.95E+001
 49
9.5
 49
-1.5
 49
3.0
 49
-1.5
 49
3.0
 49
-1.5
 49
9.5
  0
LTYPE
  2
SHORT_DASH
  3
_ 
 70
64
 72
65
 73
3
 40
3.0
 49
7.5E-001
 49
-1.5
 49
7.5E-001
  0
LTYPE
  2
LONG_DASH
  3
_ 
 70
64
 72
65
 73
3
 40
9.0
 49
2.25
 49
-4.5
 49
2.25
  0
ENDTAB
  0
TABLE
  2
LAYER
 70
258
  0
LAYER
  2
1
 70
0
 62
7
  6
CONTINUOUS
  0
LAYER
  2
Drafting_Hidden_Entities
 70
1
 62
7
  6
CONTINUOUS
  0
ENDTAB
  0
TABLE
  2
STYLE
 70
1
  0
STYLE
  2
STANDARD
 70
64
 40
0.0
 41
1.0
 50
0.0
 71
0
 42
1.0
  3
monotxt.shx
  4

  0
ENDTAB
  0
TABLE
  2
VIEW
 70
0
  0
ENDTAB
  0
TABLE
  2
DIMSTYLE
 70
3
  0
DIMSTYLE
  2
DSTYLE1
 70
0
  3

  4

  5

  6

  7

 40
1.0
 41
3.0
 42
0.0
 43
3.8E-001
 44
1.5
 45
1.0E-001
 46
0.0
 47
0.0
 48
0.0
 71
0
 72
0
 73
0
 74
0
 75
0
 76
0
 77
1
 78
11
140
3.0
141
9.0E-002
142
0.0
143
2.54E+001
144
1.0
145
0.0
146
1.0
147
1.5
170
0
171
2
172
0
173
0
174
0
175
0
176
0
177
0
178
0
  0
DIMSTYLE
  2
DSTYLE2
 70
0
  3

  4

  5

  6

  7

 40
1.0
 41
3.0
 42
0.0
 43
3.8E-001
 44
1.5
 45
0.0
 46
0.0
 47
0.0
 48
0.0
 71
0
 72
0
 73
0
 74
0
 75
0
 76
0
 77
1
 78
11
140
3.0
141
9.0E-002
142
0.0
143
2.54E+001
144
1.0
145
0.0
146
1.0
147
1.5
170
0
171
2
172
0
173
0
174
0
175
0
176
0
177
0
178
0
  0
DIMSTYLE
  2
DSTYLE3
 70
0
  3

  4

  5

  6

  7

 40
1.0
 41
3.0
 42
1.5
 43
3.8E-001
 44
1.5
 45
1.0E-001
 46
0.0
 47
0.0
 48
0.0
 71
0
 72
0
 73
0
 74
0
 75
0
 76
0
 77
1
 78
11
140
3.0
141
9.0E-002
142
0.0
143
2.54E+001
144
1.0
145
0.0
146
1.0
147
1.5
170
0
171
2
172
0
173
0
174
0
175
0
176
0
177
0
178
0
  0
ENDTAB
  0
ENDSEC
  0
SECTION
  2
BLOCKS
  0
BLOCK
  2
*AH13
  3
*AH
 10
0.0
 20
0.0
 70
65
  0
LINE
  8
1
  6
CONTINUOUS
 62
0
 10
0.0
 20
0.0
 11
1.0
 21
-1.666679E-001
  0
LINE
  8
1
  6
CONTINUOUS
 62
0
 10
1.0
 20
-1.666679E-001
 11
1.0
 21
1.66668E-001
  0
LINE
  8
1
  6
CONTINUOUS
 62
0
 10
1.0
 20
1.66668E-001
 11
0.0
 21
0.0
  0
ENDBLK
  0
BLOCK
  2
XHXH1NEW02NEW00NEW00
 10
0.0
 20
0.0
 70
0
  0
POLYLINE
  8
254
  6
CONTINUOUS
 62
6
 66
1
 40
1.0E-003
 41
1.0E-003
 70
0
  0
VERTEX
  8
254
 42
0.0
 10
-2.2647095E-001
 20
-2.2647285E-001
 70
0
  0
VERTEX
  8
254
 42
0.0
 10
2.2647095E-001
 20
2.2647285E-001
 70
0
  0
SEQEND
  0
POLYLINE
  8
254
  6
CONTINUOUS
 62
6
 66
1
 40
1.0E-003
 41
1.0E-003
 70
0
  0
VERTEX
  8
254
 42
0.0
 10
-3.9656067E-001
 20
-6.7941666E-001
 70
0
  0
VERTEX
  8
254
 42
0.0
 10
4.2364502E-001
 20
1.4080048E-001
 70
0
  0
SEQEND
  0
POLYLINE
  8
254
  6
CONTINUOUS
 62
6
 66
1
 40
1.0E-003
 41
1.0E-003
 70
0
  0
VERTEX
  8
254
 42
0.0
 10
-5.6666565E-001
 20
-1.1323624
 70
0
  0
VERTEX
  8
254
 42
0.0
 10
4.2364502E-001
 20
-1.4204407E-001
 70
0
  0
SEQEND
  0
POLYLINE
  8
254
  6
CONTINUOUS
 62
6
 66
1
 40
1.0E-003
 41
1.0E-003
 70
0
  0
VERTEX
  8
254
 42
0.0
 10
-7.3677063E-001
 20
-1.5853081
 70
0
  0
VERTEX
  8
254
 42
0.0
 10
4.2364502E-001
 20
-4.248867E-001
 70
0
  0
SEQEND
  0
POLYLINE
  8
254
  6
CONTINUOUS
 62
6
 66
1
 40
1.0E-003
 41
1.0E-003
 70
0
  0
VERTEX
  8
254
 42
0.0
 10
8.1364441E-001
 20
-3.4885406E-002
 70
0
  0
VERTEX
  8
254
 42
0.0
 10
1.0749969
 20
2.2647285E-001
 70
0
  0
SEQEND
  0
POLYLINE
  8
254
  6
CONTINUOUS
 62
6
 66
1
 40
1.0E-003
 41
1.0E-003
 70
0
  0
VERTEX
  8
254
 42
0.0
 10
-6.9714355E-001
 20
-1.8285255
 70
0
  0
VERTEX
  8
254
 42
0.0
 10
4.2364502E-001
 20
-7.0773125E-001
 70
0
  0
SEQEND
  0
POLYLINE
  8
254
  6
CONTINUOUS
 62
6
 66
1
 40
1.0E-003
 41
1.0E-003
 70
0
  0
VERTEX
  8
254
 42
0.0
 10
8.1364441E-001
 20
-3.1772995E-001
 70
0
  0
VERTEX
  8
254
 42
0.0
 10
1.3111725
 20
1.7979813E-001
 70
0
  0
SEQEND
  0
POLYLINE
  8
254
  6
CONTINUOUS
 62
6
 66
1
 40
1.0E-003
 41
1.0E-003
 70
0
  0
VERTEX
  8
254
 42
0.0
 10
-8.928833E-001
 20
-2.3071117
 70
0
  0
VERTEX
  8
254
 42
0.0
 10
-8.0430603E-001
 20
-2.2185249
 70
0
  0
SEQEND
  0
POLYLINE
  8
254
  6
CONTINUOUS
 62
6
 66
1
 40
1.0E-003
 41
1.0E-003
 70
0
  0
VERTEX
  8
254
 42
0.0
 10
-4.1430664E-001
 20
-1.8285255
 70
0
  0
VERTEX
  8
254
 42
0.0
 10
4.2364502E-001
 20
-9.9057388E-001
 70
0
  0
SEQEND
  0
POLYLINE
  8
254
  6
CONTINUOUS
 62
6
 66
1
 40
1.0E-003
 41
1.0E-003
 70
0
  0
VERTEX
  8
254
 42
0.0
 10
8.1364441E-001
 20
-6.0057259E-001
 70
0
  0
VERTEX
  8
254
 42
0.0
 10
1.3883972
 20
-2.58255E-002
 70
0
  0
SEQEND
  0
POLYLINE
  8
254
  6
CONTINUOUS
 62
6
 66
1
 40
1.0E-003
 41
1.0E-003
 70
0
  0
VERTEX
  8
254
 42
0.0
 10
-1.0629883
 20
-2.7600574
 70
0
  0
VERTEX
  8
254
 42
0.0
 10
-5.2145386E-001
 20
-2.2185249
 70
0
  0
SEQEND
  0
POLYLINE
  8
254
  6
CONTINUOUS
 62
6
 66
1
 40
1.0E-003
 41
1.0E-003
 70
0
  0
VERTEX
  8
254
 42
0.0
 10
-1.3145447E-001
 20
-1.8285255
 70
0
  0
VERTEX
  8
254
 42
0.0
 10
4.2364502E-001
 20
-1.2734165
 70
0
  0
SEQEND
  0
POLYLINE
  8
254
  6
CONTINUOUS
 62
6
 66
1
 40
1.0E-003
 41
1.0E-003
 70
0
  0
VERTEX
  8
254
 42
0.0
 10
8.1364441E-001
 20
-8.8341522E-001
 70
0
  0
VERTEX
  8
254
 42
0.0
 10
1.4656067
 20
-2.3144722E-001
 70
0
  0
SEQEND
  0
POLYLINE
  8
254
  6
CONTINUOUS
 62
6
 66
1
 40
1.0E-003
 41
1.0E-003
 70
0
  0
VERTEX
  8
254
 42
0.0
 10
-1.2330933
 20
-3.2130032
 70
0
  0
VERTEX
  8
254
 42
0.0
 10
-2.3861694E-001
 20
-2.2185249
 70
0
  0
SEQEND
  0
POLYLINE
  8
254
  6
CONTINUOUS
 62
6
 66
1
 40
1.0E-003
 41
1.0E-003
 70
0
  0
VERTEX
  8
254
 42
0.0
 10
1.5138245E-001
 20
-1.8285255
 70
0
  0
VERTEX
  8
254
 42
0.0
 10
4.2364502E-001
 20
-1.5562611
 70
0
  0
SEQEND
  0
POLYLINE
  8
254
  6
CONTINUOUS
 62
6
 66
1
 40
1.0E-003
 41
1.0E-003
 70
0
  0
VERTEX
  8
254
 42
0.0
 10
8.1364441E-001
 20
-1.1662598
 70
0
  0
VERTEX
  8
254
 42
0.0
 10
1.5428314
 20
-4.3707085E-001
 70
0
  0
SEQEND
  0
POLYLINE
  8
254
  6
CONTINUOUS
 62
6
 66
1
 40
1.0E-003
 41
1.0E-003
 70
0
  0
VERTEX
  8
254
 42
0.0
 10
-1.4031982
 20
-3.665947
 70
0
  0
VERTEX
  8
254
 42
0.0
 10
4.4219971E-002
 20
-2.2185249
 70
0
  0
SEQEND
  0
POLYLINE
  8
254
  6
CONTINUOUS
 62
6
 66
1
 40
1.0E-003
 41
1.0E-003
 70
0
  0
VERTEX
  8
254
 42
0.0
 10
8.1364441E-001
 20
-1.4491024
 70
0
  0
VERTEX
  8
254
 42
0.0
 10
1.6200562
 20
-6.4269257E-001
 70
0
  0
SEQEND
  0
POLYLINE
  8
254
  6
CONTINUOUS
 62
6
 66
1
 40
1.0E-003
 41
1.0E-003
 70
0
  0
VERTEX
  8
254
 42
0.0
 10
-1.573288
 20
-4.1188927
 70
0
  0
VERTEX
  8
254
 42
0.0
 10
3.2707214E-001
 20
-2.2185249
 70
0
  0
SEQEND
  0
POLYLINE
  8
254
  6
CONTINUOUS
 62
6
 66
1
 40
1.0E-003
 41
1.0E-003
 70
0
  0
VERTEX
  8
254
 42
0.0
 10
8.1364441E-001
 20
-1.731945
 70
0
  0
VERTEX
  8
254
 42
0.0
 10
1.6972656
 20
-8.4831619E-001
 70
0
  0
SEQEND
  0
POLYLINE
  8
254
  6
CONTINUOUS
 62
6
 66
1
 40
1.0E-003
 41
1.0E-003
 70
0
  0
VERTEX
  8
254
 42
0.0
 10
-1.4450836
 20
-4.2735233
 70
0
  0
VERTEX
  8
254
 42
0.0
 10
4.2364502E-001
 20
-2.4047909
 70
0
  0
SEQEND
  0
POLYLINE
  8
254
  6
CONTINUOUS
 62
6
 66
1
 40
1.0E-003
 41
1.0E-003
 70
0
  0
VERTEX
  8
254
 42
0.0
 10
9.9990845E-001
 20
-1.8285255
 70
0
  0
VERTEX
  8
254
 42
0.0
 10
1.7744904
 20
-1.0539379
 70
0
  0
SEQEND
  0
POLYLINE
  8
254
  6
CONTINUOUS
 62
6
 66
1
 40
1.0E-003
 41
1.0E-003
 70
0
  0
VERTEX
  8
254
 42
0.0
 10
-1.1622314
 20
-4.2735233
 70
0
  0
VERTEX
  8
254
 42
0.0
 10
4.2364502E-001
 20
-2.6876335
 70
0
  0
SEQEND
  0
POLYLINE
  8
254
  6
CONTINUOUS
 62
6
 66
1
 40
1.0E-003
 41
1.0E-003
 70
0
  0
VERTEX
  8
254
 42
0.0
 10
8.1364441E-001
 20
-2.2976322
 70
0
  0
VERTEX
  8
254
 42
0.0
 10
8.9274597E-001
 20
-2.2185249
 70
0
  0
SEQEND
  0
POLYLINE
  8
254
  6
CONTINUOUS
 62
6
 66
1
 40
1.0E-003
 41
1.0E-003
 70
0
  0
VERTEX
  8
254
 42
0.0
 10
1.2827454
 20
-1.8285255
 70
0
  0
VERTEX
  8
254
 42
0.0
 10
1.8517151
 20
-1.2595596
 70
0
  0
SEQEND
  0
POLYLINE
  8
254
  6
CONTINUOUS
 62
6
 66
1
 40
1.0E-003
 41
1.0E-003
 70
0
  0
VERTEX
  8
254
 42
0.0
 10
3.1836395
 20
7.2372437E-002
 70
0
  0
VERTEX
  8
254
 42
0.0
 10
3.337738
 20
2.2647285E-001
 70
0
  0
SEQEND
  0
POLYLINE
  8
254
  6
CONTINUOUS
 62
6
 66
1
 40
1.0E-003
 41
1.0E-003
 70
0
  0
VERTEX
  8
254
 42
0.0
 10
-8.7939453E-001
 20
-4.2735233
 70
0
  0
VERTEX
  8
254
 42
0.0
 10
-3.0549622E-001
 20
-3.6996193
 70
0
  0
SEQEND
  0
POLYLINE
  8
254
  6
CONTINUOUS
 62
6
 66
1
 40
1.0E-003
 41
1.0E-003
 70
0
  0
VERTEX
  8
254
 42
0.0
 10
2.0599365E-002
 20
-3.3735256
 70
0
  0
VERTEX
  8
254
 42
0.0
 10
4.2364502E-001
 20
-2.9704762
 70
0
  0
SEQEND
  0
POLYLINE
  8
254
  6
CONTINUOUS
 62
6
 66
1
 40
1.0E-003
 41
1.0E-003
 70
0
  0
VERTEX
  8
254
 42
0.0
 10
8.1364441E-001
 20
-2.5804749
 70
0
  0
VERTEX
  8
254
 42
0.0
 10
1.1755981
 20
-2.2185249
 70
0
  0
SEQEND
  0
POLYLINE
  8
254
  6
CONTINUOUS
 62
6
 66
1
 40
1.0E-003
 41
1.0E-003
 70
0
  0
VERTEX
  8
254
 42
0.0
 10
1.5655975
 20
-1.8285255
 70
0
  0
VERTEX
  8
254
 42
0.0
 10
1.9289398
 20
-1.4651833
 70
0
  0
SEQEND
  0
POLYLINE
  8
254
  6
CONTINUOUS
 62
6
 66
1
 40
1.0E-003
 41
1.0E-003
 70
0
  0
VERTEX
  8
254
 42
0.0
 10
3.1836395
 20
-2.104702E-001
 70
0
  0
VERTEX
  8
254
 42
0.0
 10
3.620575
 20
2.2647285E-001
 70
0
  0
SEQEND
  0
POLYLINE
  8
254
  6
CONTINUOUS
 62
6
 66
1
 40
1.0E-003
 41
1.0E-003
 70
0
  0
VERTEX
  8
254
 42
0.0
 10
-5.9655762E-001
 20
-4.2735233
 70
0
  0
VERTEX
  8
254
 42
0.0
 10
-4.5779419E-001
 20
-4.1347656
 70
0
  0
SEQEND
  0
POLYLINE
  8
254
  6
CONTINUOUS
 62
6
 66
1
 40
1.0E-003
 41
1.0E-003
 70
0
  0
VERTEX
  8
254
 42
0.0
 10
3.0343628E-001
 20
-3.3735256
 70
0
  0
VERTEX
  8
254
 42
0.0
 10
4.2364502E-001
 20
-3.2533207
 70
0
  0
SEQEND
  0
POLYLINE
  8
254
  6
CONTINUOUS
 62
6
 66
1
 40
1.0E-003
 41
1.0E-003
 70
0
  0
VERTEX
  8
254
 42
0.0
 10
8.1364441E-001
 20
-2.8633194
 70
0
  0
VERTEX
  8
254
 42
0.0
 10
1.4584351
 20
-2.2185249
 70
0
  0
SEQEND
  0
POLYLINE
  8
254
  6
CONTINUOUS
 62
6
 66
1
 40
1.0E-003
 41
1.0E-003
 70
0
  0
VERTEX
  8
254
 42
0.0
 10
1.8484344
 20
-1.8285255
 70
0
  0
VERTEX
  8
254
 42
0.0
 10
2.0061493
 20
-1.670805
 70
0
  0
SEQEND
  0
POLYLINE
  8
254
  6
CONTINUOUS
 62
6
 66
1
 40
1.0E-003
 41
1.0E-003
 70
0
  0
VERTEX
  8
254
 42
0.0
 10
3.1836395
 20
-4.9331474E-001
 70
0
  0
VERTEX
  8
254
 42
0.0
 10
3.9034271
 20
2.2647285E-001
 70
0
  0
SEQEND
  0
POLYLINE
  8
254
  6
CONTINUOUS
 62
6
 66
1
 40
1.0E-003
 41
1.0E-003
 70
0
  0
VERTEX
  8
254
 42
0.0
 10
8.1364441E-001
 20
-3.146162
 70
0
  0
VERTEX
  8
254
 42
0.0
 10
1.741272
 20
-2.2185249
 70
0
  0
SEQEND
  0
POLYLINE
  8
254
  6
CONTINUOUS
 62
6
 66
1
 40
1.0E-003
 41
1.0E-003
 70
0
  0
VERTEX
  8
254
 42
0.0
 10
3.1836395
 20
-7.7615738E-001
 70
0
  0
VERTEX
  8
254
 42
0.0
 10
4.186264
 20
2.2647285E-001
 70
0
  0
SEQEND
  0
POLYLINE
  8
254
  6
CONTINUOUS
 62
6
 66
1
 40
1.0E-003
 41
1.0E-003
 70
0
  0
VERTEX
  8
254
 42
0.0
 10
8.6912537E-001
 20
-3.3735256
 70
0
  0
VERTEX
  8
254
 42
0.0
 10
2.0241241
 20
-2.2185249
 70
0
  0
SEQEND
  0
POLYLINE
  8
254
  6
CONTINUOUS
 62
6
 66
1
 40
1.0E-003
 41
1.0E-003
 70
0
  0
VERTEX
  8
254
 42
0.0
 10
3.1836395
 20
-1.059
 70
0
  0
VERTEX
  8
254
 42
0.0
 10
4.3386536
 20
9.6017838E-002
 70
0
  0
SEQEND
  0
POLYLINE
  8
254
  6
CONTINUOUS
 62
6
 66
1
 40
1.0E-003
 41
1.0E-003
 70
0
  0
VERTEX
  8
254
 42
0.0
 10
1.1519623
 20
-3.3735256
 70
0
  0
VERTEX
  8
254
 42
0.0
 10
2.1542511
 20
-2.3712425
 70
0
  0
SEQEND
  0
POLYLINE
  8
254
  6
CONTINUOUS
 62
6
 66
1
 40
1.0E-003
 41
1.0E-003
 70
0
  0
VERTEX
  8
254
 42
0.0
 10
3.1836395
 20
-1.3418446
 70
0
  0
VERTEX
  8
254
 42
0.0
 10
4.3386536
 20
-1.868248E-001
 70
0
  0
SEQEND
  0
POLYLINE
  8
254
  6
CONTINUOUS
 62
6
 66
1
 40
1.0E-003
 41
1.0E-003
 70
0
  0
VERTEX
  8
254
 42
0.0
 10
4.7286377
 20
2.0316124E-001
 70
0
  0
VERTEX
  8
254
 42
0.0
 10
4.7519531
 20
2.2647285E-001
 70
0
  0
SEQEND
  0
POLYLINE
  8
254
  6
CONTINUOUS
 62
6
 66
1
 40
1.0E-003
 41
1.0E-003
 70
0
  0
VERTEX
  8
254
 42
0.0
 10
1.4302368
 20
-3.3780994
 70
0
  0
VERTEX
  8
254
 42
0.0
 10
2.2314606
 20
-2.5768642
 70
0
  0
SEQEND
  0
POLYLINE
  8
254
  6
CONTINUOUS
 62
6
 66
1
 40
1.0E-003
 41
1.0E-003
 70
0
  0
VERTEX
  8
254
 42
0.0
 10
3.1836395
 20
-1.6246872
 70
0
  0
VERTEX
  8
254
 42
0.0
 10
4.3386536
 20
-4.6966743E-001
 70
0
  0
SEQEND
  0
POLYLINE
  8
254
  6
CONTINUOUS
 62
6
 66
1
 40
1.0E-003
 41
1.0E-003
 70
0
  0
VERTEX
  8
254
 42
0.0
 10
4.7286377
 20
-7.9683304E-002
 70
0
  0
VERTEX
  8
254
 42
0.0
 10
5.0330811
 20
2.2476578E-001
 70
0
  0
SEQEND
  0
POLYLINE
  8
254
  6
CONTINUOUS
 62
6
 66
1
 40
1.0E-003
 41
1.0E-003
 70
0
  0
VERTEX
  8
254
 42
0.0
 10
1.5035706
 20
-3.5876122
 70
0
  0
VERTEX
  8
254
 42
0.0
 10
2.3086853
 20
-2.7824879
 70
0
  0
SEQEND
  0
POLYLINE
  8
254
  6
CONTINUOUS
 62
6
 66
1
 40
1.0E-003
 41
1.0E-003
 70
0
  0
VERTEX
  8
254
 42
0.0
 10
3.2626495
 20
-1.8285255
 70
0
  0
VERTEX
  8
254
 42
0.0
 10
4.3386536
 20
-7.5251198E-001
 70
0
  0
SEQEND
  0
POLYLINE
  8
254
  6
CONTINUOUS
 62
6
 66
1
 40
1.0E-003
 41
1.0E-003
 70
0
  0
VERTEX
  8
254
 42
0.0
 10
4.7286377
 20
-3.6252594E-001
 70
0
  0
VERTEX
  8
254
 42
0.0
 10
5.2719421
 20
1.8078232E-001
 70
0
  0
SEQEND
  0
POLYLINE
  8
254
  6
CONTINUOUS
 62
6
 66
1
 40
1.0E-003
 41
1.0E-003
 70
0
  0
VERTEX
  8
254
 42
0.0
 10
1.576889
 20
-3.7971249
 70
0
  0
VERTEX
  8
254
 42
0.0
 10
2.38591
 20
-2.9881096
 70
0
  0
SEQEND
  0
POLYLINE
  8
254
  6
CONTINUOUS
 62
6
 66
1
 40
1.0E-003
 41
1.0E-003
 70
0
  0
VERTEX
  8
254
 42
0.0
 10
3.5454865
 20
-1.8285255
 70
0
  0
VERTEX
  8
254
 42
0.0
 10
4.3386536
 20
-1.0353546
 70
0
  0
SEQEND
  0
POLYLINE
  8
254
  6
CONTINUOUS
 62
6
 66
1
 40
1.0E-003
 41
1.0E-003
 70
0
  0
VERTEX
  8
254
 42
0.0
 10
4.7286377
 20
-6.4536858E-001
 70
0
  0
VERTEX
  8
254
 42
0.0
 10
5.4707031
 20
9.6696854E-002
 70
0
  0
SEQEND
  0
POLYLINE
  8
254
  6
CONTINUOUS
 62
6
 66
1
 40
1.0E-003
 41
1.0E-003
 70
0
  0
VERTEX
  8
254
 42
0.0
 10
1.6502228
 20
-4.0066376
 70
0
  0
VERTEX
  8
254
 42
0.0
 10
2.4631348
 20
-3.1937332
 70
0
  0
SEQEND
  0
POLYLINE
  8
254
  6
CONTINUOUS
 62
6
 66
1
 40
1.0E-003
 41
1.0E-003
 70
0
  0
VERTEX
  8
254
 42
0.0
 10
3.1836395
 20
-2.473217
 70
0
  0
VERTEX
  8
254
 42
0.0
 10
3.438324
 20
-2.2185249
 70
0
  0
SEQEND
  0
POLYLINE
  8
254
  6
CONTINUOUS
 62
6
 66
1
 40
1.0E-003
 41
1.0E-003
 70
0
  0
VERTEX
  8
254
 42
0.0
 10
3.8283234
 20
-1.8285255
 70
0
  0
VERTEX
  8
254
 42
0.0
 10
4.3386536
 20
-1.3181992
 70
0
  0
SEQEND
  0
POLYLINE
  8
254
  6
CONTINUOUS
 62
6
 66
1
 40
1.0E-003
 41
1.0E-003
 70
0
  0
VERTEX
  8
254
 42
0.0
 10
4.7286377
 20
-9.2821312E-001
 70
0
  0
VERTEX
  8
254
 42
0.0
 10
5.6378021
 20
-1.9039154E-002
 70
0
  0
SEQEND
  0
POLYLINE
  8
254
  6
CONTINUOUS
 62
6
 66
1
 40
1.0E-003
 41
1.0E-003
 70
0
  0
VERTEX
  8
254
 42
0.0
 10
1.7235565
 20
-4.2161503
 70
0
  0
VERTEX
  8
254
 42
0.0
 10
2.5403442
 20
-3.3993549
 70
0
  0
SEQEND
  0
POLYLINE
  8
254
  6
CONTINUOUS
 62
6
 66
1
 40
1.0E-003
 41
1.0E-003
 70
0
  0
VERTEX
  8
254
 42
0.0
 10
3.1836395
 20
-2.7560596
 70
0
  0
VERTEX
  8
254
 42
0.0
 10
3.7211761
 20
-2.2185249
 70
0
  0
SEQEND
  0
POLYLINE
  8
254
  6
CONTINUOUS
 62
6
 66
1
 40
1.0E-003
 41
1.0E-003
 70
0
  0
VERTEX
  8
254
 42
0.0
 10
4.1111755
 20
-1.8285255
 70
0
  0
VERTEX
  8
254
 42
0.0
 10
4.3386536
 20
-1.6010418
 70
0
  0
SEQEND
  0
POLYLINE
  8
254
  6
CONTINUOUS
 62
6
 66
1
 40
1.0E-003
 41
1.0E-003
 70
0
  0
VERTEX
  8
254
 42
0.0
 10
4.7286377
 20
-1.2110558
 70
0
  0
VERTEX
  8
254
 42
0.0
 10
5.7763824
 20
-1.633091E-001
 70
0
  0
SEQEND
  0
POLYLINE
  8
254
  6
CONTINUOUS
 62
6
 66
1
 40
1.0E-003
 41
1.0E-003
 70
0
  0
VERTEX
  8
254
 42
0.0
 10
1.9490204
 20
-4.2735233
 70
0
  0
VERTEX
  8
254
 42
0.0
 10
2.617569
 20
-3.6049767
 70
0
  0
SEQEND
  0
POLYLINE
  8
254
  6
CONTINUOUS
 62
6
 66
1
 40
1.0E-003
 41
1.0E-003
 70
0
  0
VERTEX
  8
254
 42
0.0
 10
3.1836395
 20
-3.0389042
 70
0
  0
VERTEX
  8
254
 42
0.0
 10
4.0040131
 20
-2.2185249
 70
0
  0
SEQEND
  0
POLYLINE
  8
254
  6
CONTINUOUS
 62
6
 66
1
 40
1.0E-003
 41
1.0E-003
 70
0
  0
VERTEX
  8
254
 42
0.0
 10
4.7286377
 20
-1.4938984
 70
0
  0
VERTEX
  8
254
 42
0.0
 10
5.885849
 20
-3.3667946E-001
 70
0
  0
SEQEND
  0
POLYLINE
  8
254
  6
CONTINUOUS
 62
6
 66
1
 40
1.0E-003
 41
1.0E-003
 70
0
  0
VERTEX
  8
254
 42
0.0
 10
2.2318726
 20
-4.2735233
 70
0
  0
VERTEX
  8
254
 42
0.0
 10
2.6947937
 20
-3.8106003
 70
0
  0
SEQEND
  0
POLYLINE
  8
254
  6
CONTINUOUS
 62
6
 66
1
 40
1.0E-003
 41
1.0E-003
 70
0
  0
VERTEX
  8
254
 42
0.0
 10
3.1836395
 20
-3.3217468
 70
0
  0
VERTEX
  8
254
 42
0.0
 10
4.2868652
 20
-2.2185249
 70
0
  0
SEQEND
  0
POLYLINE
  8
254
  6
CONTINUOUS
 62
6
 66
1
 40
1.0E-003
 41
1.0E-003
 70
0
  0
VERTEX
  8
254
 42
0.0
 10
4.7286377
 20
-1.7767429
 70
0
  0
VERTEX
  8
254
 42
0.0
 10
5.9616241
 20
-5.4375839E-001
 70
0
  0
SEQEND
  0
POLYLINE
  8
254
  6
CONTINUOUS
 62
6
 66
1
 40
1.0E-003
 41
1.0E-003
 70
0
  0
VERTEX
  8
254
 42
0.0
 10
6.693634
 20
1.8826294E-001
 70
0
  0
VERTEX
  8
254
 42
0.0
 10
6.731842
 20
2.2647285E-001
 70
0
  0
SEQEND
  0
POLYLINE
  8
254
  6
CONTINUOUS
 62
6
 66
1
 40
1.0E-003
 41
1.0E-003
 70
0
  0
VERTEX
  8
254
 42
0.0
 10
2.5147095
 20
-4.2735233
 70
0
  0
VERTEX
  8
254
 42
0.0
 10
2.7720032
 20
-4.016222
 70
0
  0
SEQEND
  0
POLYLINE
  8
254
  6
CONTINUOUS
 62
6
 66
1
 40
1.0E-003
 41
1.0E-003
 70
0
  0
VERTEX
  8
254
 42
0.0
 10
3.1836395
 20
-3.6045914
 70
0
  0
VERTEX
  8
254
 42
0.0
 10
4.3386536
 20
-2.4495716
 70
0
  0
SEQEND
  0
POLYLINE
  8
254
  6
CONTINUOUS
 62
6
 66
1
 40
1.0E-003
 41
1.0E-003
 70
0
  0
VERTEX
  8
254
 42
0.0
 10
4.9597015
 20
-1.8285255
 70
0
  0
VERTEX
  8
254
 42
0.0
 10
5.9921417
 20
-7.9607391E-001
 70
0
  0
SEQEND
  0
POLYLINE
  8
254
  6
CONTINUOUS
 62
6
 66
1
 40
1.0E-003
 41
1.0E-003
 70
0
  0
VERTEX
  8
254
 42
0.0
 10
6.693634
 20
-9.4581604E-002
 70
0
  0
VERTEX
  8
254
 42
0.0
 10
7.0146942
 20
2.2647285E-001
 70
0
  0
SEQEND
  0
POLYLINE
  8
254
  6
CONTINUOUS
 62
6
 66
1
 40
1.0E-003
 41
1.0E-003
 70
0
  0
VERTEX
  8
254
 42
0.0
 10
2.7975464
 20
-4.2735233
 70
0
  0
VERTEX
  8
254
 42
0.0
 10
2.8492279
 20
-4.2218456
 70
0
  0
SEQEND
  0
POLYLINE
  8
254
  6
CONTINUOUS
 62
6
 66
1
 40
1.0E-003
 41
1.0E-003
 70
0
  0
VERTEX
  8
254
 42
0.0
 10
3.1836395
 20
-3.887434
 70
0
  0
VERTEX
  8
254
 42
0.0
 10
4.3386536
 20
-2.7324142
 70
0
  0
SEQEND
  0
POLYLINE
  8
254
  6
CONTINUOUS
 62
6
 66
1
 40
1.0E-003
 41
1.0E-003
 70
0
  0
VERTEX
  8
254
 42
0.0
 10
4.7286377
 20
-2.3424282
 70
0
  0
VERTEX
  8
254
 42
0.0
 10
4.8525391
 20
-2.2185249
 70
0
  0
SEQEND
  0
POLYLINE
  8
254
  6
CONTINUOUS
 62
6
 66
1
 40
1.0E-003
 41
1.0E-003
 70
0
  0
VERTEX
  8
254
 42
0.0
 10
5.2425385
 20
-1.8285255
 70
0
  0
VERTEX
  8
254
 42
0.0
 10
5.9243927
 20
-1.1466713
 70
0
  0
SEQEND
  0
POLYLINE
  8
254
  6
CONTINUOUS
 62
6
 66
1
 40
1.0E-003
 41
1.0E-003
 70
0
  0
VERTEX
  8
254
 42
0.0
 10
6.693634
 20
-3.7742424E-001
 70
0
  0
VERTEX
  8
254
 42
0.0
 10
7.2975311
 20
2.2647285E-001
 70
0
  0
SEQEND
  0
POLYLINE
  8
254
  6
CONTINUOUS
 62
6
 66
1
 40
1.0E-003
 41
1.0E-003
 70
0
  0
VERTEX
  8
254
 42
0.0
 10
3.1836395
 20
-4.1702766
 70
0
  0
VERTEX
  8
254
 42
0.0
 10
4.3386536
 20
-3.0152588
 70
0
  0
SEQEND
  0
POLYLINE
  8
254
  6
CONTINUOUS
 62
6
 66
1
 40
1.0E-003
 41
1.0E-003
 70
0
  0
VERTEX
  8
254
 42
0.0
 10
4.7286377
 20
-2.6252728
 70
0
  0
VERTEX
  8
254
 42
0.0
 10
5.1353912
 20
-2.2185249
 70
0
  0
SEQEND
  0
POLYLINE
  8
254
  6
CONTINUOUS
 62
6
 66
1
 40
1.0E-003
 41
1.0E-003
 70
0
  0
VERTEX
  8
254
 42
0.0
 10
5.5253754
 20
-1.8285255
 70
0
  0
VERTEX
  8
254
 42
0.0
 10
5.618103
 20
-1.7358074
 70
0
  0
SEQEND
  0
POLYLINE
  8
254
  6
CONTINUOUS
 62
6
 66
1
 40
1.0E-003
 41
1.0E-003
 70
0
  0
VERTEX
  8
254
 42
0.0
 10
6.693634
 20
-6.6026688E-001
 70
0
  0
VERTEX
  8
254
 42
0.0
 10
7.580368
 20
2.2647285E-001
 70
0
  0
SEQEND
  0
POLYLINE
  8
254
  6
CONTINUOUS
 62
6
 66
1
 40
1.0E-003
 41
1.0E-003
 70
0
  0
VERTEX
  8
254
 42
0.0
 10
3.3632355
 20
-4.2735233
 70
0
  0
VERTEX
  8
254
 42
0.0
 10
4.3386536
 20
-3.2981014
 70
0
  0
SEQEND
  0
POLYLINE
  8
254
  6
CONTINUOUS
 62
6
 66
1
 40
1.0E-003
 41
1.0E-003
 70
0
  0
VERTEX
  8
254
 42
0.0
 10
4.7286377
 20
-2.9081154
 70
0
  0
VERTEX
  8
254
 42
0.0
 10
5.4182281
 20
-2.2185249
 70
0
  0
SEQEND
  0
POLYLINE
  8
254
  6
CONTINUOUS
 62
6
 66
1
 40
1.0E-003
 41
1.0E-003
 70
0
  0
VERTEX
  8
254
 42
0.0
 10
6.693634
 20
-9.4311142E-001
 70
0
  0
VERTEX
  8
254
 42
0.0
 10
7.8486481
 20
2.1190834E-001
 70
0
  0
SEQEND
  0
POLYLINE
  8
254
  6
CONTINUOUS
 62
6
 66
1
 40
1.0E-003
 41
1.0E-003
 70
0
  0
VERTEX
  8
254
 42
0.0
 10
3.6460724
 20
-4.2735233
 70
0
  0
VERTEX
  8
254
 42
0.0
 10
4.3386536
 20
-3.5809441
 70
0
  0
SEQEND
  0
POLYLINE
  8
254
  6
CONTINUOUS
 62
6
 66
1
 40
1.0E-003
 41
1.0E-003
 70
0
  0
VERTEX
  8
254
 42
0.0
 10
4.7286377
 20
-3.1909599
 70
0
  0
VERTEX
  8
254
 42
0.0
 10
5.7010651
 20
-2.2185249
 70
0
  0
SEQEND
  0
POLYLINE
  8
254
  6
CONTINUOUS
 62
6
 66
1
 40
1.0E-003
 41
1.0E-003
 70
0
  0
VERTEX
  8
254
 42
0.0
 10
6.693634
 20
-1.2259541
 70
0
  0
VERTEX
  8
254
 42
0.0
 10
7.8486481
 20
-7.0936203E-002
 70
0
  0
SEQEND
  0
POLYLINE
  8
254
  6
CONTINUOUS
 62
6
 66
1
 40
1.0E-003
 41
1.0E-003
 70
0
  0
VERTEX
  8
254
 42
0.0
 10
3.9289246
 20
-4.2735233
 70
0
  0
VERTEX
  8
254
 42
0.0
 10
4.3386536
 20
-3.8637886
 70
0
  0
SEQEND
  0
POLYLINE
  8
254
  6
CONTINUOUS
 62
6
 66
1
 40
1.0E-003
 41
1.0E-003
 70
0
  0
VERTEX
  8
254
 42
0.0
 10
4.7286377
 20
-3.4738026
 70
0
  0
VERTEX
  8
254
 42
0.0
 10
5.9839172
 20
-2.2185249
 70
0
  0
SEQEND
  0
POLYLINE
  8
254
  6
CONTINUOUS
 62
6
 66
1
 40
1.0E-003
 41
1.0E-003
 70
0
  0
VERTEX
  8
254
 42
0.0
 10
6.693634
 20
-1.5087986
 70
0
  0
VERTEX
  8
254
 42
0.0
 10
7.8486481
 20
-3.5377884E-001
 70
0
  0
SEQEND
  0
POLYLINE
  8
254
  6
CONTINUOUS
 62
6
 66
1
 40
1.0E-003
 41
1.0E-003
 70
0
  0
VERTEX
  8
254
 42
0.0
 10
8.2386322
 20
3.6207199E-002
 70
0
  0
VERTEX
  8
254
 42
0.0
 10
8.428894
 20
2.2647285E-001
 70
0
  0
SEQEND
  0
POLYLINE
  8
254
  6
CONTINUOUS
 62
6
 66
1
 40
1.0E-003
 41
1.0E-003
 70
0
  0
VERTEX
  8
254
 42
0.0
 10
4.2117615
 20
-4.2735233
 70
0
  0
VERTEX
  8
254
 42
0.0
 10
4.3386536
 20
-4.1466312
 70
0
  0
SEQEND
  0
POLYLINE
  8
254
  6
CONTINUOUS
 62
6
 66
1
 40
1.0E-003
 41
1.0E-003
 70
0
  0
VERTEX
  8
254
 42
0.0
 10
4.7286377
 20
-3.7566452
 70
0
  0
VERTEX
  8
254
 42
0.0
 10
6.181076
 20
-2.3042011
 70
0
  0
SEQEND
  0
POLYLINE
  8
254
  6
CONTINUOUS
 62
6
 66
1
 40
1.0E-003
 41
1.0E-003
 70
0
  0
VERTEX
  8
254
 42
0.0
 10
6.693634
 20
-1.7916412
 70
0
  0
VERTEX
  8
254
 42
0.0
 10
7.8486481
 20
-6.3662148E-001
 70
0
  0
SEQEND
  0
POLYLINE
  8
254
  6
CONTINUOUS
 62
6
 66
1
 40
1.0E-003
 41
1.0E-003
 70
0
  0
VERTEX
  8
254
 42
0.0
 10
8.2386322
 20
-2.4663544E-001
 70
0
  0
VERTEX
  8
254
 42
0.0
 10
8.6889954
 20
2.0372772E-001
 70
0
  0
SEQEND
  0
POLYLINE
  8
254
  6
CONTINUOUS
 62
6
 66
1
 40
1.0E-003
 41
1.0E-003
 70
0
  0
VERTEX
  8
254
 42
0.0
 10
4.7286377
 20
-4.0394897
 70
0
  0
VERTEX
  8
254
 42
0.0
 10
6.2656097
 20
-2.5025082
 70
0
  0
SEQEND
  0
POLYLINE
  8
254
  6
CONTINUOUS
 62
6
 66
1
 40
1.0E-003
 41
1.0E-003
 70
0
  0
VERTEX
  8
254
 42
0.0
 10
6.9395905
 20
-1.8285255
 70
0
  0
VERTEX
  8
254
 42
0.0
 10
7.8486481
 20
-9.1946602E-001
 70
0
  0
SEQEND
  0
POLYLINE
  8
254
  6
CONTINUOUS
 62
6
 66
1
 40
1.0E-003
 41
1.0E-003
 70
0
  0
VERTEX
  8
254
 42
0.0
 10
8.2386322
 20
-5.2947998E-001
 70
0
  0
VERTEX
  8
254
 42
0.0
 10
8.9050598
 20
1.3694763E-001
 70
0
  0
SEQEND
  0
POLYLINE
  8
254
  6
CONTINUOUS
 62
6
 66
1
 40
1.0E-003
 41
1.0E-003
 70
0
  0
VERTEX
  8
254
 42
0.0
 10
4.7774506
 20
-4.2735233
 70
0
  0
VERTEX
  8
254
 42
0.0
 10
6.3190155
 20
-2.7319412
 70
0
  0
SEQEND
  0
POLYLINE
  8
254
  6
CONTINUOUS
 62
6
 66
1
 40
1.0E-003
 41
1.0E-003
 70
0
  0
VERTEX
  8
254
 42
0.0
 10
6.693634
 20
-2.3573284
 70
0
  0
VERTEX
  8
254
 42
0.0
 10
6.8324432
 20
-2.2185249
 70
0
  0
SEQEND
  0
POLYLINE
  8
254
  6
CONTINUOUS
 62
6
 66
1
 40
1.0E-003
 41
1.0E-003
 70
0
  0
VERTEX
  8
254
 42
0.0
 10
7.2224274
 20
-1.8285255
 70
0
  0
VERTEX
  8
254
 42
0.0
 10
7.8486481
 20
-1.2023087
 70
0
  0
SEQEND
  0
POLYLINE
  8
254
  6
CONTINUOUS
 62
6
 66
1
 40
1.0E-003
 41
1.0E-003
 70
0
  0
VERTEX
  8
254
 42
0.0
 10
8.2386322
 20
-8.1232262E-001
 70
0
  0
VERTEX
  8
254
 42
0.0
 10
9.0850067
 20
3.4049988E-002
 70
0
  0
SEQEND
  0
POLYLINE
  8
254
  6
CONTINUOUS
 62
6
 66
1
 40
1.0E-003
 41
1.0E-003
 70
0
  0
VERTEX
  8
254
 42
0.0
 10
5.0675201
 20
-4.2662849
 70
0
  0
VERTEX
  8
254
 42
0.0
 10
6.3274994
 20
-3.0063057
 70
0
  0
SEQEND
  0
POLYLINE
  8
254
  6
CONTINUOUS
 62
6
 66
1
 40
1.0E-003
 41
1.0E-003
 70
0
  0
VERTEX
  8
254
 42
0.0
 10
6.693634
 20
-2.6401711
 70
0
  0
VERTEX
  8
254
 42
0.0
 10
7.1152802
 20
-2.2185249
 70
0
  0
SEQEND
  0
POLYLINE
  8
254
  6
CONTINUOUS
 62
6
 66
1
 40
1.0E-003
 41
1.0E-003
 70
0
  0
VERTEX
  8
254
 42
0.0
 10
7.5052795
 20
-1.8285255
 70
0
  0
VERTEX
  8
254
 42
0.0
 10
7.8486481
 20
-1.4851513
 70
0
  0
SEQEND
  0
POLYLINE
  8
254
  6
CONTINUOUS
 62
6
 66
1
 40
1.0E-003
 41
1.0E-003
 70
0
  0
VERTEX
  8
254
 42
0.0
 10
8.2386322
 20
-1.0951672
 70
0
  0
VERTEX
  8
254
 42
0.0
 10
9.2350922
 20
-9.869957E-002
 70
0
  0
SEQEND
  0
POLYLINE
  8
254
  6
CONTINUOUS
 62
6
 66
1
 40
1.0E-003
 41
1.0E-003
 70
0
  0
VERTEX
  8
254
 42
0.0
 10
5.416275
 20
-4.2003727
 70
0
  0
VERTEX
  8
254
 42
0.0
 10
6.2580872
 20
-3.3585587
 70
0
  0
SEQEND
  0
POLYLINE
  8
254
  6
CONTINUOUS
 62
6
 66
1
 40
1.0E-003
 41
1.0E-003
 70
0
  0
VERTEX
  8
254
 42
0.0
 10
6.693634
 20
-2.9230137
 70
0
  0
VERTEX
  8
254
 42
0.0
 10
7.3981171
 20
-2.2185249
 70
0
  0
SEQEND
  0
POLYLINE
  8
254
  6
CONTINUOUS
 62
6
 66
1
 40
1.0E-003
 41
1.0E-003
 70
0
  0
VERTEX
  8
254
 42
0.0
 10
7.7881165
 20
-1.8285255
 70
0
  0
VERTEX
  8
254
 42
0.0
 10
7.8486481
 20
-1.7679958
 70
0
  0
SEQEND
  0
POLYLINE
  8
254
  6
CONTINUOUS
 62
6
 66
1
 40
1.0E-003
 41
1.0E-003
 70
0
  0
VERTEX
  8
254
 42
0.0
 10
8.2386322
 20
-1.3780098
 70
0
  0
VERTEX
  8
254
 42
0.0
 10
9.3569641
 20
-2.5967217E-001
 70
0
  0
SEQEND
  0
POLYLINE
  8
254
  6
CONTINUOUS
 62
6
 66
1
 40
1.0E-003
 41
1.0E-003
 70
0
  0
VERTEX
  8
254
 42
0.0
 10
6.693634
 20
-3.2058582
 70
0
  0
VERTEX
  8
254
 42
0.0
 10
7.6809692
 20
-2.2185249
 70
0
  0
SEQEND
  0
POLYLINE
  8
254
  6
CONTINUOUS
 62
6
 66
1
 40
1.0E-003
 41
1.0E-003
 70
0
  0
VERTEX
  8
254
 42
0.0
 10
8.2386322
 20
-1.6608524
 70
0
  0
VERTEX
  8
254
 42
0.0
 10
9.4486694
 20
-4.5081711E-001
 70
0
  0
SEQEND
  0
POLYLINE
  8
254
  6
CONTINUOUS
 62
6
 66
1
 40
1.0E-003
 41
1.0E-003
 70
0
  0
VERTEX
  8
254
 42
0.0
 10
6.693634
 20
-3.4887009
 70
0
  0
VERTEX
  8
254
 42
0.0
 10
7.8486481
 20
-2.3336811
 70
0
  0
SEQEND
  0
POLYLINE
  8
254
  6
CONTINUOUS
 62
6
 66
1
 40
1.0E-003
 41
1.0E-003
 70
0
  0
VERTEX
  8
254
 42
0.0
 10
8.3538055
 20
-1.8285255
 70
0
  0
VERTEX
  8
254
 42
0.0
 10
9.4981384
 20
-6.8418121E-001
 70
0
  0
SEQEND
  0
POLYLINE
  8
254
  6
CONTINUOUS
 62
6
 66
1
 40
1.0E-003
 41
1.0E-003
 70
0
  0
VERTEX
  8
254
 42
0.0
 10
6.693634
 20
-3.7715435
 70
0
  0
VERTEX
  8
254
 42
0.0
 10
7.8486481
 20
-2.6165256
 70
0
  0
SEQEND
  0
POLYLINE
  8
254
  6
CONTINUOUS
 62
6
 66
1
 40
1.0E-003
 41
1.0E-003
 70
0
  0
VERTEX
  8
254
 42
0.0
 10
8.2386322
 20
-2.2265396
 70
0
  0
VERTEX
  8
254
 42
0.0
 10
8.2466431
 20
-2.2185249
 70
0
  0
SEQEND
  0
POLYLINE
  8
254
  6
CONTINUOUS
 62
6
 66
1
 40
1.0E-003
 41
1.0E-003
 70
0
  0
VERTEX
  8
254
 42
0.0
 10
8.6366425
 20
-1.8285255
 70
0
  0
VERTEX
  8
254
 42
0.0
 10
9.4822998
 20
-9.8287392E-001
 70
0
  0
SEQEND
  0
POLYLINE
  8
254
  6
CONTINUOUS
 62
6
 66
1
 40
1.0E-003
 41
1.0E-003
 70
0
  0
VERTEX
  8
254
 42
0.0
 10
6.693634
 20
-4.054388
 70
0
  0
VERTEX
  8
254
 42
0.0
 10
7.8486481
 20
-2.8993683
 70
0
  0
SEQEND
  0
POLYLINE
  8
254
  6
CONTINUOUS
 62
6
 66
1
 40
1.0E-003
 41
1.0E-003
 70
0
  0
VERTEX
  8
254
 42
0.0
 10
8.2386322
 20
-2.5093822
 70
0
  0
VERTEX
  8
254
 42
0.0
 10
8.5294952
 20
-2.2185249
 70
0
  0
SEQEND
  0
POLYLINE
  8
254
  6
CONTINUOUS
 62
6
 66
1
 40
1.0E-003
 41
1.0E-003
 70
0
  0
VERTEX
  8
254
 42
0.0
 10
8.9194946
 20
-1.8285255
 70
0
  0
VERTEX
  8
254
 42
0.0
 10
9.0524445
 20
-1.6955605
 70
0
  0
SEQEND
  0
POLYLINE
  8
254
  6
CONTINUOUS
 62
6
 66
1
 40
1.0E-003
 41
1.0E-003
 70
0
  0
VERTEX
  8
254
 42
0.0
 10
6.7573395
 20
-4.2735233
 70
0
  0
VERTEX
  8
254
 42
0.0
 10
7.8486481
 20
-3.1822128
 70
0
  0
SEQEND
  0
POLYLINE
  8
254
  6
CONTINUOUS
 62
6
 66
1
 40
1.0E-003
 41
1.0E-003
 70
0
  0
VERTEX
  8
254
 42
0.0
 10
8.2386322
 20
-2.7922268
 70
0
  0
VERTEX
  8
254
 42
0.0
 10
8.8123322
 20
-2.2185249
 70
0
  0
SEQEND
  0
POLYLINE
  8
254
  6
CONTINUOUS
 62
6
 66
1
 40
1.0E-003
 41
1.0E-003
 70
0
  0
VERTEX
  8
254
 42
0.0
 10
9.2023315
 20
-1.8285255
 70
0
  0
VERTEX
  8
254
 42
0.0
 10
9.2325897
 20
-1.7982578
 70
0
  0
SEQEND
  0
POLYLINE
  8
254
  6
CONTINUOUS
 62
6
 66
1
 40
1.0E-003
 41
1.0E-003
 70
0
  0
VERTEX
  8
254
 42
0.0
 10
7.0401917
 20
-4.2735233
 70
0
  0
VERTEX
  8
254
 42
0.0
 10
7.8486481
 20
-3.4650555
 70
0
  0
SEQEND
  0
POLYLINE
  8
254
  6
CONTINUOUS
 62
6
 66
1
 40
1.0E-003
 41
1.0E-003
 70
0
  0
VERTEX
  8
254
 42
0.0
 10
8.2386322
 20
-3.0750694
 70
0
  0
VERTEX
  8
254
 42
0.0
 10
9.0951691
 20
-2.2185249
 70
0
  0
SEQEND
  0
POLYLINE
  8
254
  6
CONTINUOUS
 62
6
 66
1
 40
1.0E-003
 41
1.0E-003
 70
0
  0
VERTEX
  8
254
 42
0.0
 10
7.3230286
 20
-4.2735233
 70
0
  0
VERTEX
  8
254
 42
0.0
 10
7.8486481
 20
-3.7478981
 70
0
  0
SEQEND
  0
POLYLINE
  8
254
  6
CONTINUOUS
 62
6
 66
1
 40
1.0E-003
 41
1.0E-003
 70
0
  0
VERTEX
  8
254
 42
0.0
 10
8.2386322
 20
-3.3579121
 70
0
  0
VERTEX
  8
254
 42
0.0
 10
9.3780212
 20
-2.2185249
 70
0
  0
SEQEND
  0
POLYLINE
  8
254
  6
CONTINUOUS
 62
6
 66
1
 40
1.0E-003
 41
1.0E-003
 70
0
  0
VERTEX
  8
254
 42
0.0
 10
7.6058655
 20
-4.2735233
 70
0
  0
VERTEX
  8
254
 42
0.0
 10
7.8486481
 20
-4.0307426
 70
0
  0
SEQEND
  0
POLYLINE
  8
254
  6
CONTINUOUS
 62
6
 66
1
 40
1.0E-003
 41
1.0E-003
 70
0
  0
VERTEX
  8
254
 42
0.0
 10
8.2386322
 20
-3.6407566
 70
0
  0
VERTEX
  8
254
 42
0.0
 10
9.6507568
 20
-2.228632
 70
0
  0
SEQEND
  0
POLYLINE
  8
254
  6
CONTINUOUS
 62
6
 66
1
 40
1.0E-003
 41
1.0E-003
 70
0
  0
VERTEX
  8
254
 42
0.0
 10
8.2386322
 20
-3.9235992
 70
0
  0
VERTEX
  8
254
 42
0.0
 10
9.7415924
 20
-2.4206371
 70
0
  0
SEQEND
  0
POLYLINE
  8
254
  6
CONTINUOUS
 62
6
 66
1
 40
1.0E-003
 41
1.0E-003
 70
0
  0
VERTEX
  8
254
 42
0.0
 10
8.2386322
 20
-4.2064419
 70
0
  0
VERTEX
  8
254
 42
0.0
 10
9.8081055
 20
-2.6369629
 70
0
  0
SEQEND
  0
POLYLINE
  8
254
  6
CONTINUOUS
 62
6
 66
1
 40
1.0E-003
 41
1.0E-003
 70
0
  0
VERTEX
  8
254
 42
0.0
 10
8.4543915
 20
-4.2735233
 70
0
  0
VERTEX
  8
254
 42
0.0
 10
9.8392181
 20
-2.8886967
 70
0
  0
SEQEND
  0
POLYLINE
  8
254
  6
CONTINUOUS
 62
6
 66
1
 40
1.0E-003
 41
1.0E-003
 70
0
  0
VERTEX
  8
254
 42
0.0
 10
8.7687836
 20
-4.2419796
 70
0
  0
VERTEX
  8
254
 42
0.0
 10
9.8147125
 20
-3.196043
 70
0
  0
SEQEND
  0
POLYLINE
  8
254
  6
CONTINUOUS
 62
6
 66
1
 40
1.0E-003
 41
1.0E-003
 70
0
  0
VERTEX
  8
254
 42
0.0
 10
9.275238
 20
-4.0183601
 70
0
  0
VERTEX
  8
254
 42
0.0
 10
9.5876312
 20
-3.7059689
 70
0
  0
SEQEND
  0
ENDBLK
  0
BLOCK
  2
RAHMENA4
 10
0.0
 20
0.0
 70
0
  0
POLYLINE
  8
1
  6
CONTINUOUS
 62
6
 66
1
 40
7.0E-001
 41
7.0E-001
 70
0
  0
VERTEX
  8
1
 42
0.0
 10
1.9000008E+001
 20
2.9150003E+002
 70
0
  0
VERTEX
  8
1
 42
0.0
 10
1.9000008E+001
 20
5.5
 70
0
  0
SEQEND
  0
POLYLINE
  8
1
  6
CONTINUOUS
 62
6
 66
1
 40
7.0E-001
 41
7.0E-001
 70
0
  0
VERTEX
  8
1
 42
0.0
 10
2.05E+002
 20
5.5
 70
0
  0
VERTEX
  8
1
 42
0.0
 10
1.9000008E+001
 20
5.5
 70
0
  0
SEQEND
  0
POLYLINE
  8
1
  6
CONTINUOUS
 62
6
 66
1
 40
7.0E-001
 41
7.0E-001
 70
0
  0
VERTEX
  8
1
 42
0.0
 10
5.0
 20
5.5
 70
0
  0
VERTEX
  8
1
 42
0.0
 10
5.0
 20
1.045E+002
 70
0
  0
SEQEND
  0
POLYLINE
  8
1
  6
CONTINUOUS
 62
6
 66
1
 40
7.0E-001
 41
7.0E-001
 70
0
  0
VERTEX
  8
1
 42
0.0
 10
5.0
 20
1.045E+002
 70
0
  0
VERTEX
  8
1
 42
0.0
 10
1.9000008E+001
 20
1.045E+002
 70
0
  0
SEQEND
  0
POLYLINE
  8
1
  6
CONTINUOUS
 62
6
 66
1
 40
1.0E-003
 41
1.0E-003
 70
0
  0
VERTEX
  8
1
 42
0.0
 10
1.9000008E+001
 20
1.335E+002
 70
0
  0
VERTEX
  8
1
 42
0.0
 10
1.4500008E+001
 20
1.335E+002
 70
0
  0
SEQEND
  0
POLYLINE
  8
1
  6
CONTINUOUS
 62
6
 66
1
 40
1.0E-003
 41
1.0E-003
 70
0
  0
VERTEX
  8
1
 42
0.0
 10
1.9000008E+001
 20
1.435E+002
 70
0
  0
VERTEX
  8
1
 42
0.0
 10
1.4500008E+001
 20
1.435E+002
 70
0
  0
SEQEND
  0
POLYLINE
  8
1
  6
CONTINUOUS
 62
6
 66
1
 40
1.0E-003
 41
1.0E-003
 70
0
  0
VERTEX
  8
1
 42
0.0
 10
1.9000008E+001
 20
1.5350002E+002
 70
0
  0
VERTEX
  8
1
 42
0.0
 10
1.4500008E+001
 20
1.5350002E+002
 70
0
  0
SEQEND
  0
POLYLINE
  8
1
  6
CONTINUOUS
 62
6
 66
1
 40
1.0E-003
 41
1.0E-003
 70
0
  0
VERTEX
  8
1
 42
0.0
 10
1.9000008E+001
 20
1.6350002E+002
 70
0
  0
VERTEX
  8
1
 42
0.0
 10
1.4500008E+001
 20
1.6350002E+002
 70
0
  0
SEQEND
  0
POLYLINE
  8
1
  6
CONTINUOUS
 62
6
 66
1
 40
1.0E-003
 41
1.0E-003
 70
0
  0
VERTEX
  8
1
 42
0.0
 10
1.9000008E+001
 20
1.7350002E+002
 70
0
  0
VERTEX
  8
1
 42
0.0
 10
1.4500008E+001
 20
1.7350002E+002
 70
0
  0
SEQEND
  0
POLYLINE
  8
1
  6
CONTINUOUS
 62
6
 66
1
 40
1.0E-003
 41
1.0E-003
 70
0
  0
VERTEX
  8
1
 42
0.0
 10
1.9000008E+001
 20
1.285E+002
 70
0
  0
VERTEX
  8
1
 42
0.0
 10
1.7000008E+001
 20
1.285E+002
 70
0
  0
SEQEND
  0
POLYLINE
  8
1
  6
CONTINUOUS
 62
6
 66
1
 40
1.0E-003
 41
1.0E-003
 70
0
  0
VERTEX
  8
1
 42
0.0
 10
1.9000008E+001
 20
1.385E+002
 70
0
  0
VERTEX
  8
1
 42
0.0
 10
1.7000008E+001
 20
1.385E+002
 70
0
  0
SEQEND
  0
POLYLINE
  8
1
  6
CONTINUOUS
 62
6
 66
1
 40
1.0E-003
 41
1.0E-003
 70
0
  0
VERTEX
  8
1
 42
0.0
 10
1.9000008E+001
 20
1.4850002E+002
 70
0
  0
VERTEX
  8
1
 42
0.0
 10
1.2345772E+001
 20
1.4850002E+002
 70
0
  0
SEQEND
  0
POLYLINE
  8
1
  6
CONTINUOUS
 62
6
 66
1
 40
1.0E-003
 41
1.0E-003
 70
0
  0
VERTEX
  8
1
 42
0.0
 10
1.9000008E+001
 20
1.5850002E+002
 70
0
  0
VERTEX
  8
1
 42
0.0
 10
1.7000008E+001
 20
1.5850002E+002
 70
0
  0
SEQEND
  0
POLYLINE
  8
1
  6
CONTINUOUS
 62
6
 66
1
 40
1.0E-003
 41
1.0E-003
 70
0
  0
VERTEX
  8
1
 42
0.0
 10
1.9000008E+001
 20
1.6850002E+002
 70
0
  0
VERTEX
  8
1
 42
0.0
 10
1.7000008E+001
 20
1.6850002E+002
 70
0
  0
SEQEND
  0
POLYLINE
  8
1
  6
CONTINUOUS
 62
6
 66
1
 40
1.0E-003
 41
1.0E-003
 70
0
  0
VERTEX
  8
1
 42
0.0
 10
1.7568611E+001
 20
1.235E+002
 70
0
  0
VERTEX
  8
1
 42
0.0
 10
1.9000008E+001
 20
1.235E+002
 70
0
  0
SEQEND
  0
POLYLINE
  8
1
  6
CONTINUOUS
 62
6
 66
1
 40
1.0E-003
 41
1.0E-003
 70
0
  0
VERTEX
  8
1
 42
0.0
 10
1.9000008E+001
 20
1.235E+002
 70
0
  0
VERTEX
  8
1
 42
0.0
 10
1.5000008E+001
 20
1.235E+002
 70
0
  0
SEQEND
  0
POLYLINE
  8
1
  6
CONTINUOUS
 62
6
 66
1
 40
1.0E-003
 41
1.0E-003
 70
0
  0
VERTEX
  8
1
 42
0.0
 10
1.9000008E+001
 20
1.235E+002
 70
0
  0
VERTEX
  8
1
 42
0.0
 10
1.4500008E+001
 20
1.235E+002
 70
0
  0
SEQEND
  0
POLYLINE
  8
1
  6
CONTINUOUS
 62
3
 66
1
 40
1.0E-003
 41
1.0E-003
 70
0
  0
VERTEX
  8
1
 42
0.0
 10
1.6487923E+001
 20
2.0867195E+002
 70
0
  0
VERTEX
  8
1
 42
0.0
 10
1.3487923E+001
 20
2.0867195E+002
 70
0
  0
SEQEND
  0
POLYLINE
  8
1
  6
CONTINUOUS
 62
3
 66
1
 40
1.0E-003
 41
1.0E-003
 70
0
  0
VERTEX
  8
1
 42
0.0
 10
1.3487923E+001
 20
2.2806367E+002
 70
0
  0
VERTEX
  8
1
 42
0.0
 10
1.6487923E+001
 20
2.2806367E+002
 70
0
  0
SEQEND
  0
POLYLINE
  8
1
  6
CONTINUOUS
 62
3
 66
1
 40
1.0E-003
 41
1.0E-003
 70
0
  0
VERTEX
  8
1
 42
0.0
 10
1.3487923E+001
 20
2.3106367E+002
 70
0
  0
VERTEX
  8
1
 42
0.0
 10
1.6487923E+001
 20
2.3106367E+002
 70
0
  0
SEQEND
  0
POLYLINE
  8
1
  6
CONTINUOUS
 62
3
 66
1
 40
1.0E-003
 41
1.0E-003
 70
0
  0
VERTEX
  8
1
 42
0.0
 10
1.6487923E+001
 20
2.1167192E+002
 70
0
  0
VERTEX
  8
1
 42
0.0
 10
1.3487923E+001
 20
2.1167192E+002
 70
0
  0
SEQEND
  0
POLYLINE
  8
1
  6
CONTINUOUS
 62
3
 66
1
 40
1.0E-003
 41
1.0E-003
 70
0
  0
VERTEX
  8
1
 42
0.0
 10
1.3487923E+001
 20
2.2806367E+002
 70
0
  0
VERTEX
  8
1
 42
0.0
 10
1.3487923E+001
 20
2.3106367E+002
 70
0
  0
SEQEND
  0
POLYLINE
  8
1
  6
CONTINUOUS
 62
3
 66
1
 40
1.0E-003
 41
1.0E-003
 70
0
  0
VERTEX
  8
1
 42
0.0
 10
1.3487923E+001
 20
2.0867195E+002
 70
0
  0
VERTEX
  8
1
 42
0.0
 10
1.3487923E+001
 20
2.1167192E+002
 70
0
  0
SEQEND
  0
POLYLINE
  8
1
  6
CONTINUOUS
 62
3
 66
1
 40
1.0E-003
 41
1.0E-003
 70
0
  0
VERTEX
  8
1
 42
0.0
 10
1.6487923E+001
 20
2.2806367E+002
 70
0
  0
VERTEX
  8
1
 42
0.0
 10
1.6487923E+001
 20
2.3106367E+002
 70
0
  0
SEQEND
  0
POLYLINE
  8
1
  6
CONTINUOUS
 62
4
 66
1
 40
1.0E-003
 41
1.0E-003
 70
0
  0
VERTEX
  8
1
 42
0.0
 10
2.1E+002
 20
0.0
 70
0
  0
VERTEX
  8
1
 42
0.0
 10
2.1E+002
 20
2.9700003E+002
 70
0
  0
SEQEND
  0
POLYLINE
  8
1
  6
CONTINUOUS
 62
6
 66
1
 40
7.0E-001
 41
7.0E-001
 70
0
  0
VERTEX
  8
1
 42
0.0
 10
2.05E+002
 20
2.9150003E+002
 70
0
  0
VERTEX
  8
1
 42
0.0
 10
2.05E+002
 20
5.5
 70
0
  0
SEQEND
  0
POLYLINE
  8
1
  6
CONTINUOUS
 62
6
 66
1
 40
7.0E-001
 41
7.0E-001
 70
0
  0
VERTEX
  8
1
 42
0.0
 10
1.9000008E+001
 20
2.9150003E+002
 70
0
  0
VERTEX
  8
1
 42
0.0
 10
2.05E+002
 20
2.9150003E+002
 70
0
  0
SEQEND
  0
LINE
  8
1
  6
CONTINUOUS
 62
6
 10
3.0000008E+001
 20
2.6550003E+002
 11
2.05E+002
 21
2.6550003E+002
  0
POLYLINE
  8
1
  6
CONTINUOUS
 62
6
 66
1
 40
7.0E-001
 41
7.0E-001
 70
0
  0
VERTEX
  8
1
 42
0.0
 10
2.05E+002
 20
2.7800003E+002
 70
0
  0
VERTEX
  8
1
 42
0.0
 10
3.0000008E+001
 20
2.7800003E+002
 70
0
  0
SEQEND
  0
POLYLINE
  8
1
  6
CONTINUOUS
 62
6
 66
1
 40
7.0E-001
 41
7.0E-001
 70
0
  0
VERTEX
  8
1
 42
0.0
 10
3.0000008E+001
 20
2.9150003E+002
 70
0
  0
VERTEX
  8
1
 42
0.0
 10
3.0000008E+001
 20
2.6550003E+002
 70
0
  0
SEQEND
  0
POLYLINE
  8
1
  6
CONTINUOUS
 62
6
 66
1
 40
5.0E-001
 41
5.0E-001
 70
0
  0
VERTEX
  8
1
 42
0.0
 10
3.7000008E+001
 20
2.9150003E+002
 70
0
  0
VERTEX
  8
1
 42
0.0
 10
3.7000008E+001
 20
2.6550003E+002
 70
0
  0
SEQEND
  0
LINE
  8
1
  6
CONTINUOUS
 62
6
 10
4.2000008E+001
 20
2.9150003E+002
 11
4.2000008E+001
 21
2.6550003E+002
  0
POLYLINE
  8
1
  6
CONTINUOUS
 62
6
 66
1
 40
7.0E-001
 41
7.0E-001
 70
0
  0
VERTEX
  8
1
 42
0.0
 10
5.4000008E+001
 20
2.9150003E+002
 70
0
  0
VERTEX
  8
1
 42
0.0
 10
5.4000008E+001
 20
2.6550003E+002
 70
0
  0
SEQEND
  0
POLYLINE
  8
1
  6
CONTINUOUS
 62
6
 66
1
 40
5.0E-001
 41
5.0E-001
 70
0
  0
VERTEX
  8
1
 42
0.0
 10
1.2000001E+002
 20
2.9150003E+002
 70
0
  0
VERTEX
  8
1
 42
0.0
 10
1.2000001E+002
 20
2.6550003E+002
 70
0
  0
SEQEND
  0
POLYLINE
  8
1
  6
CONTINUOUS
 62
6
 66
1
 40
5.0E-001
 41
5.0E-001
 70
0
  0
VERTEX
  8
1
 42
0.0
 10
1.61E+002
 20
2.9150003E+002
 70
0
  0
VERTEX
  8
1
 42
0.0
 10
1.61E+002
 20
2.6550003E+002
 70
0
  0
SEQEND
  0
POLYLINE
  8
1
  6
CONTINUOUS
 62
6
 66
1
 40
5.0E-001
 41
5.0E-001
 70
0
  0
VERTEX
  8
1
 42
0.0
 10
1.66E+002
 20
2.9150003E+002
 70
0
  0
VERTEX
  8
1
 42
0.0
 10
1.66E+002
 20
2.6550003E+002
 70
0
  0
SEQEND
  0
POLYLINE
  8
1
  6
CONTINUOUS
 62
6
 66
1
 40
5.0E-001
 41
5.0E-001
 70
0
  0
VERTEX
  8
1
 42
0.0
 10
1.76E+002
 20
2.9150003E+002
 70
0
  0
VERTEX
  8
1
 42
0.0
 10
1.76E+002
 20
2.6550003E+002
 70
0
  0
SEQEND
  0
POLYLINE
  8
1
  6
CONTINUOUS
 62
6
 66
1
 40
5.0E-001
 41
5.0E-001
 70
0
  0
VERTEX
  8
1
 42
0.0
 10
1.92E+002
 20
2.9150003E+002
 70
0
  0
VERTEX
  8
1
 42
0.0
 10
1.92E+002
 20
2.6550003E+002
 70
0
  0
SEQEND
  0
LINE
  8
1
  6
CONTINUOUS
 62
6
 10
3.0000008E+001
 20
2.7175003E+002
 11
2.05E+002
 21
2.7175003E+002
  0
POLYLINE
  8
1
  6
CONTINUOUS
 62
6
 66
1
 40
5.0E-001
 41
5.0E-001
 70
0
  0
VERTEX
  8
1
 42
0.0
 10
1.66E+002
 20
2.8475003E+002
 70
0
  0
VERTEX
  8
1
 42
0.0
 10
1.92E+002
 20
2.8475003E+002
 70
0
  0
SEQEND
  0
POLYLINE
  8
1
  6
CONTINUOUS
 62
4
 66
1
 40
1.0E-003
 41
1.0E-003
 70
0
  0
VERTEX
  8
1
 42
0.0
 10
0.0
 20
2.9700003E+002
 70
0
  0
VERTEX
  8
1
 42
0.0
 10
2.1E+002
 20
2.9700003E+002
 70
0
  0
SEQEND
  0
POLYLINE
  8
1
  6
CONTINUOUS
 62
6
 66
1
 40
1.0E-003
 41
1.0E-003
 70
0
  0
VERTEX
  8
1
 42
0.0
 10
2.05E+002
 20
2.5925003E+002
 70
0
  0
VERTEX
  8
1
 42
0.0
 10
2.0E+002
 20
2.5925003E+002
 70
0
  0
SEQEND
  0
POLYLINE
  8
1
  6
CONTINUOUS
 62
6
 66
1
 40
1.0E-003
 41
1.0E-003
 70
0
  0
VERTEX
  8
1
 42
0.0
 10
2.05E+002
 20
2.53E+002
 70
0
  0
VERTEX
  8
1
 42
0.0
 10
2.0E+002
 20
2.53E+002
 70
0
  0
SEQEND
  0
POLYLINE
  8
1
  6
CONTINUOUS
 62
6
 66
1
 40
1.0E-003
 41
1.0E-003
 70
0
  0
VERTEX
  8
1
 42
0.0
 10
2.05E+002
 20
2.4674998E+002
 70
0
  0
VERTEX
  8
1
 42
0.0
 10
2.0E+002
 20
2.4674998E+002
 70
0
  0
SEQEND
  0
POLYLINE
  8
1
  6
CONTINUOUS
 62
6
 66
1
 40
1.0E-003
 41
1.0E-003
 70
0
  0
VERTEX
  8
1
 42
0.0
 10
2.05E+002
 20
2.4049998E+002
 70
0
  0
VERTEX
  8
1
 42
0.0
 10
2.0E+002
 20
2.4049998E+002
 70
0
  0
SEQEND
  0
POLYLINE
  8
1
  6
CONTINUOUS
 62
6
 66
1
 40
1.0E-003
 41
1.0E-003
 70
0
  0
VERTEX
  8
1
 42
0.0
 10
2.05E+002
 20
2.3424998E+002
 70
0
  0
VERTEX
  8
1
 42
0.0
 10
2.0E+002
 20
2.3424998E+002
 70
0
  0
SEQEND
  0
POLYLINE
  8
1
  6
CONTINUOUS
 62
6
 66
1
 40
1.0E-003
 41
1.0E-003
 70
0
  0
VERTEX
  8
1
 42
0.0
 10
2.05E+002
 20
2.2800002E+002
 70
0
  0
VERTEX
  8
1
 42
0.0
 10
2.0E+002
 20
2.2800002E+002
 70
0
  0
SEQEND
  0
POLYLINE
  8
1
  6
CONTINUOUS
 62
6
 66
1
 40
1.0E-003
 41
1.0E-003
 70
0
  0
VERTEX
  8
1
 42
0.0
 10
2.05E+002
 20
2.2175002E+002
 70
0
  0
VERTEX
  8
1
 42
0.0
 10
2.0E+002
 20
2.2175002E+002
 70
0
  0
SEQEND
  0
POLYLINE
  8
1
  6
CONTINUOUS
 62
6
 66
1
 40
1.0E-003
 41
1.0E-003
 70
0
  0
VERTEX
  8
1
 42
0.0
 10
2.05E+002
 20
2.1550002E+002
 70
0
  0
VERTEX
  8
1
 42
0.0
 10
2.0E+002
 20
2.1550002E+002
 70
0
  0
SEQEND
  0
POLYLINE
  8
1
  6
CONTINUOUS
 62
6
 66
1
 40
1.0E-003
 41
1.0E-003
 70
0
  0
VERTEX
  8
1
 42
0.0
 10
2.05E+002
 20
2.9150003E+002
 70
0
  0
VERTEX
  8
1
 42
0.0
 10
2.075E+002
 20
2.9150003E+002
 70
0
  0
SEQEND
  0
POLYLINE
  8
1
  6
CONTINUOUS
 62
6
 66
1
 40
1.0E-003
 41
1.0E-003
 70
0
  0
VERTEX
  8
1
 42
0.0
 10
2.05E+002
 20
2.3175002E+002
 70
0
  0
VERTEX
  8
1
 42
0.0
 10
2.075E+002
 20
2.3175002E+002
 70
0
  0
SEQEND
  0
POLYLINE
  8
1
  6
CONTINUOUS
 62
6
 66
1
 40
1.0E-003
 41
1.0E-003
 70
0
  0
VERTEX
  8
1
 42
0.0
 10
2.05E+002
 20
1.7200002E+002
 70
0
  0
VERTEX
  8
1
 42
0.0
 10
2.075E+002
 20
1.7200002E+002
 70
0
  0
SEQEND
  0
POLYLINE
  8
1
  6
CONTINUOUS
 62
6
 66
1
 40
1.0E-003
 41
1.0E-003
 70
0
  0
VERTEX
  8
1
 42
0.0
 10
2.05E+002
 20
1.1225E+002
 70
0
  0
VERTEX
  8
1
 42
0.0
 10
2.075E+002
 20
1.1225E+002
 70
0
  0
SEQEND
  0
POLYLINE
  8
1
  6
CONTINUOUS
 62
6
 66
1
 40
1.0E-003
 41
1.0E-003
 70
0
  0
VERTEX
  8
1
 42
0.0
 10
2.05E+002
 20
2.9150003E+002
 70
0
  0
VERTEX
  8
1
 42
0.0
 10
2.05E+002
 20
2.9400003E+002
 70
0
  0
SEQEND
  0
POLYLINE
  8
1
  6
CONTINUOUS
 62
6
 66
1
 40
1.0E-003
 41
1.0E-003
 70
0
  0
VERTEX
  8
1
 42
0.0
 10
1.585E+002
 20
2.9150003E+002
 70
0
  0
VERTEX
  8
1
 42
0.0
 10
1.585E+002
 20
2.9400003E+002
 70
0
  0
SEQEND
  0
POLYLINE
  8
1
  6
CONTINUOUS
 62
6
 66
1
 40
1.0E-003
 41
1.0E-003
 70
0
  0
VERTEX
  8
1
 42
0.0
 10
1.1200001E+002
 20
2.9150003E+002
 70
0
  0
VERTEX
  8
1
 42
0.0
 10
1.1200001E+002
 20
2.9400003E+002
 70
0
  0
SEQEND
  0
POLYLINE
  8
1
  6
CONTINUOUS
 62
6
 66
1
 40
1.0E-003
 41
1.0E-003
 70
0
  0
VERTEX
  8
1
 42
0.0
 10
1.9000008E+001
 20
2.9150003E+002
 70
0
  0
VERTEX
  8
1
 42
0.0
 10
1.9000008E+001
 20
2.9400003E+002
 70
0
  0
SEQEND
  0
POLYLINE
  8
1
  6
CONTINUOUS
 62
6
 66
1
 40
1.0E-003
 41
1.0E-003
 70
0
  0
VERTEX
  8
1
 42
0.0
 10
6.5500008E+001
 20
2.9150003E+002
 70
0
  0
VERTEX
  8
1
 42
0.0
 10
6.5500008E+001
 20
2.9400003E+002
 70
0
  0
SEQEND
  0
POLYLINE
  8
1
  6
CONTINUOUS
 62
6
 66
1
 40
7.0E-001
 41
7.0E-001
 70
0
  0
VERTEX
  8
1
 42
0.0
 10
1.0650001E+002
 20
5.5
 70
0
  0
VERTEX
  8
1
 42
0.0
 10
1.0650001E+002
 20
1.5
 70
0
  0
SEQEND
  0
POLYLINE
  8
1
  6
CONTINUOUS
 62
6
 66
1
 40
7.0E-001
 41
7.0E-001
 70
0
  0
VERTEX
  8
1
 42
0.0
 10
1.0350001E+002
 20
5.5
 70
0
  0
VERTEX
  8
1
 42
0.0
 10
1.0350001E+002
 20
1.5
 70
0
  0
SEQEND
  0
POLYLINE
  8
1
  6
CONTINUOUS
 62
6
 66
1
 40
7.0E-001
 41
7.0E-001
 70
0
  0
VERTEX
  8
1
 42
0.0
 10
1.0650001E+002
 20
2.9150003E+002
 70
0
  0
VERTEX
  8
1
 42
0.0
 10
1.0650001E+002
 20
2.9550003E+002
 70
0
  0
SEQEND
  0
POLYLINE
  8
1
  6
CONTINUOUS
 62
6
 66
1
 40
7.0E-001
 41
7.0E-001
 70
0
  0
VERTEX
  8
1
 42
0.0
 10
1.0350001E+002
 20
2.9150003E+002
 70
0
  0
VERTEX
  8
1
 42
0.0
 10
1.0350001E+002
 20
2.9550003E+002
 70
0
  0
SEQEND
  0
POLYLINE
  8
1
  6
CONTINUOUS
 62
6
 66
1
 40
1.0E-003
 41
1.0E-003
 70
0
  0
VERTEX
  8
1
 42
0.0
 10
2.05E+002
 20
5.25E+001
 70
0
  0
VERTEX
  8
1
 42
0.0
 10
2.075E+002
 20
5.25E+001
 70
0
  0
SEQEND
  0
POLYLINE
  8
1
  6
CONTINUOUS
 62
6
 66
1
 40
7.0E-001
 41
7.0E-001
 70
0
  0
VERTEX
  8
1
 42
0.0
 10
1.9000008E+001
 20
5.5
 70
0
  0
VERTEX
  8
1
 42
0.0
 10
5.0
 20
5.5
 70
0
  0
SEQEND
  0
POLYLINE
  8
1
  6
CONTINUOUS
 62
4
 66
1
 40
1.0E-003
 41
1.0E-003
 70
0
  0
VERTEX
  8
1
 42
0.0
 10
0.0
 20
0.0
 70
0
  0
VERTEX
  8
1
 42
0.0
 10
2.1E+002
 20
0.0
 70
0
  0
SEQEND
  0
POLYLINE
  8
1
  6
CONTINUOUS
 62
3
 66
1
 40
1.0E-003
 41
1.0E-003
 70
0
  0
VERTEX
  8
1
 42
0.0
 10
1.6487923E+001
 20
2.1167192E+002
 70
0
  0
VERTEX
  8
1
 42
0.0
 10
1.6487923E+001
 20
2.0867195E+002
 70
0
  0
SEQEND
  0
POLYLINE
  8
1
  6
CONTINUOUS
 62
3
 66
1
 40
1.0E-003
 41
1.0E-003
 70
0
  0
VERTEX
  8
1
 42
0.0
 10
1.6487923E+001
 20
2.1167192E+002
 70
0
  0
VERTEX
  8
1
 42
0.0
 10
1.6487923E+001
 20
2.0867195E+002
 70
0
  0
SEQEND
  0
TEXT
  8
1
  6
CONTINUOUS
 62
3
 10
2.065E+002
 20
2.6162503E+002
 40
2.0
  1
A
  0
TEXT
  8
1
  6
CONTINUOUS
 62
3
 10
2.065E+002
 20
2.0187502E+002
 40
2.0
  1
B
  0
TEXT
  8
1
  6
CONTINUOUS
 62
3
 10
2.065E+002
 20
1.42125E+002
 40
2.0
  1
C
  0
TEXT
  8
1
  6
CONTINUOUS
 62
3
 10
2.065E+002
 20
8.2375E+001
 40
2.0
  1
D
  0
TEXT
  8
1
  6
CONTINUOUS
 62
3
 10
1.6509621E+001
 20
2.1872429E+002
 40
2.0
  1
"grob"
 41
6.5E-001
 50
9.0000003E+001
  0
TEXT
  8
1
  6
CONTINUOUS
 62
3
 10
1.6487923E+001
 20
1.9736339E+002
 40
2.0
  1
"mittel"
 41
6.5E-001
 50
9.0000003E+001
  0
TEXT
  8
1
  6
CONTINUOUS
 62
3
 10
5.8622437
 20
1.9528923E+002
 40
2.0
  1
Allgemeintoleranzen nach
 41
8.0E-001
 50
9.0000003E+001
  0
TEXT
  8
1
  6
CONTINUOUS
 62
3
 10
5.8622437
 20
1.2295421E+002
 40
2.0
  1
Rauheits-Symbole nach GZN 020007
 41
8.0E-001
 50
9.0000003E+001
  0
TEXT
  8
1
  6
CONTINUOUS
 62
3
 10
9.8622437
 20
1.2295421E+002
 40
2.0
  1
    entsprechend DIN ISO 1302
 41
8.0E-001
 50
9.0000003E+001
  0
TEXT
  8
1
  6
CONTINUOUS
 62
6
 10
1.306617E+001
 20
1.2349451E+002
 40
2.0
  1
0
 41
5.25E-001
 50
9.0000003E+001
  0
TEXT
  8
1
  6
CONTINUOUS
 62
6
 10
1.306617E+001
 20
1.7212105E+002
 40
2.0
  1
50
 41
6.75E-001
 50
9.0000003E+001
  0
POLYLINE
  8
1
  6
CONTINUOUS
 62
4
 66
1
 40
1.0E-003
 41
1.0E-003
 70
0
  0
VERTEX
  8
1
 42
0.0
 10
0.0
 20
2.9700003E+002
 70
0
  0
VERTEX
  8
1
 42
0.0
 10
0.0
 20
0.0
 70
0
  0
SEQEND
  0
POLYLINE
  8
1
  6
CONTINUOUS
 62
4
 66
1
 40
1.0E-003
 41
1.0E-003
 70
0
  0
VERTEX
  8
1
 42
0.0
 10
0.0
 20
0.0
 70
0
  0
VERTEX
  8
1
 42
0.0
 10
0.0
 20
2.9700003E+002
 70
0
  0
SEQEND
  0
TEXT
  8
1
  6
CONTINUOUS
 62
3
 10
1.7001917E+002
 20
2.8040002E+002
 40
2.0
  1
I
 41
3.17E-001
  0
TEXT
  8
1
  6
CONTINUOUS
 62
3
 10
4.2250008E+001
 20
2.9300003E+002
 40
2.0
  1
1
  0
TEXT
  8
1
  6
CONTINUOUS
 62
3
 10
8.8750008E+001
 20
2.9300003E+002
 40
2.0
  1
2
  0
TEXT
  8
1
  6
CONTINUOUS
 62
3
 10
1.3525E+002
 20
2.9300003E+002
 40
2.0
  1
3
  0
TEXT
  8
1
  6
CONTINUOUS
 62
3
 10
1.8175E+002
 20
2.9300003E+002
 40
2.0
  1
4
  0
TEXT
  8
1
  6
CONTINUOUS
 62
3
 10
3.0841621E+001
 20
2.8556284E+002
 40
2.0
  1
Ein-
 41
7.925E-001
  0
TEXT
  8
1
  6
CONTINUOUS
 62
3
 10
3.0841621E+001
 20
2.8256284E+002
 40
2.0
  1
heit
 41
7.925E-001
  0
TEXT
  8
1
  6
CONTINUOUS
 62
3
 10
3.8324684E+001
 20
2.8350003E+002
 40
2.0
  1
ZC
 41
7.925E-001
  0
TEXT
  8
1
  6
CONTINUOUS
 62
3
 10
1.6235593E+002
 20
2.8350003E+002
 40
2.0
  1
EC
 41
7.925E-001
  0
TEXT
  8
1
  6
CONTINUOUS
 62
3
 10
1.6759302E+002
 20
2.8716838E+002
 40
2.0
  1
Aend.
 41
8.0E-001
  0
TEXT
  8
1
  6
CONTINUOUS
 62
3
 10
1.7796625E+002
 20
2.8715002E+002
 40
2.0
  1
Masse/E
 41
7.925E-001
  0
TEXT
  8
1
  6
CONTINUOUS
 62
3
 10
1.2262052E+002
 20
2.8350003E+002
 40
2.0
  1
Ident-Nummer
 41
7.925E-001
  0
TEXT
  8
1
  6
CONTINUOUS
 62
3
 10
5.6489449E+001
 20
2.8350003E+002
 40
2.0
  1
Text
 41
7.925E-001
  0
TEXT
  8
1
  6
CONTINUOUS
 62
3
 10
4.343354E+001
 20
2.8350003E+002
 40
2.0
  1
Pos.-Nr.
 41
6.0E-001
  0
TEXT
  8
1
  6
CONTINUOUS
 62
3
 10
1.8364273E+002
 20
2.8040002E+002
 40
2.0
  1
II
 41
7.5E-001
  0
TEXT
  8
1
  6
CONTINUOUS
 62
3
 10
1.9726633E+002
 20
2.8350003E+002
 40
2.0
  1
III
 41
7.5E-001
  0
TEXT
  8
1
  6
CONTINUOUS
 62
3
 10
8.58746
 20
8.773347
 40
1.7
  1
Fuer diese Unterlage behalten wir uns alle Rechte, auch fuer den Fall der Patent-
 41
6.8E-001
 50
9.0000003E+001
  0
TEXT
  8
1
  6
CONTINUOUS
 62
3
 10
1.1408791E+001
 20
8.3925096
 40
1.7
  1
erteilung und der Eintragung eines anderen gewerblichen Schutzrechtes, vor.
 41
6.8E-001
 50
9.0000003E+001
  0
TEXT
  8
1
  6
CONTINUOUS
 62
3
 10
1.4298791E+001
 20
8.3925096
 40
1.7
  1
Missbraeuchliche Verwendung, wie insbesondere Vervielfaeltigung und Weitergabe an
 41
6.8E-001
 50
9.0000003E+001
  0
TEXT
  8
1
  6
CONTINUOUS
 62
3
 10
1.7188792E+001
 20
8.3925096
 40
1.7
  1
Dritte ist nicht gestattet: sie kann zivil- und strafrechtlich geahndet werden.
 41
6.8E-001
 50
9.0000003E+001
  0
TEXT
  8
1
  6
CONTINUOUS
 62
3
 10
1.0199852E+001
 20
2.0239064E+002
 40
2.0
  1
ISO 2768
 41
8.0E-001
 50
9.0000003E+001
  0
POLYLINE
  8
1
  6
CONTINUOUS
 62
6
 66
1
 40
7.0E-001
 41
7.0E-001
 70
0
  0
VERTEX
  8
1
 42
0.0
 10
1.8999985E+001
 20
3.1E+001
 70
0
  0
VERTEX
  8
1
 42
0.0
 10
2.05E+002
 20
3.1E+001
 70
0
  0
SEQEND
  0
POLYLINE
  8
1
  6
CONTINUOUS
 62
6
 66
1
 40
7.0E-001
 41
7.0E-001
 70
0
  0
VERTEX
  8
1
 42
0.0
 10
1.8999985E+001
 20
1.4E+001
 70
0
  0
VERTEX
  8
1
 42
0.0
 10
5.85E+001
 20
1.4E+001
 70
0
  0
SEQEND
  0
LINE
  8
1
  6
CONTINUOUS
 62
6
 10
2.4499985E+001
 20
3.1E+001
 11
2.4499985E+001
 21
1.4E+001
  0
TEXT
  8
1
  6
CONTINUOUS
 62
3
 10
2.2718704E+001
 20
1.9207314E+001
 40
2.0
  1
Aend.
 41
5.0E-001
 50
9.0000003E+001
  0
LINE
  8
1
  6
CONTINUOUS
 62
6
 10
2.4499985E+001
 20
2.675E+001
 11
5.85E+001
 21
2.675E+001
  0
POLYLINE
  8
1
  6
CONTINUOUS
 62
6
 66
1
 40
5.0E-001
 41
5.0E-001
 70
0
  0
VERTEX
  8
1
 42
0.0
 10
1.465E+002
 20
2.675E+001
 70
0
  0
VERTEX
  8
1
 42
0.0
 10
2.05E+002
 20
2.675E+001
 70
0
  0
SEQEND
  0
POLYLINE
  8
1
  6
CONTINUOUS
 62
1
 66
1
 40
1.0E-003
 41
1.0E-003
 70
0
  0
VERTEX
  8
1
 42
0.0
 10
1.75E+002
 20
3.1E+001
 70
0
  0
VERTEX
  8
1
 42
0.0
 10
1.75E+002
 20
2.25E+001
 70
0
  0
SEQEND
  0
POLYLINE
  8
1
  6
CONTINUOUS
 62
6
 66
1
 40
7.0E-001
 41
7.0E-001
 70
0
  0
VERTEX
  8
1
 42
0.0
 10
1.465E+002
 20
3.1E+001
 70
0
  0
VERTEX
  8
1
 42
0.0
 10
1.465E+002
 20
5.5
 70
0
  0
SEQEND
  0
POLYLINE
  8
1
  6
CONTINUOUS
 62
6
 66
1
 40
7.0E-001
 41
7.0E-001
 70
0
  0
VERTEX
  8
1
 42
0.0
 10
1.35E+002
 20
3.0795013E+001
 70
0
  0
VERTEX
  8
1
 42
0.0
 10
1.35E+002
 20
1.4E+001
 70
0
  0
SEQEND
  0
POLYLINE
  8
1
  6
CONTINUOUS
 62
6
 66
1
 40
7.0E-001
 41
7.0E-001
 70
0
  0
VERTEX
  8
1
 42
0.0
 10
9.75E+001
 20
3.1E+001
 70
0
  0
VERTEX
  8
1
 42
0.0
 10
9.75E+001
 20
1.4E+001
 70
0
  0
SEQEND
  0
POLYLINE
  8
1
  6
CONTINUOUS
 62
6
 66
1
 40
7.0E-001
 41
7.0E-001
 70
0
  0
VERTEX
  8
1
 42
0.0
 10
5.85E+001
 20
3.1E+001
 70
0
  0
VERTEX
  8
1
 42
0.0
 10
5.85E+001
 20
1.4E+001
 70
0
  0
SEQEND
  0
POLYLINE
  8
1
  6
CONTINUOUS
 62
6
 66
1
 40
5.0E-001
 41
5.0E-001
 70
0
  0
VERTEX
  8
1
 42
0.0
 10
5.85E+001
 20
2.25E+001
 70
0
  0
VERTEX
  8
1
 42
0.0
 10
1.35E+002
 20
2.25E+001
 70
0
  0
SEQEND
  0
POLYLINE
  8
1
  6
CONTINUOUS
 62
6
 66
1
 40
5.0E-001
 41
5.0E-001
 70
0
  0
VERTEX
  8
1
 42
0.0
 10
5.85E+001
 20
1.825E+001
 70
0
  0
VERTEX
  8
1
 42
0.0
 10
1.35E+002
 20
1.825E+001
 70
0
  0
SEQEND
  0
POLYLINE
  8
1
  6
CONTINUOUS
 62
6
 66
1
 40
7.0E-001
 41
7.0E-001
 70
0
  0
VERTEX
  8
1
 42
0.0
 10
5.85E+001
 20
1.4E+001
 70
0
  0
VERTEX
  8
1
 42
0.0
 10
2.05E+002
 20
1.4E+001
 70
0
  0
SEQEND
  0
POLYLINE
  8
1
  6
CONTINUOUS
 62
6
 66
1
 40
7.0E-001
 41
7.0E-001
 70
0
  0
VERTEX
  8
1
 42
0.0
 10
1.35E+002
 20
2.25E+001
 70
0
  0
VERTEX
  8
1
 42
0.0
 10
2.05E+002
 20
2.25E+001
 70
0
  0
SEQEND
  0
POLYLINE
  8
1
  6
CONTINUOUS
 62
6
 66
1
 40
7.0E-001
 41
7.0E-001
 70
0
  0
VERTEX
  8
1
 42
0.0
 10
1.58E+002
 20
2.25E+001
 70
0
  0
VERTEX
  8
1
 42
0.0
 10
1.58E+002
 20
1.4E+001
 70
0
  0
SEQEND
  0
POLYLINE
  8
1
  6
CONTINUOUS
 62
110
 66
1
 40
7.0E-001
 41
7.0E-001
 70
0
  0
VERTEX
  8
1
 42
0.0
 10
1.68E+002
 20
2.25E+001
 70
0
  0
VERTEX
  8
1
 42
0.0
 10
1.68E+002
 20
1.4E+001
 70
0
  0
SEQEND
  0
POLYLINE
  8
1
  6
CONTINUOUS
 62
110
 66
1
 40
7.0E-001
 41
7.0E-001
 70
0
  0
VERTEX
  8
1
 42
0.0
 10
1.795E+002
 20
2.25E+001
 70
0
  0
VERTEX
  8
1
 42
0.0
 10
1.795E+002
 20
1.4E+001
 70
0
  0
SEQEND
  0
POLYLINE
  8
1
  6
CONTINUOUS
 62
110
 66
1
 40
7.0E-001
 41
7.0E-001
 70
0
  0
VERTEX
  8
1
 42
0.0
 10
1.915E+002
 20
2.25E+001
 70
0
  0
VERTEX
  8
1
 42
0.0
 10
1.915E+002
 20
1.4E+001
 70
0
  0
SEQEND
  0
LINE
  8
1
  6
HIDDEN
 62
6
 10
1.465E+002
 20
7.0
 11
2.05E+002
 21
7.0
  0
LINE
  8
1
  6
CONTINUOUS
 62
6
 10
2.4499985E+001
 20
2.25E+001
 11
5.85E+001
 21
2.25E+001
  0
LINE
  8
1
  6
CONTINUOUS
 62
6
 10
2.4499985E+001
 20
1.825E+001
 11
5.85E+001
 21
1.825E+001
  0
POLYLINE
  8
1
  6
CONTINUOUS
 62
6
 66
1
 40
5.0E-001
 41
5.0E-001
 70
0
  0
VERTEX
  8
1
 42
0.0
 10
5.85E+001
 20
2.675E+001
 70
0
  0
VERTEX
  8
1
 42
0.0
 10
1.35E+002
 20
2.675E+001
 70
0
  0
SEQEND
  0
POLYLINE
  8
1
  6
CONTINUOUS
 62
6
 66
1
 40
7.0E-001
 41
7.0E-001
 70
0
  0
VERTEX
  8
1
 42
0.0
 10
3.3999985E+001
 20
1.4E+001
 70
0
  0
VERTEX
  8
1
 42
0.0
 10
3.3999985E+001
 20
5.5
 70
0
  0
SEQEND
  0
POLYLINE
  8
1
  6
HIDDEN
 62
3
 66
1
 40
1.0E-003
 41
1.0E-003
 70
0
  0
VERTEX
  8
1
 42
0.0
 10
1.5225E+002
 20
1.825E+001
 70
0
  0
VERTEX
  8
1
 42
0.0
 10
1.5225E+002
 20
1.4E+001
 70
0
  0
SEQEND
  0
POLYLINE
  8
1
  6
HIDDEN
 62
3
 66
1
 40
1.0E-003
 41
1.0E-003
 70
0
  0
VERTEX
  8
1
 42
0.0
 10
1.63E+002
 20
1.825E+001
 70
0
  0
VERTEX
  8
1
 42
0.0
 10
1.63E+002
 20
1.4E+001
 70
0
  0
SEQEND
  0
POLYLINE
  8
1
  6
CONTINUOUS
 62
3
 66
1
 40
1.0E-003
 41
1.0E-003
 70
0
  0
VERTEX
  8
1
 42
0.0
 10
1.7079001E+002
 20
2.7410446E+001
 70
0
  0
VERTEX
  8
1
 42
0.0
 10
1.7079001E+002
 20
3.0034676E+001
 70
0
  0
SEQEND
  0
POLYLINE
  8
1
  6
CONTINUOUS
 62
3
 66
1
 40
1.0E-003
 41
1.0E-003
 70
0
  0
VERTEX
  8
1
 42
0.0
 10
1.7079001E+002
 20
3.0034676E+001
 70
0
  0
VERTEX
  8
1
 42
0.0
 10
1.7397659E+002
 20
3.0034676E+001
 70
0
  0
SEQEND
  0
POLYLINE
  8
1
  6
CONTINUOUS
 62
3
 66
1
 40
1.0E-003
 41
1.0E-003
 70
0
  0
VERTEX
  8
1
 42
0.0
 10
1.7397659E+002
 20
3.0034676E+001
 70
0
  0
VERTEX
  8
1
 42
0.0
 10
1.7397659E+002
 20
2.7410446E+001
 70
0
  0
SEQEND
  0
POLYLINE
  8
1
  6
CONTINUOUS
 62
3
 66
1
 40
1.0E-003
 41
1.0E-003
 70
0
  0
VERTEX
  8
1
 42
0.0
 10
1.7397659E+002
 20
2.7410446E+001
 70
0
  0
VERTEX
  8
1
 42
0.0
 10
1.7079001E+002
 20
2.7410446E+001
 70
0
  0
SEQEND
  0
POLYLINE
  8
1
  6
CONTINUOUS
 62
3
 66
1
 40
1.0E-003
 41
1.0E-003
 70
0
  0
VERTEX
  8
1
 42
0.0
 10
2.0079001E+002
 20
2.7410446E+001
 70
0
  0
VERTEX
  8
1
 42
0.0
 10
2.0079001E+002
 20
3.0034676E+001
 70
0
  0
SEQEND
  0
POLYLINE
  8
1
  6
CONTINUOUS
 62
3
 66
1
 40
1.0E-003
 41
1.0E-003
 70
0
  0
VERTEX
  8
1
 42
0.0
 10
2.0079001E+002
 20
3.0034676E+001
 70
0
  0
VERTEX
  8
1
 42
0.0
 10
2.0397659E+002
 20
3.0034676E+001
 70
0
  0
SEQEND
  0
POLYLINE
  8
1
  6
CONTINUOUS
 62
3
 66
1
 40
1.0E-003
 41
1.0E-003
 70
0
  0
VERTEX
  8
1
 42
0.0
 10
2.0397659E+002
 20
3.0034676E+001
 70
0
  0
VERTEX
  8
1
 42
0.0
 10
2.0397659E+002
 20
2.7410446E+001
 70
0
  0
SEQEND
  0
POLYLINE
  8
1
  6
CONTINUOUS
 62
3
 66
1
 40
1.0E-003
 41
1.0E-003
 70
0
  0
VERTEX
  8
1
 42
0.0
 10
2.0397659E+002
 20
2.7410446E+001
 70
0
  0
VERTEX
  8
1
 42
0.0
 10
2.0079001E+002
 20
2.7410446E+001
 70
0
  0
SEQEND
  0
POLYLINE
  8
1
  6
CONTINUOUS
 62
3
 66
1
 40
1.0E-003
 41
1.0E-003
 70
0
  0
VERTEX
  8
1
 42
0.0
 10
1.7079001E+002
 20
2.3160446E+001
 70
0
  0
VERTEX
  8
1
 42
0.0
 10
1.7079001E+002
 20
2.5784676E+001
 70
0
  0
SEQEND
  0
POLYLINE
  8
1
  6
CONTINUOUS
 62
3
 66
1
 40
1.0E-003
 41
1.0E-003
 70
0
  0
VERTEX
  8
1
 42
0.0
 10
1.7079001E+002
 20
2.5784676E+001
 70
0
  0
VERTEX
  8
1
 42
0.0
 10
1.7397659E+002
 20
2.5784676E+001
 70
0
  0
SEQEND
  0
POLYLINE
  8
1
  6
CONTINUOUS
 62
3
 66
1
 40
1.0E-003
 41
1.0E-003
 70
0
  0
VERTEX
  8
1
 42
0.0
 10
1.7397659E+002
 20
2.5784676E+001
 70
0
  0
VERTEX
  8
1
 42
0.0
 10
1.7397659E+002
 20
2.3160446E+001
 70
0
  0
SEQEND
  0
POLYLINE
  8
1
  6
CONTINUOUS
 62
3
 66
1
 40
1.0E-003
 41
1.0E-003
 70
0
  0
VERTEX
  8
1
 42
0.0
 10
1.7397659E+002
 20
2.3160446E+001
 70
0
  0
VERTEX
  8
1
 42
0.0
 10
1.7079001E+002
 20
2.3160446E+001
 70
0
  0
SEQEND
  0
LINE
  8
1
  6
CONTINUOUS
 62
6
 10
3.1499985E+001
 20
3.1E+001
 11
3.1499985E+001
 21
1.4E+001
  0
POLYLINE
  8
1
  6
CONTINUOUS
 62
3
 66
1
 40
1.0E-003
 41
1.0E-003
 70
0
  0
VERTEX
  8
1
 42
0.0
 10
1.3877496E+002
 20
2.025E+001
 70
0
  0
VERTEX
  8
1
 42
0.0
 10
1.3877496E+002
 20
1.625E+001
 70
0
  0
SEQEND
  0
POLYLINE
  8
1
  6
CONTINUOUS
 62
3
 66
1
 40
1.0E-003
 41
1.0E-003
 70
0
  0
VERTEX
  8
1
 42
0.0
 10
1.3601489E+002
 20
1.925E+001
 70
0
  0
VERTEX
  8
1
 42
0.0
 10
1.3601489E+002
 20
1.725E+001
 70
0
  0
SEQEND
  0
POLYLINE
  8
1
  6
CONTINUOUS
 62
3
 66
1
 40
1.0E-003
 41
1.0E-003
 70
0
  0
VERTEX
  8
1
 42
0.0
 10
1.3601489E+002
 20
1.925E+001
 70
0
  0
VERTEX
  8
1
 42
0.0
 10
1.3877496E+002
 20
2.025E+001
 70
0
  0
SEQEND
  0
POLYLINE
  8
1
  6
CONTINUOUS
 62
3
 66
1
 40
1.0E-003
 41
1.0E-003
 70
0
  0
VERTEX
  8
1
 42
0.0
 10
1.3601489E+002
 20
1.725E+001
 70
0
  0
VERTEX
  8
1
 42
0.0
 10
1.3877496E+002
 20
1.625E+001
 70
0
  0
SEQEND
  0
POLYLINE
  8
1
  6
HIDDEN
 62
3
 66
1
 40
1.0E-003
 41
1.0E-003
 70
0
  0
VERTEX
  8
1
 42
0.0
 10
1.4252081E+002
 20
2.0649994E+001
 70
0
  0
VERTEX
  8
1
 42
0.0
 10
1.4252081E+002
 20
1.5849998E+001
 70
0
  0
SEQEND
  0
POLYLINE
  8
1
  6
HIDDEN
 62
3
 66
1
 40
1.0E-003
 41
1.0E-003
 70
0
  0
VERTEX
  8
1
 42
0.0
 10
1.4492081E+002
 20
1.825E+001
 70
0
  0
VERTEX
  8
1
 42
0.0
 10
1.3581775E+002
 20
1.825E+001
 70
0
  0
SEQEND
  0
TEXT
  8
1
  6
CONTINUOUS
 62
3
 10
5.9224213E+001
 20
2.3520981E+001
 40
2.0
  1
Ersatz fuer:
 41
6.0E-001
  0
TEXT
  8
1
  6
CONTINUOUS
 62
3
 10
5.9224213E+001
 20
1.9296745E+001
 40
2.0
  1
Ers. durch:
 41
6.5308091E-001
  0
TEXT
  8
1
  6
CONTINUOUS
 62
3
 10
5.9096191E+001
 20
1.4944511E+001
 40
2.0
  1
Zust. Stelle:
 41
6.3073385E-001
  0
TEXT
  8
1
  6
CONTINUOUS
 62
3
 10
9.8266327E+001
 20
2.7745209E+001
 40
2.0
  1
Ausgest.:
 41
6.0E-001
  0
TEXT
  8
1
  6
CONTINUOUS
 62
3
 10
9.8138336E+001
 20
2.3648987E+001
 40
2.0
  1
Geprueft:
 41
6.0E-001
  0
TEXT
  8
1
  6
CONTINUOUS
 62
3
 10
9.8138336E+001
 20
1.9424751E+001
 40
2.0
  1
Normgepr.:
 41
6.0E-001
  0
TEXT
  8
1
  6
CONTINUOUS
 62
3
 10
9.8138336E+001
 20
1.5072517E+001
 40
2.0
  1
Freigeg.:
 41
6.0E-001
  0
TEXT
  8
1
  6
CONTINUOUS
 62
3
 10
3.4718704E+001
 20
1.0957314E+001
 40
2.0
  1
Titel:
 41
5.9703E-001
  0
TEXT
  8
1
  6
CONTINUOUS
 62
3
 10
1.3619501E+002
 20
2.7965616E+001
 40
2.0
  1
Massstab
 41
6.0E-001
  0
TEXT
  8
1
  6
CONTINUOUS
 62
3
 10
1.7571872E+002
 20
2.7957314E+001
 40
2.0
  1
Sep.SL anderer Nr.
 41
6.0E-001
  0
TEXT
  8
1
  6
CONTINUOUS
 62
3
 10
1.4721872E+002
 20
1.9457314E+001
 40
2.0
  1
Dok.-Art
 41
6.0E-001
  0
TEXT
  8
1
  6
CONTINUOUS
 62
3
 10
1.5971872E+002
 20
1.9457314E+001
 40
2.0
  1
Format
 41
6.0E-001
  0
TEXT
  8
1
  6
CONTINUOUS
 62
3
 10
1.6971872E+002
 20
1.9457314E+001
 40
2.0
  1
Sprache
 41
6.0E-001
  0
TEXT
  8
1
  6
CONTINUOUS
 62
3
 10
1.8171872E+002
 20
1.9457314E+001
 40
2.0
  1
Bl. Nr.
 41
6.0E-001
  0
TEXT
  8
1
  6
CONTINUOUS
 62
3
 10
1.9221872E+002
 20
1.9457314E+001
 40
2.0
  1
Anz. Bl.
 41
6.0E-001
  0
TEXT
  8
1
  6
CONTINUOUS
 62
3
 10
1.4721872E+002
 20
2.7957314E+001
 40
2.0
  1
Sep.SL gleicher Nr.
 41
6.0E-001
  0
TEXT
  8
1
  6
CONTINUOUS
 62
3
 10
1.472323E+002
 20
2.3457428E+001
 40
2.0
  1
O
 41
6.3E-001
  0
TEXT
  8
1
  6
CONTINUOUS
 62
3
 10
1.486723E+002
 20
2.3457428E+001
 40
2.0
  1
hne sep. Stckl.:
 41
6.3727875E-001
  0
TEXT
  8
1
  6
CONTINUOUS
 62
6
 10
1.7570981E+002
 20
2.3817909E+001
 40
2.0
  1
 
 41
8.1E-001
  0
TEXT
  8
1
  6
CONTINUOUS
 62
3
 10
1.7603071E+002
 20
2.3683216E+001
 40
2.0
  1
Uebern. Stelle:
 41
6.0127615E-001
  0
TEXT
  8
1
  6
CONTINUOUS
 62
3
 10
1.595E+002
 20
1.5E+001
 40
2.5
  1
A
  0
TEXT
  8
1
  6
CONTINUOUS
 62
3
 10
1.645E+002
 20
1.5E+001
 40
2.5
  1
4
  0
TEXT
  8
1
  6
CONTINUOUS
 62
3
 10
1.7312595E+002
 20
1.5027565E+001
 40
2.5
  1
D
  0
TEXT
  8
1
  6
CONTINUOUS
 62
3
 10
1.8441553E+002
 20
1.5027565E+001
 40
2.5
  1
1
  0
TEXT
  8
1
  6
CONTINUOUS
 62
3
 10
1.9647238E+002
 20
1.5027565E+001
 40
2.5
  1
1
  0
TEXT
  8
1
  6
CONTINUOUS
 62
3
 10
5.9352203E+001
 20
2.7617203E+001
 40
2.0
  1
E
 41
6.3E-001
  0
TEXT
  8
1
  6
CONTINUOUS
 62
3
 10
6.0612213E+001
 20
2.7617203E+001
 40
2.0
  1
ntst. aus:
 41
6.09444E-001
  0
POLYLINE
  8
1
  6
CONTINUOUS
 62
3
 66
1
 40
1.0E-003
 41
1.0E-003
 70
0
  0
VERTEX
  8
1
 42
0.0
 10
2.0301865E+001
 20
7.3082472
 70
0
  0
VERTEX
  8
1
 42
0.0
 10
2.1426865E+001
 20
7.3082472
 70
0
  0
SEQEND
  0
POLYLINE
  8
1
  6
CONTINUOUS
 62
3
 66
1
 40
1.0E-003
 41
1.0E-003
 70
0
  0
VERTEX
  8
1
 42
0.0
 10
2.1426865E+001
 20
7.3082472
 70
0
  0
VERTEX
  8
1
 42
0.0
 10
2.1741867E+001
 20
8.2082449
 70
0
  0
SEQEND
  0
POLYLINE
  8
1
  6
CONTINUOUS
 62
3
 66
1
 40
1.0E-003
 41
1.0E-003
 70
0
  0
VERTEX
  8
1
 42
0.0
 10
2.1741867E+001
 20
8.2082449
 70
0
  0
VERTEX
  8
1
 42
0.0
 10
2.2356873E+001
 20
8.2082449
 70
0
  0
SEQEND
  0
POLYLINE
  8
1
  6
CONTINUOUS
 62
3
 66
1
 40
1.0E-003
 41
1.0E-003
 70
0
  0
VERTEX
  8
1
 42
0.0
 10
2.2356873E+001
 20
8.2082449
 70
0
  0
VERTEX
  8
1
 42
0.0
 10
2.2356873E+001
 20
9.3632456
 70
0
  0
SEQEND
  0
POLYLINE
  8
1
  6
CONTINUOUS
 62
3
 66
1
 40
1.0E-003
 41
1.0E-003
 70
0
  0
VERTEX
  8
1
 42
0.0
 10
2.2356873E+001
 20
9.3632456
 70
0
  0
VERTEX
  8
1
 42
0.0
 10
2.1073608E+001
 20
9.3632456
 70
0
  0
SEQEND
  0
POLYLINE
  8
1
  6
CONTINUOUS
 62
3
 66
1
 40
1.0E-003
 41
1.0E-003
 70
0
  0
VERTEX
  8
1
 42
0.0
 10
2.1073608E+001
 20
9.3632456
 70
0
  0
VERTEX
  8
1
 42
0.0
 10
2.0301865E+001
 20
7.3082472
 70
0
  0
SEQEND
  0
POLYLINE
  8
1
  6
CONTINUOUS
 62
3
 66
1
 40
1.0E-003
 41
1.0E-003
 70
0
  0
VERTEX
  8
1
 42
0.0
 10
2.4801865E+001
 20
7.3082472
 70
0
  0
VERTEX
  8
1
 42
0.0
 10
2.3676865E+001
 20
7.3082472
 70
0
  0
SEQEND
  0
POLYLINE
  8
1
  6
CONTINUOUS
 62
3
 66
1
 40
1.0E-003
 41
1.0E-003
 70
0
  0
VERTEX
  8
1
 42
0.0
 10
2.3676865E+001
 20
7.3082472
 70
0
  0
VERTEX
  8
1
 42
0.0
 10
2.3361862E+001
 20
8.2082449
 70
0
  0
SEQEND
  0
POLYLINE
  8
1
  6
CONTINUOUS
 62
3
 66
1
 40
1.0E-003
 41
1.0E-003
 70
0
  0
VERTEX
  8
1
 42
0.0
 10
2.3361862E+001
 20
8.2082449
 70
0
  0
VERTEX
  8
1
 42
0.0
 10
2.2746872E+001
 20
8.2082449
 70
0
  0
SEQEND
  0
POLYLINE
  8
1
  6
CONTINUOUS
 62
3
 66
1
 40
1.0E-003
 41
1.0E-003
 70
0
  0
VERTEX
  8
1
 42
0.0
 10
2.2746872E+001
 20
8.2082449
 70
0
  0
VERTEX
  8
1
 42
0.0
 10
2.2746872E+001
 20
9.3632456
 70
0
  0
SEQEND
  0
POLYLINE
  8
1
  6
CONTINUOUS
 62
3
 66
1
 40
1.0E-003
 41
1.0E-003
 70
0
  0
VERTEX
  8
1
 42
0.0
 10
2.2746872E+001
 20
9.3632456
 70
0
  0
VERTEX
  8
1
 42
0.0
 10
2.4030121E+001
 20
9.3632456
 70
0
  0
SEQEND
  0
POLYLINE
  8
1
  6
CONTINUOUS
 62
3
 66
1
 40
1.0E-003
 41
1.0E-003
 70
0
  0
VERTEX
  8
1
 42
0.0
 10
2.4030121E+001
 20
9.3632456
 70
0
  0
VERTEX
  8
1
 42
0.0
 10
2.4801865E+001
 20
7.3082472
 70
0
  0
SEQEND
  0
POLYLINE
  8
1
  6
CONTINUOUS
 62
3
 66
1
 40
1.0E-003
 41
1.0E-003
 70
0
  0
VERTEX
  8
1
 42
0.0
 10
2.2356873E+001
 20
9.753245
 70
0
  0
VERTEX
  8
1
 42
0.0
 10
2.1105118E+001
 20
9.753245
 70
0
  0
SEQEND
  0
POLYLINE
  8
1
  6
CONTINUOUS
 62
3
 66
1
 40
1.0E-003
 41
1.0E-003
 70
0
  0
VERTEX
  8
1
 42
0.0
 10
2.2356873E+001
 20
1.1808243E+001
 70
0
  0
VERTEX
  8
1
 42
0.0
 10
2.2356873E+001
 20
9.753245
 70
0
  0
SEQEND
  0
POLYLINE
  8
1
  6
CONTINUOUS
 62
3
 66
1
 40
1.0E-003
 41
1.0E-003
 70
0
  0
VERTEX
  8
1
 42
0.0
 10
2.2356873E+001
 20
1.1808243E+001
 70
0
  0
VERTEX
  8
1
 42
0.0
 10
2.1876862E+001
 20
1.1808243E+001
 70
0
  0
SEQEND
  0
POLYLINE
  8
1
  6
CONTINUOUS
 62
3
 66
1
 40
1.0E-003
 41
1.0E-003
 70
0
  0
VERTEX
  8
1
 42
0.0
 10
2.1876862E+001
 20
1.1808243E+001
 70
0
  0
VERTEX
  8
1
 42
0.0
 10
2.1105118E+001
 20
9.753245
 70
0
  0
SEQEND
  0
POLYLINE
  8
1
  6
CONTINUOUS
 62
3
 66
1
 40
1.0E-003
 41
1.0E-003
 70
0
  0
VERTEX
  8
1
 42
0.0
 10
2.2746872E+001
 20
9.753245
 70
0
  0
VERTEX
  8
1
 42
0.0
 10
2.3998611E+001
 20
9.753245
 70
0
  0
SEQEND
  0
POLYLINE
  8
1
  6
CONTINUOUS
 62
3
 66
1
 40
1.0E-003
 41
1.0E-003
 70
0
  0
VERTEX
  8
1
 42
0.0
 10
2.2746872E+001
 20
1.1808243E+001
 70
0
  0
VERTEX
  8
1
 42
0.0
 10
2.2746872E+001
 20
9.753245
 70
0
  0
SEQEND
  0
POLYLINE
  8
1
  6
CONTINUOUS
 62
3
 66
1
 40
1.0E-003
 41
1.0E-003
 70
0
  0
VERTEX
  8
1
 42
0.0
 10
2.2746872E+001
 20
1.1808243E+001
 70
0
  0
VERTEX
  8
1
 42
0.0
 10
2.3226868E+001
 20
1.1808243E+001
 70
0
  0
SEQEND
  0
POLYLINE
  8
1
  6
CONTINUOUS
 62
3
 66
1
 40
1.0E-003
 41
1.0E-003
 70
0
  0
VERTEX
  8
1
 42
0.0
 10
2.3226868E+001
 20
1.1808243E+001
 70
0
  0
VERTEX
  8
1
 42
0.0
 10
2.3998611E+001
 20
9.753245
 70
0
  0
SEQEND
  0
POLYLINE
  8
1
  6
CONTINUOUS
 62
3
 66
1
 40
1.0E-003
 41
1.0E-003
 70
0
  0
VERTEX
  8
1
 42
0.0
 10
2.5116867E+001
 20
9.3632456
 70
0
  0
VERTEX
  8
1
 42
0.0
 10
2.5116867E+001
 20
7.3082472
 70
0
  0
SEQEND
  0
POLYLINE
  8
1
  6
CONTINUOUS
 62
3
 66
1
 40
1.0E-003
 41
1.0E-003
 70
0
  0
VERTEX
  8
1
 42
0.0
 10
2.5116867E+001
 20
7.3082472
 70
0
  0
VERTEX
  8
1
 42
0.0
 10
2.6271881E+001
 20
7.3082472
 70
0
  0
SEQEND
  0
POLYLINE
  8
1
  6
CONTINUOUS
 62
3
 66
1
 40
1.0E-003
 41
1.0E-003
 70
0
  0
VERTEX
  8
1
 42
0.0
 10
2.6271881E+001
 20
9.3632456
 70
0
  0
VERTEX
  8
1
 42
0.0
 10
2.6271881E+001
 20
7.3082472
 70
0
  0
SEQEND
  0
POLYLINE
  8
1
  6
CONTINUOUS
 62
3
 66
1
 40
1.0E-003
 41
1.0E-003
 70
0
  0
VERTEX
  8
1
 42
0.0
 10
2.5116867E+001
 20
9.3632456
 70
0
  0
VERTEX
  8
1
 42
0.0
 10
2.6271881E+001
 20
9.3632456
 70
0
  0
SEQEND
  0
POLYLINE
  8
1
  6
CONTINUOUS
 62
3
 66
1
 40
1.0E-003
 41
1.0E-003
 70
0
  0
VERTEX
  8
1
 42
0.0
 10
2.5116867E+001
 20
9.753245
 70
0
  0
VERTEX
  8
1
 42
0.0
 10
2.6271881E+001
 20
9.753245
 70
0
  0
SEQEND
  0
POLYLINE
  8
1
  6
CONTINUOUS
 62
3
 66
1
 40
1.0E-003
 41
1.0E-003
 70
0
  0
VERTEX
  8
1
 42
0.0
 10
2.5116867E+001
 20
1.1808243E+001
 70
0
  0
VERTEX
  8
1
 42
0.0
 10
2.5116867E+001
 20
9.753245
 70
0
  0
SEQEND
  0
POLYLINE
  8
1
  6
CONTINUOUS
 62
3
 66
1
 40
1.0E-003
 41
1.0E-003
 70
0
  0
VERTEX
  8
1
 42
0.0
 10
2.5116867E+001
 20
1.1808243E+001
 70
0
  0
VERTEX
  8
1
 42
0.0
 10
2.6271881E+001
 20
1.1808243E+001
 70
0
  0
SEQEND
  0
POLYLINE
  8
1
  6
CONTINUOUS
 62
3
 66
1
 40
1.0E-003
 41
1.0E-003
 70
0
  0
VERTEX
  8
1
 42
0.0
 10
2.6271881E+001
 20
1.1808243E+001
 70
0
  0
VERTEX
  8
1
 42
0.0
 10
2.6271881E+001
 20
9.753245
 70
0
  0
SEQEND
  0
POLYLINE
  8
1
  6
CONTINUOUS
 62
3
 66
1
 40
1.0E-003
 41
1.0E-003
 70
0
  0
VERTEX
  8
1
 42
0.0
 10
2.6661865E+001
 20
9.3632456
 70
0
  0
VERTEX
  8
1
 42
0.0
 10
2.6661865E+001
 20
7.3082472
 70
0
  0
SEQEND
  0
POLYLINE
  8
1
  6
CONTINUOUS
 62
3
 66
1
 40
1.0E-003
 41
1.0E-003
 70
0
  0
VERTEX
  8
1
 42
0.0
 10
2.6661865E+001
 20
7.3082472
 70
0
  0
VERTEX
  8
1
 42
0.0
 10
2.691687E+001
 20
7.3082472
 70
0
  0
SEQEND
  0
POLYLINE
  8
1
  6
CONTINUOUS
 62
3
 66
1
 40
1.0E-003
 41
1.0E-003
 70
0
  0
VERTEX
  8
1
 42
0.0
 10
2.6661865E+001
 20
9.3632456
 70
0
  0
VERTEX
  8
1
 42
0.0
 10
2.8068161E+001
 20
9.3632456
 70
0
  0
SEQEND
  0
POLYLINE
  8
1
  6
CONTINUOUS
 62
3
 66
1
 40
1.0E-003
 41
1.0E-003
 70
0
  0
VERTEX
  8
1
 42
0.0
 10
2.6661865E+001
 20
1.1808243E+001
 70
0
  0
VERTEX
  8
1
 42
0.0
 10
2.6661865E+001
 20
9.753245
 70
0
  0
SEQEND
  0
POLYLINE
  8
1
  6
CONTINUOUS
 62
3
 66
1
 40
1.0E-003
 41
1.0E-003
 70
0
  0
VERTEX
  8
1
 42
0.0
 10
2.6661865E+001
 20
9.753245
 70
0
  0
VERTEX
  8
1
 42
0.0
 10
2.7706482E+001
 20
9.753245
 70
0
  0
SEQEND
  0
POLYLINE
  8
1
  6
CONTINUOUS
 62
3
 66
1
 40
1.0E-003
 41
1.0E-003
 70
0
  0
VERTEX
  8
1
 42
0.0
 10
2.6661865E+001
 20
1.1808243E+001
 70
0
  0
VERTEX
  8
1
 42
0.0
 10
2.691687E+001
 20
1.1808243E+001
 70
0
  0
SEQEND
  0
POLYLINE
  8
1
  6
CONTINUOUS
 62
3
 66
1
 40
1.0E-003
 41
1.0E-003
 70
0
  0
VERTEX
  8
1
 42
0.0
 10
2.8626862E+001
 20
9.3632456
 70
0
  0
VERTEX
  8
1
 42
0.0
 10
2.8626862E+001
 20
7.3082472
 70
0
  0
SEQEND
  0
POLYLINE
  8
1
  6
CONTINUOUS
 62
3
 66
1
 40
1.0E-003
 41
1.0E-003
 70
0
  0
VERTEX
  8
1
 42
0.0
 10
2.8626862E+001
 20
7.3082472
 70
0
  0
VERTEX
  8
1
 42
0.0
 10
2.9781876E+001
 20
7.3082472
 70
0
  0
SEQEND
  0
POLYLINE
  8
1
  6
CONTINUOUS
 62
3
 66
1
 40
1.0E-003
 41
1.0E-003
 70
0
  0
VERTEX
  8
1
 42
0.0
 10
2.9781876E+001
 20
9.3632456
 70
0
  0
VERTEX
  8
1
 42
0.0
 10
2.9781876E+001
 20
7.3082472
 70
0
  0
SEQEND
  0
POLYLINE
  8
1
  6
CONTINUOUS
 62
3
 66
1
 40
1.0E-003
 41
1.0E-003
 70
0
  0
VERTEX
  8
1
 42
0.0
 10
2.8626862E+001
 20
9.3632456
 70
0
  0
VERTEX
  8
1
 42
0.0
 10
2.9781876E+001
 20
9.3632456
 70
0
  0
SEQEND
  0
POLYLINE
  8
1
  6
CONTINUOUS
 62
3
 66
1
 40
1.0E-003
 41
1.0E-003
 70
0
  0
VERTEX
  8
1
 42
0.0
 10
2.8626862E+001
 20
1.1808243E+001
 70
0
  0
VERTEX
  8
1
 42
0.0
 10
2.8626862E+001
 20
9.753245
 70
0
  0
SEQEND
  0
POLYLINE
  8
1
  6
CONTINUOUS
 62
3
 66
1
 40
1.0E-003
 41
1.0E-003
 70
0
  0
VERTEX
  8
1
 42
0.0
 10
2.8626862E+001
 20
9.753245
 70
0
  0
VERTEX
  8
1
 42
0.0
 10
2.9781876E+001
 20
9.753245
 70
0
  0
SEQEND
  0
POLYLINE
  8
1
  6
CONTINUOUS
 62
3
 66
1
 40
1.0E-003
 41
1.0E-003
 70
0
  0
VERTEX
  8
1
 42
0.0
 10
2.9781876E+001
 20
1.1808243E+001
 70
0
  0
VERTEX
  8
1
 42
0.0
 10
2.9781876E+001
 20
9.753245
 70
0
  0
SEQEND
  0
POLYLINE
  8
1
  6
CONTINUOUS
 62
3
 66
1
 40
1.0E-003
 41
1.0E-003
 70
0
  0
VERTEX
  8
1
 42
0.0
 10
2.8626862E+001
 20
1.1808243E+001
 70
0
  0
VERTEX
  8
1
 42
0.0
 10
2.9781876E+001
 20
1.1808243E+001
 70
0
  0
SEQEND
  0
POLYLINE
  8
1
  6
CONTINUOUS
 62
3
 66
1
 40
1.0E-003
 41
1.0E-003
 70
0
  0
VERTEX
  8
1
 42
0.0
 10
3.017186E+001
 20
9.3632456
 70
0
  0
VERTEX
  8
1
 42
0.0
 10
3.017186E+001
 20
7.3082472
 70
0
  0
SEQEND
  0
POLYLINE
  8
1
  6
CONTINUOUS
 62
3
 66
1
 40
1.0E-003
 41
1.0E-003
 70
0
  0
VERTEX
  8
1
 42
0.0
 10
3.017186E+001
 20
7.3082472
 70
0
  0
VERTEX
  8
1
 42
0.0
 10
3.0426865E+001
 20
7.3082472
 70
0
  0
SEQEND
  0
POLYLINE
  8
1
  6
CONTINUOUS
 62
3
 66
1
 40
1.0E-003
 41
1.0E-003
 70
0
  0
VERTEX
  8
1
 42
0.0
 10
3.017186E+001
 20
9.3632456
 70
0
  0
VERTEX
  8
1
 42
0.0
 10
3.1578156E+001
 20
9.3632456
 70
0
  0
SEQEND
  0
POLYLINE
  8
1
  6
CONTINUOUS
 62
3
 66
1
 40
1.0E-003
 41
1.0E-003
 70
0
  0
VERTEX
  8
1
 42
0.0
 10
3.017186E+001
 20
1.1808243E+001
 70
0
  0
VERTEX
  8
1
 42
0.0
 10
3.017186E+001
 20
9.753245
 70
0
  0
SEQEND
  0
POLYLINE
  8
1
  6
CONTINUOUS
 62
3
 66
1
 40
1.0E-003
 41
1.0E-003
 70
0
  0
VERTEX
  8
1
 42
0.0
 10
3.017186E+001
 20
9.753245
 70
0
  0
VERTEX
  8
1
 42
0.0
 10
3.1216476E+001
 20
9.753245
 70
0
  0
SEQEND
  0
POLYLINE
  8
1
  6
CONTINUOUS
 62
3
 66
1
 40
1.0E-003
 41
1.0E-003
 70
0
  0
VERTEX
  8
1
 42
0.0
 10
3.017186E+001
 20
1.1808243E+001
 70
0
  0
VERTEX
  8
1
 42
0.0
 10
3.0426865E+001
 20
1.1808243E+001
 70
0
  0
SEQEND
  0
INSERT
  2
XHXH1NEW02NEW00NEW00
  8
1
 10
2.1933228E+001
 20
1.1581771E+001
  0
POLYLINE
  8
1
  6
CONTINUOUS
 62
3
 66
1
 40
1.0E-003
 41
1.0E-003
 70
0
  0
VERTEX
  8
1
 42
1.0
 10
1.4452078E+002
 20
1.825E+001
 70
0
  0
VERTEX
  8
1
 42
1.0
 10
1.4052078E+002
 20
1.825E+001
 70
0
  0
VERTEX
  8
1
 42
0.0
 10
1.4452078E+002
 20
1.825E+001
 70
0
  0
SEQEND
  0
POLYLINE
  8
1
  6
CONTINUOUS
 62
3
 66
1
 40
1.0E-003
 41
1.0E-003
 70
0
  0
VERTEX
  8
1
 42
1.0
 10
1.4352078E+002
 20
1.825E+001
 70
0
  0
VERTEX
  8
1
 42
1.0
 10
1.4152078E+002
 20
1.825E+001
 70
0
  0
VERTEX
  8
1
 42
0.0
 10
1.4352078E+002
 20
1.825E+001
 70
0
  0
SEQEND
  0
POLYLINE
  8
1
  6
CONTINUOUS
 62
3
 66
1
 40
1.0E-003
 41
1.0E-003
 70
0
  0
VERTEX
  8
1
 42
5.8600137E-001
 10
2.691687E+001
 20
7.3082456
 70
0
  0
VERTEX
  8
1
 42
0.0
 10
2.8068163E+001
 20
9.3632459
 70
0
  0
SEQEND
  0
POLYLINE
  8
1
  6
CONTINUOUS
 62
3
 66
1
 40
1.0E-003
 41
1.0E-003
 70
0
  0
VERTEX
  8
1
 42
6.2051509E-002
 10
2.7706476E+001
 20
9.7532445
 70
0
  0
VERTEX
  8
1
 42
0.0
 10
2.7413674E+001
 20
9.9135089
 70
0
  0
SEQEND
  0
POLYLINE
  8
1
  6
CONTINUOUS
 62
3
 66
1
 40
1.0E-003
 41
1.0E-003
 70
0
  0
VERTEX
  8
1
 42
7.7160142E-001
 10
2.7413674E+001
 20
9.9135095
 70
0
  0
VERTEX
  8
1
 42
0.0
 10
2.691687E+001
 20
1.1808246E+001
 70
0
  0
SEQEND
  0
POLYLINE
  8
1
  6
CONTINUOUS
 62
3
 66
1
 40
1.0E-003
 41
1.0E-003
 70
0
  0
VERTEX
  8
1
 42
5.8600137E-001
 10
3.0426865E+001
 20
7.3082456
 70
0
  0
VERTEX
  8
1
 42
0.0
 10
3.1578157E+001
 20
9.3632459
 70
0
  0
SEQEND
  0
POLYLINE
  8
1
  6
CONTINUOUS
 62
3
 66
1
 40
1.0E-003
 41
1.0E-003
 70
0
  0
VERTEX
  8
1
 42
6.2051509E-002
 10
3.1216471E+001
 20
9.7532445
 70
0
  0
VERTEX
  8
1
 42
0.0
 10
3.0923669E+001
 20
9.9135089
 70
0
  0
SEQEND
  0
POLYLINE
  8
1
  6
CONTINUOUS
 62
3
 66
1
 40
1.0E-003
 41
1.0E-003
 70
0
  0
VERTEX
  8
1
 42
7.7160142E-001
 10
3.0923669E+001
 20
9.9135095
 70
0
  0
VERTEX
  8
1
 42
0.0
 10
3.0426865E+001
 20
1.1808246E+001
 70
0
  0
SEQEND
  0
POINT
  8
Drafting_Hidden_Entities
  6
CONTINUOUS
 62
1
 10
0.0
 20
0.0
  0
ENDBLK
  0
BLOCK
  2
*D1189
  3
*D
 10
0.0
 20
0.0
 70
65
  0
LINE
  8
1
  6
CONTINUOUS
 62
3
 10
9.7251738E+001
 20
1.7854493E+002
 11
9.7251738E+001
 21
1.7169383E+002
  0
LINE
  8
1
  6
CONTINUOUS
 62
3
 10
9.1251738E+001
 20
1.6134513E+002
 11
9.1251738E+001
 21
1.7469383E+002
  0
SOLID
  8
1
  6
CONTINUOUS
 62
0
 10
9.7251738E+001
 20
1.7319383E+002
 11
1.0025174E+002
 21
1.7269382E+002
 12
1.0025174E+002
 22
1.7369383E+002
 13
1.0025174E+002
 23
1.7369383E+002
  0
SOLID
  8
1
  6
CONTINUOUS
 62
0
 10
9.1251738E+001
 20
1.7319383E+002
 11
8.8251738E+001
 21
1.7369383E+002
 12
8.8251738E+001
 22
1.7269382E+002
 13
8.8251738E+001
 23
1.7269382E+002
  0
LINE
  8
1
  6
CONTINUOUS
 62
3
 10
1.0325174E+002
 20
1.7319383E+002
 11
9.7251738E+001
 21
1.7319383E+002
  0
LINE
  8
1
  6
CONTINUOUS
 62
3
 10
8.5251738E+001
 20
1.7319383E+002
 11
9.7251738E+001
 21
1.7319383E+002
  0
TEXT
  8
1
  6
CONTINUOUS
 62
3
 10
9.2599645E+001
 20
1.7469483E+002
 40
3.0
  1
6
 41
8.0E-001
 50
3.6E+002
 51
1.0
  0
ENDBLK
  0
BLOCK
  2
*D1207
  3
*D
 10
0.0
 20
0.0
 70
65
  0
LINE
  8
1
  6
CONTINUOUS
 62
4
 10
7.8721748E+001
 20
1.9483343E+002
 11
7.8721748E+001
 21
2.1096083E+002
  0
LINE
  8
1
  6
CONTINUOUS
 62
4
 10
8.6341748E+001
 20
1.9483343E+002
 11
8.6341748E+001
 21
2.1096083E+002
  0
SOLID
  8
1
  6
CONTINUOUS
 62
0
 10
7.8721748E+001
 20
2.0946083E+002
 11
8.1721748E+001
 21
2.0896082E+002
 12
8.1721748E+001
 22
2.0996083E+002
 13
8.1721748E+001
 23
2.0996083E+002
  0
SOLID
  8
1
  6
CONTINUOUS
 62
0
 10
8.6341748E+001
 20
2.0946083E+002
 11
8.3341748E+001
 21
2.0996083E+002
 12
8.3341748E+001
 22
2.0896082E+002
 13
8.3341748E+001
 23
2.0896082E+002
  0
LINE
  8
1
  6
CONTINUOUS
 62
4
 10
8.6341748E+001
 20
2.0946083E+002
 11
7.8721748E+001
 21
2.0946083E+002
  0
LINE
  8
1
  6
CONTINUOUS
 62
4
 10
8.6341748E+001
 20
2.0946083E+002
 11
1.0102032E+002
 21
2.0946083E+002
  0
ENDBLK
  0
BLOCK
  2
*D1211
  3
*D
 10
0.0
 20
0.0
 70
65
  0
LINE
  8
1
  6
CONTINUOUS
 62
4
 10
4.2835478E+001
 20
2.0474503E+002
 11
1.1932879E+002
 21
2.0474503E+002
  0
LINE
  8
1
  6
CONTINUOUS
 62
4
 10
4.2638008E+001
 20
1.5634493E+002
 11
1.1932879E+002
 21
1.5634493E+002
  0
SOLID
  8
1
  6
CONTINUOUS
 62
0
 10
1.1782879E+002
 20
2.0474503E+002
 11
1.1732878E+002
 21
2.0174503E+002
 12
1.1832879E+002
 22
2.0174503E+002
 13
1.1832879E+002
 23
2.0174503E+002
  0
SOLID
  8
1
  6
CONTINUOUS
 62
0
 10
1.1782879E+002
 20
1.5634493E+002
 11
1.1832879E+002
 21
1.5934493E+002
 12
1.1732878E+002
 22
1.5934493E+002
 13
1.1732878E+002
 23
1.5934493E+002
  0
LINE
  8
1
  6
CONTINUOUS
 62
4
 10
1.1782879E+002
 20
2.0474503E+002
 11
1.1782879E+002
 21
1.8046183E+002
  0
LINE
  8
1
  6
CONTINUOUS
 62
4
 10
1.1782879E+002
 20
1.5634493E+002
 11
1.1782879E+002
 21
1.8046183E+002
  0
ENDBLK
  0
BLOCK
  2
*D1225
  3
*D
 10
0.0
 20
0.0
 70
65
  0
LINE
  8
1
  6
CONTINUOUS
 62
4
 10
2.3451728E+001
 20
1.9974513E+002
 11
2.3451728E+001
 21
2.1896083E+002
  0
LINE
  8
1
  6
CONTINUOUS
 62
4
 10
9.1251758E+001
 20
1.9974513E+002
 11
9.1251758E+001
 21
2.1896083E+002
  0
SOLID
  8
1
  6
CONTINUOUS
 62
0
 10
2.3451728E+001
 20
2.1746083E+002
 11
2.6451728E+001
 21
2.1696082E+002
 12
2.6451728E+001
 22
2.1796083E+002
 13
2.6451728E+001
 23
2.1796083E+002
  0
SOLID
  8
1
  6
CONTINUOUS
 62
0
 10
9.1251758E+001
 20
2.1746083E+002
 11
8.8251758E+001
 21
2.1796083E+002
 12
8.8251758E+001
 22
2.1696082E+002
 13
8.8251758E+001
 23
2.1696082E+002
  0
LINE
  8
1
  6
CONTINUOUS
 62
4
 10
2.3451728E+001
 20
2.1746083E+002
 11
5.8827788E+001
 21
2.1746083E+002
  0
LINE
  8
1
  6
CONTINUOUS
 62
4
 10
9.1251758E+001
 20
2.1746083E+002
 11
5.8827788E+001
 21
2.1746083E+002
  0
TEXT
  8
1
  6
CONTINUOUS
 62
4
 10
5.6427788E+001
 20
2.1896183E+002
 40
3.0
  1
68
 41
8.0E-001
 51
1.0
  0
ENDBLK
  0
BLOCK
  2
*E1313
  3
*E1313
 10
4.4551748E+001
 20
2.0084503E+002
 70
65
  0
ARC
  8
1
  6
CONTINUOUS
 62
3
 10
4.4551748E+001
 20
2.0084503E+002
 40
8.0E-001
 50
1.7999999E+002
 51
2.7E+002
  0
ENDBLK
  0
BLOCK
  2
*E1340
  3
*E1340
 10
9.0451738E+001
 20
1.6024503E+002
 70
65
  0
ARC
  8
1
  6
CONTINUOUS
 62
3
 10
9.0451738E+001
 20
1.6024503E+002
 40
8.0E-001
 50
0.0
 51
9.0E+001
  0
ENDBLK
  0
BLOCK
  2
*E1341
  3
*E1341
 10
8.1154008E+001
 20
1.5979723E+002
 70
65
  0
ARC
  8
1
  6
CONTINUOUS
 62
3
 10
8.1154008E+001
 20
1.5979723E+002
 40
3.522591E-001
 50
2.703412E+002
 51
4.59195E+002
  0
ENDBLK
  0
BLOCK
  2
*E1343
  3
*E1343
 10
7.2053998E+001
 20
1.5979723E+002
 70
65
  0
ARC
  8
1
  6
CONTINUOUS
 62
3
 10
7.2053998E+001
 20
1.5979723E+002
 40
3.522591E-001
 50
2.703412E+002
 51
4.59195E+002
  0
ENDBLK
  0
BLOCK
  2
*E1344
  3
*E1344
 10
6.2954008E+001
 20
1.5979723E+002
 70
65
  0
ARC
  8
1
  6
CONTINUOUS
 62
3
 10
6.2954008E+001
 20
1.5979723E+002
 40
3.522591E-001
 50
2.703412E+002
 51
4.59195E+002
  0
ENDBLK
  0
BLOCK
  2
*E1345
  3
*E1345
 10
5.3853998E+001
 20
1.5979723E+002
 70
65
  0
ARC
  8
1
  6
CONTINUOUS
 62
3
 10
5.3853998E+001
 20
1.5979723E+002
 40
3.522591E-001
 50
2.703412E+002
 51
4.59195E+002
  0
ENDBLK
  0
BLOCK
  2
*E1347
  3
*E1347
 10
4.4601738E+001
 20
1.5994503E+002
 70
65
  0
ARC
  8
1
  6
CONTINUOUS
 62
3
 10
4.4601738E+001
 20
1.5994503E+002
 40
5.0E-001
 50
0.0
 51
9.0E+001
  0
ENDBLK
  0
BLOCK
  2
*E1350
  3
*E1350
 10
9.0401748E+001
 20
2.0114503E+002
 70
65
  0
ARC
  8
1
  6
CONTINUOUS
 62
3
 10
9.0401748E+001
 20
2.0114503E+002
 40
5.0E-001
 50
1.7999999E+002
 51
2.7E+002
  0
ENDBLK
  0
BLOCK
  2
*E1354
  3
*E1354
 10
9.0451738E+001
 20
1.6024503E+002
 70
65
  0
ARC
  8
1
  6
CONTINUOUS
 62
3
 10
9.0451738E+001
 20
1.6024503E+002
 40
8.0E-001
 50
0.0
 51
9.0E+001
  0
ENDBLK
  0
BLOCK
  2
*E1355
  3
*E1355
 10
4.4551748E+001
 20
1.6024503E+002
 70
65
  0
ARC
  8
1
  6
CONTINUOUS
 62
3
 10
4.4551748E+001
 20
1.6024503E+002
 40
8.0E-001
 50
2.7E+002
 51
3.6E+002
  0
ENDBLK
  0
BLOCK
  2
*E1357
  3
*E1357
 10
9.0451748E+001
 20
2.0084503E+002
 70
65
  0
ARC
  8
1
  6
CONTINUOUS
 62
3
 10
9.0451748E+001
 20
2.0084503E+002
 40
8.0E-001
 50
9.0E+001
 51
1.7999999E+002
  0
ENDBLK
  0
BLOCK
  2
*D1360
  3
*D
 10
0.0
 20
0.0
 70
65
  0
LINE
  8
1
  6
CONTINUOUS
 62
4
 10
2.7891728E+001
 20
1.9549093E+002
 11
2.7891728E+001
 21
2.1096083E+002
  0
LINE
  8
1
  6
CONTINUOUS
 62
4
 10
3.8051738E+001
 20
1.9540113E+002
 11
3.8051738E+001
 21
2.1096083E+002
  0
SOLID
  8
1
  6
CONTINUOUS
 62
0
 10
2.7891728E+001
 20
2.0946083E+002
 11
3.0891728E+001
 21
2.0896082E+002
 12
3.0891728E+001
 22
2.0996083E+002
 13
3.0891728E+001
 23
2.0996083E+002
  0
SOLID
  8
1
  6
CONTINUOUS
 62
0
 10
3.8051738E+001
 20
2.0946083E+002
 11
3.5051738E+001
 21
2.0996083E+002
 12
3.5051738E+001
 22
2.0896082E+002
 13
3.5051738E+001
 23
2.0896082E+002
  0
LINE
  8
1
  6
CONTINUOUS
 62
4
 10
2.7891728E+001
 20
2.0946083E+002
 11
3.2827788E+001
 21
2.0946083E+002
  0
LINE
  8
1
  6
CONTINUOUS
 62
4
 10
3.8051738E+001
 20
2.0946083E+002
 11
3.2827788E+001
 21
2.0946083E+002
  0
ENDBLK
  0
BLOCK
  2
*D1363
  3
*D
 10
0.0
 20
0.0
 70
65
  0
LINE
  8
1
  6
CONTINUOUS
 62
4
 10
1.8591259E+002
 20
1.9324523E+002
 11
1.9932879E+002
 21
1.9324523E+002
  0
LINE
  8
1
  6
CONTINUOUS
 62
4
 10
1.8591259E+002
 20
1.6784513E+002
 11
1.9932879E+002
 21
1.6784513E+002
  0
SOLID
  8
1
  6
CONTINUOUS
 62
0
 10
1.9782879E+002
 20
1.9324523E+002
 11
1.9732878E+002
 21
1.9024523E+002
 12
1.9832879E+002
 22
1.9024523E+002
 13
1.9832879E+002
 23
1.9024523E+002
  0
SOLID
  8
1
  6
CONTINUOUS
 62
0
 10
1.9782879E+002
 20
1.6784513E+002
 11
1.9832879E+002
 21
1.7084513E+002
 12
1.9732878E+002
 22
1.7084513E+002
 13
1.9732878E+002
 23
1.7084513E+002
  0
LINE
  8
1
  6
CONTINUOUS
 62
4
 10
1.9782879E+002
 20
1.9324523E+002
 11
1.9782879E+002
 21
1.8246183E+002
  0
LINE
  8
1
  6
CONTINUOUS
 62
4
 10
1.9782879E+002
 20
1.6784513E+002
 11
1.9782879E+002
 21
1.8246183E+002
  0
ENDBLK
  0
BLOCK
  2
*D1365
  3
*D
 10
0.0
 20
0.0
 70
65
  0
LINE
  8
1
  6
CONTINUOUS
 62
4
 10
5.8401738E+001
 20
1.9483343E+002
 11
5.8401738E+001
 21
2.1096083E+002
  0
LINE
  8
1
  6
CONTINUOUS
 62
4
 10
6.8561748E+001
 20
1.9483343E+002
 11
6.8561748E+001
 21
2.1096083E+002
  0
SOLID
  8
1
  6
CONTINUOUS
 62
0
 10
5.8401738E+001
 20
2.0946083E+002
 11
6.1401738E+001
 21
2.0896082E+002
 12
6.1401738E+001
 22
2.0996083E+002
 13
6.1401738E+001
 23
2.0996083E+002
  0
SOLID
  8
1
  6
CONTINUOUS
 62
0
 10
6.8561748E+001
 20
2.0946083E+002
 11
6.5561748E+001
 21
2.0996083E+002
 12
6.5561748E+001
 22
2.0896082E+002
 13
6.5561748E+001
 23
2.0896082E+002
  0
LINE
  8
1
  6
CONTINUOUS
 62
4
 10
5.8401738E+001
 20
2.0946083E+002
 11
6.2827788E+001
 21
2.0946083E+002
  0
LINE
  8
1
  6
CONTINUOUS
 62
4
 10
6.8561748E+001
 20
2.0946083E+002
 11
6.2827788E+001
 21
2.0946083E+002
  0
ENDBLK
  0
BLOCK
  2
*D1367
  3
*D
 10
0.0
 20
0.0
 70
65
  0
LINE
  8
1
  6
CONTINUOUS
 62
4
 10
6.8561748E+001
 20
1.9483343E+002
 11
6.8561748E+001
 21
2.1096083E+002
  0
LINE
  8
1
  6
CONTINUOUS
 62
4
 10
7.8721748E+001
 20
1.9483343E+002
 11
7.8721748E+001
 21
2.1096083E+002
  0
SOLID
  8
1
  6
CONTINUOUS
 62
0
 10
6.8561748E+001
 20
2.0946083E+002
 11
7.1561748E+001
 21
2.0896082E+002
 12
7.1561748E+001
 22
2.0996083E+002
 13
7.1561748E+001
 23
2.0996083E+002
  0
SOLID
  8
1
  6
CONTINUOUS
 62
0
 10
7.8721748E+001
 20
2.0946083E+002
 11
7.5721748E+001
 21
2.0996083E+002
 12
7.5721748E+001
 22
2.0896082E+002
 13
7.5721748E+001
 23
2.0896082E+002
  0
LINE
  8
1
  6
CONTINUOUS
 62
4
 10
6.8561748E+001
 20
2.0946083E+002
 11
7.3318717E+001
 21
2.0946083E+002
  0
LINE
  8
1
  6
CONTINUOUS
 62
4
 10
7.8721748E+001
 20
2.0946083E+002
 11
7.3318717E+001
 21
2.0946083E+002
  0
ENDBLK
  0
BLOCK
  2
*D1370
  3
*D
 10
0.0
 20
0.0
 70
65
  0
LINE
  8
1
  6
CONTINUOUS
 62
4
 10
1.8506059E+002
 20
2.0204533E+002
 11
1.8506059E+002
 21
2.1896083E+002
  0
LINE
  8
1
  6
CONTINUOUS
 62
4
 10
1.8906059E+002
 20
1.9524543E+002
 11
1.8906059E+002
 21
2.1896083E+002
  0
SOLID
  8
1
  6
CONTINUOUS
 62
0
 10
1.8506059E+002
 20
2.1746083E+002
 11
1.8206059E+002
 21
2.1796083E+002
 12
1.8206059E+002
 22
2.1696082E+002
 13
1.8206059E+002
 23
2.1696082E+002
  0
SOLID
  8
1
  6
CONTINUOUS
 62
0
 10
1.8906059E+002
 20
2.1746083E+002
 11
1.9206059E+002
 21
2.1696082E+002
 12
1.9206059E+002
 22
2.1796083E+002
 13
1.9206059E+002
 23
2.1796083E+002
  0
LINE
  8
1
  6
CONTINUOUS
 62
4
 10
1.7906059E+002
 20
2.1746083E+002
 11
1.8906059E+002
 21
2.1746083E+002
  0
LINE
  8
1
  6
CONTINUOUS
 62
4
 10
1.8906059E+002
 20
2.1746083E+002
 11
1.9352779E+002
 21
2.1746083E+002
  0
TEXT
  8
1
  6
CONTINUOUS
 62
4
 10
1.8962779E+002
 20
2.1896183E+002
 40
3.0
  1
4
 41
8.0E-001
 51
1.0
  0
ENDBLK
  0
BLOCK
  2
*D1372
  3
*D
 10
0.0
 20
0.0
 70
65
  0
LINE
  8
1
  6
CONTINUOUS
 62
4
 10
1.4056059E+002
 20
1.9854533E+002
 11
1.4056059E+002
 21
2.1096083E+002
  0
LINE
  8
1
  6
CONTINUOUS
 62
4
 10
1.7406059E+002
 20
1.9824533E+002
 11
1.7406059E+002
 21
2.1096083E+002
  0
SOLID
  8
1
  6
CONTINUOUS
 62
0
 10
1.4056059E+002
 20
2.0946083E+002
 11
1.4356059E+002
 21
2.0896082E+002
 12
1.4356059E+002
 22
2.0996083E+002
 13
1.4356059E+002
 23
2.0996083E+002
  0
SOLID
  8
1
  6
CONTINUOUS
 62
0
 10
1.7406059E+002
 20
2.0946083E+002
 11
1.7106059E+002
 21
2.0996083E+002
 12
1.7106059E+002
 22
2.0896082E+002
 13
1.7106059E+002
 23
2.0896082E+002
  0
LINE
  8
1
  6
CONTINUOUS
 62
4
 10
1.4056059E+002
 20
2.0946083E+002
 11
1.5482779E+002
 21
2.0946083E+002
  0
LINE
  8
1
  6
CONTINUOUS
 62
4
 10
1.7406059E+002
 20
2.0946083E+002
 11
1.5482779E+002
 21
2.0946083E+002
  0
ENDBLK
  0
BLOCK
  2
*D1377
  3
*D
 10
0.0
 20
0.0
 70
65
  0
LINE
  8
1
  6
CONTINUOUS
 62
4
 10
3.8051738E+001
 20
1.9540113E+002
 11
3.8051738E+001
 21
2.1096083E+002
  0
LINE
  8
1
  6
CONTINUOUS
 62
4
 10
4.8241748E+001
 20
1.9483343E+002
 11
4.8241748E+001
 21
2.1096083E+002
  0
SOLID
  8
1
  6
CONTINUOUS
 62
0
 10
3.8051738E+001
 20
2.0946083E+002
 11
4.1051738E+001
 21
2.0896082E+002
 12
4.1051738E+001
 22
2.0996083E+002
 13
4.1051738E+001
 23
2.0996083E+002
  0
SOLID
  8
1
  6
CONTINUOUS
 62
0
 10
4.8241748E+001
 20
2.0946083E+002
 11
4.5241748E+001
 21
2.0996083E+002
 12
4.5241748E+001
 22
2.0896082E+002
 13
4.5241748E+001
 23
2.0896082E+002
  0
LINE
  8
1
  6
CONTINUOUS
 62
4
 10
3.8051738E+001
 20
2.0946083E+002
 11
4.2827788E+001
 21
2.0946083E+002
  0
LINE
  8
1
  6
CONTINUOUS
 62
4
 10
4.8241748E+001
 20
2.0946083E+002
 11
4.2827788E+001
 21
2.0946083E+002
  0
ENDBLK
  0
BLOCK
  2
*D1379
  3
*D
 10
0.0
 20
0.0
 70
65
  0
LINE
  8
1
  6
CONTINUOUS
 62
4
 10
1.3756059E+002
 20
2.0164533E+002
 11
1.3756059E+002
 21
2.3496083E+002
  0
LINE
  8
1
  6
CONTINUOUS
 62
4
 10
1.8906059E+002
 20
1.9374543E+002
 11
1.8906059E+002
 21
2.3496083E+002
  0
SOLID
  8
1
  6
CONTINUOUS
 62
0
 10
1.3756059E+002
 20
2.3346083E+002
 11
1.4056059E+002
 21
2.3296082E+002
 12
1.4056059E+002
 22
2.3396083E+002
 13
1.4056059E+002
 23
2.3396083E+002
  0
SOLID
  8
1
  6
CONTINUOUS
 62
0
 10
1.8906059E+002
 20
2.3346083E+002
 11
1.8606059E+002
 21
2.3396083E+002
 12
1.8606059E+002
 22
2.3296082E+002
 13
1.8606059E+002
 23
2.3296082E+002
  0
LINE
  8
1
  6
CONTINUOUS
 62
4
 10
1.3756059E+002
 20
2.3346083E+002
 11
1.6282779E+002
 21
2.3346083E+002
  0
LINE
  8
1
  6
CONTINUOUS
 62
4
 10
1.8906059E+002
 20
2.3346083E+002
 11
1.6282779E+002
 21
2.3346083E+002
  0
ENDBLK
  0
BLOCK
  2
*D1387
  3
*D
 10
0.0
 20
0.0
 70
65
  0
LINE
  8
1
  6
CONTINUOUS
 62
4
 10
1.3756059E+002
 20
2.0164533E+002
 11
1.3756059E+002
 21
2.2696083E+002
  0
LINE
  8
1
  6
CONTINUOUS
 62
4
 10
1.8506059E+002
 20
2.0054533E+002
 11
1.8506059E+002
 21
2.2696083E+002
  0
SOLID
  8
1
  6
CONTINUOUS
 62
0
 10
1.3756059E+002
 20
2.2546083E+002
 11
1.4056059E+002
 21
2.2496082E+002
 12
1.4056059E+002
 22
2.2596083E+002
 13
1.4056059E+002
 23
2.2596083E+002
  0
SOLID
  8
1
  6
CONTINUOUS
 62
0
 10
1.8506059E+002
 20
2.2546083E+002
 11
1.8206059E+002
 21
2.2596083E+002
 12
1.8206059E+002
 22
2.2496082E+002
 13
1.8206059E+002
 23
2.2496082E+002
  0
LINE
  8
1
  6
CONTINUOUS
 62
4
 10
1.3756059E+002
 20
2.2546083E+002
 11
1.6082779E+002
 21
2.2546083E+002
  0
LINE
  8
1
  6
CONTINUOUS
 62
4
 10
1.8506059E+002
 20
2.2546083E+002
 11
1.6082779E+002
 21
2.2546083E+002
  0
ENDBLK
  0
BLOCK
  2
*E1401
  3
*E1401
 10
4.7086378E+001
 20
1.8153823E+002
 70
65
  0
ARC
  8
1
  6
CONTINUOUS
 62
3
 10
4.7086378E+001
 20
1.8153823E+002
 40
6.419031E-002
 50
2.0695312E+002
 51
3.79765E+002
  0
ENDBLK
  0
BLOCK
  2
*E1406
  3
*E1406
 10
5.0775768E+001
 20
1.8242783E+002
 70
65
  0
ARC
  8
1
  6
CONTINUOUS
 62
3
 10
5.0775768E+001
 20
1.8242783E+002
 40
5.0E-001
 50
1.7999999E+002
 51
2.7E+002
  0
ENDBLK
  0
BLOCK
  2
*D1460
  3
*D
 10
0.0
 20
0.0
 70
65
  0
LINE
  8
1
  6
CONTINUOUS
 62
4
 10
8.1801838E+001
 20
2.0164503E+002
 11
1.1132879E+002
 21
2.0164503E+002
  0
LINE
  8
1
  6
CONTINUOUS
 62
4
 10
8.1801838E+001
 20
1.5944503E+002
 11
1.1132879E+002
 21
1.5944503E+002
  0
SOLID
  8
1
  6
CONTINUOUS
 62
0
 10
1.0982879E+002
 20
2.0164503E+002
 11
1.0932878E+002
 21
1.9864503E+002
 12
1.1032879E+002
 22
1.9864503E+002
 13
1.1032879E+002
 23
1.9864503E+002
  0
SOLID
  8
1
  6
CONTINUOUS
 62
0
 10
1.0982879E+002
 20
1.5944503E+002
 11
1.1032879E+002
 21
1.6244503E+002
 12
1.0932878E+002
 22
1.6244503E+002
 13
1.0932878E+002
 23
1.6244503E+002
  0
LINE
  8
1
  6
CONTINUOUS
 62
4
 10
1.0982879E+002
 20
2.0164503E+002
 11
1.0982879E+002
 21
1.8046183E+002
  0
LINE
  8
1
  6
CONTINUOUS
 62
4
 10
1.0982879E+002
 20
1.5944503E+002
 11
1.0982879E+002
 21
1.8046183E+002
  0
TEXT
  8
1
  6
CONTINUOUS
 62
4
 10
1.0832779E+002
 20
1.7806183E+002
 40
3.0
  1
42
 41
8.0E-001
 50
9.0E+001
 51
1.0
  0
ENDBLK
  0
BLOCK
  2
*D1462
  3
*D
 10
0.0
 20
0.0
 70
65
  0
LINE
  8
1
  6
CONTINUOUS
 62
4
 10
4.8241748E+001
 20
1.9483343E+002
 11
4.8241748E+001
 21
2.1096083E+002
  0
LINE
  8
1
  6
CONTINUOUS
 62
4
 10
5.8401738E+001
 20
1.9483343E+002
 11
5.8401738E+001
 21
2.1096083E+002
  0
SOLID
  8
1
  6
CONTINUOUS
 62
0
 10
4.8241748E+001
 20
2.0946083E+002
 11
5.1241748E+001
 21
2.0896082E+002
 12
5.1241748E+001
 22
2.0996083E+002
 13
5.1241748E+001
 23
2.0996083E+002
  0
SOLID
  8
1
  6
CONTINUOUS
 62
0
 10
5.8401738E+001
 20
2.0946083E+002
 11
5.5401738E+001
 21
2.0996083E+002
 12
5.5401738E+001
 22
2.0896082E+002
 13
5.5401738E+001
 23
2.0896082E+002
  0
LINE
  8
1
  6
CONTINUOUS
 62
4
 10
4.8241748E+001
 20
2.0946083E+002
 11
5.2827788E+001
 21
2.0946083E+002
  0
LINE
  8
1
  6
CONTINUOUS
 62
4
 10
5.8401738E+001
 20
2.0946083E+002
 11
5.2827788E+001
 21
2.0946083E+002
  0
ENDBLK
  0
BLOCK
  2
*D1464
  3
*D
 10
0.0
 20
0.0
 70
65
  0
LINE
  8
1
  6
CONTINUOUS
 62
4
 10
1.4056059E+002
 20
1.9854533E+002
 11
1.4056059E+002
 21
2.1896083E+002
  0
LINE
  8
1
  6
CONTINUOUS
 62
4
 10
1.8506059E+002
 20
2.0054533E+002
 11
1.8506059E+002
 21
2.1896083E+002
  0
SOLID
  8
1
  6
CONTINUOUS
 62
0
 10
1.4056059E+002
 20
2.1746083E+002
 11
1.4356059E+002
 21
2.1696082E+002
 12
1.4356059E+002
 22
2.1796083E+002
 13
1.4356059E+002
 23
2.1796083E+002
  0
SOLID
  8
1
  6
CONTINUOUS
 62
0
 10
1.8506059E+002
 20
2.1746083E+002
 11
1.8206059E+002
 21
2.1796083E+002
 12
1.8206059E+002
 22
2.1696082E+002
 13
1.8206059E+002
 23
2.1696082E+002
  0
LINE
  8
1
  6
CONTINUOUS
 62
4
 10
1.4056059E+002
 20
2.1746083E+002
 11
1.5882779E+002
 21
2.1746083E+002
  0
LINE
  8
1
  6
CONTINUOUS
 62
4
 10
1.8506059E+002
 20
2.1746083E+002
 11
1.5882779E+002
 21
2.1746083E+002
  0
ENDBLK
  0
BLOCK
  2
*E1472
  3
*E1472
 10
2.4251718E+001
 20
2.0084503E+002
 70
65
  0
ARC
  8
1
  6
CONTINUOUS
 62
3
 10
2.4251718E+001
 20
2.0084503E+002
 40
8.0E-001
 50
1.8E+002
 51
2.7E+002
  0
ENDBLK
  0
BLOCK
  2
*E1491
  3
*E1491
 10
4.2851598E+001
 20
2.0114503E+002
 70
65
  0
ARC
  8
1
  6
CONTINUOUS
 62
3
 10
4.2851598E+001
 20
2.0114503E+002
 40
5.0E-001
 50
1.8E+002
 51
2.7E+002
  0
ENDBLK
  0
BLOCK
  2
*E1500
  3
*E1500
 10
2.4351688E+001
 20
1.5994483E+002
 70
65
  0
ARC
  8
1
  6
CONTINUOUS
 62
3
 10
2.4351688E+001
 20
1.5994483E+002
 40
5.0E-001
 50
0.0
 51
9.0E+001
  0
ENDBLK
  0
BLOCK
  2
*E1505
  3
*E1505
 10
4.2951608E+001
 20
1.6024483E+002
 70
65
  0
ARC
  8
1
  6
CONTINUOUS
 62
3
 10
4.2951608E+001
 20
1.6024483E+002
 40
8.0E-001
 50
0.0
 51
9.0E+001
  0
ENDBLK
  0
BLOCK
  2
*E1512
  3
*E1512
 10
3.3601658E+001
 20
1.5979483E+002
 70
65
  0
ARC
  8
1
  6
CONTINUOUS
 62
3
 10
3.3601658E+001
 20
1.5979483E+002
 40
3.499298E-001
 50
2.7E+002
 51
4.5E+002
  0
ENDBLK
  0
BLOCK
  2
*E1526
  3
*E1526
 10
3.5351718E+001
 20
1.6004493E+002
 70
65
  0
ARC
  8
1
  6
CONTINUOUS
 62
3
 10
3.5351718E+001
 20
1.6004493E+002
 40
5.0E-001
 50
1.7999999E+002
 51
2.7E+002
  0
ENDBLK
  0
BLOCK
  2
*E1528
  3
*E1528
 10
3.5851718E+001
 20
1.5984493E+002
 70
65
  0
ARC
  8
1
  6
CONTINUOUS
 62
3
 10
3.5851718E+001
 20
1.5984493E+002
 40
1.0
 50
2.7E+002
 51
3.6E+002
  0
ENDBLK
  0
BLOCK
  2
*E1532
  3
*E1532
 10
4.7251598E+001
 20
1.5824493E+002
 70
65
  0
ARC
  8
1
  6
CONTINUOUS
 62
3
 10
4.7251598E+001
 20
1.5824493E+002
 40
5.0E-001
 50
0.0
 51
9.0E+001
  0
ENDBLK
  0
BLOCK
  2
*E1535
  3
*E1535
 10
3.5851718E+001
 20
1.5984493E+002
 70
65
  0
ARC
  8
1
  6
CONTINUOUS
 62
3
 10
3.5851718E+001
 20
1.5984493E+002
 40
3.5
 50
2.6713405E+002
 51
3.690153E+002
  0
ENDBLK
  0
BLOCK
  2
*E1536
  3
*E1536
 10
3.1856728E+001
 20
1.6004493E+002
 70
65
  0
ARC
  8
1
  6
CONTINUOUS
 62
3
 10
3.1856728E+001
 20
1.6004493E+002
 40
5.0E-001
 50
8.71341E+001
 51
1.7999999E+002
  0
ENDBLK
  0
BLOCK
  2
*E1555
  3
*E1555
 10
4.4251718E+001
 20
2.0114523E+002
 70
65
  0
ARC
  8
1
  6
CONTINUOUS
 62
3
 10
4.4251718E+001
 20
2.0114523E+002
 40
5.0E-001
 50
1.8E+002
 51
2.7E+002
  0
ENDBLK
  0
BLOCK
  2
*E1556
  3
*E1556
 10
4.0751718E+001
 20
2.0214523E+002
 70
65
  0
ARC
  8
1
  6
CONTINUOUS
 62
3
 10
4.0751718E+001
 20
2.0214523E+002
 40
5.0E-001
 50
0.0
 51
9.0E+001
  0
ENDBLK
  0
BLOCK
  2
*E1577
  3
*E1577
 10
4.8535008E+001
 20
1.7904483E+002
 70
65
  0
ARC
  8
1
  6
CONTINUOUS
 62
3
 10
4.8535008E+001
 20
1.7904483E+002
 40
5.0E-001
 50
0.0
 51
1.050002E+002
  0
ENDBLK
  0
BLOCK
  2
*E1602
  3
*E1602
 10
1.5946059E+002
 20
1.6094523E+002
 70
65
  0
ARC
  8
1
  6
CONTINUOUS
 62
3
 10
1.5946059E+002
 20
1.6094523E+002
 40
5.0E-001
 50
2.7E+002
 51
3.6E+002
  0
ENDBLK
  0
BLOCK
  2
*E1655
  3
*E1655
 10
1.7806059E+002
 20
1.9174523E+002
 70
65
  0
ARC
  8
1
  6
HIDDEN
 62
3
 10
1.7806059E+002
 20
1.9174523E+002
 40
1.0
 50
1.7999998E+002
 51
2.7E+002
  0
ENDBLK
  0
BLOCK
  2
*E1656
  3
*E1656
 10
1.7806059E+002
 20
1.9474523E+002
 70
65
  0
ARC
  8
1
  6
HIDDEN
 62
3
 10
1.7806059E+002
 20
1.9474523E+002
 40
1.0
 50
2.7E+002
 51
3.6E+002
  0
ENDBLK
  0
BLOCK
  2
*E1660
  3
*E1660
 10
1.7806059E+002
 20
1.6634513E+002
 70
65
  0
ARC
  8
1
  6
HIDDEN
 62
3
 10
1.7806059E+002
 20
1.6634513E+002
 40
1.0
 50
1.7999998E+002
 51
2.7E+002
  0
ENDBLK
  0
BLOCK
  2
*E1661
  3
*E1661
 10
1.7806059E+002
 20
1.6934513E+002
 70
65
  0
ARC
  8
1
  6
HIDDEN
 62
3
 10
1.7806059E+002
 20
1.6934513E+002
 40
1.0
 50
2.7E+002
 51
3.6E+002
  0
ENDBLK
  0
BLOCK
  2
*E1717
  3
*E
 10
0.0
 20
0.0
 70
65
  0
CIRCLE
  8
1
  6
CONTINUOUS
 62
3
 10
0.0
 20
0.0
 40
1.0
  0
ENDBLK
  0
BLOCK
  2
*E1718
  3
*E
 10
0.0
 20
0.0
 70
65
  0
CIRCLE
  8
1
  6
CONTINUOUS
 62
3
 10
0.0
 20
0.0
 40
1.0
  0
ENDBLK
  0
BLOCK
  2
*E1719
  3
*E
 10
0.0
 20
0.0
 70
65
  0
CIRCLE
  8
1
  6
CONTINUOUS
 62
3
 10
0.0
 20
0.0
 40
1.0
  0
ENDBLK
  0
BLOCK
  2
*E1720
  3
*E
 10
0.0
 20
0.0
 70
65
  0
CIRCLE
  8
1
  6
CONTINUOUS
 62
3
 10
0.0
 20
0.0
 40
1.0
  0
ENDBLK
  0
BLOCK
  2
*E1721
  3
*E
 10
0.0
 20
0.0
 70
65
  0
CIRCLE
  8
1
  6
CONTINUOUS
 62
3
 10
0.0
 20
0.0
 40
1.0
  0
ENDBLK
  0
ENDSEC
  0
SECTION
  2
ENTITIES
  0
INSERT
  2
RAHMENA4
  8
1
 10
0.0
 20
0.0
  0
POLYLINE
  8
1
  6
CONTINUOUS
 62
3
 66
1
 40
5.0E-001
 41
5.0E-001
 70
0
  0
VERTEX
  8
1
 42
4.5162701E-002
 10
1.4038097E+002
 20
1.940614E+002
 70
0
  0
VERTEX
  8
1
 42
0.0
 10
1.4056051E+002
 20
1.9304502E+002
 70
0
  0
SEQEND
  0
POLYLINE
  8
1
  6
CONTINUOUS
 62
3
 66
1
 40
5.0E-001
 41
5.0E-001
 70
0
  0
VERTEX
  8
1
 42
5.549069E-002
 10
1.3926842E+002
 20
1.9624497E+002
 70
0
  0
VERTEX
  8
1
 42
0.0
 10
1.3956057E+002
 20
1.9671474E+002
 70
0
  0
SEQEND
  0
POLYLINE
  8
1
  6
CONTINUOUS
 62
3
 66
1
 40
5.0E-001
 41
5.0E-001
 70
0
  0
VERTEX
  8
1
 42
0.0
 10
1.3965889E+002
 20
1.6264503E+002
 70
0
  0
VERTEX
  8
1
 42
0.0
 10
1.3756059E+002
 20
1.6208273E+002
 70
0
  0
SEQEND
  0
ARC
  8
1
  6
PHANTOM
 62
4
 10
1.3456059E+002
 20
1.6854503E+002
 40
5.0E-001
 50
1.8E+002
 51
2.7E+002
  0
ARC
  8
1
  6
PHANTOM
 62
4
 10
1.3906059E+002
 20
1.6654503E+002
 40
5.0E-001
 50
0.0
 51
9.0E+001
  0
ARC
  8
1
  6
PHANTOM
 62
4
 10
1.3486059E+002
 20
1.6884503E+002
 40
1.8
 50
1.8E+002
 51
2.7E+002
  0
POLYLINE
  8
1
  6
CONTINUOUS
 62
3
 66
1
 40
5.0E-001
 41
5.0E-001
 70
0
  0
VERTEX
  8
1
 42
0.0
 10
1.3926839E+002
 20
1.9624493E+002
 70
0
  0
VERTEX
  8
1
 42
0.0
 10
1.3756059E+002
 20
1.9624493E+002
 70
0
  0
SEQEND
  0
POLYLINE
  8
1
  6
CONTINUOUS
 62
3
 66
1
 40
5.0E-001
 41
5.0E-001
 70
0
  0
VERTEX
  8
1
 42
0.0
 10
1.3756059E+002
 20
1.9908093E+002
 70
0
  0
VERTEX
  8
1
 42
0.0
 10
1.3756059E+002
 20
1.9624493E+002
 70
0
  0
SEQEND
  0
POLYLINE
  8
1
  6
CONTINUOUS
 62
3
 66
1
 40
5.0E-001
 41
5.0E-001
 70
0
  0
VERTEX
  8
1
 42
1.6286034E-001
 10
1.3766127E+002
 20
1.6265723E+002
 70
0
  0
VERTEX
  8
1
 42
0.0
 10
1.3756059E+002
 20
1.6235633E+002
 70
0
  0
SEQEND
  0
POLYLINE
  8
1
  6
CONTINUOUS
 62
3
 66
1
 40
5.0E-001
 41
5.0E-001
 70
0
  0
VERTEX
  8
1
 42
0.0
 10
1.3965889E+002
 20
1.6264503E+002
 70
0
  0
VERTEX
  8
1
 42
0.0
 10
1.4056059E+002
 20
1.6264503E+002
 70
0
  0
SEQEND
  0
POLYLINE
  8
1
  6
CONTINUOUS
 62
3
 66
1
 40
5.0E-001
 41
5.0E-001
 70
0
  0
VERTEX
  8
1
 42
0.0
 10
1.4055869E+002
 20
1.6304503E+002
 70
0
  0
VERTEX
  8
1
 42
0.0
 10
1.3965889E+002
 20
1.6304503E+002
 70
0
  0
SEQEND
  0
POLYLINE
  8
1
  6
CONTINUOUS
 62
3
 66
1
 40
5.0E-001
 41
5.0E-001
 70
0
  0
VERTEX
  8
1
 42
0.0
 10
1.4056059E+002
 20
1.9804493E+002
 70
0
  0
VERTEX
  8
1
 42
0.0
 10
1.3996059E+002
 20
1.9804493E+002
 70
0
  0
SEQEND
  0
POLYLINE
  8
1
  6
CONTINUOUS
 62
3
 66
1
 40
5.0E-001
 41
5.0E-001
 70
0
  0
VERTEX
  8
1
 42
0.0
 10
1.3956059E+002
 20
1.6343803E+002
 70
0
  0
VERTEX
  8
1
 42
0.0
 10
1.3928369E+002
 20
1.6454503E+002
 70
0
  0
SEQEND
  0
POLYLINE
  8
1
  6
CONTINUOUS
 62
3
 66
1
 40
5.0E-001
 41
5.0E-001
 70
0
  0
VERTEX
  8
1
 42
0.0
 10
1.4056059E+002
 20
1.6454503E+002
 70
0
  0
VERTEX
  8
1
 42
0.0
 10
1.4055759E+002
 20
1.6454503E+002
 70
0
  0
SEQEND
  0
ARC
  8
1
  6
PHANTOM
 62
4
 10
1.3906059E+002
 20
1.9454503E+002
 40
5.0E-001
 50
2.7E+002
 51
3.6E+002
  0
ARC
  8
1
  6
PHANTOM
 62
4
 10
1.3876059E+002
 20
1.6624503E+002
 40
1.8
 50
0.0
 51
9.0E+001
  0
POLYLINE
  8
1
  6
CONTINUOUS
 62
3
 66
1
 40
5.0E-001
 41
5.0E-001
 70
0
  0
VERTEX
  8
1
 42
0.0
 10
1.4056049E+002
 20
1.9698433E+002
 70
0
  0
VERTEX
  8
1
 42
0.0
 10
1.4056059E+002
 20
1.9698433E+002
 70
0
  0
SEQEND
  0
POLYLINE
  8
1
  6
CONTINUOUS
 62
3
 66
1
 40
5.0E-001
 41
5.0E-001
 70
0
  0
VERTEX
  8
1
 42
0.0
 10
1.3908379E+002
 20
1.6454503E+002
 70
0
  0
VERTEX
  8
1
 42
0.0
 10
1.3766119E+002
 20
1.6265723E+002
 70
0
  0
SEQEND
  0
POLYLINE
  8
1
  6
CONTINUOUS
 62
3
 66
1
 40
5.0E-001
 41
5.0E-001
 70
0
  0
VERTEX
  8
1
 42
0.0
 10
1.4055859E+002
 20
1.6304493E+002
 70
0
  0
VERTEX
  8
1
 42
0.0
 10
1.4055869E+002
 20
1.6304493E+002
 70
0
  0
SEQEND
  0
POLYLINE
  8
1
  6
CONTINUOUS
 62
3
 66
1
 40
5.0E-001
 41
5.0E-001
 70
0
  0
VERTEX
  8
1
 42
0.0
 10
1.3928369E+002
 20
1.6454503E+002
 70
0
  0
VERTEX
  8
1
 42
0.0
 10
1.3908379E+002
 20
1.6454503E+002
 70
0
  0
SEQEND
  0
LINE
  8
1
  6
PHANTOM
 62
4
 10
1.3956059E+002
 20
1.9454503E+002
 11
1.3956059E+002
 21
1.9804503E+002
  0
TEXT
  8
1
  6
CONTINUOUS
 62
4
 10
1.3737746E+002
 20
2.3879044E+001
 40
3.5
  1
1:1
 41
6.2085333E-001
  0
DIMENSION
  8
1
  6
CONTINUOUS
 62
3
  2
*D1189
  3
DSTYLE1
 10
9.1251738E+001
 20
1.7319383E+002
 11
9.3799645E+001
 21
1.7619483E+002
 70
128
 13
9.7251738E+001
 23
1.7854493E+002
 14
9.1251738E+001
 24
1.6134513E+002
 40
1.25E-001
 50
0.0
  0
LINE
  8
1
  6
CONTINUOUS
 62
4
 10
9.4144198E+001
 20
1.8150453E+002
 11
1.1618519E+002
 21
2.4762743E+002
  0
LINE
  8
1
  6
CONTINUOUS
 62
4
 10
1.3347309E+002
 20
1.7065463E+002
 11
1.1791469E+002
 21
1.2377489E+002
  0
LINE
  8
1
  6
CONTINUOUS
 62
4
 10
4.8288038E+001
 20
1.8048093E+002
 11
2.5974098E+001
 21
1.1046842E+002
  0
LINE
  8
1
  6
CONTINUOUS
 62
4
 10
7.6922883E+001
 20
2.4762743E+002
 11
1.1618519E+002
 21
2.4762743E+002
  0
LINE
  8
1
  6
PHANTOM
 62
4
 10
1.3486059E+002
 20
1.9404503E+002
 11
1.3906059E+002
 21
1.9404503E+002
  0
LINE
  8
1
  6
PHANTOM
 62
4
 10
1.3456059E+002
 20
1.6804503E+002
 11
1.3876059E+002
 21
1.6804503E+002
  0
LINE
  8
1
  6
PHANTOM
 62
4
 10
1.3456059E+002
 20
1.9304503E+002
 11
1.3876059E+002
 21
1.9304503E+002
  0
LINE
  8
1
  6
PHANTOM
 62
4
 10
1.3486059E+002
 20
1.6704503E+002
 11
1.3906059E+002
 21
1.6704503E+002
  0
POLYLINE
  8
1
  6
CONTINUOUS
 62
3
 66
1
 40
5.0E-001
 41
5.0E-001
 70
0
  0
VERTEX
  8
1
 42
0.0
 10
1.5616059E+002
 20
2.0314503E+002
 70
0
  0
VERTEX
  8
1
 42
0.0
 10
1.5616059E+002
 20
2.0164503E+002
 70
0
  0
SEQEND
  0
POLYLINE
  8
1
  6
CONTINUOUS
 62
3
 66
1
 40
5.0E-001
 41
5.0E-001
 70
0
  0
VERTEX
  8
1
 42
0.0
 10
1.5906059E+002
 20
2.0314503E+002
 70
0
  0
VERTEX
  8
1
 42
0.0
 10
1.5616059E+002
 20
2.0314503E+002
 70
0
  0
SEQEND
  0
POLYLINE
  8
1
  6
CONTINUOUS
 62
3
 66
1
 40
5.0E-001
 41
5.0E-001
 70
0
  0
VERTEX
  8
1
 42
0.0
 10
1.5906059E+002
 20
2.0294503E+002
 70
0
  0
VERTEX
  8
1
 42
0.0
 10
1.5616059E+002
 20
2.0294503E+002
 70
0
  0
SEQEND
  0
POLYLINE
  8
1
  6
CONTINUOUS
 62
3
 66
1
 40
5.0E-001
 41
5.0E-001
 70
0
  0
VERTEX
  8
1
 42
0.0
 10
1.5906059E+002
 20
2.0184503E+002
 70
0
  0
VERTEX
  8
1
 42
0.0
 10
1.5616059E+002
 20
2.0184503E+002
 70
0
  0
SEQEND
  0
LINE
  8
1
  6
PHANTOM
 62
4
 10
1.3956059E+002
 20
1.6654503E+002
 11
1.3956059E+002
 21
1.6304503E+002
  0
POLYLINE
  8
1
  6
HIDDEN
 62
3
 66
1
 40
5.0E-001
 41
5.0E-001
 70
0
  0
VERTEX
  8
1
 42
0.0
 10
9.7251738E+001
 20
1.7854503E+002
 70
0
  0
VERTEX
  8
1
 42
0.0
 10
9.7251738E+001
 20
1.8254503E+002
 70
0
  0
SEQEND
  0
TEXT
  8
1
  6
CONTINUOUS
 62
4
 10
3.1014562E+001
 20
1.1226101E+002
 40
3.0
  1
Schaltstellungsanzeige
 41
8.0672693E-001
  0
TEXT
  8
1
  6
CONTINUOUS
 62
4
 10
1.2746479E+002
 20
6.7265519E+001
 40
3.0
  1
Massaenderungen vorbehalten !
 41
8.3323629E-001
  0
TEXT
  8
1
  6
CONTINUOUS
 62
4
 10
9.2324346E+001
 20
2.1051038E+002
 40
2.7
  1
7,62
 41
7.0E-001
  0
DIMENSION
  8
1
  6
CONTINUOUS
 62
4
  1
       
  2
*D1207
  3
DSTYLE1
 10
8.6341748E+001
 20
2.0946083E+002
 11
8.9092504E+001
 21
2.1246183E+002
 70
128
 13
7.8721748E+001
 23
1.9483343E+002
 14
8.6341748E+001
 24
1.9483343E+002
 40
1.25E-001
 50
0.0
  0
LINE
  8
1
  6
CONTINUOUS
 62
4
 10
1.1791469E+002
 20
1.2377489E+002
 11
1.7664816E+002
 21
1.2377489E+002
  0
LINE
  8
1
  6
CONTINUOUS
 62
4
 10
2.5974098E+001
 20
1.1046842E+002
 11
1.024829E+002
 21
1.1046842E+002
  0
TEXT
  8
1
  6
CONTINUOUS
 62
4
 10
1.165594E+002
 20
1.7390396E+002
 40
3.0
  1
48,5
 41
8.0E-001
 50
9.0E+001
  0
DIMENSION
  8
1
  6
CONTINUOUS
 62
4
  1
       
  2
*D1211
  3
DSTYLE1
 10
1.1782879E+002
 20
1.5634493E+002
 11
1.1482779E+002
 21
1.8046183E+002
 70
128
 13
4.2835478E+001
 23
2.0474503E+002
 14
4.2638008E+001
 24
1.5634493E+002
 40
1.25E-001
 50
9.0E+001
  0
TEXT
  8
1
  6
CONTINUOUS
 62
4
 10
1.4468918E+002
 20
1.1067972E+001
 40
2.2
  1
B6/K6/BC6/KC6/B7/BC7-P+CA6-P
 41
8.0E-001
 72
1
 11
1.2004918E+002
 21
1.1067972E+001
  0
TEXT
  8
1
  6
CONTINUOUS
 62
4
 10
1.0995899E+002
 20
2.7652868E+001
 40
2.4
  1
15.4.85  Dietzel
 41
6.0E-001
  0
TEXT
  8
1
  6
CONTINUOUS
 62
4
 10
1.5030281E+002
 20
7.448509
 40
5.0
  1
GJL 120 0409
 41
8.0E-001
  0
TEXT
  8
1
  6
CONTINUOUS
 62
4
 10
1.7111482E+002
 20
2.3002749E+001
 40
2.5
  1
X
 41
1.066667
  0
TEXT
  8
1
  6
CONTINUOUS
 62
4
 10
7.5817721E+001
 20
1.4897018E+001
 40
2.5
  1
STO/CLD
 41
1.083333
  0
POLYLINE
  8
1
  6
HIDDEN
 62
3
 66
1
 40
5.0E-001
 41
5.0E-001
 70
0
  0
VERTEX
  8
1
 42
0.0
 10
9.7251738E+001
 20
1.8254503E+002
 70
0
  0
VERTEX
  8
1
 42
0.0
 10
9.1251738E+001
 20
1.8254503E+002
 70
0
  0
SEQEND
  0
POLYLINE
  8
1
  6
HIDDEN
 62
3
 66
1
 40
5.0E-001
 41
5.0E-001
 70
0
  0
VERTEX
  8
1
 42
0.0
 10
9.7251738E+001
 20
1.7854503E+002
 70
0
  0
VERTEX
  8
1
 42
0.0
 10
9.1251738E+001
 20
1.7854503E+002
 70
0
  0
SEQEND
  0
TEXT
  8
1
  6
CONTINUOUS
 62
4
 10
1.104528E+002
 20
2.3373164E+001
 40
2.4
  1
2.8.04 SteFei
 41
6.0E-001
  0
TEXT
  8
1
  6
CONTINUOUS
 62
4
 10
1.106174E+002
 20
1.497836E+001
 40
2.4
  1
2.8.04 GuNi
 41
6.0E-001
  0
POLYLINE
  8
1
  6
CONTINUOUS
 62
3
 66
1
 40
5.0E-001
 41
5.0E-001
 70
0
  0
VERTEX
  8
1
 42
0.0
 10
1.5906059E+002
 20
1.5924493E+002
 70
0
  0
VERTEX
  8
1
 42
0.0
 10
1.5616059E+002
 20
1.5924493E+002
 70
0
  0
SEQEND
  0
POLYLINE
  8
1
  6
CONTINUOUS
 62
3
 66
1
 40
5.0E-001
 41
5.0E-001
 70
0
  0
VERTEX
  8
1
 42
0.0
 10
1.5906059E+002
 20
1.5814503E+002
 70
0
  0
VERTEX
  8
1
 42
0.0
 10
1.5616059E+002
 20
1.5814503E+002
 70
0
  0
SEQEND
  0
POLYLINE
  8
1
  6
CONTINUOUS
 62
3
 66
1
 40
5.0E-001
 41
5.0E-001
 70
0
  0
VERTEX
  8
1
 42
0.0
 10
1.5906059E+002
 20
1.5794503E+002
 70
0
  0
VERTEX
  8
1
 42
0.0
 10
1.5616059E+002
 20
1.5794503E+002
 70
0
  0
SEQEND
  0
POLYLINE
  8
1
  6
CONTINUOUS
 62
3
 66
1
 40
5.0E-001
 41
5.0E-001
 70
0
  0
VERTEX
  8
1
 42
0.0
 10
1.5616059E+002
 20
1.5794503E+002
 70
0
  0
VERTEX
  8
1
 42
0.0
 10
1.5616059E+002
 20
1.5944503E+002
 70
0
  0
SEQEND
  0
DIMENSION
  8
1
  6
CONTINUOUS
 62
4
  2
*D1225
  3
DSTYLE2
 10
9.1251758E+001
 20
2.1746083E+002
 11
5.8827788E+001
 21
2.2046183E+002
 70
128
 13
2.3451728E+001
 23
1.9974513E+002
 14
9.1251758E+001
 24
1.9974513E+002
 40
1.25E-001
 50
0.0
  0
LINE
  8
1
  6
CONTINUOUS
 62
4
 10
3.5851718E+001
 20
1.5634493E+002
 11
4.2637908E+001
 21
1.5634493E+002
  0
TEXT
  8
1
  6
CONTINUOUS
 62
4
 10
2.6737236E+001
 20
2.7413765E+001
 40
2.5
  1
b
 41
8.666667E-001
  0
ARC
  8
1
  6
PHANTOM
 62
4
 10
1.3456059E+002
 20
1.9254503E+002
 40
5.0E-001
 50
9.0E+001
 51
1.8E+002
  0
TEXT
  8
1
  6
CONTINUOUS
 62
4
 10
7.8100145E+001
 20
2.4969585E+002
 40
3.0
  1
Handbetaetigung
 41
8.0E-001
  0
POLYLINE
  8
1
  6
CONTINUOUS
 62
3
 66
1
 40
5.0E-001
 41
5.0E-001
 70
0
  0
VERTEX
  8
1
 42
0.0
 10
1.3956059E+002
 20
1.6304503E+002
 70
0
  0
VERTEX
  8
1
 42
0.0
 10
1.4056059E+002
 20
1.6304503E+002
 70
0
  0
SEQEND
  0
ARC
  8
1
  6
PHANTOM
 62
4
 10
1.3876059E+002
 20
1.9484503E+002
 40
1.8
 50
2.7E+002
 51
3.6E+002
  0
POLYLINE
  8
1
  6
CONTINUOUS
 62
3
 66
1
 40
5.0E-001
 41
5.0E-001
 70
0
  0
VERTEX
  8
1
 42
0.0
 10
1.4056059E+002
 20
1.9804503E+002
 70
0
  0
VERTEX
  8
1
 42
0.0
 10
1.3956059E+002
 20
1.9804503E+002
 70
0
  0
SEQEND
  0
TEXT
  8
1
  6
CONTINUOUS
 62
4
 10
3.3866636E+001
 20
2.7716695E+001
 40
2.2
  1
JL 121 013
 41
6.0E-001
  0
LINE
  8
1
  6
PHANTOM
 62
4
 10
1.3406059E+002
 20
1.6854503E+002
 11
1.3406059E+002
 21
1.9254503E+002
  0
LINE
  8
1
  6
PHANTOM
 62
4
 10
1.3306059E+002
 20
1.6884503E+002
 11
1.3306059E+002
 21
1.9224503E+002
  0
TEXT
  8
1
  6
CONTINUOUS
 62
4
 10
1.2435529E+002
 20
1.2543206E+002
 40
3.0
  1
Hutschiene 35 EN50022
 41
8.0E-001
  0
TEXT
  8
1
  6
CONTINUOUS
 62
4
 10
7.7445573E+001
 20
7.229435
 40
4.5
  1
Massbild
 41
8.9370686E-001
 72
1
 11
6.135885E+001
 21
7.229435
  0
ARC
  8
1
  6
PHANTOM
 62
4
 10
1.3486059E+002
 20
1.9224503E+002
 40
1.8
 50
9.0E+001
 51
1.8E+002
  0
POLYLINE
  8
1
  6
CONTINUOUS
 62
3
 66
1
 40
5.0E-001
 41
5.0E-001
 70
0
  0
VERTEX
  8
1
 42
0.0
 10
9.1251738E+001
 20
1.6024503E+002
 70
0
  0
VERTEX
  8
1
 42
0.0
 10
9.1251738E+001
 20
1.8054503E+002
 70
0
  0
SEQEND
  0
POLYLINE
  8
1
  6
CONTINUOUS
 62
3
 66
1
 40
5.0E-001
 41
5.0E-001
 70
0
  0
VERTEX
  8
1
 42
0.0
 10
4.4701738E+001
 20
1.7799503E+002
 70
0
  0
VERTEX
  8
1
 42
0.0
 10
4.4701738E+001
 20
1.7854483E+002
 70
0
  0
SEQEND
  0
POLYLINE
  8
1
  6
CONTINUOUS
 62
3
 66
1
 40
5.0E-001
 41
5.0E-001
 70
0
  0
VERTEX
  8
1
 42
0.0
 10
5.3669728E+001
 20
1.7799503E+002
 70
0
  0
VERTEX
  8
1
 42
0.0
 10
4.4651588E+001
 20
1.7799503E+002
 70
0
  0
SEQEND
  0
POLYLINE
  8
1
  6
CONTINUOUS
 62
3
 66
1
 40
5.0E-001
 41
5.0E-001
 70
0
  0
VERTEX
  8
1
 42
0.0
 10
9.1251738E+001
 20
1.6044503E+002
 70
0
  0
VERTEX
  8
1
 42
0.0
 10
8.9901728E+001
 20
1.6044503E+002
 70
0
  0
SEQEND
  0
POLYLINE
  8
1
  6
CONTINUOUS
 62
3
 66
1
 40
5.0E-001
 41
5.0E-001
 70
0
  0
VERTEX
  8
1
 42
0.0
 10
9.0451738E+001
 20
1.5944503E+002
 70
0
  0
VERTEX
  8
1
 42
0.0
 10
9.0401728E+001
 20
1.5944503E+002
 70
0
  0
SEQEND
  0
POLYLINE
  8
1
  6
CONTINUOUS
 62
3
 66
1
 40
5.0E-001
 41
5.0E-001
 70
0
  0
VERTEX
  8
1
 42
0.0
 10
6.9001738E+001
 20
1.5924503E+002
 70
0
  0
VERTEX
  8
1
 42
0.0
 10
6.9001738E+001
 20
1.5944503E+002
 70
0
  0
SEQEND
  0
POLYLINE
  8
1
  6
CONTINUOUS
 62
3
 66
1
 40
5.0E-001
 41
5.0E-001
 70
0
  0
VERTEX
  8
1
 42
0.0
 10
7.0001738E+001
 20
1.5944503E+002
 70
0
  0
VERTEX
  8
1
 42
0.0
 10
6.5001738E+001
 20
1.5944503E+002
 70
0
  0
SEQEND
  0
POLYLINE
  8
1
  6
CONTINUOUS
 62
3
 66
1
 40
5.0E-001
 41
5.0E-001
 70
0
  0
VERTEX
  8
1
 42
0.0
 10
6.9501738E+001
 20
1.5794503E+002
 70
0
  0
VERTEX
  8
1
 42
0.0
 10
6.5501738E+001
 20
1.5794503E+002
 70
0
  0
SEQEND
  0
POLYLINE
  8
1
  6
CONTINUOUS
 62
3
 66
1
 40
5.0E-001
 41
5.0E-001
 70
0
  0
VERTEX
  8
1
 42
0.0
 10
6.9501738E+001
 20
1.5794503E+002
 70
0
  0
VERTEX
  8
1
 42
0.0
 10
6.9501738E+001
 20
1.5814503E+002
 70
0
  0
SEQEND
  0
POLYLINE
  8
1
  6
CONTINUOUS
 62
3
 66
1
 40
5.0E-001
 41
5.0E-001
 70
0
  0
VERTEX
  8
1
 42
0.0
 10
6.5501738E+001
 20
1.5794503E+002
 70
0
  0
VERTEX
  8
1
 42
0.0
 10
6.5501738E+001
 20
1.5814503E+002
 70
0
  0
SEQEND
  0
POLYLINE
  8
1
  6
CONTINUOUS
 62
3
 66
1
 40
5.0E-001
 41
5.0E-001
 70
0
  0
VERTEX
  8
1
 42
0.0
 10
6.9001738E+001
 20
1.5924503E+002
 70
0
  0
VERTEX
  8
1
 42
0.0
 10
6.9501738E+001
 20
1.5814503E+002
 70
0
  0
SEQEND
  0
POLYLINE
  8
1
  6
CONTINUOUS
 62
3
 66
1
 40
5.0E-001
 41
5.0E-001
 70
0
  0
VERTEX
  8
1
 42
0.0
 10
6.6001738E+001
 20
1.5924503E+002
 70
0
  0
VERTEX
  8
1
 42
0.0
 10
6.5501738E+001
 20
1.5814503E+002
 70
0
  0
SEQEND
  0
POLYLINE
  8
1
  6
CONTINUOUS
 62
3
 66
1
 40
5.0E-001
 41
5.0E-001
 70
0
  0
VERTEX
  8
1
 42
0.0
 10
8.1501738E+001
 20
1.5985353E+002
 70
0
  0
VERTEX
  8
1
 42
0.0
 10
8.1501738E+001
 20
1.6054503E+002
 70
0
  0
SEQEND
  0
POLYLINE
  8
1
  6
CONTINUOUS
 62
3
 66
1
 40
5.0E-001
 41
5.0E-001
 70
0
  0
VERTEX
  8
1
 42
0.0
 10
8.0801738E+001
 20
1.5979513E+002
 70
0
  0
VERTEX
  8
1
 42
0.0
 10
8.0801738E+001
 20
1.6054503E+002
 70
0
  0
SEQEND
  0
POLYLINE
  8
1
  6
CONTINUOUS
 62
3
 66
1
 40
5.0E-001
 41
5.0E-001
 70
0
  0
VERTEX
  8
1
 42
0.0
 10
8.9901728E+001
 20
1.5994503E+002
 70
0
  0
VERTEX
  8
1
 42
0.0
 10
8.9901728E+001
 20
1.6054503E+002
 70
0
  0
SEQEND
  0
POLYLINE
  8
1
  6
CONTINUOUS
 62
3
 66
1
 40
5.0E-001
 41
5.0E-001
 70
0
  0
VERTEX
  8
1
 42
0.0
 10
8.7301738E+001
 20
1.5939503E+002
 70
0
  0
VERTEX
  8
1
 42
0.0
 10
8.7301738E+001
 20
1.6054503E+002
 70
0
  0
SEQEND
  0
POLYLINE
  8
1
  6
CONTINUOUS
 62
3
 66
1
 40
5.0E-001
 41
5.0E-001
 70
0
  0
VERTEX
  8
1
 42
0.0
 10
8.9901728E+001
 20
1.5984503E+002
 70
0
  0
VERTEX
  8
1
 42
0.0
 10
8.7301738E+001
 20
1.5984503E+002
 70
0
  0
SEQEND
  0
POLYLINE
  8
1
  6
CONTINUOUS
 62
3
 66
1
 40
5.0E-001
 41
5.0E-001
 70
0
  0
VERTEX
  8
1
 42
0.0
 10
7.2401728E+001
 20
1.5985353E+002
 70
0
  0
VERTEX
  8
1
 42
0.0
 10
7.2401728E+001
 20
1.6054503E+002
 70
0
  0
SEQEND
  0
POLYLINE
  8
1
  6
CONTINUOUS
 62
3
 66
1
 40
5.0E-001
 41
5.0E-001
 70
0
  0
VERTEX
  8
1
 42
0.0
 10
7.1701738E+001
 20
1.5979513E+002
 70
0
  0
VERTEX
  8
1
 42
0.0
 10
7.1701738E+001
 20
1.6054503E+002
 70
0
  0
SEQEND
  0
POLYLINE
  8
1
  6
CONTINUOUS
 62
3
 66
1
 40
5.0E-001
 41
5.0E-001
 70
0
  0
VERTEX
  8
1
 42
0.0
 10
6.3301738E+001
 20
1.5985353E+002
 70
0
  0
VERTEX
  8
1
 42
0.0
 10
6.3301738E+001
 20
1.6054503E+002
 70
0
  0
SEQEND
  0
POLYLINE
  8
1
  6
CONTINUOUS
 62
3
 66
1
 40
5.0E-001
 41
5.0E-001
 70
0
  0
VERTEX
  8
1
 42
0.0
 10
6.2601748E+001
 20
1.5979513E+002
 70
0
  0
VERTEX
  8
1
 42
0.0
 10
6.2601748E+001
 20
1.6054503E+002
 70
0
  0
SEQEND
  0
POLYLINE
  8
1
  6
CONTINUOUS
 62
3
 66
1
 40
5.0E-001
 41
5.0E-001
 70
0
  0
VERTEX
  8
1
 42
0.0
 10
5.4201738E+001
 20
1.5985353E+002
 70
0
  0
VERTEX
  8
1
 42
0.0
 10
5.4201738E+001
 20
1.6054503E+002
 70
0
  0
SEQEND
  0
POLYLINE
  8
1
  6
CONTINUOUS
 62
3
 66
1
 40
5.0E-001
 41
5.0E-001
 70
0
  0
VERTEX
  8
1
 42
0.0
 10
5.3501738E+001
 20
1.5979513E+002
 70
0
  0
VERTEX
  8
1
 42
0.0
 10
5.3501738E+001
 20
1.6054503E+002
 70
0
  0
SEQEND
  0
POLYLINE
  8
1
  6
CONTINUOUS
 62
3
 66
1
 40
5.0E-001
 41
5.0E-001
 70
0
  0
VERTEX
  8
1
 42
0.0
 10
5.3201738E+001
 20
1.6054503E+002
 70
0
  0
VERTEX
  8
1
 42
0.0
 10
5.3201738E+001
 20
1.5939503E+002
 70
0
  0
SEQEND
  0
POLYLINE
  8
1
  6
CONTINUOUS
 62
3
 66
1
 40
5.0E-001
 41
5.0E-001
 70
0
  0
VERTEX
  8
1
 42
0.0
 10
4.5101738E+001
 20
1.5994503E+002
 70
0
  0
VERTEX
  8
1
 42
0.0
 10
4.5101738E+001
 20
1.6054503E+002
 70
0
  0
SEQEND
  0
POLYLINE
  8
1
  6
CONTINUOUS
 62
3
 66
1
 40
5.0E-001
 41
5.0E-001
 70
0
  0
VERTEX
  8
1
 42
0.0
 10
4.4601738E+001
 20
1.5944503E+002
 70
0
  0
VERTEX
  8
1
 42
0.0
 10
4.4551748E+001
 20
1.5944503E+002
 70
0
  0
SEQEND
  0
POLYLINE
  8
1
  6
CONTINUOUS
 62
3
 66
1
 40
5.0E-001
 41
5.0E-001
 70
0
  0
VERTEX
  8
1
 42
0.0
 10
4.7701738E+001
 20
1.5939503E+002
 70
0
  0
VERTEX
  8
1
 42
0.0
 10
4.7701738E+001
 20
1.6054503E+002
 70
0
  0
SEQEND
  0
POLYLINE
  8
1
  6
CONTINUOUS
 62
3
 66
1
 40
5.0E-001
 41
5.0E-001
 70
0
  0
VERTEX
  8
1
 42
0.0
 10
4.7701738E+001
 20
1.5984503E+002
 70
0
  0
VERTEX
  8
1
 42
0.0
 10
4.5101738E+001
 20
1.5984503E+002
 70
0
  0
SEQEND
  0
POLYLINE
  8
1
  6
CONTINUOUS
 62
3
 66
1
 40
5.0E-001
 41
5.0E-001
 70
0
  0
VERTEX
  8
1
 42
0.0
 10
8.1801738E+001
 20
1.6054503E+002
 70
0
  0
VERTEX
  8
1
 42
0.0
 10
8.1801738E+001
 20
1.5939503E+002
 70
0
  0
SEQEND
  0
POLYLINE
  8
1
  6
CONTINUOUS
 62
3
 66
1
 40
5.0E-001
 41
5.0E-001
 70
0
  0
VERTEX
  8
1
 42
0.0
 10
8.1751708E+001
 20
1.6054503E+002
 70
0
  0
VERTEX
  8
1
 42
0.0
 10
8.1501738E+001
 20
1.6029503E+002
 70
0
  0
SEQEND
  0
POLYLINE
  8
1
  6
CONTINUOUS
 62
3
 66
1
 40
5.0E-001
 41
5.0E-001
 70
0
  0
VERTEX
  8
1
 42
0.0
 10
8.0551758E+001
 20
1.6054503E+002
 70
0
  0
VERTEX
  8
1
 42
0.0
 10
8.0801738E+001
 20
1.6029503E+002
 70
0
  0
SEQEND
  0
POLYLINE
  8
1
  6
CONTINUOUS
 62
3
 66
1
 40
5.0E-001
 41
5.0E-001
 70
0
  0
VERTEX
  8
1
 42
0.0
 10
7.2651718E+001
 20
1.6054503E+002
 70
0
  0
VERTEX
  8
1
 42
0.0
 10
7.2401728E+001
 20
1.6029503E+002
 70
0
  0
SEQEND
  0
POLYLINE
  8
1
  6
CONTINUOUS
 62
3
 66
1
 40
5.0E-001
 41
5.0E-001
 70
0
  0
VERTEX
  8
1
 42
0.0
 10
7.1451748E+001
 20
1.6054503E+002
 70
0
  0
VERTEX
  8
1
 42
0.0
 10
7.1701738E+001
 20
1.6029503E+002
 70
0
  0
SEQEND
  0
POLYLINE
  8
1
  6
CONTINUOUS
 62
3
 66
1
 40
5.0E-001
 41
5.0E-001
 70
0
  0
VERTEX
  8
1
 42
0.0
 10
6.3551728E+001
 20
1.6054503E+002
 70
0
  0
VERTEX
  8
1
 42
0.0
 10
6.3301738E+001
 20
1.6029503E+002
 70
0
  0
SEQEND
  0
POLYLINE
  8
1
  6
CONTINUOUS
 62
3
 66
1
 40
5.0E-001
 41
5.0E-001
 70
0
  0
VERTEX
  8
1
 42
0.0
 10
6.2351758E+001
 20
1.6054503E+002
 70
0
  0
VERTEX
  8
1
 42
0.0
 10
6.2601748E+001
 20
1.6029503E+002
 70
0
  0
SEQEND
  0
POLYLINE
  8
1
  6
CONTINUOUS
 62
3
 66
1
 40
5.0E-001
 41
5.0E-001
 70
0
  0
VERTEX
  8
1
 42
0.0
 10
5.4451718E+001
 20
1.6054503E+002
 70
0
  0
VERTEX
  8
1
 42
0.0
 10
5.4201738E+001
 20
1.6029503E+002
 70
0
  0
SEQEND
  0
POLYLINE
  8
1
  6
CONTINUOUS
 62
3
 66
1
 40
5.0E-001
 41
5.0E-001
 70
0
  0
VERTEX
  8
1
 42
0.0
 10
5.3501738E+001
 20
1.6029503E+002
 70
0
  0
VERTEX
  8
1
 42
0.0
 10
5.3251758E+001
 20
1.6054503E+002
 70
0
  0
SEQEND
  0
POLYLINE
  8
1
  6
CONTINUOUS
 62
3
 66
1
 40
5.0E-001
 41
5.0E-001
 70
0
  0
VERTEX
  8
1
 42
0.0
 10
8.7301738E+001
 20
1.5939503E+002
 70
0
  0
VERTEX
  8
1
 42
0.0
 10
8.1801738E+001
 20
1.5939503E+002
 70
0
  0
SEQEND
  0
POLYLINE
  8
1
  6
CONTINUOUS
 62
3
 66
1
 40
5.0E-001
 41
5.0E-001
 70
0
  0
VERTEX
  8
1
 42
0.0
 10
5.3201738E+001
 20
1.5939503E+002
 70
0
  0
VERTEX
  8
1
 42
0.0
 10
4.7701738E+001
 20
1.5939503E+002
 70
0
  0
SEQEND
  0
POLYLINE
  8
1
  6
CONTINUOUS
 62
3
 66
1
 40
5.0E-001
 41
5.0E-001
 70
0
  0
VERTEX
  8
1
 42
0.0
 10
8.9901728E+001
 20
1.5944503E+002
 70
0
  0
VERTEX
  8
1
 42
0.0
 10
9.0451738E+001
 20
1.5944503E+002
 70
0
  0
SEQEND
  0
POLYLINE
  8
1
  6
CONTINUOUS
 62
3
 66
1
 40
5.0E-001
 41
5.0E-001
 70
0
  0
VERTEX
  8
1
 42
0.0
 10
8.9601728E+001
 20
1.5984503E+002
 70
0
  0
VERTEX
  8
1
 42
0.0
 10
8.9901728E+001
 20
1.5944503E+002
 70
0
  0
SEQEND
  0
POLYLINE
  8
1
  6
CONTINUOUS
 62
3
 66
1
 40
5.0E-001
 41
5.0E-001
 70
0
  0
VERTEX
  8
1
 42
0.0
 10
4.4597098E+001
 20
1.5944503E+002
 70
0
  0
VERTEX
  8
1
 42
0.0
 10
4.5101738E+001
 20
1.5944503E+002
 70
0
  0
SEQEND
  0
POLYLINE
  8
1
  6
CONTINUOUS
 62
3
 66
1
 40
5.0E-001
 41
5.0E-001
 70
0
  0
VERTEX
  8
1
 42
0.0
 10
4.5401738E+001
 20
1.5984503E+002
 70
0
  0
VERTEX
  8
1
 42
0.0
 10
4.5101738E+001
 20
1.5944503E+002
 70
0
  0
SEQEND
  0
POLYLINE
  8
1
  6
CONTINUOUS
 62
3
 66
1
 40
5.0E-001
 41
5.0E-001
 70
0
  0
VERTEX
  8
1
 42
0.0
 10
7.0001738E+001
 20
1.5944503E+002
 70
0
  0
VERTEX
  8
1
 42
0.0
 10
7.0001738E+001
 20
1.6054503E+002
 70
0
  0
SEQEND
  0
POLYLINE
  8
1
  6
CONTINUOUS
 62
3
 66
1
 40
5.0E-001
 41
5.0E-001
 70
0
  0
VERTEX
  8
1
 42
0.0
 10
6.5001738E+001
 20
1.5944503E+002
 70
0
  0
VERTEX
  8
1
 42
0.0
 10
6.5001738E+001
 20
1.6054503E+002
 70
0
  0
SEQEND
  0
POLYLINE
  8
1
  6
CONTINUOUS
 62
3
 66
1
 40
5.0E-001
 41
5.0E-001
 70
0
  0
VERTEX
  8
1
 42
0.0
 10
4.4751748E+001
 20
1.7744503E+002
 70
0
  0
VERTEX
  8
1
 42
0.0
 10
4.3751748E+001
 20
1.7744503E+002
 70
0
  0
SEQEND
  0
POLYLINE
  8
1
  6
CONTINUOUS
 62
3
 66
1
 40
5.0E-001
 41
5.0E-001
 70
0
  0
VERTEX
  8
1
 42
0.0
 10
9.1251758E+001
 20
2.0084503E+002
 70
0
  0
VERTEX
  8
1
 42
0.0
 10
9.1251738E+001
 20
1.8054503E+002
 70
0
  0
SEQEND
  0
POLYLINE
  8
1
  6
CONTINUOUS
 62
3
 66
1
 40
5.0E-001
 41
5.0E-001
 70
0
  0
VERTEX
  8
1
 42
0.0
 10
4.3751758E+001
 20
2.0084503E+002
 70
0
  0
VERTEX
  8
1
 42
0.0
 10
4.3751748E+001
 20
1.8054503E+002
 70
0
  0
SEQEND
  0
POLYLINE
  8
1
  6
CONTINUOUS
 62
3
 66
1
 40
5.0E-001
 41
5.0E-001
 70
0
  0
VERTEX
  8
1
 42
0.0
 10
4.4701738E+001
 20
1.8309503E+002
 70
0
  0
VERTEX
  8
1
 42
0.0
 10
4.4701738E+001
 20
1.8254503E+002
 70
0
  0
SEQEND
  0
POLYLINE
  8
1
  6
CONTINUOUS
 62
3
 66
1
 40
5.0E-001
 41
5.0E-001
 70
0
  0
VERTEX
  8
1
 42
0.0
 10
5.3669638E+001
 20
1.8309503E+002
 70
0
  0
VERTEX
  8
1
 42
0.0
 10
4.4651588E+001
 20
1.8309503E+002
 70
0
  0
SEQEND
  0
POLYLINE
  8
1
  6
CONTINUOUS
 62
3
 66
1
 40
5.0E-001
 41
5.0E-001
 70
0
  0
VERTEX
  8
1
 42
0.0
 10
9.1251758E+001
 20
2.0064503E+002
 70
0
  0
VERTEX
  8
1
 42
0.0
 10
8.9901748E+001
 20
2.0064503E+002
 70
0
  0
SEQEND
  0
POLYLINE
  8
1
  6
CONTINUOUS
 62
3
 66
1
 40
5.0E-001
 41
5.0E-001
 70
0
  0
VERTEX
  8
1
 42
0.0
 10
9.0451748E+001
 20
2.0164503E+002
 70
0
  0
VERTEX
  8
1
 42
0.0
 10
9.0401748E+001
 20
2.0164503E+002
 70
0
  0
SEQEND
  0
POLYLINE
  8
1
  6
CONTINUOUS
 62
3
 66
1
 40
5.0E-001
 41
5.0E-001
 70
0
  0
VERTEX
  8
1
 42
0.0
 10
6.9001738E+001
 20
2.0184503E+002
 70
0
  0
VERTEX
  8
1
 42
0.0
 10
6.9001738E+001
 20
2.0164503E+002
 70
0
  0
SEQEND
  0
POLYLINE
  8
1
  6
CONTINUOUS
 62
3
 66
1
 40
5.0E-001
 41
5.0E-001
 70
0
  0
VERTEX
  8
1
 42
0.0
 10
6.6001738E+001
 20
2.0184503E+002
 70
0
  0
VERTEX
  8
1
 42
0.0
 10
6.6001738E+001
 20
2.0164503E+002
 70
0
  0
SEQEND
  0
POLYLINE
  8
1
  6
CONTINUOUS
 62
3
 66
1
 40
5.0E-001
 41
5.0E-001
 70
0
  0
VERTEX
  8
1
 42
0.0
 10
7.0001738E+001
 20
2.0164503E+002
 70
0
  0
VERTEX
  8
1
 42
0.0
 10
6.5001738E+001
 20
2.0164503E+002
 70
0
  0
SEQEND
  0
POLYLINE
  8
1
  6
CONTINUOUS
 62
3
 66
1
 40
5.0E-001
 41
5.0E-001
 70
0
  0
VERTEX
  8
1
 42
0.0
 10
8.1501738E+001
 20
2.0123653E+002
 70
0
  0
VERTEX
  8
1
 42
0.0
 10
8.1501738E+001
 20
2.0054503E+002
 70
0
  0
SEQEND
  0
POLYLINE
  8
1
  6
CONTINUOUS
 62
3
 66
1
 40
5.0E-001
 41
5.0E-001
 70
0
  0
VERTEX
  8
1
 42
0.0
 10
8.0801738E+001
 20
2.0129493E+002
 70
0
  0
VERTEX
  8
1
 42
0.0
 10
8.0801738E+001
 20
2.0054503E+002
 70
0
  0
SEQEND
  0
POLYLINE
  8
1
  6
CONTINUOUS
 62
3
 66
1
 40
5.0E-001
 41
5.0E-001
 70
0
  0
VERTEX
  8
1
 42
0.0
 10
8.1501738E+001
 20
2.0064503E+002
 70
0
  0
VERTEX
  8
1
 42
0.0
 10
8.0801738E+001
 20
2.0064503E+002
 70
0
  0
SEQEND
  0
POLYLINE
  8
1
  6
CONTINUOUS
 62
3
 66
1
 40
5.0E-001
 41
5.0E-001
 70
0
  0
VERTEX
  8
1
 42
0.0
 10
8.9901748E+001
 20
2.0114503E+002
 70
0
  0
VERTEX
  8
1
 42
0.0
 10
8.9901748E+001
 20
2.0054503E+002
 70
0
  0
SEQEND
  0
POLYLINE
  8
1
  6
CONTINUOUS
 62
3
 66
1
 40
5.0E-001
 41
5.0E-001
 70
0
  0
VERTEX
  8
1
 42
0.0
 10
8.7301738E+001
 20
2.0169503E+002
 70
0
  0
VERTEX
  8
1
 42
0.0
 10
8.7301738E+001
 20
2.0054503E+002
 70
0
  0
SEQEND
  0
POLYLINE
  8
1
  6
CONTINUOUS
 62
3
 66
1
 40
5.0E-001
 41
5.0E-001
 70
0
  0
VERTEX
  8
1
 42
0.0
 10
8.9901748E+001
 20
2.0124503E+002
 70
0
  0
VERTEX
  8
1
 42
0.0
 10
8.7301738E+001
 20
2.0124503E+002
 70
0
  0
SEQEND
  0
POLYLINE
  8
1
  6
CONTINUOUS
 62
3
 66
1
 40
5.0E-001
 41
5.0E-001
 70
0
  0
VERTEX
  8
1
 42
0.0
 10
7.2401748E+001
 20
2.0064503E+002
 70
0
  0
VERTEX
  8
1
 42
0.0
 10
7.1701748E+001
 20
2.0064503E+002
 70
0
  0
SEQEND
  0
POLYLINE
  8
1
  6
CONTINUOUS
 62
3
 66
1
 40
5.0E-001
 41
5.0E-001
 70
0
  0
VERTEX
  8
1
 42
0.0
 10
7.2401748E+001
 20
2.0123653E+002
 70
0
  0
VERTEX
  8
1
 42
0.0
 10
7.2401748E+001
 20
2.0054503E+002
 70
0
  0
SEQEND
  0
POLYLINE
  8
1
  6
CONTINUOUS
 62
3
 66
1
 40
5.0E-001
 41
5.0E-001
 70
0
  0
VERTEX
  8
1
 42
0.0
 10
7.1701748E+001
 20
2.0129493E+002
 70
0
  0
VERTEX
  8
1
 42
0.0
 10
7.1701748E+001
 20
2.0054503E+002
 70
0
  0
SEQEND
  0
POLYLINE
  8
1
  6
CONTINUOUS
 62
3
 66
1
 40
5.0E-001
 41
5.0E-001
 70
0
  0
VERTEX
  8
1
 42
0.0
 10
6.3301738E+001
 20
2.0064503E+002
 70
0
  0
VERTEX
  8
1
 42
0.0
 10
6.2601748E+001
 20
2.0064503E+002
 70
0
  0
SEQEND
  0
POLYLINE
  8
1
  6
CONTINUOUS
 62
3
 66
1
 40
5.0E-001
 41
5.0E-001
 70
0
  0
VERTEX
  8
1
 42
0.0
 10
6.3301738E+001
 20
2.0123653E+002
 70
0
  0
VERTEX
  8
1
 42
0.0
 10
6.3301738E+001
 20
2.0054503E+002
 70
0
  0
SEQEND
  0
POLYLINE
  8
1
  6
CONTINUOUS
 62
3
 66
1
 40
5.0E-001
 41
5.0E-001
 70
0
  0
VERTEX
  8
1
 42
0.0
 10
6.2601748E+001
 20
2.0129493E+002
 70
0
  0
VERTEX
  8
1
 42
0.0
 10
6.2601748E+001
 20
2.0054503E+002
 70
0
  0
SEQEND
  0
POLYLINE
  8
1
  6
CONTINUOUS
 62
3
 66
1
 40
5.0E-001
 41
5.0E-001
 70
0
  0
VERTEX
  8
1
 42
0.0
 10
5.4201748E+001
 20
2.0064503E+002
 70
0
  0
VERTEX
  8
1
 42
0.0
 10
5.3501758E+001
 20
2.0064503E+002
 70
0
  0
SEQEND
  0
POLYLINE
  8
1
  6
CONTINUOUS
 62
3
 66
1
 40
5.0E-001
 41
5.0E-001
 70
0
  0
VERTEX
  8
1
 42
0.0
 10
5.4201748E+001
 20
2.0123653E+002
 70
0
  0
VERTEX
  8
1
 42
0.0
 10
5.4201748E+001
 20
2.0054503E+002
 70
0
  0
SEQEND
  0
POLYLINE
  8
1
  6
CONTINUOUS
 62
3
 66
1
 40
5.0E-001
 41
5.0E-001
 70
0
  0
VERTEX
  8
1
 42
0.0
 10
5.3501758E+001
 20
2.0129493E+002
 70
0
  0
VERTEX
  8
1
 42
0.0
 10
5.3501758E+001
 20
2.0054503E+002
 70
0
  0
SEQEND
  0
POLYLINE
  8
1
  6
CONTINUOUS
 62
3
 66
1
 40
5.0E-001
 41
5.0E-001
 70
0
  0
VERTEX
  8
1
 42
0.0
 10
5.3201748E+001
 20
2.0054503E+002
 70
0
  0
VERTEX
  8
1
 42
0.0
 10
5.3201748E+001
 20
2.0169503E+002
 70
0
  0
SEQEND
  0
POLYLINE
  8
1
  6
CONTINUOUS
 62
3
 66
1
 40
5.0E-001
 41
5.0E-001
 70
0
  0
VERTEX
  8
1
 42
0.0
 10
4.5101748E+001
 20
2.0114503E+002
 70
0
  0
VERTEX
  8
1
 42
0.0
 10
4.5101748E+001
 20
2.0054503E+002
 70
0
  0
SEQEND
  0
INSERT
  2
*E1313
  8
1
 10
4.4551748E+001
 20
2.0084503E+002
 41
1.0
 42
1.0
 43
1.0
 50
2.7E+002
 62
3
  0
POLYLINE
  8
1
  6
CONTINUOUS
 62
3
 66
1
 40
5.0E-001
 41
5.0E-001
 70
0
  0
VERTEX
  8
1
 42
0.0
 10
4.4601748E+001
 20
2.0164503E+002
 70
0
  0
VERTEX
  8
1
 42
0.0
 10
4.4551748E+001
 20
2.0164503E+002
 70
0
  0
SEQEND
  0
POLYLINE
  8
1
  6
CONTINUOUS
 62
3
 66
1
 40
5.0E-001
 41
5.0E-001
 70
0
  0
VERTEX
  8
1
 42
4.1421356E-001
 10
4.5101748E+001
 20
2.0114503E+002
 70
0
  0
VERTEX
  8
1
 42
0.0
 10
4.4601748E+001
 20
2.0164503E+002
 70
0
  0
SEQEND
  0
POLYLINE
  8
1
  6
CONTINUOUS
 62
3
 66
1
 40
5.0E-001
 41
5.0E-001
 70
0
  0
VERTEX
  8
1
 42
0.0
 10
4.3777148E+001
 20
2.0064503E+002
 70
0
  0
VERTEX
  8
1
 42
0.0
 10
4.5101748E+001
 20
2.0064503E+002
 70
0
  0
SEQEND
  0
POLYLINE
  8
1
  6
CONTINUOUS
 62
3
 66
1
 40
5.0E-001
 41
5.0E-001
 70
0
  0
VERTEX
  8
1
 42
0.0
 10
4.7701738E+001
 20
2.0169503E+002
 70
0
  0
VERTEX
  8
1
 42
0.0
 10
4.7701738E+001
 20
2.0054503E+002
 70
0
  0
SEQEND
  0
POLYLINE
  8
1
  6
CONTINUOUS
 62
3
 66
1
 40
5.0E-001
 41
5.0E-001
 70
0
  0
VERTEX
  8
1
 42
0.0
 10
4.7701738E+001
 20
2.0124503E+002
 70
0
  0
VERTEX
  8
1
 42
0.0
 10
4.5101748E+001
 20
2.0124503E+002
 70
0
  0
SEQEND
  0
POLYLINE
  8
1
  6
CONTINUOUS
 62
3
 66
1
 40
5.0E-001
 41
5.0E-001
 70
0
  0
VERTEX
  8
1
 42
0.0
 10
8.1751758E+001
 20
2.0054503E+002
 70
0
  0
VERTEX
  8
1
 42
0.0
 10
8.1501738E+001
 20
2.0079503E+002
 70
0
  0
SEQEND
  0
POLYLINE
  8
1
  6
CONTINUOUS
 62
3
 66
1
 40
5.0E-001
 41
5.0E-001
 70
0
  0
VERTEX
  8
1
 42
0.0
 10
8.0551728E+001
 20
2.0054503E+002
 70
0
  0
VERTEX
  8
1
 42
0.0
 10
8.0801738E+001
 20
2.0079503E+002
 70
0
  0
SEQEND
  0
POLYLINE
  8
1
  6
CONTINUOUS
 62
3
 66
1
 40
5.0E-001
 41
5.0E-001
 70
0
  0
VERTEX
  8
1
 42
0.0
 10
7.2651748E+001
 20
2.0054503E+002
 70
0
  0
VERTEX
  8
1
 42
0.0
 10
7.2401748E+001
 20
2.0079503E+002
 70
0
  0
SEQEND
  0
POLYLINE
  8
1
  6
CONTINUOUS
 62
3
 66
1
 40
5.0E-001
 41
5.0E-001
 70
0
  0
VERTEX
  8
1
 42
0.0
 10
7.1701748E+001
 20
2.0079503E+002
 70
0
  0
VERTEX
  8
1
 42
0.0
 10
7.1451738E+001
 20
2.0054503E+002
 70
0
  0
SEQEND
  0
POLYLINE
  8
1
  6
CONTINUOUS
 62
3
 66
1
 40
5.0E-001
 41
5.0E-001
 70
0
  0
VERTEX
  8
1
 42
0.0
 10
6.3551758E+001
 20
2.0054503E+002
 70
0
  0
VERTEX
  8
1
 42
0.0
 10
6.3301738E+001
 20
2.0079503E+002
 70
0
  0
SEQEND
  0
POLYLINE
  8
1
  6
CONTINUOUS
 62
3
 66
1
 40
5.0E-001
 41
5.0E-001
 70
0
  0
VERTEX
  8
1
 42
0.0
 10
6.2351748E+001
 20
2.0054503E+002
 70
0
  0
VERTEX
  8
1
 42
0.0
 10
6.2601748E+001
 20
2.0079503E+002
 70
0
  0
SEQEND
  0
POLYLINE
  8
1
  6
CONTINUOUS
 62
3
 66
1
 40
5.0E-001
 41
5.0E-001
 70
0
  0
VERTEX
  8
1
 42
0.0
 10
5.4451748E+001
 20
2.0054503E+002
 70
0
  0
VERTEX
  8
1
 42
0.0
 10
5.4201748E+001
 20
2.0079503E+002
 70
0
  0
SEQEND
  0
POLYLINE
  8
1
  6
CONTINUOUS
 62
3
 66
1
 40
5.0E-001
 41
5.0E-001
 70
0
  0
VERTEX
  8
1
 42
0.0
 10
5.3251738E+001
 20
2.0054503E+002
 70
0
  0
VERTEX
  8
1
 42
0.0
 10
5.3501758E+001
 20
2.0079503E+002
 70
0
  0
SEQEND
  0
POLYLINE
  8
1
  6
CONTINUOUS
 62
3
 66
1
 40
5.0E-001
 41
5.0E-001
 70
0
  0
VERTEX
  8
1
 42
0.0
 10
8.7301738E+001
 20
2.0169503E+002
 70
0
  0
VERTEX
  8
1
 42
0.0
 10
8.1801738E+001
 20
2.0169503E+002
 70
0
  0
SEQEND
  0
POLYLINE
  8
1
  6
CONTINUOUS
 62
3
 66
1
 40
5.0E-001
 41
5.0E-001
 70
0
  0
VERTEX
  8
1
 42
0.0
 10
5.3201748E+001
 20
2.0169503E+002
 70
0
  0
VERTEX
  8
1
 42
0.0
 10
4.7701738E+001
 20
2.0169503E+002
 70
0
  0
SEQEND
  0
POLYLINE
  8
1
  6
CONTINUOUS
 62
3
 66
1
 40
5.0E-001
 41
5.0E-001
 70
0
  0
VERTEX
  8
1
 42
0.0
 10
8.9901748E+001
 20
2.0164503E+002
 70
0
  0
VERTEX
  8
1
 42
0.0
 10
9.0451748E+001
 20
2.0164503E+002
 70
0
  0
SEQEND
  0
POLYLINE
  8
1
  6
CONTINUOUS
 62
3
 66
1
 40
5.0E-001
 41
5.0E-001
 70
0
  0
VERTEX
  8
1
 42
0.0
 10
8.9601748E+001
 20
2.0124503E+002
 70
0
  0
VERTEX
  8
1
 42
0.0
 10
8.9901748E+001
 20
2.0164503E+002
 70
0
  0
SEQEND
  0
POLYLINE
  8
1
  6
CONTINUOUS
 62
3
 66
1
 40
5.0E-001
 41
5.0E-001
 70
0
  0
VERTEX
  8
1
 42
0.0
 10
4.4597128E+001
 20
2.0164503E+002
 70
0
  0
VERTEX
  8
1
 42
0.0
 10
4.5101748E+001
 20
2.0164503E+002
 70
0
  0
SEQEND
  0
POLYLINE
  8
1
  6
CONTINUOUS
 62
3
 66
1
 40
5.0E-001
 41
5.0E-001
 70
0
  0
VERTEX
  8
1
 42
0.0
 10
4.5401758E+001
 20
2.0124503E+002
 70
0
  0
VERTEX
  8
1
 42
0.0
 10
4.5101748E+001
 20
2.0164503E+002
 70
0
  0
SEQEND
  0
POLYLINE
  8
1
  6
CONTINUOUS
 62
3
 66
1
 40
5.0E-001
 41
5.0E-001
 70
0
  0
VERTEX
  8
1
 42
0.0
 10
4.4751748E+001
 20
1.8364503E+002
 70
0
  0
VERTEX
  8
1
 42
0.0
 10
4.4751748E+001
 20
1.8309503E+002
 70
0
  0
SEQEND
  0
POLYLINE
  8
1
  6
CONTINUOUS
 62
3
 66
1
 40
5.0E-001
 41
5.0E-001
 70
0
  0
VERTEX
  8
1
 42
0.0
 10
4.4751748E+001
 20
1.8364503E+002
 70
0
  0
VERTEX
  8
1
 42
0.0
 10
4.3751748E+001
 20
1.8364503E+002
 70
0
  0
SEQEND
  0
POLYLINE
  8
1
  6
CONTINUOUS
 62
3
 66
1
 40
5.0E-001
 41
5.0E-001
 70
0
  0
VERTEX
  8
1
 42
0.0
 10
6.6001738E+001
 20
2.0184503E+002
 70
0
  0
VERTEX
  8
1
 42
0.0
 10
6.5501738E+001
 20
2.0294503E+002
 70
0
  0
SEQEND
  0
POLYLINE
  8
1
  6
CONTINUOUS
 62
3
 66
1
 40
5.0E-001
 41
5.0E-001
 70
0
  0
VERTEX
  8
1
 42
0.0
 10
6.9501738E+001
 20
2.0314503E+002
 70
0
  0
VERTEX
  8
1
 42
0.0
 10
6.5501738E+001
 20
2.0314503E+002
 70
0
  0
SEQEND
  0
POLYLINE
  8
1
  6
CONTINUOUS
 62
3
 66
1
 40
5.0E-001
 41
5.0E-001
 70
0
  0
VERTEX
  8
1
 42
0.0
 10
6.9501738E+001
 20
2.0314503E+002
 70
0
  0
VERTEX
  8
1
 42
0.0
 10
6.9501738E+001
 20
2.0294503E+002
 70
0
  0
SEQEND
  0
POLYLINE
  8
1
  6
CONTINUOUS
 62
3
 66
1
 40
5.0E-001
 41
5.0E-001
 70
0
  0
VERTEX
  8
1
 42
0.0
 10
6.5501738E+001
 20
2.0314503E+002
 70
0
  0
VERTEX
  8
1
 42
0.0
 10
6.5501738E+001
 20
2.0294503E+002
 70
0
  0
SEQEND
  0
POLYLINE
  8
1
  6
CONTINUOUS
 62
3
 66
1
 40
5.0E-001
 41
5.0E-001
 70
0
  0
VERTEX
  8
1
 42
0.0
 10
6.9001738E+001
 20
2.0184503E+002
 70
0
  0
VERTEX
  8
1
 42
0.0
 10
6.9501738E+001
 20
2.0294503E+002
 70
0
  0
SEQEND
  0
INSERT
  2
*E1340
  8
1
 10
9.0451738E+001
 20
1.6024503E+002
 41
1.0
 42
1.0
 43
1.0
 50
2.7E+002
 62
3
  0
INSERT
  2
*E1341
  8
1
 10
8.1154008E+001
 20
1.5979723E+002
 41
1.0
 42
1.0
 43
1.0
 50
2.7E+002
 62
3
  0
POLYLINE
  8
1
  6
CONTINUOUS
 62
3
 66
1
 40
5.0E-001
 41
5.0E-001
 70
0
  0
VERTEX
  8
1
 42
4.1421356E-001
 10
8.9901728E+001
 20
1.5994503E+002
 70
0
  0
VERTEX
  8
1
 42
0.0
 10
9.0401728E+001
 20
1.5944503E+002
 70
0
  0
SEQEND
  0
INSERT
  2
*E1343
  8
1
 10
7.2053998E+001
 20
1.5979723E+002
 41
1.0
 42
1.0
 43
1.0
 50
2.7E+002
 62
3
  0
INSERT
  2
*E1344
  8
1
 10
6.2954008E+001
 20
1.5979723E+002
 41
1.0
 42
1.0
 43
1.0
 50
2.7E+002
 62
3
  0
INSERT
  2
*E1345
  8
1
 10
5.3853998E+001
 20
1.5979723E+002
 41
1.0
 42
1.0
 43
1.0
 50
2.7E+002
 62
3
  0
POLYLINE
  8
1
  6
CONTINUOUS
 62
3
 66
1
 40
5.0E-001
 41
5.0E-001
 70
0
  0
VERTEX
  8
1
 42
4.1421356E-001
 10
4.3751748E+001
 20
1.6024503E+002
 70
0
  0
VERTEX
  8
1
 42
0.0
 10
4.4551748E+001
 20
1.5944503E+002
 70
0
  0
SEQEND
  0
INSERT
  2
*E1347
  8
1
 10
4.4601738E+001
 20
1.5994503E+002
 41
1.0
 42
1.0
 43
1.0
 50
2.7E+002
 62
3
  0
POLYLINE
  8
1
  6
CONTINUOUS
 62
3
 66
1
 40
5.0E-001
 41
5.0E-001
 70
0
  0
VERTEX
  8
1
 42
4.1421356E-001
 10
9.1251748E+001
 20
2.0084503E+002
 70
0
  0
VERTEX
  8
1
 42
0.0
 10
9.0451748E+001
 20
2.0164503E+002
 70
0
  0
SEQEND
  0
POLYLINE
  8
1
  6
CONTINUOUS
 62
3
 66
1
 40
5.0E-001
 41
5.0E-001
 70
0
  0
VERTEX
  8
1
 42
1.0804113
 10
8.150174E+001
 20
2.0123654E+002
 70
0
  0
VERTEX
  8
1
 42
0.0
 10
8.0801755E+001
 20
2.0129492E+002
 70
0
  0
SEQEND
  0
INSERT
  2
*E1350
  8
1
 10
9.0401748E+001
 20
2.0114503E+002
 41
1.0
 42
1.0
 43
1.0
 50
2.7E+002
 62
3
  0
POLYLINE
  8
1
  6
CONTINUOUS
 62
3
 66
1
 40
5.0E-001
 41
5.0E-001
 70
0
  0
VERTEX
  8
1
 42
1.0804113
 10
7.240175E+001
 20
2.0123654E+002
 70
0
  0
VERTEX
  8
1
 42
0.0
 10
7.1701765E+001
 20
2.0129492E+002
 70
0
  0
SEQEND
  0
POLYLINE
  8
1
  6
CONTINUOUS
 62
3
 66
1
 40
5.0E-001
 41
5.0E-001
 70
0
  0
VERTEX
  8
1
 42
1.0804113
 10
6.330174E+001
 20
2.0123654E+002
 70
0
  0
VERTEX
  8
1
 42
0.0
 10
6.2601755E+001
 20
2.0129492E+002
 70
0
  0
SEQEND
  0
POLYLINE
  8
1
  6
CONTINUOUS
 62
3
 66
1
 40
5.0E-001
 41
5.0E-001
 70
0
  0
VERTEX
  8
1
 42
1.0804113
 10
5.420175E+001
 20
2.0123654E+002
 70
0
  0
VERTEX
  8
1
 42
0.0
 10
5.3501765E+001
 20
2.0129492E+002
 70
0
  0
SEQEND
  0
INSERT
  2
*E1354
  8
1
 10
9.0451738E+001
 20
1.6024503E+002
 41
1.0
 42
1.0
 43
1.0
 50
2.7E+002
 62
3
  0
INSERT
  2
*E1355
  8
1
 10
4.4551748E+001
 20
1.6024503E+002
 41
1.0
 42
1.0
 43
1.0
 50
2.7E+002
 62
3
  0
POLYLINE
  8
1
  6
CONTINUOUS
 62
3
 66
1
 40
5.0E-001
 41
5.0E-001
 70
0
  0
VERTEX
  8
1
 42
4.1421351E-001
 10
4.4551747E+001
 20
2.0164503E+002
 70
0
  0
VERTEX
  8
1
 42
0.0
 10
4.3751748E+001
 20
2.0084503E+002
 70
0
  0
SEQEND
  0
INSERT
  2
*E1357
  8
1
 10
9.0451748E+001
 20
2.0084503E+002
 41
1.0
 42
1.0
 43
1.0
 50
2.7E+002
 62
3
  0
TEXT
  8
1
  6
CONTINUOUS
 62
4
 10
2.6737236E+001
 20
2.3071865E+001
 40
2.5
  1
c
 41
8.666667E-001
  0
TEXT
  8
1
  6
CONTINUOUS
 62
4
 10
2.8184379E+001
 20
2.1048296E+002
 40
2.7
  1
10,16
 41
7.0E-001
  0
DIMENSION
  8
1
  6
CONTINUOUS
 62
4
  1
       
  2
*D1360
  3
DSTYLE1
 10
3.8051738E+001
 20
2.0946083E+002
 11
3.2827788E+001
 21
2.1246183E+002
 70
128
 13
2.7891728E+001
 23
1.9549093E+002
 14
3.8051738E+001
 24
1.9540113E+002
 40
1.25E-001
 50
0.0
  0
TEXT
  8
1
  6
CONTINUOUS
 62
4
 10
3.5166398E+001
 20
6.7393529E+001
 40
3.0
  1
Loetstifte : 1mm
 41
8.1448608E-001
  0
TEXT
  8
1
  6
CONTINUOUS
 62
4
 10
1.9655075E+002
 20
1.7614886E+002
 40
3.0
  1
25,4
 41
8.0E-001
 50
9.0E+001
  0
DIMENSION
  8
1
  6
CONTINUOUS
 62
4
  1
       
  2
*D1363
  3
DSTYLE1
 10
1.9782879E+002
 20
1.6784513E+002
 11
1.9482779E+002
 21
1.8246183E+002
 70
128
 13
1.8591259E+002
 23
1.9324523E+002
 14
1.8591259E+002
 24
1.6784513E+002
 40
1.25E-001
 50
9.0E+001
  0
TEXT
  8
1
  6
CONTINUOUS
 62
4
 10
5.8704436E+001
 20
2.1055094E+002
 40
2.7
  1
10,16
 41
7.0E-001
  0
DIMENSION
  8
1
  6
CONTINUOUS
 62
4
  1
       
  2
*D1365
  3
DSTYLE1
 10
6.8561748E+001
 20
2.0946083E+002
 11
6.2827788E+001
 21
2.1246183E+002
 70
128
 13
5.8401738E+001
 23
1.9483343E+002
 14
6.8561748E+001
 24
1.9483343E+002
 40
1.25E-001
 50
0.0
  0
TEXT
  8
1
  6
CONTINUOUS
 62
4
 10
6.9036393E+001
 20
2.1055094E+002
 40
2.7
  1
10,16
 41
7.0E-001
  0
DIMENSION
  8
1
  6
CONTINUOUS
 62
4
  1
       
  2
*D1367
  3
DSTYLE1
 10
7.8721748E+001
 20
2.0946083E+002
 11
7.3318717E+001
 21
2.1246183E+002
 70
128
 13
6.8561748E+001
 23
1.9483343E+002
 14
7.8721748E+001
 24
1.9483343E+002
 40
1.25E-001
 50
0.0
  0
POLYLINE
  8
1
  6
CONTINUOUS
 62
3
 66
1
 40
5.0E-001
 41
5.0E-001
 70
0
  0
VERTEX
  8
1
 42
0.0
 10
4.7701738E+001
 20
1.5944503E+002
 70
0
  0
VERTEX
  8
1
 42
0.0
 10
4.4551748E+001
 20
1.5944503E+002
 70
0
  0
SEQEND
  0
POLYLINE
  8
1
  6
CONTINUOUS
 62
3
 66
1
 40
5.0E-001
 41
5.0E-001
 70
0
  0
VERTEX
  8
1
 42
0.0
 10
4.7701738E+001
 20
2.0164503E+002
 70
0
  0
VERTEX
  8
1
 42
0.0
 10
4.4551748E+001
 20
2.0164503E+002
 70
0
  0
SEQEND
  0
DIMENSION
  8
1
  6
CONTINUOUS
 62
4
  2
*D1370
  3
DSTYLE3
 10
1.8906059E+002
 20
2.1746083E+002
 11
1.9082779E+002
 21
2.2046183E+002
 70
128
 13
1.8506059E+002
 23
2.0054533E+002
 14
1.8906059E+002
 24
1.9374543E+002
 40
1.25E-001
 50
0.0
  0
TEXT
  8
1
  6
CONTINUOUS
 62
4
 10
1.4829713E+002
 20
2.1073117E+002
 40
3.0
  1
33,5
 41
8.0E-001
  0
DIMENSION
  8
1
  6
CONTINUOUS
 62
4
  1
       
  2
*D1372
  3
DSTYLE1
 10
1.7406059E+002
 20
2.0946083E+002
 11
1.5482779E+002
 21
2.1246183E+002
 70
128
 13
1.4056059E+002
 23
1.9854533E+002
 14
1.7406059E+002
 24
1.9824533E+002
 40
1.25E-001
 50
0.0
  0
POLYLINE
  8
1
  6
CONTINUOUS
 62
3
 66
1
 40
5.0E-001
 41
5.0E-001
 70
0
  0
VERTEX
  8
1
 42
0.0
 10
4.3751748E+001
 20
1.6024503E+002
 70
0
  0
VERTEX
  8
1
 42
0.0
 10
4.3751748E+001
 20
1.5884493E+002
 70
0
  0
SEQEND
  0
TEXT
  8
1
  6
CONTINUOUS
 62
4
 10
3.3866636E+001
 20
2.3273815E+001
 40
2.2
  1
JL 121 031
 41
6.0E-001
  0
TEXT
  8
1
  6
CONTINUOUS
 62
4
 10
3.4848086E+001
 20
5.3690365E+001
 40
3.0
  1
Rastermass : 2,54mm
 41
8.0E-001
  0
TEXT
  8
1
  6
CONTINUOUS
 62
4
 10
3.8448363E+001
 20
2.1055094E+002
 40
2.7
  1
10,16
 41
7.0E-001
  0
DIMENSION
  8
1
  6
CONTINUOUS
 62
4
  1
       
  2
*D1377
  3
DSTYLE1
 10
4.8241748E+001
 20
2.0946083E+002
 11
4.2827788E+001
 21
2.1246183E+002
 70
128
 13
3.8051738E+001
 23
1.9540113E+002
 14
4.8241748E+001
 24
1.9483343E+002
 40
1.25E-001
 50
0.0
  0
TEXT
  8
1
  6
CONTINUOUS
 62
4
 10
1.5746902E+002
 20
2.3477256E+002
 40
3.0
  1
51,5
 41
8.0E-001
  0
DIMENSION
  8
1
  6
CONTINUOUS
 62
4
  1
       
  2
*D1379
  3
DSTYLE1
 10
1.8906059E+002
 20
2.3346083E+002
 11
1.6282779E+002
 21
2.3646183E+002
 70
128
 13
1.3756059E+002
 23
2.0164533E+002
 14
1.8906059E+002
 24
1.9374543E+002
 40
1.25E-001
 50
0.0
  0
POLYLINE
  8
1
  6
CONTINUOUS
 62
3
 66
1
 40
5.0E-001
 41
5.0E-001
 70
0
  0
VERTEX
  8
1
 42
0.0
 10
6.9551758E+001
 20
2.0164503E+002
 70
0
  0
VERTEX
  8
1
 42
0.0
 10
6.9551758E+001
 20
2.0054503E+002
 70
0
  0
SEQEND
  0
POLYLINE
  8
1
  6
CONTINUOUS
 62
3
 66
1
 40
5.0E-001
 41
5.0E-001
 70
0
  0
VERTEX
  8
1
 42
0.0
 10
6.5451748E+001
 20
2.0164503E+002
 70
0
  0
VERTEX
  8
1
 42
0.0
 10
6.5451748E+001
 20
2.0054503E+002
 70
0
  0
SEQEND
  0
POLYLINE
  8
1
  6
CONTINUOUS
 62
3
 66
1
 40
5.0E-001
 41
5.0E-001
 70
0
  0
VERTEX
  8
1
 42
0.0
 10
7.0551738E+001
 20
1.6054503E+002
 70
0
  0
VERTEX
  8
1
 42
0.0
 10
7.0551738E+001
 20
1.5944503E+002
 70
0
  0
SEQEND
  0
POLYLINE
  8
1
  6
CONTINUOUS
 62
3
 66
1
 40
5.0E-001
 41
5.0E-001
 70
0
  0
VERTEX
  8
1
 42
0.0
 10
6.4451738E+001
 20
1.6054503E+002
 70
0
  0
VERTEX
  8
1
 42
0.0
 10
6.4451738E+001
 20
1.5944503E+002
 70
0
  0
SEQEND
  0
POLYLINE
  8
1
  6
CONTINUOUS
 62
3
 66
1
 40
5.0E-001
 41
5.0E-001
 70
0
  0
VERTEX
  8
1
 42
0.0
 10
6.4951748E+001
 20
2.0164503E+002
 70
0
  0
VERTEX
  8
1
 42
0.0
 10
6.4951748E+001
 20
2.0054503E+002
 70
0
  0
SEQEND
  0
POLYLINE
  8
1
  6
CONTINUOUS
 62
3
 66
1
 40
5.0E-001
 41
5.0E-001
 70
0
  0
VERTEX
  8
1
 42
0.0
 10
7.0051758E+001
 20
2.0164503E+002
 70
0
  0
VERTEX
  8
1
 42
0.0
 10
7.0051758E+001
 20
2.0054503E+002
 70
0
  0
SEQEND
  0
TEXT
  8
1
  6
CONTINUOUS
 62
4
 10
1.5443319E+002
 20
2.2673598E+002
 40
3.0
  1
47,5
 41
8.0E-001
  0
DIMENSION
  8
1
  6
CONTINUOUS
 62
4
  1
       
  2
*D1387
  3
DSTYLE1
 10
1.8506059E+002
 20
2.2546083E+002
 11
1.6082779E+002
 21
2.2846183E+002
 70
128
 13
1.3756059E+002
 23
2.0164533E+002
 14
1.8506059E+002
 24
2.0054533E+002
 40
1.25E-001
 50
0.0
  0
POLYLINE
  8
1
  6
CONTINUOUS
 62
3
 66
1
 40
5.0E-001
 41
5.0E-001
 70
0
  0
VERTEX
  8
1
 42
0.0
 10
4.3751748E+001
 20
2.0084503E+002
 70
0
  0
VERTEX
  8
1
 42
0.0
 10
4.3751748E+001
 20
1.6024503E+002
 70
0
  0
SEQEND
  0
POLYLINE
  8
1
  6
CONTINUOUS
 62
3
 66
1
 40
5.0E-001
 41
5.0E-001
 70
0
  0
VERTEX
  8
1
 42
0.0
 10
8.1801738E+001
 20
1.5944503E+002
 70
0
  0
VERTEX
  8
1
 42
0.0
 10
7.0051738E+001
 20
1.5944503E+002
 70
0
  0
SEQEND
  0
POLYLINE
  8
1
  6
CONTINUOUS
 62
3
 66
1
 40
5.0E-001
 41
5.0E-001
 70
0
  0
VERTEX
  8
1
 42
0.0
 10
6.6001738E+001
 20
1.5924503E+002
 70
0
  0
VERTEX
  8
1
 42
0.0
 10
6.6001738E+001
 20
1.5944503E+002
 70
0
  0
SEQEND
  0
POLYLINE
  8
1
  6
CONTINUOUS
 62
3
 66
1
 40
5.0E-001
 41
5.0E-001
 70
0
  0
VERTEX
  8
1
 42
0.0
 10
6.4951738E+001
 20
1.5944503E+002
 70
0
  0
VERTEX
  8
1
 42
0.0
 10
5.3201738E+001
 20
1.5944503E+002
 70
0
  0
SEQEND
  0
POLYLINE
  8
1
  6
CONTINUOUS
 62
3
 66
1
 40
5.0E-001
 41
5.0E-001
 70
0
  0
VERTEX
  8
1
 42
0.0
 10
9.0451738E+001
 20
1.5944503E+002
 70
0
  0
VERTEX
  8
1
 42
0.0
 10
8.7301738E+001
 20
1.5944503E+002
 70
0
  0
SEQEND
  0
POLYLINE
  8
1
  6
CONTINUOUS
 62
3
 66
1
 40
5.0E-001
 41
5.0E-001
 70
0
  0
VERTEX
  8
1
 42
0.0
 10
8.1801738E+001
 20
2.0164503E+002
 70
0
  0
VERTEX
  8
1
 42
0.0
 10
5.3201748E+001
 20
2.0164503E+002
 70
0
  0
SEQEND
  0
POLYLINE
  8
1
  6
CONTINUOUS
 62
3
 66
1
 40
5.0E-001
 41
5.0E-001
 70
0
  0
VERTEX
  8
1
 42
0.0
 10
9.0451748E+001
 20
2.0164503E+002
 70
0
  0
VERTEX
  8
1
 42
0.0
 10
8.7301738E+001
 20
2.0164503E+002
 70
0
  0
SEQEND
  0
POLYLINE
  8
1
  6
CONTINUOUS
 62
3
 66
1
 40
5.0E-001
 41
5.0E-001
 70
0
  0
VERTEX
  8
1
 42
0.0
 10
4.7328418E+001
 20
1.8309503E+002
 70
0
  0
VERTEX
  8
1
 42
0.0
 10
4.7328418E+001
 20
1.8254503E+002
 70
0
  0
SEQEND
  0
POLYLINE
  8
1
  6
CONTINUOUS
 62
3
 66
1
 40
5.0E-001
 41
5.0E-001
 70
0
  0
VERTEX
  8
1
 42
0.0
 10
4.7328418E+001
 20
1.8167783E+002
 70
0
  0
VERTEX
  8
1
 42
0.0
 10
5.0275768E+001
 20
1.8167783E+002
 70
0
  0
SEQEND
  0
POLYLINE
  8
1
  6
CONTINUOUS
 62
3
 66
1
 40
5.0E-001
 41
5.0E-001
 70
0
  0
VERTEX
  8
1
 42
0.0
 10
4.6828418E+001
 20
1.8117783E+002
 70
0
  0
VERTEX
  8
1
 42
0.0
 10
4.6828418E+001
 20
1.7991533E+002
 70
0
  0
SEQEND
  0
POLYLINE
  8
1
  6
CONTINUOUS
 62
3
 66
1
 40
5.0E-001
 41
5.0E-001
 70
0
  0
VERTEX
  8
1
 42
4.1421351E-001
 10
4.7328418E+001
 20
1.8167783E+002
 70
0
  0
VERTEX
  8
1
 42
0.0
 10
4.6828418E+001
 20
1.8117783E+002
 70
0
  0
SEQEND
  0
POLYLINE
  8
1
  6
CONTINUOUS
 62
3
 66
1
 40
5.0E-001
 41
5.0E-001
 70
0
  0
VERTEX
  8
1
 42
0.0
 10
5.1828418E+001
 20
1.8292783E+002
 70
0
  0
VERTEX
  8
1
 42
0.0
 10
5.1828418E+001
 20
1.8052783E+002
 70
0
  0
SEQEND
  0
POLYLINE
  8
1
  6
CONTINUOUS
 62
3
 66
1
 40
5.0E-001
 41
5.0E-001
 70
0
  0
VERTEX
  8
1
 42
0.0
 10
4.9028398E+001
 20
1.8167783E+002
 70
0
  0
VERTEX
  8
1
 42
0.0
 10
4.9028398E+001
 20
1.8052783E+002
 70
0
  0
SEQEND
  0
INSERT
  2
*E1401
  8
1
 10
4.7086378E+001
 20
1.8153823E+002
 41
1.0
 42
1.0
 43
1.0
 50
2.7E+002
 62
3
  0
POLYLINE
  8
1
  6
CONTINUOUS
 62
3
 66
1
 40
5.0E-001
 41
5.0E-001
 70
0
  0
VERTEX
  8
1
 42
0.0
 10
4.7093088E+001
 20
1.8147443E+002
 70
0
  0
VERTEX
  8
1
 42
0.0
 10
4.9028398E+001
 20
1.8167783E+002
 70
0
  0
SEQEND
  0
POLYLINE
  8
1
  6
CONTINUOUS
 62
3
 66
1
 40
5.0E-001
 41
5.0E-001
 70
0
  0
VERTEX
  8
1
 42
0.0
 10
4.9975778E+001
 20
1.8167783E+002
 70
0
  0
VERTEX
  8
1
 42
0.0
 10
4.9975778E+001
 20
1.8052783E+002
 70
0
  0
SEQEND
  0
POLYLINE
  8
1
  6
CONTINUOUS
 62
3
 66
1
 40
5.0E-001
 41
5.0E-001
 70
0
  0
VERTEX
  8
1
 42
0.0
 10
4.9028398E+001
 20
1.8112783E+002
 70
0
  0
VERTEX
  8
1
 42
0.0
 10
4.9975778E+001
 20
1.8112783E+002
 70
0
  0
SEQEND
  0
POLYLINE
  8
1
  6
CONTINUOUS
 62
3
 66
1
 40
5.0E-001
 41
5.0E-001
 70
0
  0
VERTEX
  8
1
 42
0.0
 10
5.0275768E+001
 20
1.8242783E+002
 70
0
  0
VERTEX
  8
1
 42
0.0
 10
5.0275768E+001
 20
1.8052783E+002
 70
0
  0
SEQEND
  0
INSERT
  2
*E1406
  8
1
 10
5.0775768E+001
 20
1.8242783E+002
 41
1.0
 42
1.0
 43
1.0
 50
2.7E+002
 62
3
  0
POLYLINE
  8
1
  6
CONTINUOUS
 62
3
 66
1
 40
5.0E-001
 41
5.0E-001
 70
0
  0
VERTEX
  8
1
 42
0.0
 10
4.7326158E+001
 20
1.7799503E+002
 70
0
  0
VERTEX
  8
1
 42
0.0
 10
4.7326638E+001
 20
1.7854483E+002
 70
0
  0
SEQEND
  0
POLYLINE
  8
1
  6
CONTINUOUS
 62
3
 66
1
 40
5.0E-001
 41
5.0E-001
 70
0
  0
VERTEX
  8
1
 42
0.0
 10
4.7327958E+001
 20
1.7941533E+002
 70
0
  0
VERTEX
  8
1
 42
0.0
 10
5.0274798E+001
 20
1.7941273E+002
 70
0
  0
SEQEND
  0
POLYLINE
  8
1
  6
CONTINUOUS
 62
3
 66
1
 40
5.0E-001
 41
5.0E-001
 70
0
  0
VERTEX
  8
1
 42
0.0
 10
5.1826308E+001
 20
1.7816133E+002
 70
0
  0
VERTEX
  8
1
 42
0.0
 10
5.1828418E+001
 20
1.8056133E+002
 70
0
  0
SEQEND
  0
POLYLINE
  8
1
  6
CONTINUOUS
 62
3
 66
1
 40
5.0E-001
 41
5.0E-001
 70
0
  0
VERTEX
  8
1
 42
0.0
 10
4.9027418E+001
 20
1.7941383E+002
 70
0
  0
VERTEX
  8
1
 42
0.0
 10
4.9028428E+001
 20
1.8056383E+002
 70
0
  0
SEQEND
  0
POLYLINE
  8
1
  6
CONTINUOUS
 62
3
 66
1
 40
5.0E-001
 41
5.0E-001
 70
0
  0
VERTEX
  8
1
 42
9.3915998E-001
 10
4.7107288E+001
 20
1.7961551E+002
 70
0
  0
VERTEX
  8
1
 42
0.0
 10
4.7056382E+001
 20
1.7949793E+002
 70
0
  0
SEQEND
  0
POLYLINE
  8
1
  6
CONTINUOUS
 62
3
 66
1
 40
5.0E-001
 41
5.0E-001
 70
0
  0
VERTEX
  8
1
 42
0.0
 10
4.7092268E+001
 20
1.7961893E+002
 70
0
  0
VERTEX
  8
1
 42
0.0
 10
4.9027418E+001
 20
1.7941383E+002
 70
0
  0
SEQEND
  0
POLYLINE
  8
1
  6
CONTINUOUS
 62
3
 66
1
 40
5.0E-001
 41
5.0E-001
 70
0
  0
VERTEX
  8
1
 42
0.0
 10
4.9974778E+001
 20
1.7941293E+002
 70
0
  0
VERTEX
  8
1
 42
0.0
 10
4.9975778E+001
 20
1.8056293E+002
 70
0
  0
SEQEND
  0
POLYLINE
  8
1
  6
CONTINUOUS
 62
3
 66
1
 40
5.0E-001
 41
5.0E-001
 70
0
  0
VERTEX
  8
1
 42
0.0
 10
4.9027908E+001
 20
1.7996383E+002
 70
0
  0
VERTEX
  8
1
 42
0.0
 10
4.9975268E+001
 20
1.7996293E+002
 70
0
  0
SEQEND
  0
POLYLINE
  8
1
  6
CONTINUOUS
 62
3
 66
1
 40
5.0E-001
 41
5.0E-001
 70
0
  0
VERTEX
  8
1
 42
0.0
 10
5.0274118E+001
 20
1.7866273E+002
 70
0
  0
VERTEX
  8
1
 42
0.0
 10
5.0275798E+001
 20
1.8056273E+002
 70
0
  0
SEQEND
  0
POLYLINE
  8
1
  6
CONTINUOUS
 62
3
 66
1
 40
5.0E-001
 41
5.0E-001
 70
0
  0
VERTEX
  8
1
 42
4.1421407E-001
 10
5.0274118E+001
 20
1.7866267E+002
 70
0
  0
VERTEX
  8
1
 42
0.0
 10
5.0773678E+001
 20
1.7816223E+002
 70
0
  0
SEQEND
  0
POLYLINE
  8
1
  6
CONTINUOUS
 62
3
 66
1
 40
5.0E-001
 41
5.0E-001
 70
0
  0
VERTEX
  8
1
 42
4.1395441E-001
 10
4.6828418E+001
 20
1.7991533E+002
 70
0
  0
VERTEX
  8
1
 42
0.0
 10
4.7327975E+001
 20
1.7941533E+002
 70
0
  0
SEQEND
  0
POLYLINE
  8
1
  6
CONTINUOUS
 62
3
 66
1
 40
5.0E-001
 41
5.0E-001
 70
0
  0
VERTEX
  8
1
 42
0.0
 10
5.0775768E+001
 20
1.8292783E+002
 70
0
  0
VERTEX
  8
1
 42
0.0
 10
5.3864078E+001
 20
1.8292783E+002
 70
0
  0
SEQEND
  0
POLYLINE
  8
1
  6
CONTINUOUS
 62
3
 66
1
 40
5.0E-001
 41
5.0E-001
 70
0
  0
VERTEX
  8
1
 42
0.0
 10
5.0773678E+001
 20
1.7816223E+002
 70
0
  0
VERTEX
  8
1
 42
0.0
 10
5.3864128E+001
 20
1.7816223E+002
 70
0
  0
SEQEND
  0
POLYLINE
  8
1
  6
CONTINUOUS
 62
3
 66
1
 40
5.0E-001
 41
5.0E-001
 70
0
  0
VERTEX
  8
1
 42
0.0
 10
9.1251758E+001
 20
1.9974503E+002
 70
0
  0
VERTEX
  8
1
 42
0.0
 10
9.1251738E+001
 20
1.6134503E+002
 70
0
  0
SEQEND
  0
POLYLINE
  8
1
  6
CONTINUOUS
 62
3
 66
1
 40
5.0E-001
 41
5.0E-001
 70
0
  0
VERTEX
  8
1
 42
0.0
 10
4.3751748E+001
 20
1.7734503E+002
 70
0
  0
VERTEX
  8
1
 42
0.0
 10
4.3751748E+001
 20
1.6134503E+002
 70
0
  0
SEQEND
  0
POLYLINE
  8
1
  6
CONTINUOUS
 62
3
 66
1
 40
5.0E-001
 41
5.0E-001
 70
0
  0
VERTEX
  8
1
 42
0.0
 10
9.0451748E+001
 20
2.0054503E+002
 70
0
  0
VERTEX
  8
1
 42
0.0
 10
4.4551748E+001
 20
2.0054503E+002
 70
0
  0
SEQEND
  0
POLYLINE
  8
1
  6
CONTINUOUS
 62
3
 66
1
 40
5.0E-001
 41
5.0E-001
 70
0
  0
VERTEX
  8
1
 42
0.0
 10
9.0451738E+001
 20
1.6054503E+002
 70
0
  0
VERTEX
  8
1
 42
0.0
 10
4.4551748E+001
 20
1.6054503E+002
 70
0
  0
SEQEND
  0
POLYLINE
  8
1
  6
CONTINUOUS
 62
3
 66
1
 40
5.0E-001
 41
5.0E-001
 70
0
  0
VERTEX
  8
1
 42
4.1421356E-001
 10
9.1251748E+001
 20
1.9974503E+002
 70
0
  0
VERTEX
  8
1
 42
0.0
 10
9.0451748E+001
 20
2.0054503E+002
 70
0
  0
SEQEND
  0
POLYLINE
  8
1
  6
CONTINUOUS
 62
3
 66
1
 40
5.0E-001
 41
5.0E-001
 70
0
  0
VERTEX
  8
1
 42
4.1421402E-001
 10
4.4551747E+001
 20
2.0054503E+002
 70
0
  0
VERTEX
  8
1
 42
0.0
 10
4.3751748E+001
 20
1.9974502E+002
 70
0
  0
SEQEND
  0
POLYLINE
  8
1
  6
CONTINUOUS
 62
3
 66
1
 40
5.0E-001
 41
5.0E-001
 70
0
  0
VERTEX
  8
1
 42
4.1421356E-001
 10
4.3751748E+001
 20
1.6134503E+002
 70
0
  0
VERTEX
  8
1
 42
0.0
 10
4.4551748E+001
 20
1.6054503E+002
 70
0
  0
SEQEND
  0
POLYLINE
  8
1
  6
CONTINUOUS
 62
3
 66
1
 40
5.0E-001
 41
5.0E-001
 70
0
  0
VERTEX
  8
1
 42
4.1421356E-001
 10
9.0451738E+001
 20
1.6054503E+002
 70
0
  0
VERTEX
  8
1
 42
0.0
 10
9.1251738E+001
 20
1.6134503E+002
 70
0
  0
SEQEND
  0
POLYLINE
  8
1
  6
CONTINUOUS
 62
3
 66
1
 40
5.0E-001
 41
5.0E-001
 70
0
  0
VERTEX
  8
1
 42
0.0
 10
5.3451748E+001
 20
1.8314503E+002
 70
0
  0
VERTEX
  8
1
 42
0.0
 10
4.5301748E+001
 20
1.8314503E+002
 70
0
  0
SEQEND
  0
POLYLINE
  8
1
  6
CONTINUOUS
 62
3
 66
1
 40
5.0E-001
 41
5.0E-001
 70
0
  0
VERTEX
  8
1
 42
0.0
 10
5.3451748E+001
 20
1.7794503E+002
 70
0
  0
VERTEX
  8
1
 42
0.0
 10
4.5301748E+001
 20
1.7794503E+002
 70
0
  0
SEQEND
  0
POLYLINE
  8
1
  6
CONTINUOUS
 62
3
 66
1
 40
5.0E-001
 41
5.0E-001
 70
0
  0
VERTEX
  8
1
 42
0.0
 10
4.5301748E+001
 20
1.8374503E+002
 70
0
  0
VERTEX
  8
1
 42
0.0
 10
4.3751748E+001
 20
1.8374503E+002
 70
0
  0
SEQEND
  0
POLYLINE
  8
1
  6
CONTINUOUS
 62
3
 66
1
 40
5.0E-001
 41
5.0E-001
 70
0
  0
VERTEX
  8
1
 42
0.0
 10
4.5301748E+001
 20
1.7734503E+002
 70
0
  0
VERTEX
  8
1
 42
0.0
 10
4.3751748E+001
 20
1.7734503E+002
 70
0
  0
SEQEND
  0
POLYLINE
  8
1
  6
CONTINUOUS
 62
3
 66
1
 40
5.0E-001
 41
5.0E-001
 70
0
  0
VERTEX
  8
1
 42
0.0
 10
4.5301748E+001
 20
1.7794503E+002
 70
0
  0
VERTEX
  8
1
 42
0.0
 10
4.5301748E+001
 20
1.7734503E+002
 70
0
  0
SEQEND
  0
POLYLINE
  8
1
  6
CONTINUOUS
 62
3
 66
1
 40
5.0E-001
 41
5.0E-001
 70
0
  0
VERTEX
  8
1
 42
0.0
 10
4.5301748E+001
 20
1.8374503E+002
 70
0
  0
VERTEX
  8
1
 42
0.0
 10
4.5301748E+001
 20
1.8314503E+002
 70
0
  0
SEQEND
  0
POLYLINE
  8
1
  6
CONTINUOUS
 62
3
 66
1
 40
5.0E-001
 41
5.0E-001
 70
0
  0
VERTEX
  8
1
 42
0.0
 10
7.6251738E+001
 20
1.8159503E+002
 70
0
  0
VERTEX
  8
1
 42
0.0
 10
7.6251738E+001
 20
1.7949503E+002
 70
0
  0
SEQEND
  0
POLYLINE
  8
1
  6
CONTINUOUS
 62
3
 66
1
 40
5.0E-001
 41
5.0E-001
 70
0
  0
VERTEX
  8
1
 42
0.0
 10
7.3751738E+001
 20
1.8159503E+002
 70
0
  0
VERTEX
  8
1
 42
0.0
 10
7.3751738E+001
 20
1.7949503E+002
 70
0
  0
SEQEND
  0
POLYLINE
  8
1
  6
CONTINUOUS
 62
3
 66
1
 40
5.0E-001
 41
5.0E-001
 70
0
  0
VERTEX
  8
1
 42
0.0
 10
6.2151748E+001
 20
1.8159503E+002
 70
0
  0
VERTEX
  8
1
 42
0.0
 10
6.2151748E+001
 20
1.7949503E+002
 70
0
  0
SEQEND
  0
POLYLINE
  8
1
  6
CONTINUOUS
 62
3
 66
1
 40
5.0E-001
 41
5.0E-001
 70
0
  0
VERTEX
  8
1
 42
0.0
 10
6.4651748E+001
 20
1.8159503E+002
 70
0
  0
VERTEX
  8
1
 42
0.0
 10
6.4651748E+001
 20
1.7949503E+002
 70
0
  0
SEQEND
  0
POLYLINE
  8
1
  6
CONTINUOUS
 62
3
 66
1
 40
5.0E-001
 41
5.0E-001
 70
0
  0
VERTEX
  8
1
 42
0.0
 10
7.6251738E+001
 20
1.8159503E+002
 70
0
  0
VERTEX
  8
1
 42
0.0
 10
7.3751738E+001
 20
1.8159503E+002
 70
0
  0
SEQEND
  0
POLYLINE
  8
1
  6
CONTINUOUS
 62
3
 66
1
 40
5.0E-001
 41
5.0E-001
 70
0
  0
VERTEX
  8
1
 42
0.0
 10
7.6251738E+001
 20
1.7949503E+002
 70
0
  0
VERTEX
  8
1
 42
0.0
 10
7.3751738E+001
 20
1.7949503E+002
 70
0
  0
SEQEND
  0
POLYLINE
  8
1
  6
CONTINUOUS
 62
3
 66
1
 40
5.0E-001
 41
5.0E-001
 70
0
  0
VERTEX
  8
1
 42
0.0
 10
6.4651748E+001
 20
1.8159503E+002
 70
0
  0
VERTEX
  8
1
 42
0.0
 10
6.2151748E+001
 20
1.8159503E+002
 70
0
  0
SEQEND
  0
POLYLINE
  8
1
  6
CONTINUOUS
 62
3
 66
1
 40
5.0E-001
 41
5.0E-001
 70
0
  0
VERTEX
  8
1
 42
0.0
 10
6.4651748E+001
 20
1.7949503E+002
 70
0
  0
VERTEX
  8
1
 42
0.0
 10
6.2151748E+001
 20
1.7949503E+002
 70
0
  0
SEQEND
  0
POLYLINE
  8
1
  6
CONTINUOUS
 62
3
 66
1
 40
5.0E-001
 41
5.0E-001
 70
0
  0
VERTEX
  8
1
 42
0.0
 10
7.6751738E+001
 20
1.8209503E+002
 70
0
  0
VERTEX
  8
1
 42
0.0
 10
7.3251738E+001
 20
1.8209503E+002
 70
0
  0
SEQEND
  0
POLYLINE
  8
1
  6
CONTINUOUS
 62
3
 66
1
 40
5.0E-001
 41
5.0E-001
 70
0
  0
VERTEX
  8
1
 42
0.0
 10
7.6751738E+001
 20
1.7899503E+002
 70
0
  0
VERTEX
  8
1
 42
0.0
 10
7.3251738E+001
 20
1.7899503E+002
 70
0
  0
SEQEND
  0
POLYLINE
  8
1
  6
CONTINUOUS
 62
3
 66
1
 40
5.0E-001
 41
5.0E-001
 70
0
  0
VERTEX
  8
1
 42
0.0
 10
7.6751738E+001
 20
1.8209503E+002
 70
0
  0
VERTEX
  8
1
 42
0.0
 10
7.6751738E+001
 20
1.7899503E+002
 70
0
  0
SEQEND
  0
POLYLINE
  8
1
  6
CONTINUOUS
 62
3
 66
1
 40
5.0E-001
 41
5.0E-001
 70
0
  0
VERTEX
  8
1
 42
0.0
 10
7.3251738E+001
 20
1.8209503E+002
 70
0
  0
VERTEX
  8
1
 42
0.0
 10
7.3251738E+001
 20
1.7899503E+002
 70
0
  0
SEQEND
  0
POLYLINE
  8
1
  6
CONTINUOUS
 62
3
 66
1
 40
5.0E-001
 41
5.0E-001
 70
0
  0
VERTEX
  8
1
 42
0.0
 10
6.5151748E+001
 20
1.8209503E+002
 70
0
  0
VERTEX
  8
1
 42
0.0
 10
6.5151748E+001
 20
1.7899503E+002
 70
0
  0
SEQEND
  0
POLYLINE
  8
1
  6
CONTINUOUS
 62
3
 66
1
 40
5.0E-001
 41
5.0E-001
 70
0
  0
VERTEX
  8
1
 42
0.0
 10
6.5151748E+001
 20
1.7899503E+002
 70
0
  0
VERTEX
  8
1
 42
0.0
 10
6.1651748E+001
 20
1.7899503E+002
 70
0
  0
SEQEND
  0
POLYLINE
  8
1
  6
CONTINUOUS
 62
3
 66
1
 40
5.0E-001
 41
5.0E-001
 70
0
  0
VERTEX
  8
1
 42
0.0
 10
6.1651748E+001
 20
1.8209503E+002
 70
0
  0
VERTEX
  8
1
 42
0.0
 10
6.1651748E+001
 20
1.7899503E+002
 70
0
  0
SEQEND
  0
POLYLINE
  8
1
  6
CONTINUOUS
 62
3
 66
1
 40
5.0E-001
 41
5.0E-001
 70
0
  0
VERTEX
  8
1
 42
0.0
 10
6.5151748E+001
 20
1.8209503E+002
 70
0
  0
VERTEX
  8
1
 42
0.0
 10
6.1651748E+001
 20
1.8209503E+002
 70
0
  0
SEQEND
  0
POLYLINE
  8
1
  6
CONTINUOUS
 62
3
 66
1
 40
5.0E-001
 41
5.0E-001
 70
0
  0
VERTEX
  8
1
 42
0.0
 10
7.6751738E+001
 20
1.7899503E+002
 70
0
  0
VERTEX
  8
1
 42
0.0
 10
7.6251738E+001
 20
1.7949503E+002
 70
0
  0
SEQEND
  0
POLYLINE
  8
1
  6
CONTINUOUS
 62
3
 66
1
 40
5.0E-001
 41
5.0E-001
 70
0
  0
VERTEX
  8
1
 42
0.0
 10
7.3251738E+001
 20
1.7899503E+002
 70
0
  0
VERTEX
  8
1
 42
0.0
 10
7.3751738E+001
 20
1.7949503E+002
 70
0
  0
SEQEND
  0
POLYLINE
  8
1
  6
CONTINUOUS
 62
3
 66
1
 40
5.0E-001
 41
5.0E-001
 70
0
  0
VERTEX
  8
1
 42
0.0
 10
7.3251738E+001
 20
1.8209503E+002
 70
0
  0
VERTEX
  8
1
 42
0.0
 10
7.3751738E+001
 20
1.8159503E+002
 70
0
  0
SEQEND
  0
POLYLINE
  8
1
  6
CONTINUOUS
 62
3
 66
1
 40
5.0E-001
 41
5.0E-001
 70
0
  0
VERTEX
  8
1
 42
0.0
 10
7.6751738E+001
 20
1.8209503E+002
 70
0
  0
VERTEX
  8
1
 42
0.0
 10
7.6251738E+001
 20
1.8159503E+002
 70
0
  0
SEQEND
  0
POLYLINE
  8
1
  6
CONTINUOUS
 62
3
 66
1
 40
5.0E-001
 41
5.0E-001
 70
0
  0
VERTEX
  8
1
 42
0.0
 10
6.1651748E+001
 20
1.7899503E+002
 70
0
  0
VERTEX
  8
1
 42
0.0
 10
6.2151748E+001
 20
1.7949503E+002
 70
0
  0
SEQEND
  0
POLYLINE
  8
1
  6
CONTINUOUS
 62
3
 66
1
 40
5.0E-001
 41
5.0E-001
 70
0
  0
VERTEX
  8
1
 42
0.0
 10
6.2151748E+001
 20
1.8159503E+002
 70
0
  0
VERTEX
  8
1
 42
0.0
 10
6.1651748E+001
 20
1.8209503E+002
 70
0
  0
SEQEND
  0
POLYLINE
  8
1
  6
CONTINUOUS
 62
3
 66
1
 40
5.0E-001
 41
5.0E-001
 70
0
  0
VERTEX
  8
1
 42
0.0
 10
6.5151748E+001
 20
1.7899503E+002
 70
0
  0
VERTEX
  8
1
 42
0.0
 10
6.4651748E+001
 20
1.7949503E+002
 70
0
  0
SEQEND
  0
POLYLINE
  8
1
  6
CONTINUOUS
 62
3
 66
1
 40
5.0E-001
 41
5.0E-001
 70
0
  0
VERTEX
  8
1
 42
0.0
 10
6.4651748E+001
 20
1.8159503E+002
 70
0
  0
VERTEX
  8
1
 42
0.0
 10
6.5151748E+001
 20
1.8209503E+002
 70
0
  0
SEQEND
  0
POLYLINE
  8
1
  6
CONTINUOUS
 62
3
 66
1
 40
5.0E-001
 41
5.0E-001
 70
0
  0
VERTEX
  8
1
 42
0.0
 10
8.1801738E+001
 20
2.0169503E+002
 70
0
  0
VERTEX
  8
1
 42
0.0
 10
8.1801738E+001
 20
2.0054503E+002
 70
0
  0
SEQEND
  0
POLYLINE
  8
1
  6
CONTINUOUS
 62
3
 66
1
 40
5.0E-001
 41
5.0E-001
 70
0
  0
VERTEX
  8
1
 42
0.0
 10
4.5101738E+001
 20
1.6044503E+002
 70
0
  0
VERTEX
  8
1
 42
0.0
 10
4.3751748E+001
 20
1.6044503E+002
 70
0
  0
SEQEND
  0
DIMENSION
  8
1
  6
CONTINUOUS
 62
4
  2
*D1460
  3
DSTYLE2
 10
1.0982879E+002
 20
1.5944503E+002
 11
1.0682779E+002
 21
1.8046183E+002
 70
128
 13
8.1801838E+001
 23
2.0164503E+002
 14
8.1801838E+001
 24
1.5944503E+002
 40
1.25E-001
 50
9.0E+001
  0
TEXT
  8
1
  6
CONTINUOUS
 62
4
 10
4.8644373E+001
 20
2.1048296E+002
 40
2.7
  1
10,16
 41
7.0E-001
  0
DIMENSION
  8
1
  6
CONTINUOUS
 62
4
  1
       
  2
*D1462
  3
DSTYLE1
 10
5.8401738E+001
 20
2.0946083E+002
 11
5.2827788E+001
 21
2.1246183E+002
 70
128
 13
4.8241748E+001
 23
1.9483343E+002
 14
5.8401738E+001
 24
1.9483343E+002
 40
1.25E-001
 50
0.0
  0
TEXT
  8
1
  6
CONTINUOUS
 62
4
 10
1.5218829E+002
 20
2.1872733E+002
 40
3.0
  1
44,5
 41
8.0E-001
  0
DIMENSION
  8
1
  6
CONTINUOUS
 62
4
  1
       
  2
*D1464
  3
DSTYLE1
 10
1.8506059E+002
 20
2.1746083E+002
 11
1.5882779E+002
 21
2.2046183E+002
 70
128
 13
1.4056059E+002
 23
1.9854533E+002
 14
1.8506059E+002
 24
2.0054533E+002
 40
1.25E-001
 50
0.0
  0
TEXT
  8
1
  6
CONTINUOUS
 62
4
 10
3.3883486E+001
 20
1.8931895E+001
 40
2.2
  1
ohne KAE 16.4.92
 41
6.0E-001
  0
TEXT
  8
1
  6
CONTINUOUS
 62
4
 10
2.6737236E+001
 20
1.8931895E+001
 40
2.5
  1
d
 41
8.666667E-001
  0
POLYLINE
  8
1
  6
CONTINUOUS
 62
3
 66
1
 40
5.0E-001
 41
5.0E-001
 70
0
  0
VERTEX
  8
1
 42
0.0
 10
4.4751748E+001
 20
1.7799503E+002
 70
0
  0
VERTEX
  8
1
 42
0.0
 10
4.4751748E+001
 20
1.7744503E+002
 70
0
  0
SEQEND
  0
POLYLINE
  8
1
  6
CONTINUOUS
 62
3
 66
1
 40
5.0E-001
 41
5.0E-001
 70
0
  0
VERTEX
  8
1
 42
0.0
 10
3.3951698E+001
 20
2.0064503E+002
 70
0
  0
VERTEX
  8
1
 42
0.0
 10
3.3251718E+001
 20
2.0064503E+002
 70
0
  0
SEQEND
  0
POLYLINE
  8
1
  6
CONTINUOUS
 62
3
 66
1
 40
5.0E-001
 41
5.0E-001
 70
0
  0
VERTEX
  8
1
 42
0.0
 10
3.3251718E+001
 20
2.0129513E+002
 70
0
  0
VERTEX
  8
1
 42
0.0
 10
3.3251718E+001
 20
2.0054503E+002
 70
0
  0
SEQEND
  0
POLYLINE
  8
1
  6
CONTINUOUS
 62
3
 66
1
 40
5.0E-001
 41
5.0E-001
 70
0
  0
VERTEX
  8
1
 42
0.0
 10
3.2951698E+001
 20
2.0054503E+002
 70
0
  0
VERTEX
  8
1
 42
0.0
 10
3.2951698E+001
 20
2.0164503E+002
 70
0
  0
SEQEND
  0
POLYLINE
  8
1
  6
CONTINUOUS
 62
3
 66
1
 40
5.0E-001
 41
5.0E-001
 70
0
  0
VERTEX
  8
1
 42
0.0
 10
2.4851688E+001
 20
2.0114503E+002
 70
0
  0
VERTEX
  8
1
 42
0.0
 10
2.4851688E+001
 20
2.0054503E+002
 70
0
  0
SEQEND
  0
INSERT
  2
*E1472
  8
1
 10
2.4251718E+001
 20
2.0084503E+002
 41
1.0
 42
1.0
 43
1.0
 50
2.7E+002
 62
3
  0
POLYLINE
  8
1
  6
CONTINUOUS
 62
3
 66
1
 40
5.0E-001
 41
5.0E-001
 70
0
  0
VERTEX
  8
1
 42
0.0
 10
2.4351688E+001
 20
2.0164503E+002
 70
0
  0
VERTEX
  8
1
 42
0.0
 10
2.4301708E+001
 20
2.0164503E+002
 70
0
  0
SEQEND
  0
POLYLINE
  8
1
  6
CONTINUOUS
 62
3
 66
1
 40
5.0E-001
 41
5.0E-001
 70
0
  0
VERTEX
  8
1
 42
4.1421356E-001
 10
2.4851688E+001
 20
2.0114503E+002
 70
0
  0
VERTEX
  8
1
 42
0.0
 10
2.4351688E+001
 20
2.0164503E+002
 70
0
  0
SEQEND
  0
POLYLINE
  8
1
  6
CONTINUOUS
 62
3
 66
1
 40
5.0E-001
 41
5.0E-001
 70
0
  0
VERTEX
  8
1
 42
0.0
 10
3.2951698E+001
 20
2.0054503E+002
 70
0
  0
VERTEX
  8
1
 42
0.0
 10
3.2951698E+001
 20
2.0049503E+002
 70
0
  0
SEQEND
  0
POLYLINE
  8
1
  6
CONTINUOUS
 62
3
 66
1
 40
5.0E-001
 41
5.0E-001
 70
0
  0
VERTEX
  8
1
 42
0.0
 10
2.4247288E+001
 20
2.0164503E+002
 70
0
  0
VERTEX
  8
1
 42
0.0
 10
2.5151708E+001
 20
2.0164503E+002
 70
0
  0
SEQEND
  0
POLYLINE
  8
1
  6
CONTINUOUS
 62
3
 66
1
 40
5.0E-001
 41
5.0E-001
 70
0
  0
VERTEX
  8
1
 42
0.0
 10
2.5151708E+001
 20
2.0164503E+002
 70
0
  0
VERTEX
  8
1
 42
0.0
 10
2.5151708E+001
 20
2.0054503E+002
 70
0
  0
SEQEND
  0
POLYLINE
  8
1
  6
CONTINUOUS
 62
3
 66
1
 40
5.0E-001
 41
5.0E-001
 70
0
  0
VERTEX
  8
1
 42
0.0
 10
3.3251718E+001
 20
2.0054503E+002
 70
0
  0
VERTEX
  8
1
 42
0.0
 10
2.4851688E+001
 20
2.0054503E+002
 70
0
  0
SEQEND
  0
POLYLINE
  8
1
  6
CONTINUOUS
 62
3
 66
1
 40
5.0E-001
 41
5.0E-001
 70
0
  0
VERTEX
  8
1
 42
0.0
 10
2.4851688E+001
 20
2.0064503E+002
 70
0
  0
VERTEX
  8
1
 42
0.0
 10
2.3451728E+001
 20
2.0064503E+002
 70
0
  0
SEQEND
  0
POLYLINE
  8
1
  6
CONTINUOUS
 62
3
 66
1
 40
5.0E-001
 41
5.0E-001
 70
0
  0
VERTEX
  8
1
 42
0.0
 10
3.4251598E+001
 20
2.0164503E+002
 70
0
  0
VERTEX
  8
1
 42
0.0
 10
3.2951698E+001
 20
2.0164503E+002
 70
0
  0
SEQEND
  0
POLYLINE
  8
1
  6
CONTINUOUS
 62
3
 66
1
 40
5.0E-001
 41
5.0E-001
 70
0
  0
VERTEX
  8
1
 42
0.0
 10
3.3951578E+001
 20
2.0129513E+002
 70
0
  0
VERTEX
  8
1
 42
0.0
 10
3.3951578E+001
 20
2.0054503E+002
 70
0
  0
SEQEND
  0
POLYLINE
  8
1
  6
CONTINUOUS
 62
3
 66
1
 40
5.0E-001
 41
5.0E-001
 70
0
  0
VERTEX
  8
1
 42
0.0
 10
3.3951578E+001
 20
2.0054503E+002
 70
0
  0
VERTEX
  8
1
 42
0.0
 10
4.2351598E+001
 20
2.0054503E+002
 70
0
  0
SEQEND
  0
POLYLINE
  8
1
  6
CONTINUOUS
 62
3
 66
1
 40
5.0E-001
 41
5.0E-001
 70
0
  0
VERTEX
  8
1
 42
0.0
 10
3.4251598E+001
 20
2.0054503E+002
 70
0
  0
VERTEX
  8
1
 42
0.0
 10
3.4251598E+001
 20
2.0164503E+002
 70
0
  0
SEQEND
  0
POLYLINE
  8
1
  6
CONTINUOUS
 62
3
 66
1
 40
5.0E-001
 41
5.0E-001
 70
0
  0
VERTEX
  8
1
 42
0.0
 10
4.2051578E+001
 20
2.0054503E+002
 70
0
  0
VERTEX
  8
1
 42
0.0
 10
4.2051578E+001
 20
2.0164523E+002
 70
0
  0
SEQEND
  0
POLYLINE
  8
1
  6
CONTINUOUS
 62
3
 66
1
 40
5.0E-001
 41
5.0E-001
 70
0
  0
VERTEX
  8
1
 42
0.0
 10
3.4251598E+001
 20
2.0054503E+002
 70
0
  0
VERTEX
  8
1
 42
0.0
 10
3.4251598E+001
 20
2.0049503E+002
 70
0
  0
SEQEND
  0
POLYLINE
  8
1
  6
CONTINUOUS
 62
3
 66
1
 40
5.0E-001
 41
5.0E-001
 70
0
  0
VERTEX
  8
1
 42
0.0
 10
4.2851598E+001
 20
2.0164503E+002
 70
0
  0
VERTEX
  8
1
 42
0.0
 10
4.2901588E+001
 20
2.0164503E+002
 70
0
  0
SEQEND
  0
POLYLINE
  8
1
  6
CONTINUOUS
 62
3
 66
1
 40
5.0E-001
 41
5.0E-001
 70
0
  0
VERTEX
  8
1
 42
4.1421356E-001
 10
4.3751608E+001
 20
2.0084503E+002
 70
0
  0
VERTEX
  8
1
 42
0.0
 10
4.2951608E+001
 20
2.0164503E+002
 70
0
  0
SEQEND
  0
POLYLINE
  8
1
  6
CONTINUOUS
 62
3
 66
1
 40
5.0E-001
 41
5.0E-001
 70
0
  0
VERTEX
  8
1
 42
0.0
 10
4.2351598E+001
 20
2.0114503E+002
 70
0
  0
VERTEX
  8
1
 42
0.0
 10
4.2351598E+001
 20
2.0054503E+002
 70
0
  0
SEQEND
  0
POLYLINE
  8
1
  6
CONTINUOUS
 62
3
 66
1
 40
5.0E-001
 41
5.0E-001
 70
0
  0
VERTEX
  8
1
 42
0.0
 10
4.2956028E+001
 20
2.0164503E+002
 70
0
  0
VERTEX
  8
1
 42
0.0
 10
4.2051578E+001
 20
2.0164503E+002
 70
0
  0
SEQEND
  0
POLYLINE
  8
1
  6
CONTINUOUS
 62
3
 66
1
 40
5.0E-001
 41
5.0E-001
 70
0
  0
VERTEX
  8
1
 42
0.0
 10
4.2351598E+001
 20
2.0064503E+002
 70
0
  0
VERTEX
  8
1
 42
0.0
 10
4.3751598E+001
 20
2.0064503E+002
 70
0
  0
SEQEND
  0
INSERT
  2
*E1491
  8
1
 10
4.2851598E+001
 20
2.0114503E+002
 41
1.0
 42
1.0
 43
1.0
 50
2.7E+002
 62
3
  0
POLYLINE
  8
1
  6
CONTINUOUS
 62
3
 66
1
 40
5.0E-001
 41
5.0E-001
 70
0
  0
VERTEX
  8
1
 42
1.0000009
 10
3.3951587E+001
 20
2.0129513E+002
 70
0
  0
VERTEX
  8
1
 42
0.0
 10
3.3251728E+001
 20
2.0129512E+002
 70
0
  0
SEQEND
  0
POLYLINE
  8
1
  6
CONTINUOUS
 62
3
 66
1
 40
5.0E-001
 41
5.0E-001
 70
0
  0
VERTEX
  8
1
 42
0.0
 10
2.4351688E+001
 20
1.5944483E+002
 70
0
  0
VERTEX
  8
1
 42
0.0
 10
2.4301708E+001
 20
1.5944483E+002
 70
0
  0
SEQEND
  0
POLYLINE
  8
1
  6
CONTINUOUS
 62
3
 66
1
 40
5.0E-001
 41
5.0E-001
 70
0
  0
VERTEX
  8
1
 42
4.1421356E-001
 10
2.3451718E+001
 20
1.6024483E+002
 70
0
  0
VERTEX
  8
1
 42
0.0
 10
2.4251718E+001
 20
1.5944483E+002
 70
0
  0
SEQEND
  0
POLYLINE
  8
1
  6
CONTINUOUS
 62
3
 66
1
 40
5.0E-001
 41
5.0E-001
 70
0
  0
VERTEX
  8
1
 42
0.0
 10
3.3951698E+001
 20
1.6044483E+002
 70
0
  0
VERTEX
  8
1
 42
0.0
 10
3.3251718E+001
 20
1.6044483E+002
 70
0
  0
SEQEND
  0
POLYLINE
  8
1
  6
CONTINUOUS
 62
3
 66
1
 40
5.0E-001
 41
5.0E-001
 70
0
  0
VERTEX
  8
1
 42
0.0
 10
2.4247288E+001
 20
1.5944483E+002
 70
0
  0
VERTEX
  8
1
 42
0.0
 10
2.5151708E+001
 20
1.5944483E+002
 70
0
  0
SEQEND
  0
POLYLINE
  8
1
  6
CONTINUOUS
 62
3
 66
1
 40
5.0E-001
 41
5.0E-001
 70
0
  0
VERTEX
  8
1
 42
0.0
 10
2.9401708E+001
 20
1.5944483E+002
 70
0
  0
VERTEX
  8
1
 42
0.0
 10
2.6401708E+001
 20
1.5944483E+002
 70
0
  0
SEQEND
  0
POLYLINE
  8
1
  6
CONTINUOUS
 62
3
 66
1
 40
5.0E-001
 41
5.0E-001
 70
0
  0
VERTEX
  8
1
 42
0.0
 10
3.3251718E+001
 20
1.6054493E+002
 70
0
  0
VERTEX
  8
1
 42
0.0
 10
2.4851688E+001
 20
1.6054493E+002
 70
0
  0
SEQEND
  0
POLYLINE
  8
1
  6
CONTINUOUS
 62
3
 66
1
 40
5.0E-001
 41
5.0E-001
 70
0
  0
VERTEX
  8
1
 42
0.0
 10
2.4851688E+001
 20
1.6044483E+002
 70
0
  0
VERTEX
  8
1
 42
0.0
 10
2.3451728E+001
 20
1.6044483E+002
 70
0
  0
SEQEND
  0
INSERT
  2
*E1500
  8
1
 10
2.4351688E+001
 20
1.5994483E+002
 41
1.0
 42
1.0
 43
1.0
 50
2.7E+002
 62
3
  0
POLYLINE
  8
1
  6
CONTINUOUS
 62
3
 66
1
 40
5.0E-001
 41
5.0E-001
 70
0
  0
VERTEX
  8
1
 42
4.1421356E-001
 10
4.2351598E+001
 20
1.5994483E+002
 70
0
  0
VERTEX
  8
1
 42
0.0
 10
4.2851598E+001
 20
1.5944483E+002
 70
0
  0
SEQEND
  0
POLYLINE
  8
1
  6
CONTINUOUS
 62
3
 66
1
 40
5.0E-001
 41
5.0E-001
 70
0
  0
VERTEX
  8
1
 42
0.0
 10
4.2351598E+001
 20
1.6044483E+002
 70
0
  0
VERTEX
  8
1
 42
0.0
 10
4.3751598E+001
 20
1.6044483E+002
 70
0
  0
SEQEND
  0
POLYLINE
  8
1
  6
CONTINUOUS
 62
3
 66
1
 40
5.0E-001
 41
5.0E-001
 70
0
  0
VERTEX
  8
1
 42
0.0
 10
4.2956028E+001
 20
1.5944483E+002
 70
0
  0
VERTEX
  8
1
 42
0.0
 10
4.2051578E+001
 20
1.5944483E+002
 70
0
  0
SEQEND
  0
POLYLINE
  8
1
  6
CONTINUOUS
 62
3
 66
1
 40
5.0E-001
 41
5.0E-001
 70
0
  0
VERTEX
  8
1
 42
0.0
 10
4.2351598E+001
 20
1.5994483E+002
 70
0
  0
VERTEX
  8
1
 42
0.0
 10
4.2351598E+001
 20
1.6054503E+002
 70
0
  0
SEQEND
  0
INSERT
  2
*E1505
  8
1
 10
4.2951608E+001
 20
1.6024483E+002
 41
1.0
 42
1.0
 43
1.0
 50
2.7E+002
 62
3
  0
POLYLINE
  8
1
  6
CONTINUOUS
 62
3
 66
1
 40
5.0E-001
 41
5.0E-001
 70
0
  0
VERTEX
  8
1
 42
0.0
 10
4.2851598E+001
 20
1.5944483E+002
 70
0
  0
VERTEX
  8
1
 42
0.0
 10
4.2901588E+001
 20
1.5944483E+002
 70
0
  0
SEQEND
  0
POLYLINE
  8
1
  6
CONTINUOUS
 62
3
 66
1
 40
5.0E-001
 41
5.0E-001
 70
0
  0
VERTEX
  8
1
 42
0.0
 10
3.4251598E+001
 20
1.6054503E+002
 70
0
  0
VERTEX
  8
1
 42
0.0
 10
3.4251598E+001
 20
1.5944483E+002
 70
0
  0
SEQEND
  0
POLYLINE
  8
1
  6
CONTINUOUS
 62
3
 66
1
 40
5.0E-001
 41
5.0E-001
 70
0
  0
VERTEX
  8
1
 42
0.0
 10
4.2051578E+001
 20
1.5944483E+002
 70
0
  0
VERTEX
  8
1
 42
0.0
 10
4.2051578E+001
 20
1.6054503E+002
 70
0
  0
SEQEND
  0
POLYLINE
  8
1
  6
CONTINUOUS
 62
3
 66
1
 40
5.0E-001
 41
5.0E-001
 70
0
  0
VERTEX
  8
1
 42
0.0
 10
3.4251598E+001
 20
1.6054503E+002
 70
0
  0
VERTEX
  8
1
 42
0.0
 10
3.4251598E+001
 20
1.5944483E+002
 70
0
  0
SEQEND
  0
POLYLINE
  8
1
  6
CONTINUOUS
 62
3
 66
1
 40
5.0E-001
 41
5.0E-001
 70
0
  0
VERTEX
  8
1
 42
0.0
 10
3.3951578E+001
 20
1.6054493E+002
 70
0
  0
VERTEX
  8
1
 42
0.0
 10
4.2351598E+001
 20
1.6054493E+002
 70
0
  0
SEQEND
  0
POLYLINE
  8
1
  6
CONTINUOUS
 62
3
 66
1
 40
5.0E-001
 41
5.0E-001
 70
0
  0
VERTEX
  8
1
 42
0.0
 10
3.3951578E+001
 20
1.5979483E+002
 70
0
  0
VERTEX
  8
1
 42
0.0
 10
3.3951578E+001
 20
1.6054503E+002
 70
0
  0
SEQEND
  0
INSERT
  2
*E1512
  8
1
 10
3.3601658E+001
 20
1.5979483E+002
 41
1.0
 42
1.0
 43
1.0
 50
2.7E+002
 62
3
  0
POLYLINE
  8
1
  6
CONTINUOUS
 62
3
 66
1
 40
5.0E-001
 41
5.0E-001
 70
0
  0
VERTEX
  8
1
 42
0.0
 10
3.4251598E+001
 20
1.5944483E+002
 70
0
  0
VERTEX
  8
1
 42
0.0
 10
3.2951698E+001
 20
1.5944483E+002
 70
0
  0
SEQEND
  0
POLYLINE
  8
1
  6
CONTINUOUS
 62
3
 66
1
 40
5.0E-001
 41
5.0E-001
 70
0
  0
VERTEX
  8
1
 42
0.0
 10
4.4651588E+001
 20
1.8354503E+002
 70
0
  0
VERTEX
  8
1
 42
0.0
 10
4.4651588E+001
 20
1.8204503E+002
 70
0
  0
SEQEND
  0
POLYLINE
  8
1
  6
CONTINUOUS
 62
3
 66
1
 40
5.0E-001
 41
5.0E-001
 70
0
  0
VERTEX
  8
1
 42
0.0
 10
4.4951578E+001
 20
2.0224503E+002
 70
0
  0
VERTEX
  8
1
 42
0.0
 10
3.5851718E+001
 20
2.0224503E+002
 70
0
  0
SEQEND
  0
POLYLINE
  8
1
  6
CONTINUOUS
 62
3
 66
1
 40
5.0E-001
 41
5.0E-001
 70
0
  0
VERTEX
  8
1
 42
0.0
 10
3.4851718E+001
 20
2.0104503E+002
 70
0
  0
VERTEX
  8
1
 42
0.0
 10
3.4851718E+001
 20
2.0124503E+002
 70
0
  0
SEQEND
  0
POLYLINE
  8
1
  6
CONTINUOUS
 62
3
 66
1
 40
5.0E-001
 41
5.0E-001
 70
0
  0
VERTEX
  8
1
 42
4.1421356E-001
 10
3.5851718E+001
 20
2.0224503E+002
 70
0
  0
VERTEX
  8
1
 42
0.0
 10
3.4851718E+001
 20
2.0124503E+002
 70
0
  0
SEQEND
  0
POLYLINE
  8
1
  6
CONTINUOUS
 62
3
 66
1
 40
5.0E-001
 41
5.0E-001
 70
0
  0
VERTEX
  8
1
 42
4.1421356E-001
 10
3.4851718E+001
 20
2.0104503E+002
 70
0
  0
VERTEX
  8
1
 42
0.0
 10
3.5351718E+001
 20
2.0054503E+002
 70
0
  0
SEQEND
  0
POLYLINE
  8
1
  6
CONTINUOUS
 62
3
 66
1
 40
5.0E-001
 41
5.0E-001
 70
0
  0
VERTEX
  8
1
 42
0.0
 10
4.5109468E+001
 20
2.0164503E+002
 70
0
  0
VERTEX
  8
1
 42
0.0
 10
4.4951578E+001
 20
2.0224503E+002
 70
0
  0
SEQEND
  0
POLYLINE
  8
1
  6
CONTINUOUS
 62
3
 66
1
 40
5.0E-001
 41
5.0E-001
 70
0
  0
VERTEX
  8
1
 42
0.0
 10
4.7751598E+001
 20
2.0164503E+002
 70
0
  0
VERTEX
  8
1
 42
0.0
 10
4.7751598E+001
 20
2.0284503E+002
 70
0
  0
SEQEND
  0
POLYLINE
  8
1
  6
CONTINUOUS
 62
3
 66
1
 40
5.0E-001
 41
5.0E-001
 70
0
  0
VERTEX
  8
1
 42
0.0
 10
4.7251598E+001
 20
2.0334503E+002
 70
0
  0
VERTEX
  8
1
 42
0.0
 10
4.4951578E+001
 20
2.0334503E+002
 70
0
  0
SEQEND
  0
POLYLINE
  8
1
  6
CONTINUOUS
 62
3
 66
1
 40
5.0E-001
 41
5.0E-001
 70
0
  0
VERTEX
  8
1
 42
4.1421356E-001
 10
4.7751598E+001
 20
2.0284503E+002
 70
0
  0
VERTEX
  8
1
 42
0.0
 10
4.7251598E+001
 20
2.0334503E+002
 70
0
  0
SEQEND
  0
POLYLINE
  8
1
  6
CONTINUOUS
 62
3
 66
1
 40
5.0E-001
 41
5.0E-001
 70
0
  0
VERTEX
  8
1
 42
4.7633929E-001
 10
3.640016E+001
 20
2.0470179E+002
 70
0
  0
VERTEX
  8
1
 42
0.0
 10
3.2356095E+001
 20
2.0107003E+002
 70
0
  0
SEQEND
  0
POLYLINE
  8
1
  6
CONTINUOUS
 62
3
 66
1
 40
5.0E-001
 41
5.0E-001
 70
0
  0
VERTEX
  8
1
 42
4.2894112E-001
 10
3.1856728E+001
 20
2.0054503E+002
 70
0
  0
VERTEX
  8
1
 42
0.0
 10
3.2356102E+001
 20
2.0107002E+002
 70
0
  0
SEQEND
  0
POLYLINE
  8
1
  6
CONTINUOUS
 62
3
 66
1
 40
5.0E-001
 41
5.0E-001
 70
0
  0
VERTEX
  8
1
 42
0.0
 10
4.4951578E+001
 20
2.0334503E+002
 70
0
  0
VERTEX
  8
1
 42
0.0
 10
3.6400148E+001
 20
2.0470173E+002
 70
0
  0
SEQEND
  0
INSERT
  2
*E1526
  8
1
 10
3.5351718E+001
 20
1.6004493E+002
 41
1.0
 42
1.0
 43
1.0
 50
2.7E+002
 62
3
  0
POLYLINE
  8
1
  6
CONTINUOUS
 62
3
 66
1
 40
5.0E-001
 41
5.0E-001
 70
0
  0
VERTEX
  8
1
 42
0.0
 10
3.4851718E+001
 20
1.6004493E+002
 70
0
  0
VERTEX
  8
1
 42
0.0
 10
3.4851718E+001
 20
1.5984493E+002
 70
0
  0
SEQEND
  0
INSERT
  2
*E1528
  8
1
 10
3.5851718E+001
 20
1.5984493E+002
 41
1.0
 42
1.0
 43
1.0
 50
2.7E+002
 62
3
  0
POLYLINE
  8
1
  6
CONTINUOUS
 62
3
 66
1
 40
5.0E-001
 41
5.0E-001
 70
0
  0
VERTEX
  8
1
 42
0.0
 10
4.4951578E+001
 20
1.5884493E+002
 70
0
  0
VERTEX
  8
1
 42
0.0
 10
3.5851718E+001
 20
1.5884493E+002
 70
0
  0
SEQEND
  0
POLYLINE
  8
1
  6
CONTINUOUS
 62
3
 66
1
 40
5.0E-001
 41
5.0E-001
 70
0
  0
VERTEX
  8
1
 42
0.0
 10
4.5109508E+001
 20
1.5944503E+002
 70
0
  0
VERTEX
  8
1
 42
0.0
 10
4.4951578E+001
 20
1.5884493E+002
 70
0
  0
SEQEND
  0
POLYLINE
  8
1
  6
CONTINUOUS
 62
3
 66
1
 40
5.0E-001
 41
5.0E-001
 70
0
  0
VERTEX
  8
1
 42
0.0
 10
4.7751598E+001
 20
1.5939503E+002
 70
0
  0
VERTEX
  8
1
 42
0.0
 10
4.7751598E+001
 20
1.5824493E+002
 70
0
  0
SEQEND
  0
INSERT
  2
*E1532
  8
1
 10
4.7251598E+001
 20
1.5824493E+002
 41
1.0
 42
1.0
 43
1.0
 50
2.7E+002
 62
3
  0
POLYLINE
  8
1
  6
CONTINUOUS
 62
3
 66
1
 40
5.0E-001
 41
5.0E-001
 70
0
  0
VERTEX
  8
1
 42
0.0
 10
4.7251598E+001
 20
1.5774493E+002
 70
0
  0
VERTEX
  8
1
 42
0.0
 10
4.4951578E+001
 20
1.5774493E+002
 70
0
  0
SEQEND
  0
POLYLINE
  8
1
  6
CONTINUOUS
 62
3
 66
1
 40
5.0E-001
 41
5.0E-001
 70
0
  0
VERTEX
  8
1
 42
0.0
 10
4.4951578E+001
 20
1.5774493E+002
 70
0
  0
VERTEX
  8
1
 42
0.0
 10
3.6400148E+001
 20
1.5638813E+002
 70
0
  0
SEQEND
  0
INSERT
  2
*E1535
  8
1
 10
3.5851718E+001
 20
1.5984493E+002
 41
1.0
 42
1.0
 43
1.0
 50
2.7E+002
 62
3
  0
INSERT
  2
*E1536
  8
1
 10
3.1856728E+001
 20
1.6004493E+002
 41
1.0
 42
1.0
 43
1.0
 50
2.7E+002
 62
3
  0
POLYLINE
  8
1
  6
CONTINUOUS
 62
3
 66
1
 40
5.0E-001
 41
5.0E-001
 70
0
  0
VERTEX
  8
1
 42
0.0
 10
4.3751598E+001
 20
1.8204503E+002
 70
0
  0
VERTEX
  8
1
 42
0.0
 10
4.4651588E+001
 20
1.8204503E+002
 70
0
  0
SEQEND
  0
POLYLINE
  8
1
  6
CONTINUOUS
 62
3
 66
1
 40
5.0E-001
 41
5.0E-001
 70
0
  0
VERTEX
  8
1
 42
0.0
 10
4.3751598E+001
 20
1.7904503E+002
 70
0
  0
VERTEX
  8
1
 42
0.0
 10
4.4651588E+001
 20
1.7904503E+002
 70
0
  0
SEQEND
  0
POLYLINE
  8
1
  6
CONTINUOUS
 62
3
 66
1
 40
5.0E-001
 41
5.0E-001
 70
0
  0
VERTEX
  8
1
 42
0.0
 10
4.3751598E+001
 20
1.7754503E+002
 70
0
  0
VERTEX
  8
1
 42
0.0
 10
4.4651588E+001
 20
1.7754503E+002
 70
0
  0
SEQEND
  0
POLYLINE
  8
1
  6
CONTINUOUS
 62
3
 66
1
 40
5.0E-001
 41
5.0E-001
 70
0
  0
VERTEX
  8
1
 42
0.0
 10
4.4651588E+001
 20
1.8354503E+002
 70
0
  0
VERTEX
  8
1
 42
0.0
 10
4.3751598E+001
 20
1.8354503E+002
 70
0
  0
SEQEND
  0
POLYLINE
  8
1
  6
CONTINUOUS
 62
3
 66
1
 40
5.0E-001
 41
5.0E-001
 70
0
  0
VERTEX
  8
1
 42
0.0
 10
4.3751598E+001
 20
1.7754503E+002
 70
0
  0
VERTEX
  8
1
 42
0.0
 10
4.3751598E+001
 20
1.5994503E+002
 70
0
  0
SEQEND
  0
POLYLINE
  8
1
  6
CONTINUOUS
 62
3
 66
1
 40
5.0E-001
 41
5.0E-001
 70
0
  0
VERTEX
  8
1
 42
0.0
 10
4.3751598E+001
 20
1.8204503E+002
 70
0
  0
VERTEX
  8
1
 42
0.0
 10
4.3751598E+001
 20
1.7904503E+002
 70
0
  0
SEQEND
  0
POLYLINE
  8
1
  6
CONTINUOUS
 62
3
 66
1
 40
5.0E-001
 41
5.0E-001
 70
0
  0
VERTEX
  8
1
 42
0.0
 10
3.4935308E+001
 20
2.0164523E+002
 70
0
  0
VERTEX
  8
1
 42
0.0
 10
4.2951728E+001
 20
2.0164523E+002
 70
0
  0
SEQEND
  0
POLYLINE
  8
1
  6
CONTINUOUS
 62
3
 66
1
 40
5.0E-001
 41
5.0E-001
 70
0
  0
VERTEX
  8
1
 42
0.0
 10
2.3451728E+001
 20
2.0084503E+002
 70
0
  0
VERTEX
  8
1
 42
0.0
 10
2.3451728E+001
 20
1.6024483E+002
 70
0
  0
SEQEND
  0
POLYLINE
  8
1
  6
CONTINUOUS
 62
3
 66
1
 40
5.0E-001
 41
5.0E-001
 70
0
  0
VERTEX
  8
1
 42
0.0
 10
4.3751598E+001
 20
2.0114523E+002
 70
0
  0
VERTEX
  8
1
 42
0.0
 10
4.3751598E+001
 20
1.8354503E+002
 70
0
  0
SEQEND
  0
POLYLINE
  8
1
  6
CONTINUOUS
 62
3
 66
1
 40
5.0E-001
 41
5.0E-001
 70
0
  0
VERTEX
  8
1
 42
0.0
 10
3.2951698E+001
 20
1.6054503E+002
 70
0
  0
VERTEX
  8
1
 42
0.0
 10
3.2951698E+001
 20
1.5944483E+002
 70
0
  0
SEQEND
  0
POLYLINE
  8
1
  6
CONTINUOUS
 62
3
 66
1
 40
5.0E-001
 41
5.0E-001
 70
0
  0
VERTEX
  8
1
 42
0.0
 10
2.5151708E+001
 20
1.5944523E+002
 70
0
  0
VERTEX
  8
1
 42
0.0
 10
2.5151708E+001
 20
1.6054503E+002
 70
0
  0
SEQEND
  0
POLYLINE
  8
1
  6
CONTINUOUS
 62
3
 66
1
 40
5.0E-001
 41
5.0E-001
 70
0
  0
VERTEX
  8
1
 42
0.0
 10
3.2951698E+001
 20
1.6054503E+002
 70
0
  0
VERTEX
  8
1
 42
0.0
 10
3.2951698E+001
 20
1.5944483E+002
 70
0
  0
SEQEND
  0
POLYLINE
  8
1
  6
CONTINUOUS
 62
3
 66
1
 40
5.0E-001
 41
5.0E-001
 70
0
  0
VERTEX
  8
1
 42
0.0
 10
3.3251718E+001
 20
1.5979483E+002
 70
0
  0
VERTEX
  8
1
 42
0.0
 10
3.3251718E+001
 20
1.6054503E+002
 70
0
  0
SEQEND
  0
POLYLINE
  8
1
  6
CONTINUOUS
 62
3
 66
1
 40
5.0E-001
 41
5.0E-001
 70
0
  0
VERTEX
  8
1
 42
0.0
 10
2.4851688E+001
 20
1.5994483E+002
 70
0
  0
VERTEX
  8
1
 42
0.0
 10
2.4851688E+001
 20
1.6054503E+002
 70
0
  0
SEQEND
  0
POLYLINE
  8
1
  6
CONTINUOUS
 62
3
 66
1
 40
5.0E-001
 41
5.0E-001
 70
0
  0
VERTEX
  8
1
 42
0.0
 10
4.4651588E+001
 20
1.7904503E+002
 70
0
  0
VERTEX
  8
1
 42
0.0
 10
4.4651588E+001
 20
1.7754503E+002
 70
0
  0
SEQEND
  0
POLYLINE
  8
1
  6
CONTINUOUS
 62
3
 66
1
 40
5.0E-001
 41
5.0E-001
 70
0
  0
VERTEX
  8
1
 42
0.0
 10
3.6768378E+001
 20
1.5944523E+002
 70
0
  0
VERTEX
  8
1
 42
0.0
 10
4.2951728E+001
 20
1.5944523E+002
 70
0
  0
SEQEND
  0
POLYLINE
  8
1
  6
CONTINUOUS
 62
3
 66
1
 40
5.0E-001
 41
5.0E-001
 70
0
  0
VERTEX
  8
1
 42
0.0
 10
2.4251718E+001
 20
1.5944523E+002
 70
0
  0
VERTEX
  8
1
 42
0.0
 10
3.2374608E+001
 20
1.5944523E+002
 70
0
  0
SEQEND
  0
POLYLINE
  8
1
  6
CONTINUOUS
 62
3
 66
1
 40
5.0E-001
 41
5.0E-001
 70
0
  0
VERTEX
  8
1
 42
0.0
 10
2.4251718E+001
 20
2.0164523E+002
 70
0
  0
VERTEX
  8
1
 42
0.0
 10
3.2374668E+001
 20
2.0164523E+002
 70
0
  0
SEQEND
  0
INSERT
  2
*E1555
  8
1
 10
4.4251718E+001
 20
2.0114523E+002
 41
1.0
 42
1.0
 43
1.0
 50
2.7E+002
 62
3
  0
INSERT
  2
*E1556
  8
1
 10
4.0751718E+001
 20
2.0214523E+002
 41
1.0
 42
1.0
 43
1.0
 50
2.7E+002
 62
3
  0
POLYLINE
  8
1
  6
CONTINUOUS
 62
3
 66
1
 40
5.0E-001
 41
5.0E-001
 70
0
  0
VERTEX
  8
1
 42
0.0
 10
4.1251718E+001
 20
2.0214523E+002
 70
0
  0
VERTEX
  8
1
 42
0.0
 10
4.1251718E+001
 20
2.0224503E+002
 70
0
  0
SEQEND
  0
POLYLINE
  8
1
  6
CONTINUOUS
 62
3
 66
1
 40
5.0E-001
 41
5.0E-001
 70
0
  0
VERTEX
  8
1
 42
0.0
 10
4.4251718E+001
 20
2.0164523E+002
 70
0
  0
VERTEX
  8
1
 42
0.0
 10
4.5109408E+001
 20
2.0164523E+002
 70
0
  0
SEQEND
  0
POLYLINE
  8
1
  6
CONTINUOUS
 62
3
 66
1
 40
5.0E-001
 41
5.0E-001
 70
0
  0
VERTEX
  8
1
 42
4.1421356E-001
 10
4.3751718E+001
 20
1.5994503E+002
 70
0
  0
VERTEX
  8
1
 42
0.0
 10
4.4251718E+001
 20
1.5944503E+002
 70
0
  0
SEQEND
  0
POLYLINE
  8
1
  6
CONTINUOUS
 62
3
 66
1
 40
5.0E-001
 41
5.0E-001
 70
0
  0
VERTEX
  8
1
 42
0.0
 10
4.4251718E+001
 20
1.5944503E+002
 70
0
  0
VERTEX
  8
1
 42
0.0
 10
4.5109508E+001
 20
1.5944503E+002
 70
0
  0
SEQEND
  0
POLYLINE
  8
1
  6
CONTINUOUS
 62
3
 66
1
 40
5.0E-001
 41
5.0E-001
 70
0
  0
VERTEX
  8
1
 42
4.1421361E-001
 10
4.1251718E+001
 20
1.5894503E+002
 70
0
  0
VERTEX
  8
1
 42
0.0
 10
4.0751718E+001
 20
1.5944503E+002
 70
0
  0
SEQEND
  0
POLYLINE
  8
1
  6
CONTINUOUS
 62
3
 66
1
 40
5.0E-001
 41
5.0E-001
 70
0
  0
VERTEX
  8
1
 42
0.0
 10
4.1251718E+001
 20
1.5894503E+002
 70
0
  0
VERTEX
  8
1
 42
0.0
 10
4.1251718E+001
 20
1.5884493E+002
 70
0
  0
SEQEND
  0
POLYLINE
  8
1
  6
CONTINUOUS
 62
3
 66
1
 40
5.0E-001
 41
5.0E-001
 70
0
  0
VERTEX
  8
1
 42
0.0
 10
3.2051738E+001
 20
2.0114523E+002
 70
0
  0
VERTEX
  8
1
 42
0.0
 10
3.2051738E+001
 20
2.0164523E+002
 70
0
  0
SEQEND
  0
POLYLINE
  8
1
  6
CONTINUOUS
 62
3
 66
1
 40
5.0E-001
 41
5.0E-001
 70
0
  0
VERTEX
  8
1
 42
0.0
 10
3.2051738E+001
 20
2.0114523E+002
 70
0
  0
VERTEX
  8
1
 42
0.0
 10
3.2051738E+001
 20
2.0054503E+002
 70
0
  0
SEQEND
  0
POLYLINE
  8
1
  6
CONTINUOUS
 62
3
 66
1
 40
5.0E-001
 41
5.0E-001
 70
0
  0
VERTEX
  8
1
 42
0.0
 10
3.4935068E+001
 20
1.5944523E+002
 70
0
  0
VERTEX
  8
1
 42
0.0
 10
3.6768378E+001
 20
1.5944523E+002
 70
0
  0
SEQEND
  0
POLYLINE
  8
1
  6
CONTINUOUS
 62
3
 66
1
 40
5.0E-001
 41
5.0E-001
 70
0
  0
VERTEX
  8
1
 42
0.0
 10
3.2051738E+001
 20
1.5994473E+002
 70
0
  0
VERTEX
  8
1
 42
0.0
 10
3.2051738E+001
 20
1.6054493E+002
 70
0
  0
SEQEND
  0
POLYLINE
  8
1
  6
CONTINUOUS
 62
3
 66
1
 40
5.0E-001
 41
5.0E-001
 70
0
  0
VERTEX
  8
1
 42
0.0
 10
3.2051738E+001
 20
1.5994473E+002
 70
0
  0
VERTEX
  8
1
 42
0.0
 10
3.2051738E+001
 20
1.5944473E+002
 70
0
  0
SEQEND
  0
POLYLINE
  8
1
  6
CONTINUOUS
 62
3
 66
1
 40
5.0E-001
 41
5.0E-001
 70
0
  0
VERTEX
  8
1
 42
0.0
 10
4.8535008E+001
 20
1.8254503E+002
 70
0
  0
VERTEX
  8
1
 42
0.0
 10
4.4651588E+001
 20
1.8254503E+002
 70
0
  0
SEQEND
  0
POLYLINE
  8
1
  6
CONTINUOUS
 62
3
 66
1
 40
5.0E-001
 41
5.0E-001
 70
0
  0
VERTEX
  8
1
 42
0.0
 10
4.7327258E+001
 20
1.7924483E+002
 70
0
  0
VERTEX
  8
1
 42
0.0
 10
4.7327408E+001
 20
1.7941533E+002
 70
0
  0
SEQEND
  0
POLYLINE
  8
1
  6
CONTINUOUS
 62
3
 66
1
 40
5.0E-001
 41
5.0E-001
 70
0
  0
VERTEX
  8
1
 42
0.0
 10
4.7204508E+001
 20
1.8184503E+002
 70
0
  0
VERTEX
  8
1
 42
0.0
 10
4.7904518E+001
 20
1.8184503E+002
 70
0
  0
SEQEND
  0
POLYLINE
  8
1
  6
CONTINUOUS
 62
3
 66
1
 40
5.0E-001
 41
5.0E-001
 70
0
  0
VERTEX
  8
1
 42
0.0
 10
4.7904518E+001
 20
1.8184503E+002
 70
0
  0
VERTEX
  8
1
 42
0.0
 10
4.7949328E+001
 20
1.8167783E+002
 70
0
  0
SEQEND
  0
POLYLINE
  8
1
  6
CONTINUOUS
 62
3
 66
1
 40
5.0E-001
 41
5.0E-001
 70
0
  0
VERTEX
  8
1
 42
0.0
 10
4.8954258E+001
 20
1.8167783E+002
 70
0
  0
VERTEX
  8
1
 42
0.0
 10
4.9017978E+001
 20
1.8191563E+002
 70
0
  0
SEQEND
  0
POLYLINE
  8
1
  6
CONTINUOUS
 62
3
 66
1
 40
5.0E-001
 41
5.0E-001
 70
0
  0
VERTEX
  8
1
 42
4.9314646E-001
 10
4.901797E+001
 20
1.8191561E+002
 70
0
  0
VERTEX
  8
1
 42
0.0
 10
4.8535008E+001
 20
1.8254503E+002
 70
0
  0
SEQEND
  0
POLYLINE
  8
1
  6
CONTINUOUS
 62
3
 66
1
 40
5.0E-001
 41
5.0E-001
 70
0
  0
VERTEX
  8
1
 42
7.4445711E-001
 10
4.542225E+001
 20
1.8131141E+002
 70
0
  0
VERTEX
  8
1
 42
0.0
 10
4.542225E+001
 20
1.7977864E+002
 70
0
  0
SEQEND
  0
POLYLINE
  8
1
  6
CONTINUOUS
 62
3
 66
1
 40
5.0E-001
 41
5.0E-001
 70
0
  0
VERTEX
  8
1
 42
0.0
 10
4.7204508E+001
 20
1.8184503E+002
 70
0
  0
VERTEX
  8
1
 42
0.0
 10
4.5422248E+001
 20
1.8131143E+002
 70
0
  0
SEQEND
  0
POLYLINE
  8
1
  6
CONTINUOUS
 62
3
 66
1
 40
5.0E-001
 41
5.0E-001
 70
0
  0
VERTEX
  8
1
 42
0.0
 10
4.8953768E+001
 20
1.7941383E+002
 70
0
  0
VERTEX
  8
1
 42
0.0
 10
4.9017978E+001
 20
1.7917423E+002
 70
0
  0
SEQEND
  0
INSERT
  2
*E1577
  8
1
 10
4.8535008E+001
 20
1.7904483E+002
 41
1.0
 42
1.0
 43
1.0
 50
2.7E+002
 62
3
  0
POLYLINE
  8
1
  6
CONTINUOUS
 62
3
 66
1
 40
5.0E-001
 41
5.0E-001
 70
0
  0
VERTEX
  8
1
 42
0.0
 10
4.7904518E+001
 20
1.7924483E+002
 70
0
  0
VERTEX
  8
1
 42
0.0
 10
4.7950048E+001
 20
1.7941473E+002
 70
0
  0
SEQEND
  0
POLYLINE
  8
1
  6
CONTINUOUS
 62
3
 66
1
 40
5.0E-001
 41
5.0E-001
 70
0
  0
VERTEX
  8
1
 42
0.0
 10
4.7204508E+001
 20
1.7924483E+002
 70
0
  0
VERTEX
  8
1
 42
0.0
 10
4.7904518E+001
 20
1.7924483E+002
 70
0
  0
SEQEND
  0
POLYLINE
  8
1
  6
CONTINUOUS
 62
3
 66
1
 40
5.0E-001
 41
5.0E-001
 70
0
  0
VERTEX
  8
1
 42
0.0
 10
4.7204508E+001
 20
1.7924483E+002
 70
0
  0
VERTEX
  8
1
 42
0.0
 10
4.5422248E+001
 20
1.7977843E+002
 70
0
  0
SEQEND
  0
POLYLINE
  8
1
  6
CONTINUOUS
 62
3
 66
1
 40
5.0E-001
 41
5.0E-001
 70
0
  0
VERTEX
  8
1
 42
0.0
 10
4.8535008E+001
 20
1.7854483E+002
 70
0
  0
VERTEX
  8
1
 42
0.0
 10
4.4651588E+001
 20
1.7854483E+002
 70
0
  0
SEQEND
  0
POLYLINE
  8
1
  6
CONTINUOUS
 62
3
 66
1
 40
5.0E-001
 41
5.0E-001
 70
0
  0
VERTEX
  8
1
 42
0.0
 10
4.7328418E+001
 20
1.8184503E+002
 70
0
  0
VERTEX
  8
1
 42
0.0
 10
4.7328418E+001
 20
1.8167783E+002
 70
0
  0
SEQEND
  0
POLYLINE
  8
1
  6
CONTINUOUS
 62
3
 66
1
 40
5.0E-001
 41
5.0E-001
 70
0
  0
VERTEX
  8
1
 42
4.1421366E-001
 10
4.3751728E+001
 20
1.9974503E+002
 70
0
  0
VERTEX
  8
1
 42
0.0
 10
4.2951727E+001
 20
2.0054503E+002
 70
0
  0
SEQEND
  0
POLYLINE
  8
1
  6
CONTINUOUS
 62
3
 66
1
 40
5.0E-001
 41
5.0E-001
 70
0
  0
VERTEX
  8
1
 42
4.1421356E-001
 10
2.3451748E+001
 20
1.6134503E+002
 70
0
  0
VERTEX
  8
1
 42
0.0
 10
2.4251748E+001
 20
1.6054503E+002
 70
0
  0
SEQEND
  0
POLYLINE
  8
1
  6
CONTINUOUS
 62
3
 66
1
 40
5.0E-001
 41
5.0E-001
 70
0
  0
VERTEX
  8
1
 42
4.1421356E-001
 10
4.2951728E+001
 20
1.6054503E+002
 70
0
  0
VERTEX
  8
1
 42
0.0
 10
4.3751728E+001
 20
1.6134503E+002
 70
0
  0
SEQEND
  0
POLYLINE
  8
1
  6
CONTINUOUS
 62
3
 66
1
 40
5.0E-001
 41
5.0E-001
 70
0
  0
VERTEX
  8
1
 42
0.0
 10
4.2951728E+001
 20
1.6054503E+002
 70
0
  0
VERTEX
  8
1
 42
0.0
 10
2.4251748E+001
 20
1.6054503E+002
 70
0
  0
SEQEND
  0
POLYLINE
  8
1
  6
CONTINUOUS
 62
3
 66
1
 40
5.0E-001
 41
5.0E-001
 70
0
  0
VERTEX
  8
1
 42
0.0
 10
4.2951728E+001
 20
2.0054503E+002
 70
0
  0
VERTEX
  8
1
 42
0.0
 10
2.4251748E+001
 20
2.0054503E+002
 70
0
  0
SEQEND
  0
POLYLINE
  8
1
  6
CONTINUOUS
 62
3
 66
1
 40
5.0E-001
 41
5.0E-001
 70
0
  0
VERTEX
  8
1
 42
4.1421356E-001
 10
2.4251748E+001
 20
2.0054503E+002
 70
0
  0
VERTEX
  8
1
 42
0.0
 10
2.3451748E+001
 20
1.9974503E+002
 70
0
  0
SEQEND
  0
LINE
  8
1
  6
CONTINUOUS
 62
4
 10
3.5851718E+001
 20
2.0474503E+002
 11
4.2835378E+001
 21
2.0474503E+002
  0
POLYLINE
  8
1
  6
CONTINUOUS
 62
3
 66
1
 40
5.0E-001
 41
5.0E-001
 70
0
  0
VERTEX
  8
1
 42
0.0
 10
2.3451728E+001
 20
1.9974503E+002
 70
0
  0
VERTEX
  8
1
 42
0.0
 10
2.3451728E+001
 20
1.6134503E+002
 70
0
  0
SEQEND
  0
POLYLINE
  8
1
  6
CONTINUOUS
 62
3
 66
1
 40
5.0E-001
 41
5.0E-001
 70
0
  0
VERTEX
  8
1
 42
0.0
 10
1.6856059E+002
 20
2.0164523E+002
 70
0
  0
VERTEX
  8
1
 42
0.0
 10
1.3756059E+002
 20
2.0164523E+002
 70
0
  0
SEQEND
  0
POLYLINE
  8
1
  6
CONTINUOUS
 62
3
 66
1
 40
5.0E-001
 41
5.0E-001
 70
0
  0
VERTEX
  8
1
 42
0.0
 10
1.6856059E+002
 20
1.5944523E+002
 70
0
  0
VERTEX
  8
1
 42
0.0
 10
1.3756059E+002
 20
1.5944523E+002
 70
0
  0
SEQEND
  0
POLYLINE
  8
1
  6
CONTINUOUS
 62
3
 66
1
 40
5.0E-001
 41
5.0E-001
 70
0
  0
VERTEX
  8
1
 42
0.0
 10
1.4056059E+002
 20
1.6254523E+002
 70
0
  0
VERTEX
  8
1
 42
0.0
 10
1.3956059E+002
 20
1.6254523E+002
 70
0
  0
SEQEND
  0
POLYLINE
  8
1
  6
CONTINUOUS
 62
3
 66
1
 40
5.0E-001
 41
5.0E-001
 70
0
  0
VERTEX
  8
1
 42
0.0
 10
1.3956059E+002
 20
1.6254523E+002
 70
0
  0
VERTEX
  8
1
 42
0.0
 10
1.3756059E+002
 20
1.6200933E+002
 70
0
  0
SEQEND
  0
POLYLINE
  8
1
  6
CONTINUOUS
 62
3
 66
1
 40
5.0E-001
 41
5.0E-001
 70
0
  0
VERTEX
  8
1
 42
0.0
 10
1.3756059E+002
 20
1.6235633E+002
 70
0
  0
VERTEX
  8
1
 42
0.0
 10
1.3756059E+002
 20
1.5944523E+002
 70
0
  0
SEQEND
  0
POLYLINE
  8
1
  6
CONTINUOUS
 62
3
 66
1
 40
5.0E-001
 41
5.0E-001
 70
0
  0
VERTEX
  8
1
 42
0.0
 10
1.6856059E+002
 20
2.0064523E+002
 70
0
  0
VERTEX
  8
1
 42
0.0
 10
1.6856059E+002
 20
2.0164523E+002
 70
0
  0
SEQEND
  0
POLYLINE
  8
1
  6
CONTINUOUS
 62
3
 66
1
 40
5.0E-001
 41
5.0E-001
 70
0
  0
VERTEX
  8
1
 42
4.1421356E-001
 10
1.5946059E+002
 20
2.0064523E+002
 70
0
  0
VERTEX
  8
1
 42
0.0
 10
1.5896059E+002
 20
2.0014523E+002
 70
0
  0
SEQEND
  0
POLYLINE
  8
1
  6
CONTINUOUS
 62
3
 66
1
 40
5.0E-001
 41
5.0E-001
 70
0
  0
VERTEX
  8
1
 42
0.0
 10
1.8326059E+002
 20
2.0054523E+002
 70
0
  0
VERTEX
  8
1
 42
0.0
 10
1.8206059E+002
 20
2.0054523E+002
 70
0
  0
SEQEND
  0
POLYLINE
  8
1
  6
CONTINUOUS
 62
3
 66
1
 40
5.0E-001
 41
5.0E-001
 70
0
  0
VERTEX
  8
1
 42
0.0
 10
1.7406059E+002
 20
1.7794523E+002
 70
0
  0
VERTEX
  8
1
 42
0.0
 10
1.8206059E+002
 20
1.7794523E+002
 70
0
  0
SEQEND
  0
POLYLINE
  8
1
  6
CONTINUOUS
 62
3
 66
1
 40
5.0E-001
 41
5.0E-001
 70
0
  0
VERTEX
  8
1
 42
0.0
 10
1.7406059E+002
 20
1.8314523E+002
 70
0
  0
VERTEX
  8
1
 42
0.0
 10
1.8206059E+002
 20
1.8314523E+002
 70
0
  0
SEQEND
  0
POLYLINE
  8
1
  6
CONTINUOUS
 62
3
 66
1
 40
5.0E-001
 41
5.0E-001
 70
0
  0
VERTEX
  8
1
 42
0.0
 10
1.6856059E+002
 20
1.5944523E+002
 70
0
  0
VERTEX
  8
1
 42
0.0
 10
1.6856059E+002
 20
1.6044523E+002
 70
0
  0
SEQEND
  0
INSERT
  2
*E1602
  8
1
 10
1.5946059E+002
 20
1.6094523E+002
 41
1.0
 42
1.0
 43
1.0
 50
2.7E+002
 62
3
  0
POLYLINE
  8
1
  6
CONTINUOUS
 62
3
 66
1
 40
5.0E-001
 41
5.0E-001
 70
0
  0
VERTEX
  8
1
 42
0.0
 10
1.5896059E+002
 20
1.6094523E+002
 70
0
  0
VERTEX
  8
1
 42
0.0
 10
1.5896059E+002
 20
2.0014523E+002
 70
0
  0
SEQEND
  0
POLYLINE
  8
1
  6
CONTINUOUS
 62
3
 66
1
 40
5.0E-001
 41
5.0E-001
 70
0
  0
VERTEX
  8
1
 42
0.0
 10
1.7406059E+002
 20
1.8314523E+002
 70
0
  0
VERTEX
  8
1
 42
0.0
 10
1.7406059E+002
 20
1.7794523E+002
 70
0
  0
SEQEND
  0
POLYLINE
  8
1
  6
CONTINUOUS
 62
3
 66
1
 40
5.0E-001
 41
5.0E-001
 70
0
  0
VERTEX
  8
1
 42
0.0
 10
1.5506059E+002
 20
1.5795803E+002
 70
0
  0
VERTEX
  8
1
 42
0.0
 10
1.5506059E+002
 20
1.5944523E+002
 70
0
  0
SEQEND
  0
POLYLINE
  8
1
  6
CONTINUOUS
 62
3
 66
1
 40
5.0E-001
 41
5.0E-001
 70
0
  0
VERTEX
  8
1
 42
0.0
 10
1.5506059E+002
 20
1.5795803E+002
 70
0
  0
VERTEX
  8
1
 42
0.0
 10
1.5256059E+002
 20
1.5795803E+002
 70
0
  0
SEQEND
  0
POLYLINE
  8
1
  6
CONTINUOUS
 62
3
 66
1
 40
5.0E-001
 41
5.0E-001
 70
0
  0
VERTEX
  8
1
 42
0.0
 10
1.5506059E+002
 20
2.0313223E+002
 70
0
  0
VERTEX
  8
1
 42
0.0
 10
1.5256059E+002
 20
2.0313223E+002
 70
0
  0
SEQEND
  0
POLYLINE
  8
1
  6
CONTINUOUS
 62
3
 66
1
 40
5.0E-001
 41
5.0E-001
 70
0
  0
VERTEX
  8
1
 42
0.0
 10
1.5506059E+002
 20
2.0313223E+002
 70
0
  0
VERTEX
  8
1
 42
0.0
 10
1.5506059E+002
 20
2.0164503E+002
 70
0
  0
SEQEND
  0
POLYLINE
  8
1
  6
CONTINUOUS
 62
3
 66
1
 40
5.0E-001
 41
5.0E-001
 70
0
  0
VERTEX
  8
1
 42
0.0
 10
1.5256059E+002
 20
2.0164503E+002
 70
0
  0
VERTEX
  8
1
 42
0.0
 10
1.5256059E+002
 20
2.0313223E+002
 70
0
  0
SEQEND
  0
POLYLINE
  8
1
  6
CONTINUOUS
 62
3
 66
1
 40
5.0E-001
 41
5.0E-001
 70
0
  0
VERTEX
  8
1
 42
0.0
 10
1.4057399E+002
 20
1.9854523E+002
 70
0
  0
VERTEX
  8
1
 42
0.0
 10
1.3956059E+002
 20
1.9854523E+002
 70
0
  0
SEQEND
  0
POLYLINE
  8
1
  6
CONTINUOUS
 62
3
 66
1
 40
5.0E-001
 41
5.0E-001
 70
0
  0
VERTEX
  8
1
 42
0.0
 10
1.3756059E+002
 20
1.9908093E+002
 70
0
  0
VERTEX
  8
1
 42
0.0
 10
1.3956059E+002
 20
1.9854493E+002
 70
0
  0
SEQEND
  0
POLYLINE
  8
1
  6
CONTINUOUS
 62
3
 66
1
 40
5.0E-001
 41
5.0E-001
 70
0
  0
VERTEX
  8
1
 42
0.0
 10
1.5256059E+002
 20
1.5944523E+002
 70
0
  0
VERTEX
  8
1
 42
0.0
 10
1.5256059E+002
 20
1.5795803E+002
 70
0
  0
SEQEND
  0
POLYLINE
  8
1
  6
CONTINUOUS
 62
3
 66
1
 40
5.0E-001
 41
5.0E-001
 70
0
  0
VERTEX
  8
1
 42
0.0
 10
1.6906059E+002
 20
1.6044523E+002
 70
0
  0
VERTEX
  8
1
 42
0.0
 10
1.5946059E+002
 20
1.6044523E+002
 70
0
  0
SEQEND
  0
POLYLINE
  8
1
  6
CONTINUOUS
 62
3
 66
1
 40
5.0E-001
 41
5.0E-001
 70
0
  0
VERTEX
  8
1
 42
0.0
 10
1.6906059E+002
 20
2.0064523E+002
 70
0
  0
VERTEX
  8
1
 42
0.0
 10
1.5946059E+002
 20
2.0064523E+002
 70
0
  0
SEQEND
  0
POLYLINE
  8
1
  6
CONTINUOUS
 62
3
 66
1
 40
5.0E-001
 41
5.0E-001
 70
0
  0
VERTEX
  8
1
 42
0.0
 10
1.5906059E+002
 20
2.0474523E+002
 70
0
  0
VERTEX
  8
1
 42
0.0
 10
1.6906059E+002
 20
2.0474523E+002
 70
0
  0
SEQEND
  0
POLYLINE
  8
1
  6
CONTINUOUS
 62
3
 66
1
 40
5.0E-001
 41
5.0E-001
 70
0
  0
VERTEX
  8
1
 42
0.0
 10
1.6906059E+002
 20
2.0064523E+002
 70
0
  0
VERTEX
  8
1
 42
0.0
 10
1.6906059E+002
 20
2.0474523E+002
 70
0
  0
SEQEND
  0
POLYLINE
  8
1
  6
CONTINUOUS
 62
3
 66
1
 40
5.0E-001
 41
5.0E-001
 70
0
  0
VERTEX
  8
1
 42
0.0
 10
1.8206059E+002
 20
2.0064523E+002
 70
0
  0
VERTEX
  8
1
 42
0.0
 10
1.8106059E+002
 20
2.0164523E+002
 70
0
  0
SEQEND
  0
POLYLINE
  8
1
  6
CONTINUOUS
 62
3
 66
1
 40
5.0E-001
 41
5.0E-001
 70
0
  0
VERTEX
  8
1
 42
0.0
 10
1.8206059E+002
 20
1.6044503E+002
 70
0
  0
VERTEX
  8
1
 42
0.0
 10
1.8106059E+002
 20
1.5944503E+002
 70
0
  0
SEQEND
  0
POLYLINE
  8
1
  6
CONTINUOUS
 62
3
 66
1
 40
5.0E-001
 41
5.0E-001
 70
0
  0
VERTEX
  8
1
 42
0.0
 10
1.5906059E+002
 20
2.0164523E+002
 70
0
  0
VERTEX
  8
1
 42
0.0
 10
1.5906059E+002
 20
2.0474523E+002
 70
0
  0
SEQEND
  0
POLYLINE
  8
1
  6
CONTINUOUS
 62
3
 66
1
 40
5.0E-001
 41
5.0E-001
 70
0
  0
VERTEX
  8
1
 42
0.0
 10
1.8326059E+002
 20
1.6054523E+002
 70
0
  0
VERTEX
  8
1
 42
0.0
 10
1.8206059E+002
 20
1.6054523E+002
 70
0
  0
SEQEND
  0
POLYLINE
  8
1
  6
CONTINUOUS
 62
3
 66
1
 40
5.0E-001
 41
5.0E-001
 70
0
  0
VERTEX
  8
1
 42
0.0
 10
1.8106059E+002
 20
1.5944503E+002
 70
0
  0
VERTEX
  8
1
 42
0.0
 10
1.6906059E+002
 20
1.5944503E+002
 70
0
  0
SEQEND
  0
POLYLINE
  8
1
  6
CONTINUOUS
 62
3
 66
1
 40
5.0E-001
 41
5.0E-001
 70
0
  0
VERTEX
  8
1
 42
0.0
 10
1.8106059E+002
 20
2.0164523E+002
 70
0
  0
VERTEX
  8
1
 42
0.0
 10
1.6906059E+002
 20
2.0164523E+002
 70
0
  0
SEQEND
  0
POLYLINE
  8
1
  6
CONTINUOUS
 62
3
 66
1
 40
5.0E-001
 41
5.0E-001
 70
0
  0
VERTEX
  8
1
 42
0.0
 10
1.8206059E+002
 20
1.6044503E+002
 70
0
  0
VERTEX
  8
1
 42
0.0
 10
1.8206059E+002
 20
2.0064523E+002
 70
0
  0
SEQEND
  0
POLYLINE
  8
1
  6
CONTINUOUS
 62
3
 66
1
 40
5.0E-001
 41
5.0E-001
 70
0
  0
VERTEX
  8
1
 42
0.0
 10
1.6906059E+002
 20
1.6044523E+002
 70
0
  0
VERTEX
  8
1
 42
0.0
 10
1.6906059E+002
 20
1.5634503E+002
 70
0
  0
SEQEND
  0
POLYLINE
  8
1
  6
CONTINUOUS
 62
3
 66
1
 40
5.0E-001
 41
5.0E-001
 70
0
  0
VERTEX
  8
1
 42
0.0
 10
1.6906059E+002
 20
1.5634513E+002
 70
0
  0
VERTEX
  8
1
 42
0.0
 10
1.5906059E+002
 20
1.5634513E+002
 70
0
  0
SEQEND
  0
POLYLINE
  8
1
  6
CONTINUOUS
 62
3
 66
1
 40
5.0E-001
 41
5.0E-001
 70
0
  0
VERTEX
  8
1
 42
0.0
 10
1.5906059E+002
 20
1.5634513E+002
 70
0
  0
VERTEX
  8
1
 42
0.0
 10
1.5906059E+002
 20
1.5944523E+002
 70
0
  0
SEQEND
  0
POLYLINE
  8
1
  6
CONTINUOUS
 62
3
 66
1
 40
5.0E-001
 41
5.0E-001
 70
0
  0
VERTEX
  8
1
 42
0.0
 10
1.7486059E+002
 20
1.7939523E+002
 70
0
  0
VERTEX
  8
1
 42
0.0
 10
1.7926059E+002
 20
1.7939523E+002
 70
0
  0
SEQEND
  0
POLYLINE
  8
1
  6
CONTINUOUS
 62
3
 66
1
 40
5.0E-001
 41
5.0E-001
 70
0
  0
VERTEX
  8
1
 42
0.0
 10
1.7486059E+002
 20
1.8169523E+002
 70
0
  0
VERTEX
  8
1
 42
0.0
 10
1.7926059E+002
 20
1.8169523E+002
 70
0
  0
SEQEND
  0
POLYLINE
  8
1
  6
CONTINUOUS
 62
3
 66
1
 40
5.0E-001
 41
5.0E-001
 70
0
  0
VERTEX
  8
1
 42
0.0
 10
1.7926059E+002
 20
1.7864523E+002
 70
0
  0
VERTEX
  8
1
 42
0.0
 10
1.7926059E+002
 20
1.8244523E+002
 70
0
  0
SEQEND
  0
POLYLINE
  8
1
  6
CONTINUOUS
 62
3
 66
1
 40
5.0E-001
 41
5.0E-001
 70
0
  0
VERTEX
  8
1
 42
0.0
 10
1.7926059E+002
 20
1.7974523E+002
 70
0
  0
VERTEX
  8
1
 42
0.0
 10
1.7486059E+002
 20
1.7974523E+002
 70
0
  0
SEQEND
  0
POLYLINE
  8
1
  6
CONTINUOUS
 62
3
 66
1
 40
5.0E-001
 41
5.0E-001
 70
0
  0
VERTEX
  8
1
 42
0.0
 10
1.7486059E+002
 20
1.7794523E+002
 70
0
  0
VERTEX
  8
1
 42
0.0
 10
1.7486059E+002
 20
1.8314523E+002
 70
0
  0
SEQEND
  0
POLYLINE
  8
1
  6
CONTINUOUS
 62
3
 66
1
 40
5.0E-001
 41
5.0E-001
 70
0
  0
VERTEX
  8
1
 42
0.0
 10
1.7926059E+002
 20
1.8134523E+002
 70
0
  0
VERTEX
  8
1
 42
0.0
 10
1.7486059E+002
 20
1.8134523E+002
 70
0
  0
SEQEND
  0
POLYLINE
  8
1
  6
CONTINUOUS
 62
3
 66
1
 40
5.0E-001
 41
5.0E-001
 70
0
  0
VERTEX
  8
1
 42
4.1421356E-001
 10
1.7926059E+002
 20
1.7864523E+002
 70
0
  0
VERTEX
  8
1
 42
0.0
 10
1.7976059E+002
 20
1.7814523E+002
 70
0
  0
SEQEND
  0
POLYLINE
  8
1
  6
CONTINUOUS
 62
3
 66
1
 40
5.0E-001
 41
5.0E-001
 70
0
  0
VERTEX
  8
1
 42
4.1421356E-001
 10
1.8016059E+002
 20
1.7814523E+002
 70
0
  0
VERTEX
  8
1
 42
0.0
 10
1.8066059E+002
 20
1.7864523E+002
 70
0
  0
SEQEND
  0
POLYLINE
  8
1
  6
CONTINUOUS
 62
3
 66
1
 40
5.0E-001
 41
5.0E-001
 70
0
  0
VERTEX
  8
1
 42
0.0
 10
1.7486059E+002
 20
1.8294523E+002
 70
0
  0
VERTEX
  8
1
 42
0.0
 10
1.8016059E+002
 20
1.8294523E+002
 70
0
  0
SEQEND
  0
POLYLINE
  8
1
  6
CONTINUOUS
 62
3
 66
1
 40
5.0E-001
 41
5.0E-001
 70
0
  0
VERTEX
  8
1
 42
4.1421356E-001
 10
1.8066059E+002
 20
1.8244523E+002
 70
0
  0
VERTEX
  8
1
 42
0.0
 10
1.8016059E+002
 20
1.8294523E+002
 70
0
  0
SEQEND
  0
POLYLINE
  8
1
  6
CONTINUOUS
 62
3
 66
1
 40
5.0E-001
 41
5.0E-001
 70
0
  0
VERTEX
  8
1
 42
0.0
 10
1.8016059E+002
 20
1.7814523E+002
 70
0
  0
VERTEX
  8
1
 42
0.0
 10
1.7486059E+002
 20
1.7814523E+002
 70
0
  0
SEQEND
  0
POLYLINE
  8
1
  6
CONTINUOUS
 62
3
 66
1
 40
5.0E-001
 41
5.0E-001
 70
0
  0
VERTEX
  8
1
 42
0.0
 10
1.8066059E+002
 20
1.7864523E+002
 70
0
  0
VERTEX
  8
1
 42
0.0
 10
1.8066059E+002
 20
1.8244523E+002
 70
0
  0
SEQEND
  0
POLYLINE
  8
1
  6
CONTINUOUS
 62
3
 66
1
 40
5.0E-001
 41
5.0E-001
 70
0
  0
VERTEX
  8
1
 42
4.1421356E-001
 10
1.7976059E+002
 20
1.8294523E+002
 70
0
  0
VERTEX
  8
1
 42
0.0
 10
1.7926059E+002
 20
1.8244523E+002
 70
0
  0
SEQEND
  0
POLYLINE
  8
1
  6
CONTINUOUS
 62
3
 66
1
 40
5.0E-001
 41
5.0E-001
 70
0
  0
VERTEX
  8
1
 42
0.0
 10
1.4056059E+002
 20
1.6254523E+002
 70
0
  0
VERTEX
  8
1
 42
0.0
 10
1.4056059E+002
 20
1.9854523E+002
 70
0
  0
SEQEND
  0
POLYLINE
  8
1
  6
CONTINUOUS
 62
3
 66
1
 40
5.0E-001
 41
5.0E-001
 70
0
  0
VERTEX
  8
1
 42
0.0
 10
1.3756059E+002
 20
1.9908093E+002
 70
0
  0
VERTEX
  8
1
 42
0.0
 10
1.3756059E+002
 20
2.0164523E+002
 70
0
  0
SEQEND
  0
POLYLINE
  8
1
  6
CONTINUOUS
 62
3
 66
1
 40
5.0E-001
 41
5.0E-001
 70
0
  0
VERTEX
  8
1
 42
0.0
 10
5.3951748E+001
 20
1.8264503E+002
 70
0
  0
VERTEX
  8
1
 42
0.0
 10
5.3951748E+001
 20
1.7844503E+002
 70
0
  0
SEQEND
  0
POLYLINE
  8
1
  6
CONTINUOUS
 62
3
 66
1
 40
5.0E-001
 41
5.0E-001
 70
0
  0
VERTEX
  8
1
 42
0.0
 10
5.3451748E+001
 20
1.8314503E+002
 70
0
  0
VERTEX
  8
1
 42
0.0
 10
4.5301758E+001
 20
1.8314503E+002
 70
0
  0
SEQEND
  0
POLYLINE
  8
1
  6
CONTINUOUS
 62
3
 66
1
 40
5.0E-001
 41
5.0E-001
 70
0
  0
VERTEX
  8
1
 42
0.0
 10
5.3451748E+001
 20
1.7794503E+002
 70
0
  0
VERTEX
  8
1
 42
0.0
 10
4.5301758E+001
 20
1.7794503E+002
 70
0
  0
SEQEND
  0
POLYLINE
  8
1
  6
CONTINUOUS
 62
3
 66
1
 40
5.0E-001
 41
5.0E-001
 70
0
  0
VERTEX
  8
1
 42
4.1421356E-001
 10
5.3951748E+001
 20
1.8264503E+002
 70
0
  0
VERTEX
  8
1
 42
0.0
 10
5.3451748E+001
 20
1.8314503E+002
 70
0
  0
SEQEND
  0
POLYLINE
  8
1
  6
CONTINUOUS
 62
3
 66
1
 40
5.0E-001
 41
5.0E-001
 70
0
  0
VERTEX
  8
1
 42
4.1421356E-001
 10
5.3451748E+001
 20
1.7794503E+002
 70
0
  0
VERTEX
  8
1
 42
0.0
 10
5.3951748E+001
 20
1.7844503E+002
 70
0
  0
SEQEND
  0
POLYLINE
  8
1
  6
CONTINUOUS
 62
3
 66
1
 40
5.0E-001
 41
5.0E-001
 70
0
  0
VERTEX
  8
1
 42
0.0
 10
5.3451748E+001
 20
1.8464503E+002
 70
0
  0
VERTEX
  8
1
 42
0.0
 10
4.3751758E+001
 20
1.8464503E+002
 70
0
  0
SEQEND
  0
POLYLINE
  8
1
  6
CONTINUOUS
 62
3
 66
1
 40
5.0E-001
 41
5.0E-001
 70
0
  0
VERTEX
  8
1
 42
0.0
 10
5.3451748E+001
 20
1.7644503E+002
 70
0
  0
VERTEX
  8
1
 42
0.0
 10
4.3751758E+001
 20
1.7644503E+002
 70
0
  0
SEQEND
  0
POLYLINE
  8
1
  6
CONTINUOUS
 62
3
 66
1
 40
5.0E-001
 41
5.0E-001
 70
0
  0
VERTEX
  8
1
 42
0.0
 10
5.5451748E+001
 20
1.8264503E+002
 70
0
  0
VERTEX
  8
1
 42
0.0
 10
5.5451748E+001
 20
1.7844503E+002
 70
0
  0
SEQEND
  0
POLYLINE
  8
1
  6
CONTINUOUS
 62
3
 66
1
 40
5.0E-001
 41
5.0E-001
 70
0
  0
VERTEX
  8
1
 42
4.1421356E-001
 10
5.5451748E+001
 20
1.8264503E+002
 70
0
  0
VERTEX
  8
1
 42
0.0
 10
5.3451748E+001
 20
1.8464503E+002
 70
0
  0
SEQEND
  0
POLYLINE
  8
1
  6
CONTINUOUS
 62
3
 66
1
 40
5.0E-001
 41
5.0E-001
 70
0
  0
VERTEX
  8
1
 42
4.1421356E-001
 10
5.3451748E+001
 20
1.7644503E+002
 70
0
  0
VERTEX
  8
1
 42
0.0
 10
5.5451748E+001
 20
1.7844503E+002
 70
0
  0
SEQEND
  0
POLYLINE
  8
1
  6
CONTINUOUS
 62
3
 66
1
 40
5.0E-001
 41
5.0E-001
 70
0
  0
VERTEX
  8
1
 42
0.0
 10
1.8506059E+002
 20
1.6054523E+002
 70
0
  0
VERTEX
  8
1
 42
0.0
 10
1.8206059E+002
 20
1.6054523E+002
 70
0
  0
SEQEND
  0
POLYLINE
  8
1
  6
CONTINUOUS
 62
3
 66
1
 40
5.0E-001
 41
5.0E-001
 70
0
  0
VERTEX
  8
1
 42
0.0
 10
1.8406059E+002
 20
1.6154523E+002
 70
0
  0
VERTEX
  8
1
 42
0.0
 10
1.8406059E+002
 20
1.9954523E+002
 70
0
  0
SEQEND
  0
LINE
  8
1
  6
CENTERLINE
 62
1
 10
1.8591249E+002
 20
1.9324523E+002
 11
1.6584999E+002
 21
1.9324523E+002
  0
INSERT
  2
*E1655
  8
1
 10
1.7806059E+002
 20
1.9174523E+002
 41
1.0
 42
1.0
 43
1.0
 50
2.7E+002
 62
3
  0
INSERT
  2
*E1656
  8
1
 10
1.7806059E+002
 20
1.9474523E+002
 41
1.0
 42
1.0
 43
1.0
 50
2.7E+002
 62
3
  0
POLYLINE
  8
1
  6
HIDDEN
 62
3
 66
1
 40
5.0E-001
 41
5.0E-001
 70
0
  0
VERTEX
  8
1
 42
0.0
 10
1.7606059E+002
 20
1.9704533E+002
 70
0
  0
VERTEX
  8
1
 42
0.0
 10
1.7706059E+002
 20
1.9604533E+002
 70
0
  0
SEQEND
  0
POLYLINE
  8
1
  6
HIDDEN
 62
3
 66
1
 40
5.0E-001
 41
5.0E-001
 70
0
  0
VERTEX
  8
1
 42
0.0
 10
1.7606059E+002
 20
1.8944523E+002
 70
0
  0
VERTEX
  8
1
 42
0.0
 10
1.7706059E+002
 20
1.9044523E+002
 70
0
  0
SEQEND
  0
LINE
  8
1
  6
CENTERLINE
 62
1
 10
1.8591249E+002
 20
1.6784513E+002
 11
1.6584999E+002
 21
1.6784513E+002
  0
INSERT
  2
*E1660
  8
1
 10
1.7806059E+002
 20
1.6634513E+002
 41
1.0
 42
1.0
 43
1.0
 50
2.7E+002
 62
3
  0
INSERT
  2
*E1661
  8
1
 10
1.7806059E+002
 20
1.6934513E+002
 41
1.0
 42
1.0
 43
1.0
 50
2.7E+002
 62
3
  0
POLYLINE
  8
1
  6
HIDDEN
 62
3
 66
1
 40
5.0E-001
 41
5.0E-001
 70
0
  0
VERTEX
  8
1
 42
0.0
 10
1.7606059E+002
 20
1.6404513E+002
 70
0
  0
VERTEX
  8
1
 42
0.0
 10
1.7406059E+002
 20
1.6404513E+002
 70
0
  0
SEQEND
  0
POLYLINE
  8
1
  6
HIDDEN
 62
3
 66
1
 40
5.0E-001
 41
5.0E-001
 70
0
  0
VERTEX
  8
1
 42
0.0
 10
1.7606059E+002
 20
1.7164513E+002
 70
0
  0
VERTEX
  8
1
 42
0.0
 10
1.7406059E+002
 20
1.7164513E+002
 70
0
  0
SEQEND
  0
POLYLINE
  8
1
  6
HIDDEN
 62
3
 66
1
 40
5.0E-001
 41
5.0E-001
 70
0
  0
VERTEX
  8
1
 42
0.0
 10
1.7606059E+002
 20
1.7164513E+002
 70
0
  0
VERTEX
  8
1
 42
0.0
 10
1.7706059E+002
 20
1.7064513E+002
 70
0
  0
SEQEND
  0
POLYLINE
  8
1
  6
HIDDEN
 62
3
 66
1
 40
5.0E-001
 41
5.0E-001
 70
0
  0
VERTEX
  8
1
 42
0.0
 10
1.7706059E+002
 20
1.6934513E+002
 70
0
  0
VERTEX
  8
1
 42
0.0
 10
1.7706059E+002
 20
1.7064513E+002
 70
0
  0
SEQEND
  0
POLYLINE
  8
1
  6
HIDDEN
 62
3
 66
1
 40
5.0E-001
 41
5.0E-001
 70
0
  0
VERTEX
  8
1
 42
0.0
 10
1.7706059E+002
 20
1.6504513E+002
 70
0
  0
VERTEX
  8
1
 42
0.0
 10
1.7706059E+002
 20
1.6634513E+002
 70
0
  0
SEQEND
  0
POLYLINE
  8
1
  6
HIDDEN
 62
3
 66
1
 40
5.0E-001
 41
5.0E-001
 70
0
  0
VERTEX
  8
1
 42
0.0
 10
1.7606059E+002
 20
1.6404513E+002
 70
0
  0
VERTEX
  8
1
 42
0.0
 10
1.7706059E+002
 20
1.6504513E+002
 70
0
  0
SEQEND
  0
POLYLINE
  8
1
  6
CONTINUOUS
 62
3
 66
1
 40
5.0E-001
 41
5.0E-001
 70
0
  0
VERTEX
  8
1
 42
0.0
 10
1.8906059E+002
 20
1.6734513E+002
 70
0
  0
VERTEX
  8
1
 42
0.0
 10
1.8906059E+002
 20
1.6834513E+002
 70
0
  0
SEQEND
  0
POLYLINE
  8
1
  6
HIDDEN
 62
3
 66
1
 40
5.0E-001
 41
5.0E-001
 70
0
  0
VERTEX
  8
1
 42
0.0
 10
1.7606059E+002
 20
1.9704533E+002
 70
0
  0
VERTEX
  8
1
 42
0.0
 10
1.7406059E+002
 20
1.9704533E+002
 70
0
  0
SEQEND
  0
POLYLINE
  8
1
  6
HIDDEN
 62
3
 66
1
 40
5.0E-001
 41
5.0E-001
 70
0
  0
VERTEX
  8
1
 42
0.0
 10
1.7706059E+002
 20
1.9474523E+002
 70
0
  0
VERTEX
  8
1
 42
0.0
 10
1.7706059E+002
 20
1.9604533E+002
 70
0
  0
SEQEND
  0
POLYLINE
  8
1
  6
HIDDEN
 62
3
 66
1
 40
5.0E-001
 41
5.0E-001
 70
0
  0
VERTEX
  8
1
 42
0.0
 10
1.7706059E+002
 20
1.9044523E+002
 70
0
  0
VERTEX
  8
1
 42
0.0
 10
1.7706059E+002
 20
1.9174523E+002
 70
0
  0
SEQEND
  0
POLYLINE
  8
1
  6
HIDDEN
 62
3
 66
1
 40
5.0E-001
 41
5.0E-001
 70
0
  0
VERTEX
  8
1
 42
0.0
 10
1.7606059E+002
 20
1.8944523E+002
 70
0
  0
VERTEX
  8
1
 42
0.0
 10
1.7406059E+002
 20
1.8944523E+002
 70
0
  0
SEQEND
  0
POLYLINE
  8
1
  6
CONTINUOUS
 62
3
 66
1
 40
5.0E-001
 41
5.0E-001
 70
0
  0
VERTEX
  8
1
 42
0.0
 10
1.8906059E+002
 20
1.6834513E+002
 70
0
  0
VERTEX
  8
1
 42
0.0
 10
1.8506059E+002
 20
1.6834513E+002
 70
0
  0
SEQEND
  0
POLYLINE
  8
1
  6
CONTINUOUS
 62
3
 66
1
 40
5.0E-001
 41
5.0E-001
 70
0
  0
VERTEX
  8
1
 42
0.0
 10
1.8906059E+002
 20
1.6734513E+002
 70
0
  0
VERTEX
  8
1
 42
0.0
 10
1.8506059E+002
 20
1.6734513E+002
 70
0
  0
SEQEND
  0
POLYLINE
  8
1
  6
HIDDEN
 62
3
 66
1
 40
5.0E-001
 41
5.0E-001
 70
0
  0
VERTEX
  8
1
 42
0.0
 10
1.8506059E+002
 20
1.9274523E+002
 70
0
  0
VERTEX
  8
1
 42
0.0
 10
1.7806059E+002
 20
1.9274523E+002
 70
0
  0
SEQEND
  0
POLYLINE
  8
1
  6
HIDDEN
 62
3
 66
1
 40
5.0E-001
 41
5.0E-001
 70
0
  0
VERTEX
  8
1
 42
0.0
 10
1.8506059E+002
 20
1.9374523E+002
 70
0
  0
VERTEX
  8
1
 42
0.0
 10
1.7806059E+002
 20
1.9374523E+002
 70
0
  0
SEQEND
  0
POLYLINE
  8
1
  6
HIDDEN
 62
3
 66
1
 40
5.0E-001
 41
5.0E-001
 70
0
  0
VERTEX
  8
1
 42
0.0
 10
1.8506059E+002
 20
1.6834513E+002
 70
0
  0
VERTEX
  8
1
 42
0.0
 10
1.7806059E+002
 20
1.6834513E+002
 70
0
  0
SEQEND
  0
POLYLINE
  8
1
  6
HIDDEN
 62
3
 66
1
 40
5.0E-001
 41
5.0E-001
 70
0
  0
VERTEX
  8
1
 42
0.0
 10
1.8506059E+002
 20
1.6734513E+002
 70
0
  0
VERTEX
  8
1
 42
0.0
 10
1.7806059E+002
 20
1.6734513E+002
 70
0
  0
SEQEND
  0
POLYLINE
  8
1
  6
CONTINUOUS
 62
3
 66
1
 40
5.0E-001
 41
5.0E-001
 70
0
  0
VERTEX
  8
1
 42
0.0
 10
1.8506059E+002
 20
1.6054523E+002
 70
0
  0
VERTEX
  8
1
 42
0.0
 10
1.8506059E+002
 20
1.6154523E+002
 70
0
  0
SEQEND
  0
POLYLINE
  8
1
  6
CONTINUOUS
 62
3
 66
1
 40
5.0E-001
 41
5.0E-001
 70
0
  0
VERTEX
  8
1
 42
0.0
 10
1.8506059E+002
 20
1.6154523E+002
 70
0
  0
VERTEX
  8
1
 42
0.0
 10
1.8406059E+002
 20
1.6154523E+002
 70
0
  0
SEQEND
  0
POLYLINE
  8
1
  6
CONTINUOUS
 62
3
 66
1
 40
5.0E-001
 41
5.0E-001
 70
0
  0
VERTEX
  8
1
 42
0.0
 10
1.8406059E+002
 20
1.9954523E+002
 70
0
  0
VERTEX
  8
1
 42
0.0
 10
1.8506059E+002
 20
1.9954523E+002
 70
0
  0
SEQEND
  0
POLYLINE
  8
1
  6
CONTINUOUS
 62
3
 66
1
 40
5.0E-001
 41
5.0E-001
 70
0
  0
VERTEX
  8
1
 42
0.0
 10
1.8506059E+002
 20
1.6434493E+002
 70
0
  0
VERTEX
  8
1
 42
0.0
 10
1.8506059E+002
 20
1.7134493E+002
 70
0
  0
SEQEND
  0
POLYLINE
  8
1
  6
CONTINUOUS
 62
3
 66
1
 40
5.0E-001
 41
5.0E-001
 70
0
  0
VERTEX
  8
1
 42
0.0
 10
1.8506059E+002
 20
1.8974503E+002
 70
0
  0
VERTEX
  8
1
 42
0.0
 10
1.8506059E+002
 20
1.9674503E+002
 70
0
  0
SEQEND
  0
POLYLINE
  8
1
  6
CONTINUOUS
 62
3
 66
1
 40
5.0E-001
 41
5.0E-001
 70
0
  0
VERTEX
  8
1
 42
0.0
 10
1.8406059E+002
 20
1.9674503E+002
 70
0
  0
VERTEX
  8
1
 42
0.0
 10
1.8506059E+002
 20
1.9674503E+002
 70
0
  0
SEQEND
  0
POLYLINE
  8
1
  6
CONTINUOUS
 62
3
 66
1
 40
5.0E-001
 41
5.0E-001
 70
0
  0
VERTEX
  8
1
 42
0.0
 10
1.8406059E+002
 20
1.8974503E+002
 70
0
  0
VERTEX
  8
1
 42
0.0
 10
1.8506059E+002
 20
1.8974503E+002
 70
0
  0
SEQEND
  0
POLYLINE
  8
1
  6
CONTINUOUS
 62
3
 66
1
 40
5.0E-001
 41
5.0E-001
 70
0
  0
VERTEX
  8
1
 42
0.0
 10
1.8406059E+002
 20
1.7134493E+002
 70
0
  0
VERTEX
  8
1
 42
0.0
 10
1.8506059E+002
 20
1.7134493E+002
 70
0
  0
SEQEND
  0
POLYLINE
  8
1
  6
CONTINUOUS
 62
3
 66
1
 40
5.0E-001
 41
5.0E-001
 70
0
  0
VERTEX
  8
1
 42
0.0
 10
1.8406059E+002
 20
1.6434493E+002
 70
0
  0
VERTEX
  8
1
 42
0.0
 10
1.8506059E+002
 20
1.6434493E+002
 70
0
  0
SEQEND
  0
POLYLINE
  8
1
  6
CONTINUOUS
 62
3
 66
1
 40
5.0E-001
 41
5.0E-001
 70
0
  0
VERTEX
  8
1
 42
0.0
 10
1.8506059E+002
 20
2.0054523E+002
 70
0
  0
VERTEX
  8
1
 42
0.0
 10
1.8206059E+002
 20
2.0054523E+002
 70
0
  0
SEQEND
  0
POLYLINE
  8
1
  6
CONTINUOUS
 62
3
 66
1
 40
5.0E-001
 41
5.0E-001
 70
0
  0
VERTEX
  8
1
 42
0.0
 10
1.8506059E+002
 20
1.9954523E+002
 70
0
  0
VERTEX
  8
1
 42
0.0
 10
1.8506059E+002
 20
2.0054523E+002
 70
0
  0
SEQEND
  0
POLYLINE
  8
1
  6
CONTINUOUS
 62
3
 66
1
 40
5.0E-001
 41
5.0E-001
 70
0
  0
VERTEX
  8
1
 42
0.0
 10
1.8906059E+002
 20
1.9274523E+002
 70
0
  0
VERTEX
  8
1
 42
0.0
 10
1.8906059E+002
 20
1.9374523E+002
 70
0
  0
SEQEND
  0
POLYLINE
  8
1
  6
CONTINUOUS
 62
3
 66
1
 40
5.0E-001
 41
5.0E-001
 70
0
  0
VERTEX
  8
1
 42
0.0
 10
1.8906059E+002
 20
1.9274523E+002
 70
0
  0
VERTEX
  8
1
 42
0.0
 10
1.8506059E+002
 20
1.9274523E+002
 70
0
  0
SEQEND
  0
POLYLINE
  8
1
  6
CONTINUOUS
 62
3
 66
1
 40
5.0E-001
 41
5.0E-001
 70
0
  0
VERTEX
  8
1
 42
0.0
 10
1.8906059E+002
 20
1.9374523E+002
 70
0
  0
VERTEX
  8
1
 42
0.0
 10
1.8506059E+002
 20
1.9374523E+002
 70
0
  0
SEQEND
  0
POLYLINE
  8
1
  6
HIDDEN
 62
3
 66
1
 40
5.0E-001
 41
5.0E-001
 70
0
  0
VERTEX
  8
1
 42
0.0
 10
1.7406059E+002
 20
1.6284523E+002
 70
0
  0
VERTEX
  8
1
 42
0.0
 10
1.7406059E+002
 20
1.7284523E+002
 70
0
  0
SEQEND
  0
POLYLINE
  8
1
  6
HIDDEN
 62
3
 66
1
 40
5.0E-001
 41
5.0E-001
 70
0
  0
VERTEX
  8
1
 42
0.0
 10
1.7306059E+002
 20
1.6284523E+002
 70
0
  0
VERTEX
  8
1
 42
0.0
 10
1.7306059E+002
 20
1.7284523E+002
 70
0
  0
SEQEND
  0
POLYLINE
  8
1
  6
HIDDEN
 62
3
 66
1
 40
5.0E-001
 41
5.0E-001
 70
0
  0
VERTEX
  8
1
 42
0.0
 10
1.7306059E+002
 20
1.8824523E+002
 70
0
  0
VERTEX
  8
1
 42
0.0
 10
1.7306059E+002
 20
1.9824523E+002
 70
0
  0
SEQEND
  0
POLYLINE
  8
1
  6
HIDDEN
 62
3
 66
1
 40
5.0E-001
 41
5.0E-001
 70
0
  0
VERTEX
  8
1
 42
0.0
 10
1.7406059E+002
 20
1.8824523E+002
 70
0
  0
VERTEX
  8
1
 42
0.0
 10
1.7406059E+002
 20
1.9824523E+002
 70
0
  0
SEQEND
  0
LINE
  8
1
  6
CENTERLINE
 62
1
 10
8.7470408E+001
 20
1.9324503E+002
 11
8.4886598E+001
 21
1.9324503E+002
  0
LINE
  8
1
  6
CENTERLINE
 62
1
 10
7.9850398E+001
 20
1.9324503E+002
 11
7.7266588E+001
 21
1.9324503E+002
  0
LINE
  8
1
  6
CENTERLINE
 62
1
 10
6.9690398E+001
 20
1.9324503E+002
 11
6.7106588E+001
 21
1.9324503E+002
  0
LINE
  8
1
  6
CENTERLINE
 62
1
 10
5.9530398E+001
 20
1.9324503E+002
 11
5.6946588E+001
 21
1.9324503E+002
  0
LINE
  8
1
  6
CENTERLINE
 62
1
 10
4.9370398E+001
 20
1.9324503E+002
 11
4.6786588E+001
 21
1.9324503E+002
  0
POLYLINE
  8
1
  6
CONTINUOUS
 62
3
 66
1
 40
5.0E-001
 41
5.0E-001
 70
0
  0
VERTEX
  8
1
 42
1.0
 10
8.6991748E+001
 20
1.9324503E+002
 70
0
  0
VERTEX
  8
1
 42
1.0
 10
8.5691748E+001
 20
1.9324503E+002
 70
0
  0
VERTEX
  8
1
 42
0.0
 10
8.6991748E+001
 20
1.9324503E+002
 70
0
  0
SEQEND
  0
POLYLINE
  8
1
  6
CONTINUOUS
 62
3
 66
1
 40
5.0E-001
 41
5.0E-001
 70
0
  0
VERTEX
  8
1
 42
1.0
 10
7.9371748E+001
 20
1.9324503E+002
 70
0
  0
VERTEX
  8
1
 42
1.0
 10
7.8071748E+001
 20
1.9324503E+002
 70
0
  0
VERTEX
  8
1
 42
0.0
 10
7.9371748E+001
 20
1.9324503E+002
 70
0
  0
SEQEND
  0
POLYLINE
  8
1
  6
CONTINUOUS
 62
3
 66
1
 40
5.0E-001
 41
5.0E-001
 70
0
  0
VERTEX
  8
1
 42
1.0
 10
6.9211748E+001
 20
1.9324503E+002
 70
0
  0
VERTEX
  8
1
 42
1.0
 10
6.7911748E+001
 20
1.9324503E+002
 70
0
  0
VERTEX
  8
1
 42
0.0
 10
6.9211748E+001
 20
1.9324503E+002
 70
0
  0
SEQEND
  0
POLYLINE
  8
1
  6
CONTINUOUS
 62
3
 66
1
 40
5.0E-001
 41
5.0E-001
 70
0
  0
VERTEX
  8
1
 42
1.0
 10
5.9051738E+001
 20
1.9324503E+002
 70
0
  0
VERTEX
  8
1
 42
1.0
 10
5.7751738E+001
 20
1.9324503E+002
 70
0
  0
VERTEX
  8
1
 42
0.0
 10
5.9051738E+001
 20
1.9324503E+002
 70
0
  0
SEQEND
  0
POLYLINE
  8
1
  6
CONTINUOUS
 62
3
 66
1
 40
5.0E-001
 41
5.0E-001
 70
0
  0
VERTEX
  8
1
 42
1.0
 10
4.8891748E+001
 20
1.9324503E+002
 70
0
  0
VERTEX
  8
1
 42
1.0
 10
4.7591748E+001
 20
1.9324503E+002
 70
0
  0
VERTEX
  8
1
 42
0.0
 10
4.8891748E+001
 20
1.9324503E+002
 70
0
  0
SEQEND
  0
LINE
  8
1
  6
CENTERLINE
 62
1
 10
8.6341748E+001
 20
1.6946883E+002
 11
8.6341748E+001
 21
1.6625653E+002
  0
LINE
  8
1
  6
CENTERLINE
 62
1
 10
8.7470408E+001
 20
1.6784493E+002
 11
8.4886598E+001
 21
1.6784493E+002
  0
LINE
  8
1
  6
CENTERLINE
 62
1
 10
7.8721748E+001
 20
1.6946883E+002
 11
7.8721748E+001
 21
1.6625653E+002
  0
LINE
  8
1
  6
CENTERLINE
 62
1
 10
7.9850398E+001
 20
1.6784493E+002
 11
7.7266588E+001
 21
1.6784493E+002
  0
LINE
  8
1
  6
CENTERLINE
 62
1
 10
4.8241748E+001
 20
1.6946883E+002
 11
4.8241748E+001
 21
1.6625653E+002
  0
LINE
  8
1
  6
CENTERLINE
 62
1
 10
4.9370398E+001
 20
1.6784493E+002
 11
4.6786588E+001
 21
1.6784493E+002
  0
LINE
  8
1
  6
CENTERLINE
 62
1
 10
5.8401738E+001
 20
1.6946883E+002
 11
5.8401738E+001
 21
1.6625653E+002
  0
LINE
  8
1
  6
CENTERLINE
 62
1
 10
5.9530398E+001
 20
1.6784493E+002
 11
5.6946588E+001
 21
1.6784493E+002
  0
LINE
  8
1
  6
CENTERLINE
 62
1
 10
6.8561748E+001
 20
1.6946883E+002
 11
6.8561748E+001
 21
1.6625653E+002
  0
LINE
  8
1
  6
CENTERLINE
 62
1
 10
6.9690398E+001
 20
1.6784493E+002
 11
6.7106588E+001
 21
1.6784493E+002
  0
INSERT
  2
*E1717
  8
1
 10
4.8241748E+001
 20
1.6784493E+002
 41
6.5E-001
 42
6.5E-001
 43
6.5E-001
 50
2.7E+002
 62
3
  0
INSERT
  2
*E1718
  8
1
 10
5.8401738E+001
 20
1.6784493E+002
 41
6.5E-001
 42
6.5E-001
 43
6.5E-001
 50
2.7E+002
 62
3
  0
INSERT
  2
*E1719
  8
1
 10
7.8721748E+001
 20
1.6784493E+002
 41
6.5E-001
 42
6.5E-001
 43
6.5E-001
 50
2.7E+002
 62
3
  0
INSERT
  2
*E1720
  8
1
 10
6.8561748E+001
 20
1.6784493E+002
 41
6.5E-001
 42
6.5E-001
 43
6.5E-001
 50
2.7E+002
 62
3
  0
INSERT
  2
*E1721
  8
1
 10
8.6341748E+001
 20
1.6784493E+002
 41
6.5E-001
 42
6.5E-001
 43
6.5E-001
 50
2.7E+002
 62
3
  0
POLYLINE
  8
1
  6
CONTINUOUS
 62
3
 66
1
 40
5.0E-001
 41
5.0E-001
 70
0
  0
VERTEX
  8
1
 42
0.0
 10
8.5251738E+001
 20
1.6054503E+002
 70
0
  0
VERTEX
  8
1
 42
0.0
 10
8.5251738E+001
 20
1.6154503E+002
 70
0
  0
SEQEND
  0
POLYLINE
  8
1
  6
CONTINUOUS
 62
3
 66
1
 40
5.0E-001
 41
5.0E-001
 70
0
  0
VERTEX
  8
1
 42
0.0
 10
4.9751748E+001
 20
1.6054503E+002
 70
0
  0
VERTEX
  8
1
 42
0.0
 10
4.9751748E+001
 20
1.6154503E+002
 70
0
  0
SEQEND
  0
POLYLINE
  8
1
  6
CONTINUOUS
 62
3
 66
1
 40
5.0E-001
 41
5.0E-001
 70
0
  0
VERTEX
  8
1
 42
0.0
 10
8.5251738E+001
 20
1.6154503E+002
 70
0
  0
VERTEX
  8
1
 42
0.0
 10
9.1251738E+001
 20
1.6154503E+002
 70
0
  0
SEQEND
  0
POLYLINE
  8
1
  6
CONTINUOUS
 62
3
 66
1
 40
5.0E-001
 41
5.0E-001
 70
0
  0
VERTEX
  8
1
 42
0.0
 10
4.3751728E+001
 20
1.6154503E+002
 70
0
  0
VERTEX
  8
1
 42
0.0
 10
4.9751748E+001
 20
1.6154503E+002
 70
0
  0
SEQEND
  0
POLYLINE
  8
1
  6
CONTINUOUS
 62
3
 66
1
 40
5.0E-001
 41
5.0E-001
 70
0
  0
VERTEX
  8
1
 42
0.0
 10
8.5251738E+001
 20
1.9954493E+002
 70
0
  0
VERTEX
  8
1
 42
0.0
 10
9.1251738E+001
 20
1.9954493E+002
 70
0
  0
SEQEND
  0
POLYLINE
  8
1
  6
CONTINUOUS
 62
3
 66
1
 40
5.0E-001
 41
5.0E-001
 70
0
  0
VERTEX
  8
1
 42
0.0
 10
8.5251738E+001
 20
2.0054493E+002
 70
0
  0
VERTEX
  8
1
 42
0.0
 10
8.5251738E+001
 20
1.9954493E+002
 70
0
  0
SEQEND
  0
POLYLINE
  8
1
  6
CONTINUOUS
 62
3
 66
1
 40
5.0E-001
 41
5.0E-001
 70
0
  0
VERTEX
  8
1
 42
0.0
 10
4.9751748E+001
 20
2.0054493E+002
 70
0
  0
VERTEX
  8
1
 42
0.0
 10
4.9751748E+001
 20
1.9954493E+002
 70
0
  0
SEQEND
  0
POLYLINE
  8
1
  6
CONTINUOUS
 62
3
 66
1
 40
5.0E-001
 41
5.0E-001
 70
0
  0
VERTEX
  8
1
 42
0.0
 10
4.3751728E+001
 20
1.9954493E+002
 70
0
  0
VERTEX
  8
1
 42
0.0
 10
4.9751748E+001
 20
1.9954493E+002
 70
0
  0
SEQEND
  0
LINE
  8
1
  6
CENTERLINE
 62
1
 10
4.8241748E+001
 20
1.9162103E+002
 11
4.8241748E+001
 21
1.9483333E+002
  0
LINE
  8
1
  6
CENTERLINE
 62
1
 10
6.8561748E+001
 20
1.9162103E+002
 11
6.8561748E+001
 21
1.9483333E+002
  0
LINE
  8
1
  6
CENTERLINE
 62
1
 10
7.8721748E+001
 20
1.9162103E+002
 11
7.8721748E+001
 21
1.9483333E+002
  0
LINE
  8
1
  6
CENTERLINE
 62
1
 10
8.6341748E+001
 20
1.9162103E+002
 11
8.6341748E+001
 21
1.9483333E+002
  0
LINE
  8
1
  6
CENTERLINE
 62
1
 10
5.8401738E+001
 20
1.9162103E+002
 11
5.8401738E+001
 21
1.9483333E+002
  0
POLYLINE
  8
1
  6
CONTINUOUS
 62
3
 66
1
 40
5.0E-001
 41
5.0E-001
 70
0
  0
VERTEX
  8
1
 42
0.0
 10
7.3041718E+001
 20
1.6434473E+002
 70
0
  0
VERTEX
  8
1
 42
0.0
 10
7.4241728E+001
 20
1.6434473E+002
 70
0
  0
SEQEND
  0
POLYLINE
  8
1
  6
CONTINUOUS
 62
3
 66
1
 40
5.0E-001
 41
5.0E-001
 70
0
  0
VERTEX
  8
1
 42
0.0
 10
7.3041718E+001
 20
1.7134473E+002
 70
0
  0
VERTEX
  8
1
 42
0.0
 10
7.4241728E+001
 20
1.7134473E+002
 70
0
  0
SEQEND
  0
POLYLINE
  8
1
  6
CONTINUOUS
 62
3
 66
1
 40
5.0E-001
 41
5.0E-001
 70
0
  0
VERTEX
  8
1
 42
0.0
 10
9.0051728E+001
 20
1.6434473E+002
 70
0
  0
VERTEX
  8
1
 42
0.0
 10
9.0051728E+001
 20
1.7134473E+002
 70
0
  0
SEQEND
  0
POLYLINE
  8
1
  6
CONTINUOUS
 62
3
 66
1
 40
5.0E-001
 41
5.0E-001
 70
0
  0
VERTEX
  8
1
 42
0.0
 10
8.3321748E+001
 20
1.6434473E+002
 70
0
  0
VERTEX
  8
1
 42
0.0
 10
8.3321748E+001
 20
1.7134473E+002
 70
0
  0
SEQEND
  0
POLYLINE
  8
1
  6
CONTINUOUS
 62
3
 66
1
 40
5.0E-001
 41
5.0E-001
 70
0
  0
VERTEX
  8
1
 42
0.0
 10
8.1721738E+001
 20
1.6434473E+002
 70
0
  0
VERTEX
  8
1
 42
0.0
 10
8.1721738E+001
 20
1.7134473E+002
 70
0
  0
SEQEND
  0
POLYLINE
  8
1
  6
CONTINUOUS
 62
3
 66
1
 40
5.0E-001
 41
5.0E-001
 70
0
  0
VERTEX
  8
1
 42
0.0
 10
7.4241728E+001
 20
1.6434473E+002
 70
0
  0
VERTEX
  8
1
 42
0.0
 10
7.4241728E+001
 20
1.7134473E+002
 70
0
  0
SEQEND
  0
POLYLINE
  8
1
  6
CONTINUOUS
 62
3
 66
1
 40
5.0E-001
 41
5.0E-001
 70
0
  0
VERTEX
  8
1
 42
0.0
 10
7.3041718E+001
 20
1.6434473E+002
 70
0
  0
VERTEX
  8
1
 42
0.0
 10
7.3041718E+001
 20
1.7134473E+002
 70
0
  0
SEQEND
  0
POLYLINE
  8
1
  6
CONTINUOUS
 62
3
 66
1
 40
5.0E-001
 41
5.0E-001
 70
0
  0
VERTEX
  8
1
 42
0.0
 10
9.0051728E+001
 20
1.7134473E+002
 70
0
  0
VERTEX
  8
1
 42
0.0
 10
9.1251738E+001
 20
1.7134473E+002
 70
0
  0
SEQEND
  0
POLYLINE
  8
1
  6
CONTINUOUS
 62
3
 66
1
 40
5.0E-001
 41
5.0E-001
 70
0
  0
VERTEX
  8
1
 42
0.0
 10
9.0051728E+001
 20
1.6434473E+002
 70
0
  0
VERTEX
  8
1
 42
0.0
 10
9.1251738E+001
 20
1.6434473E+002
 70
0
  0
SEQEND
  0
POLYLINE
  8
1
  6
CONTINUOUS
 62
3
 66
1
 40
5.0E-001
 41
5.0E-001
 70
0
  0
VERTEX
  8
1
 42
0.0
 10
8.3321748E+001
 20
1.6434473E+002
 70
0
  0
VERTEX
  8
1
 42
0.0
 10
8.4521728E+001
 20
1.6434473E+002
 70
0
  0
SEQEND
  0
POLYLINE
  8
1
  6
CONTINUOUS
 62
3
 66
1
 40
5.0E-001
 41
5.0E-001
 70
0
  0
VERTEX
  8
1
 42
0.0
 10
8.3321748E+001
 20
1.7134473E+002
 70
0
  0
VERTEX
  8
1
 42
0.0
 10
8.4521728E+001
 20
1.7134473E+002
 70
0
  0
SEQEND
  0
POLYLINE
  8
1
  6
CONTINUOUS
 62
3
 66
1
 40
5.0E-001
 41
5.0E-001
 70
0
  0
VERTEX
  8
1
 42
0.0
 10
8.0521728E+001
 20
1.7134473E+002
 70
0
  0
VERTEX
  8
1
 42
0.0
 10
8.1721738E+001
 20
1.7134473E+002
 70
0
  0
SEQEND
  0
POLYLINE
  8
1
  6
CONTINUOUS
 62
3
 66
1
 40
5.0E-001
 41
5.0E-001
 70
0
  0
VERTEX
  8
1
 42
0.0
 10
8.0521728E+001
 20
1.6434473E+002
 70
0
  0
VERTEX
  8
1
 42
0.0
 10
8.1721738E+001
 20
1.6434473E+002
 70
0
  0
SEQEND
  0
POLYLINE
  8
1
  6
CONTINUOUS
 62
3
 66
1
 40
5.0E-001
 41
5.0E-001
 70
0
  0
VERTEX
  8
1
 42
0.0
 10
6.2881708E+001
 20
1.6434473E+002
 70
0
  0
VERTEX
  8
1
 42
0.0
 10
6.2881708E+001
 20
1.7134473E+002
 70
0
  0
SEQEND
  0
POLYLINE
  8
1
  6
CONTINUOUS
 62
3
 66
1
 40
5.0E-001
 41
5.0E-001
 70
0
  0
VERTEX
  8
1
 42
0.0
 10
6.2881708E+001
 20
1.7134473E+002
 70
0
  0
VERTEX
  8
1
 42
0.0
 10
6.4081728E+001
 20
1.7134473E+002
 70
0
  0
SEQEND
  0
POLYLINE
  8
1
  6
CONTINUOUS
 62
3
 66
1
 40
5.0E-001
 41
5.0E-001
 70
0
  0
VERTEX
  8
1
 42
0.0
 10
6.4081728E+001
 20
1.6434473E+002
 70
0
  0
VERTEX
  8
1
 42
0.0
 10
6.4081728E+001
 20
1.7134473E+002
 70
0
  0
SEQEND
  0
POLYLINE
  8
1
  6
CONTINUOUS
 62
3
 66
1
 40
5.0E-001
 41
5.0E-001
 70
0
  0
VERTEX
  8
1
 42
0.0
 10
6.2881708E+001
 20
1.6434473E+002
 70
0
  0
VERTEX
  8
1
 42
0.0
 10
6.4081728E+001
 20
1.6434473E+002
 70
0
  0
SEQEND
  0
POLYLINE
  8
1
  6
CONTINUOUS
 62
3
 66
1
 40
5.0E-001
 41
5.0E-001
 70
0
  0
VERTEX
  8
1
 42
0.0
 10
5.2721708E+001
 20
1.6434473E+002
 70
0
  0
VERTEX
  8
1
 42
0.0
 10
5.2721708E+001
 20
1.7134473E+002
 70
0
  0
SEQEND
  0
POLYLINE
  8
1
  6
CONTINUOUS
 62
3
 66
1
 40
5.0E-001
 41
5.0E-001
 70
0
  0
VERTEX
  8
1
 42
0.0
 10
5.2721708E+001
 20
1.7134473E+002
 70
0
  0
VERTEX
  8
1
 42
0.0
 10
5.3921718E+001
 20
1.7134473E+002
 70
0
  0
SEQEND
  0
POLYLINE
  8
1
  6
CONTINUOUS
 62
3
 66
1
 40
5.0E-001
 41
5.0E-001
 70
0
  0
VERTEX
  8
1
 42
0.0
 10
5.3921718E+001
 20
1.6434473E+002
 70
0
  0
VERTEX
  8
1
 42
0.0
 10
5.3921718E+001
 20
1.7134473E+002
 70
0
  0
SEQEND
  0
POLYLINE
  8
1
  6
CONTINUOUS
 62
3
 66
1
 40
5.0E-001
 41
5.0E-001
 70
0
  0
VERTEX
  8
1
 42
0.0
 10
5.2721708E+001
 20
1.6434473E+002
 70
0
  0
VERTEX
  8
1
 42
0.0
 10
5.3921718E+001
 20
1.6434473E+002
 70
0
  0
SEQEND
  0
POLYLINE
  8
1
  6
CONTINUOUS
 62
3
 66
1
 40
5.0E-001
 41
5.0E-001
 70
0
  0
VERTEX
  8
1
 42
0.0
 10
9.0051728E+001
 20
1.9674493E+002
 70
0
  0
VERTEX
  8
1
 42
0.0
 10
9.0051728E+001
 20
1.8974493E+002
 70
0
  0
SEQEND
  0
POLYLINE
  8
1
  6
CONTINUOUS
 62
3
 66
1
 40
5.0E-001
 41
5.0E-001
 70
0
  0
VERTEX
  8
1
 42
0.0
 10
8.1721738E+001
 20
1.9674493E+002
 70
0
  0
VERTEX
  8
1
 42
0.0
 10
8.1721738E+001
 20
1.8974493E+002
 70
0
  0
SEQEND
  0
POLYLINE
  8
1
  6
CONTINUOUS
 62
3
 66
1
 40
5.0E-001
 41
5.0E-001
 70
0
  0
VERTEX
  8
1
 42
0.0
 10
7.4241728E+001
 20
1.9674493E+002
 70
0
  0
VERTEX
  8
1
 42
0.0
 10
7.4241728E+001
 20
1.8974493E+002
 70
0
  0
SEQEND
  0
POLYLINE
  8
1
  6
CONTINUOUS
 62
3
 66
1
 40
5.0E-001
 41
5.0E-001
 70
0
  0
VERTEX
  8
1
 42
0.0
 10
7.3041718E+001
 20
1.9674493E+002
 70
0
  0
VERTEX
  8
1
 42
0.0
 10
7.3041718E+001
 20
1.8974493E+002
 70
0
  0
SEQEND
  0
POLYLINE
  8
1
  6
CONTINUOUS
 62
3
 66
1
 40
5.0E-001
 41
5.0E-001
 70
0
  0
VERTEX
  8
1
 42
0.0
 10
9.0051728E+001
 20
1.9674493E+002
 70
0
  0
VERTEX
  8
1
 42
0.0
 10
9.1251738E+001
 20
1.9674493E+002
 70
0
  0
SEQEND
  0
POLYLINE
  8
1
  6
CONTINUOUS
 62
3
 66
1
 40
5.0E-001
 41
5.0E-001
 70
0
  0
VERTEX
  8
1
 42
0.0
 10
9.0051728E+001
 20
1.8974493E+002
 70
0
  0
VERTEX
  8
1
 42
0.0
 10
9.1251738E+001
 20
1.8974493E+002
 70
0
  0
SEQEND
  0
POLYLINE
  8
1
  6
CONTINUOUS
 62
3
 66
1
 40
5.0E-001
 41
5.0E-001
 70
0
  0
VERTEX
  8
1
 42
0.0
 10
8.3321748E+001
 20
1.8974493E+002
 70
0
  0
VERTEX
  8
1
 42
0.0
 10
8.4521728E+001
 20
1.8974493E+002
 70
0
  0
SEQEND
  0
POLYLINE
  8
1
  6
CONTINUOUS
 62
3
 66
1
 40
5.0E-001
 41
5.0E-001
 70
0
  0
VERTEX
  8
1
 42
0.0
 10
8.3321748E+001
 20
1.9674493E+002
 70
0
  0
VERTEX
  8
1
 42
0.0
 10
8.4521728E+001
 20
1.9674493E+002
 70
0
  0
SEQEND
  0
POLYLINE
  8
1
  6
CONTINUOUS
 62
3
 66
1
 40
5.0E-001
 41
5.0E-001
 70
0
  0
VERTEX
  8
1
 42
0.0
 10
7.3041718E+001
 20
1.8974493E+002
 70
0
  0
VERTEX
  8
1
 42
0.0
 10
7.4241728E+001
 20
1.8974493E+002
 70
0
  0
SEQEND
  0
POLYLINE
  8
1
  6
CONTINUOUS
 62
3
 66
1
 40
5.0E-001
 41
5.0E-001
 70
0
  0
VERTEX
  8
1
 42
0.0
 10
7.3041718E+001
 20
1.9674493E+002
 70
0
  0
VERTEX
  8
1
 42
0.0
 10
7.4241728E+001
 20
1.9674493E+002
 70
0
  0
SEQEND
  0
POLYLINE
  8
1
  6
CONTINUOUS
 62
3
 66
1
 40
5.0E-001
 41
5.0E-001
 70
0
  0
VERTEX
  8
1
 42
0.0
 10
5.2721708E+001
 20
1.9674493E+002
 70
0
  0
VERTEX
  8
1
 42
0.0
 10
5.3921718E+001
 20
1.9674493E+002
 70
0
  0
SEQEND
  0
POLYLINE
  8
1
  6
CONTINUOUS
 62
3
 66
1
 40
5.0E-001
 41
5.0E-001
 70
0
  0
VERTEX
  8
1
 42
0.0
 10
5.3921718E+001
 20
1.9674493E+002
 70
0
  0
VERTEX
  8
1
 42
0.0
 10
5.3921718E+001
 20
1.8974493E+002
 70
0
  0
SEQEND
  0
POLYLINE
  8
1
  6
CONTINUOUS
 62
3
 66
1
 40
5.0E-001
 41
5.0E-001
 70
0
  0
VERTEX
  8
1
 42
0.0
 10
5.2721708E+001
 20
1.8974493E+002
 70
0
  0
VERTEX
  8
1
 42
0.0
 10
5.3921718E+001
 20
1.8974493E+002
 70
0
  0
SEQEND
  0
POLYLINE
  8
1
  6
CONTINUOUS
 62
3
 66
1
 40
5.0E-001
 41
5.0E-001
 70
0
  0
VERTEX
  8
1
 42
0.0
 10
5.2721708E+001
 20
1.9674493E+002
 70
0
  0
VERTEX
  8
1
 42
0.0
 10
5.2721708E+001
 20
1.8974493E+002
 70
0
  0
SEQEND
  0
POLYLINE
  8
1
  6
CONTINUOUS
 62
3
 66
1
 40
5.0E-001
 41
5.0E-001
 70
0
  0
VERTEX
  8
1
 42
0.0
 10
6.2881708E+001
 20
1.9674493E+002
 70
0
  0
VERTEX
  8
1
 42
0.0
 10
6.4081728E+001
 20
1.9674493E+002
 70
0
  0
SEQEND
  0
POLYLINE
  8
1
  6
CONTINUOUS
 62
3
 66
1
 40
5.0E-001
 41
5.0E-001
 70
0
  0
VERTEX
  8
1
 42
0.0
 10
6.4081728E+001
 20
1.9674493E+002
 70
0
  0
VERTEX
  8
1
 42
0.0
 10
6.4081728E+001
 20
1.8974493E+002
 70
0
  0
SEQEND
  0
POLYLINE
  8
1
  6
CONTINUOUS
 62
3
 66
1
 40
5.0E-001
 41
5.0E-001
 70
0
  0
VERTEX
  8
1
 42
0.0
 10
6.2881708E+001
 20
1.8974493E+002
 70
0
  0
VERTEX
  8
1
 42
0.0
 10
6.4081728E+001
 20
1.8974493E+002
 70
0
  0
SEQEND
  0
POLYLINE
  8
1
  6
CONTINUOUS
 62
3
 66
1
 40
5.0E-001
 41
5.0E-001
 70
0
  0
VERTEX
  8
1
 42
0.0
 10
6.2881708E+001
 20
1.9674493E+002
 70
0
  0
VERTEX
  8
1
 42
0.0
 10
6.2881708E+001
 20
1.8974493E+002
 70
0
  0
SEQEND
  0
POLYLINE
  8
1
  6
CONTINUOUS
 62
3
 66
1
 40
5.0E-001
 41
5.0E-001
 70
0
  0
VERTEX
  8
1
 42
0.0
 10
8.0521728E+001
 20
1.9674493E+002
 70
0
  0
VERTEX
  8
1
 42
0.0
 10
8.1721738E+001
 20
1.9674493E+002
 70
0
  0
SEQEND
  0
POLYLINE
  8
1
  6
CONTINUOUS
 62
3
 66
1
 40
5.0E-001
 41
5.0E-001
 70
0
  0
VERTEX
  8
1
 42
0.0
 10
8.0521728E+001
 20
1.8974493E+002
 70
0
  0
VERTEX
  8
1
 42
0.0
 10
8.1721738E+001
 20
1.8974493E+002
 70
0
  0
SEQEND
  0
POLYLINE
  8
1
  6
CONTINUOUS
 62
3
 66
1
 40
5.0E-001
 41
5.0E-001
 70
0
  0
VERTEX
  8
1
 42
0.0
 10
8.3321748E+001
 20
1.9674493E+002
 70
0
  0
VERTEX
  8
1
 42
0.0
 10
8.3321748E+001
 20
1.8974493E+002
 70
0
  0
SEQEND
  0
POLYLINE
  8
1
  6
CONTINUOUS
 62
3
 66
1
 40
5.0E-001
 41
5.0E-001
 70
0
  0
VERTEX
  8
1
 42
0.0
 10
8.4521728E+001
 20
1.9674493E+002
 70
0
  0
VERTEX
  8
1
 42
0.0
 10
8.4521728E+001
 20
1.8974493E+002
 70
0
  0
SEQEND
  0
POLYLINE
  8
1
  6
CONTINUOUS
 62
3
 66
1
 40
5.0E-001
 41
5.0E-001
 70
0
  0
VERTEX
  8
1
 42
0.0
 10
8.0521728E+001
 20
1.9674493E+002
 70
0
  0
VERTEX
  8
1
 42
0.0
 10
8.0521728E+001
 20
1.8974493E+002
 70
0
  0
SEQEND
  0
POLYLINE
  8
1
  6
CONTINUOUS
 62
3
 66
1
 40
5.0E-001
 41
5.0E-001
 70
0
  0
VERTEX
  8
1
 42
0.0
 10
8.4521728E+001
 20
1.6434473E+002
 70
0
  0
VERTEX
  8
1
 42
0.0
 10
8.4521728E+001
 20
1.7134473E+002
 70
0
  0
SEQEND
  0
POLYLINE
  8
1
  6
CONTINUOUS
 62
3
 66
1
 40
5.0E-001
 41
5.0E-001
 70
0
  0
VERTEX
  8
1
 42
0.0
 10
8.0521728E+001
 20
1.6434473E+002
 70
0
  0
VERTEX
  8
1
 42
0.0
 10
8.0521728E+001
 20
1.7134473E+002
 70
0
  0
SEQEND
  0
LINE
  8
1
  6
CENTERLINE
 62
1
 10
3.9952918E+001
 20
1.9324503E+002
 11
3.6183588E+001
 21
1.9324503E+002
  0
LINE
  8
1
  6
CENTERLINE
 62
1
 10
3.9683678E+001
 20
1.6784503E+002
 11
3.6183588E+001
 21
1.6784503E+002
  0
POLYLINE
  8
1
  6
CONTINUOUS
 62
3
 66
1
 40
5.0E-001
 41
5.0E-001
 70
0
  0
VERTEX
  8
1
 42
1.0
 10
3.8701738E+001
 20
1.9324503E+002
 70
0
  0
VERTEX
  8
1
 42
1.0
 10
3.7401738E+001
 20
1.9324503E+002
 70
0
  0
VERTEX
  8
1
 42
0.0
 10
3.8701738E+001
 20
1.9324503E+002
 70
0
  0
SEQEND
  0
POLYLINE
  8
1
  6
CONTINUOUS
 62
3
 66
1
 40
5.0E-001
 41
5.0E-001
 70
0
  0
VERTEX
  8
1
 42
1.0
 10
2.8541728E+001
 20
1.9324503E+002
 70
0
  0
VERTEX
  8
1
 42
1.0
 10
2.7241728E+001
 20
1.9324503E+002
 70
0
  0
VERTEX
  8
1
 42
0.0
 10
2.8541728E+001
 20
1.9324503E+002
 70
0
  0
SEQEND
  0
POLYLINE
  8
1
  6
CONTINUOUS
 62
3
 66
1
 40
5.0E-001
 41
5.0E-001
 70
0
  0
VERTEX
  8
1
 42
1.0
 10
2.8541728E+001
 20
1.6784503E+002
 70
0
  0
VERTEX
  8
1
 42
1.0
 10
2.7241728E+001
 20
1.6784503E+002
 70
0
  0
VERTEX
  8
1
 42
0.0
 10
2.8541728E+001
 20
1.6784503E+002
 70
0
  0
SEQEND
  0
POLYLINE
  8
1
  6
CONTINUOUS
 62
3
 66
1
 40
5.0E-001
 41
5.0E-001
 70
0
  0
VERTEX
  8
1
 42
1.0
 10
3.8701738E+001
 20
1.6784503E+002
 70
0
  0
VERTEX
  8
1
 42
1.0
 10
3.7401738E+001
 20
1.6784503E+002
 70
0
  0
VERTEX
  8
1
 42
0.0
 10
3.8701738E+001
 20
1.6784503E+002
 70
0
  0
SEQEND
  0
POLYLINE
  8
1
  6
CONTINUOUS
 62
3
 66
1
 40
5.0E-001
 41
5.0E-001
 70
0
  0
VERTEX
  8
1
 42
0.0
 10
3.4201728E+001
 20
1.8974503E+002
 70
0
  0
VERTEX
  8
1
 42
0.0
 10
3.3001718E+001
 20
1.8974503E+002
 70
0
  0
SEQEND
  0
POLYLINE
  8
1
  6
CONTINUOUS
 62
3
 66
1
 40
5.0E-001
 41
5.0E-001
 70
0
  0
VERTEX
  8
1
 42
0.0
 10
3.4201728E+001
 20
1.9674503E+002
 70
0
  0
VERTEX
  8
1
 42
0.0
 10
3.3001718E+001
 20
1.9674503E+002
 70
0
  0
SEQEND
  0
POLYLINE
  8
1
  6
CONTINUOUS
 62
3
 66
1
 40
5.0E-001
 41
5.0E-001
 70
0
  0
VERTEX
  8
1
 42
0.0
 10
4.3751728E+001
 20
1.9674503E+002
 70
0
  0
VERTEX
  8
1
 42
0.0
 10
4.2551738E+001
 20
1.9674503E+002
 70
0
  0
SEQEND
  0
POLYLINE
  8
1
  6
CONTINUOUS
 62
3
 66
1
 40
5.0E-001
 41
5.0E-001
 70
0
  0
VERTEX
  8
1
 42
0.0
 10
4.2551738E+001
 20
1.8974503E+002
 70
0
  0
VERTEX
  8
1
 42
0.0
 10
4.3751728E+001
 20
1.8974503E+002
 70
0
  0
SEQEND
  0
POLYLINE
  8
1
  6
CONTINUOUS
 62
3
 66
1
 40
5.0E-001
 41
5.0E-001
 70
0
  0
VERTEX
  8
1
 42
0.0
 10
4.2551738E+001
 20
1.8974503E+002
 70
0
  0
VERTEX
  8
1
 42
0.0
 10
4.2551738E+001
 20
1.9674503E+002
 70
0
  0
SEQEND
  0
POLYLINE
  8
1
  6
CONTINUOUS
 62
3
 66
1
 40
5.0E-001
 41
5.0E-001
 70
0
  0
VERTEX
  8
1
 42
0.0
 10
3.3001718E+001
 20
1.9674503E+002
 70
0
  0
VERTEX
  8
1
 42
0.0
 10
3.3001718E+001
 20
1.8974503E+002
 70
0
  0
SEQEND
  0
POLYLINE
  8
1
  6
CONTINUOUS
 62
3
 66
1
 40
5.0E-001
 41
5.0E-001
 70
0
  0
VERTEX
  8
1
 42
0.0
 10
4.2551738E+001
 20
1.7134493E+002
 70
0
  0
VERTEX
  8
1
 42
0.0
 10
4.2551738E+001
 20
1.6434493E+002
 70
0
  0
SEQEND
  0
POLYLINE
  8
1
  6
CONTINUOUS
 62
3
 66
1
 40
5.0E-001
 41
5.0E-001
 70
0
  0
VERTEX
  8
1
 42
0.0
 10
4.3751728E+001
 20
1.6434493E+002
 70
0
  0
VERTEX
  8
1
 42
0.0
 10
4.2551738E+001
 20
1.6434493E+002
 70
0
  0
SEQEND
  0
POLYLINE
  8
1
  6
CONTINUOUS
 62
3
 66
1
 40
5.0E-001
 41
5.0E-001
 70
0
  0
VERTEX
  8
1
 42
0.0
 10
4.2551738E+001
 20
1.7134493E+002
 70
0
  0
VERTEX
  8
1
 42
0.0
 10
4.3751728E+001
 20
1.7134493E+002
 70
0
  0
SEQEND
  0
POLYLINE
  8
1
  6
CONTINUOUS
 62
3
 66
1
 40
5.0E-001
 41
5.0E-001
 70
0
  0
VERTEX
  8
1
 42
0.0
 10
3.4201728E+001
 20
1.7134493E+002
 70
0
  0
VERTEX
  8
1
 42
0.0
 10
3.3001718E+001
 20
1.7134493E+002
 70
0
  0
SEQEND
  0
POLYLINE
  8
1
  6
CONTINUOUS
 62
3
 66
1
 40
5.0E-001
 41
5.0E-001
 70
0
  0
VERTEX
  8
1
 42
0.0
 10
3.4201728E+001
 20
1.6434493E+002
 70
0
  0
VERTEX
  8
1
 42
0.0
 10
3.3001718E+001
 20
1.6434493E+002
 70
0
  0
SEQEND
  0
POLYLINE
  8
1
  6
CONTINUOUS
 62
3
 66
1
 40
5.0E-001
 41
5.0E-001
 70
0
  0
VERTEX
  8
1
 42
0.0
 10
2.9451728E+001
 20
1.6154493E+002
 70
0
  0
VERTEX
  8
1
 42
0.0
 10
2.9451728E+001
 20
1.6054493E+002
 70
0
  0
SEQEND
  0
POLYLINE
  8
1
  6
CONTINUOUS
 62
3
 66
1
 40
5.0E-001
 41
5.0E-001
 70
0
  0
VERTEX
  8
1
 42
0.0
 10
2.9451728E+001
 20
1.6154493E+002
 70
0
  0
VERTEX
  8
1
 42
0.0
 10
2.3451728E+001
 20
1.6154493E+002
 70
0
  0
SEQEND
  0
POLYLINE
  8
1
  6
CONTINUOUS
 62
3
 66
1
 40
5.0E-001
 41
5.0E-001
 70
0
  0
VERTEX
  8
1
 42
0.0
 10
3.8051738E+001
 20
1.6054493E+002
 70
0
  0
VERTEX
  8
1
 42
0.0
 10
3.8051738E+001
 20
1.6154493E+002
 70
0
  0
SEQEND
  0
POLYLINE
  8
1
  6
CONTINUOUS
 62
3
 66
1
 40
5.0E-001
 41
5.0E-001
 70
0
  0
VERTEX
  8
1
 42
0.0
 10
4.3751728E+001
 20
1.6154493E+002
 70
0
  0
VERTEX
  8
1
 42
0.0
 10
3.8051738E+001
 20
1.6154493E+002
 70
0
  0
SEQEND
  0
LINE
  8
1
  6
CENTERLINE
 62
1
 10
2.9649068E+001
 20
1.9324503E+002
 11
2.6238718E+001
 21
1.9324503E+002
  0
LINE
  8
1
  6
CENTERLINE
 62
1
 10
2.9469578E+001
 20
1.6784503E+002
 11
2.6418208E+001
 21
1.6784503E+002
  0
POLYLINE
  8
1
  6
CONTINUOUS
 62
3
 66
1
 40
5.0E-001
 41
5.0E-001
 70
0
  0
VERTEX
  8
1
 42
0.0
 10
3.4201728E+001
 20
1.9674503E+002
 70
0
  0
VERTEX
  8
1
 42
0.0
 10
3.4201728E+001
 20
1.8974503E+002
 70
0
  0
SEQEND
  0
POLYLINE
  8
1
  6
CONTINUOUS
 62
3
 66
1
 40
5.0E-001
 41
5.0E-001
 70
0
  0
VERTEX
  8
1
 42
0.0
 10
3.3001718E+001
 20
1.6434493E+002
 70
0
  0
VERTEX
  8
1
 42
0.0
 10
3.3001718E+001
 20
1.7134493E+002
 70
0
  0
SEQEND
  0
POLYLINE
  8
1
  6
CONTINUOUS
 62
3
 66
1
 40
5.0E-001
 41
5.0E-001
 70
0
  0
VERTEX
  8
1
 42
0.0
 10
3.4201728E+001
 20
1.6434493E+002
 70
0
  0
VERTEX
  8
1
 42
0.0
 10
3.4201728E+001
 20
1.7134493E+002
 70
0
  0
SEQEND
  0
LINE
  8
1
  6
CENTERLINE
 62
1
 10
2.7891728E+001
 20
1.6524633E+002
 11
2.7891728E+001
 21
1.7018243E+002
  0
LINE
  8
1
  6
CENTERLINE
 62
1
 10
3.8051738E+001
 20
1.6560533E+002
 11
3.8051738E+001
 21
1.7036183E+002
  0
LINE
  8
1
  6
CENTERLINE
 62
1
 10
2.7891728E+001
 20
1.9549083E+002
 11
2.7891728E+001
 21
1.9091373E+002
  0
LINE
  8
1
  6
CENTERLINE
 62
1
 10
3.8051738E+001
 20
1.9540103E+002
 11
3.8051738E+001
 21
1.9100353E+002
  0
POLYLINE
  8
1
  6
CONTINUOUS
 62
3
 66
1
 40
5.0E-001
 41
5.0E-001
 70
0
  0
VERTEX
  8
1
 42
0.0
 10
4.3751728E+001
 20
1.9954503E+002
 70
0
  0
VERTEX
  8
1
 42
0.0
 10
3.8051738E+001
 20
1.9954503E+002
 70
0
  0
SEQEND
  0
POLYLINE
  8
1
  6
CONTINUOUS
 62
3
 66
1
 40
5.0E-001
 41
5.0E-001
 70
0
  0
VERTEX
  8
1
 42
0.0
 10
3.8051738E+001
 20
2.0054503E+002
 70
0
  0
VERTEX
  8
1
 42
0.0
 10
3.8051738E+001
 20
1.9954503E+002
 70
0
  0
SEQEND
  0
POLYLINE
  8
1
  6
CONTINUOUS
 62
3
 66
1
 40
5.0E-001
 41
5.0E-001
 70
0
  0
VERTEX
  8
1
 42
0.0
 10
2.9451728E+001
 20
1.9954503E+002
 70
0
  0
VERTEX
  8
1
 42
0.0
 10
2.9451728E+001
 20
2.0054503E+002
 70
0
  0
SEQEND
  0
POLYLINE
  8
1
  6
CONTINUOUS
 62
3
 66
1
 40
5.0E-001
 41
5.0E-001
 70
0
  0
VERTEX
  8
1
 42
0.0
 10
2.9451728E+001
 20
1.9954503E+002
 70
0
  0
VERTEX
  8
1
 42
0.0
 10
2.3451728E+001
 20
1.9954503E+002
 70
0
  0
SEQEND
  0
CIRCLE
  8
1
  6
CONTINUOUS
 62
4
 10
1.9402329E+002
 20
2.2899843E+002
 40
2.5
  0
TEXT
  8
1
  6
CONTINUOUS
 62
4
 10
1.9299659E+002
 20
2.2748603E+002
 40
3.0
  1
d
 41
8.666667E-001
  0
TEXT
  8
1
  6
CONTINUOUS
 62
4
 10
8.1191839E+001
 20
7.086687
 40
2.8
  1
dimension drawing
 41
8.0E-001
  0
TEXT
  8
1
  6
CONTINUOUS
 62
4
 10
7.8395424E+001
 20
2.5417099E+002
 40
3.0
  1
manual operation
 41
8.0E-001
  0
TEXT
  8
1
  6
CONTINUOUS
 62
4
 10
1.2450773E+002
 20
1.3046521E+002
 40
3.0
  1
DIN rail 35 EN50022
 41
8.0E-001
  0
TEXT
  8
1
  6
CONTINUOUS
 62
4
 10
3.1014562E+001
 20
1.174301E+002
 40
3.0
  1
switching position indication
 41
8.0E-001
  0
TEXT
  8
1
  6
CONTINUOUS
 62
4
 10
1.2731416E+002
 20
7.2345222E+001
 40
3.0
  1
Changes of dimensions reserved !
 41
8.0E-001
  0
TEXT
  8
1
  6
CONTINUOUS
 62
4
 10
3.5050691E+001
 20
7.2330039E+001
 40
3.0
  1
soldering pins : 1mm
 41
8.0E-001
  0
TEXT
  8
1
  6
CONTINUOUS
 62
4
 10
3.4645481E+001
 20
5.8552888E+001
 40
3.0
  1
spacing : 2,54mm
 41
8.0E-001
  0
TEXT
  8
1
  6
CONTINUOUS
 62
4
 10
3.5253296E+001
 20
4.3762712E+001
 40
3.0
  1
weight : ca. 200g
 41
8.0E-001
  0
TEXT
  8
1
  6
CONTINUOUS
 62
4
 10
3.5253296E+001
 20
3.9102794E+001
 40
3.0
  1
Gewicht : ca. 200g
 41
8.0E-001
  0
TEXT
  8
1
  6
CONTINUOUS
 62
4
 10
2.6737236E+001
 20
1.4663765E+001
 40
2.5
  1
e
 41
8.666667E-001
  0
TEXT
  8
1
  6
CONTINUOUS
 62
4
 10
3.3866636E+001
 20
1.4966695E+001
 40
2.2
  1
L12 185  2.8.04
 41
6.0E-001
  0
VIEWPORT
 67
1
  8
0
  6
CONTINUOUS
 62
3
100
AcDbViewport
 10
1.05E+002
 20
1.485E+002
 30
0.0
 40
2.97E+002
 41
2.97E+002
 68
1
 69
1
1001
ACAD
1000
MVIEW
1002
{
1070
16
1010
0.0
1020
0.0
1030
0.0
1010
0.0
1020
0.0
1030
1.0
1040
0.0
1040
2.97E+002
1040
4.2E+001
1040
1.485E+002
1040
5.0E+001
1040
0.0
1040
0.0
1070
0
1070
100
1070
1
1070
0
1070
0
1070
0
1070
0
1070
0
1040
0.0
1040
0.0
1040
0.0
1040
5.0E-001
1040
5.0E-001
1040
5.0E-001
1040
5.0E-001
1070
0
1002
{
1002
}
1002
}
  0
VIEWPORT
 67
1
  8
0
  6
CONTINUOUS
 62
3
100
AcDbViewport
 10
1.05E+002
 20
1.485E+002
 30
0.0
 40
2.1E+002
 41
2.97E+002
 68
2
 69
2
1001
ACAD
1000
MVIEW
1002
{
1070
16
1010
0.0
1020
0.0
1030
0.0
1010
0.0
1020
0.0
1030
1.0
1040
0.0
1040
2.97E+002
1040
1.05E+002
1040
1.485E+002
1040
5.0E+001
1040
0.0
1040
0.0
1070
0
1070
100
1070
1
1070
0
1070
0
1070
0
1070
0
1070
0
1040
0.0
1040
0.0
1040
0.0
1040
5.0E-001
1040
5.0E-001
1040
5.0E-001
1040
5.0E-001
1070
0
1002
{
1002
}
1002
}
  0
ENDSEC
  0
EOF
