  0
SECTION
  2
HEADER
  9
$ACADVER
  1
AC1009
999
I-DEAS 8 Not Encoded
  9
$EXTMIN
 10
0.0
 20
0.0
  9
$EXTMAX
 10
2.1E+002
 20
2.97E+002
  9
$TEXTSIZE
 40
1.25E-001
  9
$LTSCALE
 40
1.0
  9
$CLAYER
  8
1
  9
$CECOLOR
 62
1
  9
$DIMASZ
 40
1.25E-001
  9
$DIMEXO
 40
6.25E-002
  9
$DIMDLI
 40
2.5E-001
  9
$DIMEXE
 40
1.25E-001
  9
$DIMTP
 40
5.0E-003
  9
$DIMTM
 40
-5.0E-003
  9
$DIMTXT
 40
3.0
  9
$DIMLIM
 70
0
  9
$DIMTIH
 70
1
  9
$DIMTOH
 70
1
  9
$DIMSE1
 70
0
  9
$DIMSE2
 70
0
  9
$DIMTAD
 70
0
  9
$DIMASO
 70
1
  9
$DIMALT
 70
0
  9
$DIMALTD
 70
0
  9
$DIMTOFL
 70
1
  9
$DIMTIX
 70
0
  9
$DIMSAH
 70
0
  9
$DIMTFAC
 40
1.0
  9
$DIMGAP
 40
6.25E-002
  9
$LUNITS
 70
2
  9
$LUPREC
 70
3
  9
$FILLETRAD
 40
1.0E+001
  9
$AUNITS
 70
0
  9
$AUPREC
 70
1
  9
$CHAMFERA
 40
6.0
  9
$CHAMFERB
 40
6.0
  9
$ANGBASE
 50
0.0
  9
$ANGDIR
 70
0
  9
$PEXTMIN
 10
0.0
 20
0.0
 30
0.0
  9
$PEXTMAX
 10
2.1E+002
 20
2.97E+002
 30
0.0
  9
$PLIMMIN
 10
0.0
 20
0.0
  9
$PLIMMAX
 10
2.1E+002
 20
2.97E+002
  9
$PDMODE
 70
2
  9
$PDSIZE
 40
-1.0E-002
  9
$SPLINETYPE
 70
6
  9
$TILEMODE
 70
0
  0
ENDSEC
  0
SECTION
  2
TABLES
  0
TABLE
  2
VPORT
 70
2
  0
VPORT
  2
*Active
 70
0
 10
0.0
 20
0.0
 11
2.1E+002
 21
2.97E+002
 12
1.05E+002
 22
1.485E+002
 13
0.0
 23
0.0
 14
1.0
 24
1.0
 15
0.0
 25
0.0
 16
0.0
 26
0.0
 36
1.0
 17
0.0
 27
0.0
 37
0.0
 40
2.97E+002
 41
7.0707071E-001
 42
5.0E+001
 43
0.0
 44
0.0
 50
0.0
 51
0.0
 71
0
 72
100
 73
1
 74
3
 75
0
 76
0
 77
0
 78
0
  0
ENDTAB
  0
TABLE
  2
LTYPE
 70
7
  0
LTYPE
  2
HIDDENNEW00
  3
_ 
 70
64
 72
65
 73
3
 40
4.5
 49
1.5
 49
-1.5
 49
1.5
  0
LTYPE
  2
HIDDENNEW01
  3
_ 
 70
64
 72
65
 73
3
 40
4.5
 49
1.5
 49
-1.5
 49
1.5
  0
LTYPE
  2
HIDDEN
  3
_ 
 70
64
 72
65
 73
3
 40
4.5
 49
1.5
 49
-1.5
 49
1.5
  0
LTYPE
  2
CENTERLINE
  3
_ 
 70
64
 72
65
 73
5
 40
3.0E+001
 49
1.2E+001
 49
-1.5
 49
3.0
 49
-1.5
 49
1.2E+001
  0
LTYPE
  2
PHANTOM
  3
_ 
 70
64
 72
65
 73
7
 40
2.95E+001
 49
9.5
 49
-1.5
 49
3.0
 49
-1.5
 49
3.0
 49
-1.5
 49
9.5
  0
LTYPE
  2
SHORT_DASH
  3
_ 
 70
64
 72
65
 73
3
 40
3.0
 49
7.5E-001
 49
-1.5
 49
7.5E-001
  0
LTYPE
  2
LONG_DASH
  3
_ 
 70
64
 72
65
 73
3
 40
9.0
 49
2.25
 49
-4.5
 49
2.25
  0
ENDTAB
  0
TABLE
  2
LAYER
 70
258
  0
LAYER
  2
1
 70
0
 62
7
  6
CONTINUOUS
  0
LAYER
  2
Drafting_Hidden_Entities
 70
1
 62
7
  6
CONTINUOUS
  0
ENDTAB
  0
TABLE
  2
STYLE
 70
1
  0
STYLE
  2
STANDARD
 70
64
 40
0.0
 41
1.0
 50
0.0
 71
0
 42
1.0
  3
monotxt.shx
  4

  0
ENDTAB
  0
TABLE
  2
VIEW
 70
0
  0
ENDTAB
  0
TABLE
  2
DIMSTYLE
 70
2
  0
DIMSTYLE
  2
DSTYLE1
 70
0
  3

  4

  5

  6

  7

 40
1.0
 41
3.0
 42
0.0
 43
3.8E-001
 44
1.5
 45
1.0E-001
 46
0.0
 47
0.0
 48
0.0
 71
0
 72
0
 73
0
 74
0
 75
0
 76
0
 77
1
 78
11
140
3.0
141
9.0E-002
142
0.0
143
2.54E+001
144
1.0
145
0.0
146
1.0
147
1.5
170
0
171
2
172
0
173
0
174
0
175
0
176
0
177
0
178
0
  0
DIMSTYLE
  2
DSTYLE2
 70
0
  3

  4

  5

  6

  7

 40
1.0
 41
3.0
 42
0.0
 43
3.8E-001
 44
1.5
 45
0.0
 46
0.0
 47
0.0
 48
0.0
 71
0
 72
0
 73
0
 74
0
 75
0
 76
0
 77
1
 78
11
140
3.0
141
9.0E-002
142
0.0
143
2.54E+001
144
1.0
145
0.0
146
1.0
147
1.5
170
0
171
2
172
0
173
0
174
0
175
0
176
0
177
0
178
0
  0
ENDTAB
  0
ENDSEC
  0
SECTION
  2
BLOCKS
  0
BLOCK
  2
*AH13
  3
*AH
 10
0.0
 20
0.0
 70
65
  0
LINE
  8
1
  6
CONTINUOUS
 62
0
 10
0.0
 20
0.0
 11
1.0
 21
-1.666679E-001
  0
LINE
  8
1
  6
CONTINUOUS
 62
0
 10
1.0
 20
-1.666679E-001
 11
1.0
 21
1.66668E-001
  0
LINE
  8
1
  6
CONTINUOUS
 62
0
 10
1.0
 20
1.66668E-001
 11
0.0
 21
0.0
  0
ENDBLK
  0
BLOCK
  2
XHXH1NEW02NEW00NEW00
 10
0.0
 20
0.0
 70
0
  0
POLYLINE
  8
254
  6
CONTINUOUS
 62
6
 66
1
 40
1.0E-003
 41
1.0E-003
 70
0
  0
VERTEX
  8
254
 42
0.0
 10
-2.2647095E-001
 20
-2.2647285E-001
 70
0
  0
VERTEX
  8
254
 42
0.0
 10
2.2647095E-001
 20
2.2647285E-001
 70
0
  0
SEQEND
  0
POLYLINE
  8
254
  6
CONTINUOUS
 62
6
 66
1
 40
1.0E-003
 41
1.0E-003
 70
0
  0
VERTEX
  8
254
 42
0.0
 10
-3.9656067E-001
 20
-6.7941666E-001
 70
0
  0
VERTEX
  8
254
 42
0.0
 10
4.2364502E-001
 20
1.4080048E-001
 70
0
  0
SEQEND
  0
POLYLINE
  8
254
  6
CONTINUOUS
 62
6
 66
1
 40
1.0E-003
 41
1.0E-003
 70
0
  0
VERTEX
  8
254
 42
0.0
 10
-5.6666565E-001
 20
-1.1323624
 70
0
  0
VERTEX
  8
254
 42
0.0
 10
4.2364502E-001
 20
-1.4204407E-001
 70
0
  0
SEQEND
  0
POLYLINE
  8
254
  6
CONTINUOUS
 62
6
 66
1
 40
1.0E-003
 41
1.0E-003
 70
0
  0
VERTEX
  8
254
 42
0.0
 10
-7.3677063E-001
 20
-1.5853081
 70
0
  0
VERTEX
  8
254
 42
0.0
 10
4.2364502E-001
 20
-4.248867E-001
 70
0
  0
SEQEND
  0
POLYLINE
  8
254
  6
CONTINUOUS
 62
6
 66
1
 40
1.0E-003
 41
1.0E-003
 70
0
  0
VERTEX
  8
254
 42
0.0
 10
8.1364441E-001
 20
-3.4885406E-002
 70
0
  0
VERTEX
  8
254
 42
0.0
 10
1.0749969
 20
2.2647285E-001
 70
0
  0
SEQEND
  0
POLYLINE
  8
254
  6
CONTINUOUS
 62
6
 66
1
 40
1.0E-003
 41
1.0E-003
 70
0
  0
VERTEX
  8
254
 42
0.0
 10
-6.9714355E-001
 20
-1.8285255
 70
0
  0
VERTEX
  8
254
 42
0.0
 10
4.2364502E-001
 20
-7.0773125E-001
 70
0
  0
SEQEND
  0
POLYLINE
  8
254
  6
CONTINUOUS
 62
6
 66
1
 40
1.0E-003
 41
1.0E-003
 70
0
  0
VERTEX
  8
254
 42
0.0
 10
8.1364441E-001
 20
-3.1772995E-001
 70
0
  0
VERTEX
  8
254
 42
0.0
 10
1.3111725
 20
1.7979813E-001
 70
0
  0
SEQEND
  0
POLYLINE
  8
254
  6
CONTINUOUS
 62
6
 66
1
 40
1.0E-003
 41
1.0E-003
 70
0
  0
VERTEX
  8
254
 42
0.0
 10
-8.928833E-001
 20
-2.3071117
 70
0
  0
VERTEX
  8
254
 42
0.0
 10
-8.0430603E-001
 20
-2.2185249
 70
0
  0
SEQEND
  0
POLYLINE
  8
254
  6
CONTINUOUS
 62
6
 66
1
 40
1.0E-003
 41
1.0E-003
 70
0
  0
VERTEX
  8
254
 42
0.0
 10
-4.1430664E-001
 20
-1.8285255
 70
0
  0
VERTEX
  8
254
 42
0.0
 10
4.2364502E-001
 20
-9.9057388E-001
 70
0
  0
SEQEND
  0
POLYLINE
  8
254
  6
CONTINUOUS
 62
6
 66
1
 40
1.0E-003
 41
1.0E-003
 70
0
  0
VERTEX
  8
254
 42
0.0
 10
8.1364441E-001
 20
-6.0057259E-001
 70
0
  0
VERTEX
  8
254
 42
0.0
 10
1.3883972
 20
-2.58255E-002
 70
0
  0
SEQEND
  0
POLYLINE
  8
254
  6
CONTINUOUS
 62
6
 66
1
 40
1.0E-003
 41
1.0E-003
 70
0
  0
VERTEX
  8
254
 42
0.0
 10
-1.0629883
 20
-2.7600574
 70
0
  0
VERTEX
  8
254
 42
0.0
 10
-5.2145386E-001
 20
-2.2185249
 70
0
  0
SEQEND
  0
POLYLINE
  8
254
  6
CONTINUOUS
 62
6
 66
1
 40
1.0E-003
 41
1.0E-003
 70
0
  0
VERTEX
  8
254
 42
0.0
 10
-1.3145447E-001
 20
-1.8285255
 70
0
  0
VERTEX
  8
254
 42
0.0
 10
4.2364502E-001
 20
-1.2734165
 70
0
  0
SEQEND
  0
POLYLINE
  8
254
  6
CONTINUOUS
 62
6
 66
1
 40
1.0E-003
 41
1.0E-003
 70
0
  0
VERTEX
  8
254
 42
0.0
 10
8.1364441E-001
 20
-8.8341522E-001
 70
0
  0
VERTEX
  8
254
 42
0.0
 10
1.4656067
 20
-2.3144722E-001
 70
0
  0
SEQEND
  0
POLYLINE
  8
254
  6
CONTINUOUS
 62
6
 66
1
 40
1.0E-003
 41
1.0E-003
 70
0
  0
VERTEX
  8
254
 42
0.0
 10
-1.2330933
 20
-3.2130032
 70
0
  0
VERTEX
  8
254
 42
0.0
 10
-2.3861694E-001
 20
-2.2185249
 70
0
  0
SEQEND
  0
POLYLINE
  8
254
  6
CONTINUOUS
 62
6
 66
1
 40
1.0E-003
 41
1.0E-003
 70
0
  0
VERTEX
  8
254
 42
0.0
 10
1.5138245E-001
 20
-1.8285255
 70
0
  0
VERTEX
  8
254
 42
0.0
 10
4.2364502E-001
 20
-1.5562611
 70
0
  0
SEQEND
  0
POLYLINE
  8
254
  6
CONTINUOUS
 62
6
 66
1
 40
1.0E-003
 41
1.0E-003
 70
0
  0
VERTEX
  8
254
 42
0.0
 10
8.1364441E-001
 20
-1.1662598
 70
0
  0
VERTEX
  8
254
 42
0.0
 10
1.5428314
 20
-4.3707085E-001
 70
0
  0
SEQEND
  0
POLYLINE
  8
254
  6
CONTINUOUS
 62
6
 66
1
 40
1.0E-003
 41
1.0E-003
 70
0
  0
VERTEX
  8
254
 42
0.0
 10
-1.4031982
 20
-3.665947
 70
0
  0
VERTEX
  8
254
 42
0.0
 10
4.4219971E-002
 20
-2.2185249
 70
0
  0
SEQEND
  0
POLYLINE
  8
254
  6
CONTINUOUS
 62
6
 66
1
 40
1.0E-003
 41
1.0E-003
 70
0
  0
VERTEX
  8
254
 42
0.0
 10
8.1364441E-001
 20
-1.4491024
 70
0
  0
VERTEX
  8
254
 42
0.0
 10
1.6200562
 20
-6.4269257E-001
 70
0
  0
SEQEND
  0
POLYLINE
  8
254
  6
CONTINUOUS
 62
6
 66
1
 40
1.0E-003
 41
1.0E-003
 70
0
  0
VERTEX
  8
254
 42
0.0
 10
-1.573288
 20
-4.1188927
 70
0
  0
VERTEX
  8
254
 42
0.0
 10
3.2707214E-001
 20
-2.2185249
 70
0
  0
SEQEND
  0
POLYLINE
  8
254
  6
CONTINUOUS
 62
6
 66
1
 40
1.0E-003
 41
1.0E-003
 70
0
  0
VERTEX
  8
254
 42
0.0
 10
8.1364441E-001
 20
-1.731945
 70
0
  0
VERTEX
  8
254
 42
0.0
 10
1.6972656
 20
-8.4831619E-001
 70
0
  0
SEQEND
  0
POLYLINE
  8
254
  6
CONTINUOUS
 62
6
 66
1
 40
1.0E-003
 41
1.0E-003
 70
0
  0
VERTEX
  8
254
 42
0.0
 10
-1.4450836
 20
-4.2735233
 70
0
  0
VERTEX
  8
254
 42
0.0
 10
4.2364502E-001
 20
-2.4047909
 70
0
  0
SEQEND
  0
POLYLINE
  8
254
  6
CONTINUOUS
 62
6
 66
1
 40
1.0E-003
 41
1.0E-003
 70
0
  0
VERTEX
  8
254
 42
0.0
 10
9.9990845E-001
 20
-1.8285255
 70
0
  0
VERTEX
  8
254
 42
0.0
 10
1.7744904
 20
-1.0539379
 70
0
  0
SEQEND
  0
POLYLINE
  8
254
  6
CONTINUOUS
 62
6
 66
1
 40
1.0E-003
 41
1.0E-003
 70
0
  0
VERTEX
  8
254
 42
0.0
 10
-1.1622314
 20
-4.2735233
 70
0
  0
VERTEX
  8
254
 42
0.0
 10
4.2364502E-001
 20
-2.6876335
 70
0
  0
SEQEND
  0
POLYLINE
  8
254
  6
CONTINUOUS
 62
6
 66
1
 40
1.0E-003
 41
1.0E-003
 70
0
  0
VERTEX
  8
254
 42
0.0
 10
8.1364441E-001
 20
-2.2976322
 70
0
  0
VERTEX
  8
254
 42
0.0
 10
8.9274597E-001
 20
-2.2185249
 70
0
  0
SEQEND
  0
POLYLINE
  8
254
  6
CONTINUOUS
 62
6
 66
1
 40
1.0E-003
 41
1.0E-003
 70
0
  0
VERTEX
  8
254
 42
0.0
 10
1.2827454
 20
-1.8285255
 70
0
  0
VERTEX
  8
254
 42
0.0
 10
1.8517151
 20
-1.2595596
 70
0
  0
SEQEND
  0
POLYLINE
  8
254
  6
CONTINUOUS
 62
6
 66
1
 40
1.0E-003
 41
1.0E-003
 70
0
  0
VERTEX
  8
254
 42
0.0
 10
3.1836395
 20
7.2372437E-002
 70
0
  0
VERTEX
  8
254
 42
0.0
 10
3.337738
 20
2.2647285E-001
 70
0
  0
SEQEND
  0
POLYLINE
  8
254
  6
CONTINUOUS
 62
6
 66
1
 40
1.0E-003
 41
1.0E-003
 70
0
  0
VERTEX
  8
254
 42
0.0
 10
-8.7939453E-001
 20
-4.2735233
 70
0
  0
VERTEX
  8
254
 42
0.0
 10
-3.0549622E-001
 20
-3.6996193
 70
0
  0
SEQEND
  0
POLYLINE
  8
254
  6
CONTINUOUS
 62
6
 66
1
 40
1.0E-003
 41
1.0E-003
 70
0
  0
VERTEX
  8
254
 42
0.0
 10
2.0599365E-002
 20
-3.3735256
 70
0
  0
VERTEX
  8
254
 42
0.0
 10
4.2364502E-001
 20
-2.9704762
 70
0
  0
SEQEND
  0
POLYLINE
  8
254
  6
CONTINUOUS
 62
6
 66
1
 40
1.0E-003
 41
1.0E-003
 70
0
  0
VERTEX
  8
254
 42
0.0
 10
8.1364441E-001
 20
-2.5804749
 70
0
  0
VERTEX
  8
254
 42
0.0
 10
1.1755981
 20
-2.2185249
 70
0
  0
SEQEND
  0
POLYLINE
  8
254
  6
CONTINUOUS
 62
6
 66
1
 40
1.0E-003
 41
1.0E-003
 70
0
  0
VERTEX
  8
254
 42
0.0
 10
1.5655975
 20
-1.8285255
 70
0
  0
VERTEX
  8
254
 42
0.0
 10
1.9289398
 20
-1.4651833
 70
0
  0
SEQEND
  0
POLYLINE
  8
254
  6
CONTINUOUS
 62
6
 66
1
 40
1.0E-003
 41
1.0E-003
 70
0
  0
VERTEX
  8
254
 42
0.0
 10
3.1836395
 20
-2.104702E-001
 70
0
  0
VERTEX
  8
254
 42
0.0
 10
3.620575
 20
2.2647285E-001
 70
0
  0
SEQEND
  0
POLYLINE
  8
254
  6
CONTINUOUS
 62
6
 66
1
 40
1.0E-003
 41
1.0E-003
 70
0
  0
VERTEX
  8
254
 42
0.0
 10
-5.9655762E-001
 20
-4.2735233
 70
0
  0
VERTEX
  8
254
 42
0.0
 10
-4.5779419E-001
 20
-4.1347656
 70
0
  0
SEQEND
  0
POLYLINE
  8
254
  6
CONTINUOUS
 62
6
 66
1
 40
1.0E-003
 41
1.0E-003
 70
0
  0
VERTEX
  8
254
 42
0.0
 10
3.0343628E-001
 20
-3.3735256
 70
0
  0
VERTEX
  8
254
 42
0.0
 10
4.2364502E-001
 20
-3.2533207
 70
0
  0
SEQEND
  0
POLYLINE
  8
254
  6
CONTINUOUS
 62
6
 66
1
 40
1.0E-003
 41
1.0E-003
 70
0
  0
VERTEX
  8
254
 42
0.0
 10
8.1364441E-001
 20
-2.8633194
 70
0
  0
VERTEX
  8
254
 42
0.0
 10
1.4584351
 20
-2.2185249
 70
0
  0
SEQEND
  0
POLYLINE
  8
254
  6
CONTINUOUS
 62
6
 66
1
 40
1.0E-003
 41
1.0E-003
 70
0
  0
VERTEX
  8
254
 42
0.0
 10
1.8484344
 20
-1.8285255
 70
0
  0
VERTEX
  8
254
 42
0.0
 10
2.0061493
 20
-1.670805
 70
0
  0
SEQEND
  0
POLYLINE
  8
254
  6
CONTINUOUS
 62
6
 66
1
 40
1.0E-003
 41
1.0E-003
 70
0
  0
VERTEX
  8
254
 42
0.0
 10
3.1836395
 20
-4.9331474E-001
 70
0
  0
VERTEX
  8
254
 42
0.0
 10
3.9034271
 20
2.2647285E-001
 70
0
  0
SEQEND
  0
POLYLINE
  8
254
  6
CONTINUOUS
 62
6
 66
1
 40
1.0E-003
 41
1.0E-003
 70
0
  0
VERTEX
  8
254
 42
0.0
 10
8.1364441E-001
 20
-3.146162
 70
0
  0
VERTEX
  8
254
 42
0.0
 10
1.741272
 20
-2.2185249
 70
0
  0
SEQEND
  0
POLYLINE
  8
254
  6
CONTINUOUS
 62
6
 66
1
 40
1.0E-003
 41
1.0E-003
 70
0
  0
VERTEX
  8
254
 42
0.0
 10
3.1836395
 20
-7.7615738E-001
 70
0
  0
VERTEX
  8
254
 42
0.0
 10
4.186264
 20
2.2647285E-001
 70
0
  0
SEQEND
  0
POLYLINE
  8
254
  6
CONTINUOUS
 62
6
 66
1
 40
1.0E-003
 41
1.0E-003
 70
0
  0
VERTEX
  8
254
 42
0.0
 10
8.6912537E-001
 20
-3.3735256
 70
0
  0
VERTEX
  8
254
 42
0.0
 10
2.0241241
 20
-2.2185249
 70
0
  0
SEQEND
  0
POLYLINE
  8
254
  6
CONTINUOUS
 62
6
 66
1
 40
1.0E-003
 41
1.0E-003
 70
0
  0
VERTEX
  8
254
 42
0.0
 10
3.1836395
 20
-1.059
 70
0
  0
VERTEX
  8
254
 42
0.0
 10
4.3386536
 20
9.6017838E-002
 70
0
  0
SEQEND
  0
POLYLINE
  8
254
  6
CONTINUOUS
 62
6
 66
1
 40
1.0E-003
 41
1.0E-003
 70
0
  0
VERTEX
  8
254
 42
0.0
 10
1.1519623
 20
-3.3735256
 70
0
  0
VERTEX
  8
254
 42
0.0
 10
2.1542511
 20
-2.3712425
 70
0
  0
SEQEND
  0
POLYLINE
  8
254
  6
CONTINUOUS
 62
6
 66
1
 40
1.0E-003
 41
1.0E-003
 70
0
  0
VERTEX
  8
254
 42
0.0
 10
3.1836395
 20
-1.3418446
 70
0
  0
VERTEX
  8
254
 42
0.0
 10
4.3386536
 20
-1.868248E-001
 70
0
  0
SEQEND
  0
POLYLINE
  8
254
  6
CONTINUOUS
 62
6
 66
1
 40
1.0E-003
 41
1.0E-003
 70
0
  0
VERTEX
  8
254
 42
0.0
 10
4.7286377
 20
2.0316124E-001
 70
0
  0
VERTEX
  8
254
 42
0.0
 10
4.7519531
 20
2.2647285E-001
 70
0
  0
SEQEND
  0
POLYLINE
  8
254
  6
CONTINUOUS
 62
6
 66
1
 40
1.0E-003
 41
1.0E-003
 70
0
  0
VERTEX
  8
254
 42
0.0
 10
1.4302368
 20
-3.3780994
 70
0
  0
VERTEX
  8
254
 42
0.0
 10
2.2314606
 20
-2.5768642
 70
0
  0
SEQEND
  0
POLYLINE
  8
254
  6
CONTINUOUS
 62
6
 66
1
 40
1.0E-003
 41
1.0E-003
 70
0
  0
VERTEX
  8
254
 42
0.0
 10
3.1836395
 20
-1.6246872
 70
0
  0
VERTEX
  8
254
 42
0.0
 10
4.3386536
 20
-4.6966743E-001
 70
0
  0
SEQEND
  0
POLYLINE
  8
254
  6
CONTINUOUS
 62
6
 66
1
 40
1.0E-003
 41
1.0E-003
 70
0
  0
VERTEX
  8
254
 42
0.0
 10
4.7286377
 20
-7.9683304E-002
 70
0
  0
VERTEX
  8
254
 42
0.0
 10
5.0330811
 20
2.2476578E-001
 70
0
  0
SEQEND
  0
POLYLINE
  8
254
  6
CONTINUOUS
 62
6
 66
1
 40
1.0E-003
 41
1.0E-003
 70
0
  0
VERTEX
  8
254
 42
0.0
 10
1.5035706
 20
-3.5876122
 70
0
  0
VERTEX
  8
254
 42
0.0
 10
2.3086853
 20
-2.7824879
 70
0
  0
SEQEND
  0
POLYLINE
  8
254
  6
CONTINUOUS
 62
6
 66
1
 40
1.0E-003
 41
1.0E-003
 70
0
  0
VERTEX
  8
254
 42
0.0
 10
3.2626495
 20
-1.8285255
 70
0
  0
VERTEX
  8
254
 42
0.0
 10
4.3386536
 20
-7.5251198E-001
 70
0
  0
SEQEND
  0
POLYLINE
  8
254
  6
CONTINUOUS
 62
6
 66
1
 40
1.0E-003
 41
1.0E-003
 70
0
  0
VERTEX
  8
254
 42
0.0
 10
4.7286377
 20
-3.6252594E-001
 70
0
  0
VERTEX
  8
254
 42
0.0
 10
5.2719421
 20
1.8078232E-001
 70
0
  0
SEQEND
  0
POLYLINE
  8
254
  6
CONTINUOUS
 62
6
 66
1
 40
1.0E-003
 41
1.0E-003
 70
0
  0
VERTEX
  8
254
 42
0.0
 10
1.576889
 20
-3.7971249
 70
0
  0
VERTEX
  8
254
 42
0.0
 10
2.38591
 20
-2.9881096
 70
0
  0
SEQEND
  0
POLYLINE
  8
254
  6
CONTINUOUS
 62
6
 66
1
 40
1.0E-003
 41
1.0E-003
 70
0
  0
VERTEX
  8
254
 42
0.0
 10
3.5454865
 20
-1.8285255
 70
0
  0
VERTEX
  8
254
 42
0.0
 10
4.3386536
 20
-1.0353546
 70
0
  0
SEQEND
  0
POLYLINE
  8
254
  6
CONTINUOUS
 62
6
 66
1
 40
1.0E-003
 41
1.0E-003
 70
0
  0
VERTEX
  8
254
 42
0.0
 10
4.7286377
 20
-6.4536858E-001
 70
0
  0
VERTEX
  8
254
 42
0.0
 10
5.4707031
 20
9.6696854E-002
 70
0
  0
SEQEND
  0
POLYLINE
  8
254
  6
CONTINUOUS
 62
6
 66
1
 40
1.0E-003
 41
1.0E-003
 70
0
  0
VERTEX
  8
254
 42
0.0
 10
1.6502228
 20
-4.0066376
 70
0
  0
VERTEX
  8
254
 42
0.0
 10
2.4631348
 20
-3.1937332
 70
0
  0
SEQEND
  0
POLYLINE
  8
254
  6
CONTINUOUS
 62
6
 66
1
 40
1.0E-003
 41
1.0E-003
 70
0
  0
VERTEX
  8
254
 42
0.0
 10
3.1836395
 20
-2.473217
 70
0
  0
VERTEX
  8
254
 42
0.0
 10
3.438324
 20
-2.2185249
 70
0
  0
SEQEND
  0
POLYLINE
  8
254
  6
CONTINUOUS
 62
6
 66
1
 40
1.0E-003
 41
1.0E-003
 70
0
  0
VERTEX
  8
254
 42
0.0
 10
3.8283234
 20
-1.8285255
 70
0
  0
VERTEX
  8
254
 42
0.0
 10
4.3386536
 20
-1.3181992
 70
0
  0
SEQEND
  0
POLYLINE
  8
254
  6
CONTINUOUS
 62
6
 66
1
 40
1.0E-003
 41
1.0E-003
 70
0
  0
VERTEX
  8
254
 42
0.0
 10
4.7286377
 20
-9.2821312E-001
 70
0
  0
VERTEX
  8
254
 42
0.0
 10
5.6378021
 20
-1.9039154E-002
 70
0
  0
SEQEND
  0
POLYLINE
  8
254
  6
CONTINUOUS
 62
6
 66
1
 40
1.0E-003
 41
1.0E-003
 70
0
  0
VERTEX
  8
254
 42
0.0
 10
1.7235565
 20
-4.2161503
 70
0
  0
VERTEX
  8
254
 42
0.0
 10
2.5403442
 20
-3.3993549
 70
0
  0
SEQEND
  0
POLYLINE
  8
254
  6
CONTINUOUS
 62
6
 66
1
 40
1.0E-003
 41
1.0E-003
 70
0
  0
VERTEX
  8
254
 42
0.0
 10
3.1836395
 20
-2.7560596
 70
0
  0
VERTEX
  8
254
 42
0.0
 10
3.7211761
 20
-2.2185249
 70
0
  0
SEQEND
  0
POLYLINE
  8
254
  6
CONTINUOUS
 62
6
 66
1
 40
1.0E-003
 41
1.0E-003
 70
0
  0
VERTEX
  8
254
 42
0.0
 10
4.1111755
 20
-1.8285255
 70
0
  0
VERTEX
  8
254
 42
0.0
 10
4.3386536
 20
-1.6010418
 70
0
  0
SEQEND
  0
POLYLINE
  8
254
  6
CONTINUOUS
 62
6
 66
1
 40
1.0E-003
 41
1.0E-003
 70
0
  0
VERTEX
  8
254
 42
0.0
 10
4.7286377
 20
-1.2110558
 70
0
  0
VERTEX
  8
254
 42
0.0
 10
5.7763824
 20
-1.633091E-001
 70
0
  0
SEQEND
  0
POLYLINE
  8
254
  6
CONTINUOUS
 62
6
 66
1
 40
1.0E-003
 41
1.0E-003
 70
0
  0
VERTEX
  8
254
 42
0.0
 10
1.9490204
 20
-4.2735233
 70
0
  0
VERTEX
  8
254
 42
0.0
 10
2.617569
 20
-3.6049767
 70
0
  0
SEQEND
  0
POLYLINE
  8
254
  6
CONTINUOUS
 62
6
 66
1
 40
1.0E-003
 41
1.0E-003
 70
0
  0
VERTEX
  8
254
 42
0.0
 10
3.1836395
 20
-3.0389042
 70
0
  0
VERTEX
  8
254
 42
0.0
 10
4.0040131
 20
-2.2185249
 70
0
  0
SEQEND
  0
POLYLINE
  8
254
  6
CONTINUOUS
 62
6
 66
1
 40
1.0E-003
 41
1.0E-003
 70
0
  0
VERTEX
  8
254
 42
0.0
 10
4.7286377
 20
-1.4938984
 70
0
  0
VERTEX
  8
254
 42
0.0
 10
5.885849
 20
-3.3667946E-001
 70
0
  0
SEQEND
  0
POLYLINE
  8
254
  6
CONTINUOUS
 62
6
 66
1
 40
1.0E-003
 41
1.0E-003
 70
0
  0
VERTEX
  8
254
 42
0.0
 10
2.2318726
 20
-4.2735233
 70
0
  0
VERTEX
  8
254
 42
0.0
 10
2.6947937
 20
-3.8106003
 70
0
  0
SEQEND
  0
POLYLINE
  8
254
  6
CONTINUOUS
 62
6
 66
1
 40
1.0E-003
 41
1.0E-003
 70
0
  0
VERTEX
  8
254
 42
0.0
 10
3.1836395
 20
-3.3217468
 70
0
  0
VERTEX
  8
254
 42
0.0
 10
4.2868652
 20
-2.2185249
 70
0
  0
SEQEND
  0
POLYLINE
  8
254
  6
CONTINUOUS
 62
6
 66
1
 40
1.0E-003
 41
1.0E-003
 70
0
  0
VERTEX
  8
254
 42
0.0
 10
4.7286377
 20
-1.7767429
 70
0
  0
VERTEX
  8
254
 42
0.0
 10
5.9616241
 20
-5.4375839E-001
 70
0
  0
SEQEND
  0
POLYLINE
  8
254
  6
CONTINUOUS
 62
6
 66
1
 40
1.0E-003
 41
1.0E-003
 70
0
  0
VERTEX
  8
254
 42
0.0
 10
6.693634
 20
1.8826294E-001
 70
0
  0
VERTEX
  8
254
 42
0.0
 10
6.731842
 20
2.2647285E-001
 70
0
  0
SEQEND
  0
POLYLINE
  8
254
  6
CONTINUOUS
 62
6
 66
1
 40
1.0E-003
 41
1.0E-003
 70
0
  0
VERTEX
  8
254
 42
0.0
 10
2.5147095
 20
-4.2735233
 70
0
  0
VERTEX
  8
254
 42
0.0
 10
2.7720032
 20
-4.016222
 70
0
  0
SEQEND
  0
POLYLINE
  8
254
  6
CONTINUOUS
 62
6
 66
1
 40
1.0E-003
 41
1.0E-003
 70
0
  0
VERTEX
  8
254
 42
0.0
 10
3.1836395
 20
-3.6045914
 70
0
  0
VERTEX
  8
254
 42
0.0
 10
4.3386536
 20
-2.4495716
 70
0
  0
SEQEND
  0
POLYLINE
  8
254
  6
CONTINUOUS
 62
6
 66
1
 40
1.0E-003
 41
1.0E-003
 70
0
  0
VERTEX
  8
254
 42
0.0
 10
4.9597015
 20
-1.8285255
 70
0
  0
VERTEX
  8
254
 42
0.0
 10
5.9921417
 20
-7.9607391E-001
 70
0
  0
SEQEND
  0
POLYLINE
  8
254
  6
CONTINUOUS
 62
6
 66
1
 40
1.0E-003
 41
1.0E-003
 70
0
  0
VERTEX
  8
254
 42
0.0
 10
6.693634
 20
-9.4581604E-002
 70
0
  0
VERTEX
  8
254
 42
0.0
 10
7.0146942
 20
2.2647285E-001
 70
0
  0
SEQEND
  0
POLYLINE
  8
254
  6
CONTINUOUS
 62
6
 66
1
 40
1.0E-003
 41
1.0E-003
 70
0
  0
VERTEX
  8
254
 42
0.0
 10
2.7975464
 20
-4.2735233
 70
0
  0
VERTEX
  8
254
 42
0.0
 10
2.8492279
 20
-4.2218456
 70
0
  0
SEQEND
  0
POLYLINE
  8
254
  6
CONTINUOUS
 62
6
 66
1
 40
1.0E-003
 41
1.0E-003
 70
0
  0
VERTEX
  8
254
 42
0.0
 10
3.1836395
 20
-3.887434
 70
0
  0
VERTEX
  8
254
 42
0.0
 10
4.3386536
 20
-2.7324142
 70
0
  0
SEQEND
  0
POLYLINE
  8
254
  6
CONTINUOUS
 62
6
 66
1
 40
1.0E-003
 41
1.0E-003
 70
0
  0
VERTEX
  8
254
 42
0.0
 10
4.7286377
 20
-2.3424282
 70
0
  0
VERTEX
  8
254
 42
0.0
 10
4.8525391
 20
-2.2185249
 70
0
  0
SEQEND
  0
POLYLINE
  8
254
  6
CONTINUOUS
 62
6
 66
1
 40
1.0E-003
 41
1.0E-003
 70
0
  0
VERTEX
  8
254
 42
0.0
 10
5.2425385
 20
-1.8285255
 70
0
  0
VERTEX
  8
254
 42
0.0
 10
5.9243927
 20
-1.1466713
 70
0
  0
SEQEND
  0
POLYLINE
  8
254
  6
CONTINUOUS
 62
6
 66
1
 40
1.0E-003
 41
1.0E-003
 70
0
  0
VERTEX
  8
254
 42
0.0
 10
6.693634
 20
-3.7742424E-001
 70
0
  0
VERTEX
  8
254
 42
0.0
 10
7.2975311
 20
2.2647285E-001
 70
0
  0
SEQEND
  0
POLYLINE
  8
254
  6
CONTINUOUS
 62
6
 66
1
 40
1.0E-003
 41
1.0E-003
 70
0
  0
VERTEX
  8
254
 42
0.0
 10
3.1836395
 20
-4.1702766
 70
0
  0
VERTEX
  8
254
 42
0.0
 10
4.3386536
 20
-3.0152588
 70
0
  0
SEQEND
  0
POLYLINE
  8
254
  6
CONTINUOUS
 62
6
 66
1
 40
1.0E-003
 41
1.0E-003
 70
0
  0
VERTEX
  8
254
 42
0.0
 10
4.7286377
 20
-2.6252728
 70
0
  0
VERTEX
  8
254
 42
0.0
 10
5.1353912
 20
-2.2185249
 70
0
  0
SEQEND
  0
POLYLINE
  8
254
  6
CONTINUOUS
 62
6
 66
1
 40
1.0E-003
 41
1.0E-003
 70
0
  0
VERTEX
  8
254
 42
0.0
 10
5.5253754
 20
-1.8285255
 70
0
  0
VERTEX
  8
254
 42
0.0
 10
5.618103
 20
-1.7358074
 70
0
  0
SEQEND
  0
POLYLINE
  8
254
  6
CONTINUOUS
 62
6
 66
1
 40
1.0E-003
 41
1.0E-003
 70
0
  0
VERTEX
  8
254
 42
0.0
 10
6.693634
 20
-6.6026688E-001
 70
0
  0
VERTEX
  8
254
 42
0.0
 10
7.580368
 20
2.2647285E-001
 70
0
  0
SEQEND
  0
POLYLINE
  8
254
  6
CONTINUOUS
 62
6
 66
1
 40
1.0E-003
 41
1.0E-003
 70
0
  0
VERTEX
  8
254
 42
0.0
 10
3.3632355
 20
-4.2735233
 70
0
  0
VERTEX
  8
254
 42
0.0
 10
4.3386536
 20
-3.2981014
 70
0
  0
SEQEND
  0
POLYLINE
  8
254
  6
CONTINUOUS
 62
6
 66
1
 40
1.0E-003
 41
1.0E-003
 70
0
  0
VERTEX
  8
254
 42
0.0
 10
4.7286377
 20
-2.9081154
 70
0
  0
VERTEX
  8
254
 42
0.0
 10
5.4182281
 20
-2.2185249
 70
0
  0
SEQEND
  0
POLYLINE
  8
254
  6
CONTINUOUS
 62
6
 66
1
 40
1.0E-003
 41
1.0E-003
 70
0
  0
VERTEX
  8
254
 42
0.0
 10
6.693634
 20
-9.4311142E-001
 70
0
  0
VERTEX
  8
254
 42
0.0
 10
7.8486481
 20
2.1190834E-001
 70
0
  0
SEQEND
  0
POLYLINE
  8
254
  6
CONTINUOUS
 62
6
 66
1
 40
1.0E-003
 41
1.0E-003
 70
0
  0
VERTEX
  8
254
 42
0.0
 10
3.6460724
 20
-4.2735233
 70
0
  0
VERTEX
  8
254
 42
0.0
 10
4.3386536
 20
-3.5809441
 70
0
  0
SEQEND
  0
POLYLINE
  8
254
  6
CONTINUOUS
 62
6
 66
1
 40
1.0E-003
 41
1.0E-003
 70
0
  0
VERTEX
  8
254
 42
0.0
 10
4.7286377
 20
-3.1909599
 70
0
  0
VERTEX
  8
254
 42
0.0
 10
5.7010651
 20
-2.2185249
 70
0
  0
SEQEND
  0
POLYLINE
  8
254
  6
CONTINUOUS
 62
6
 66
1
 40
1.0E-003
 41
1.0E-003
 70
0
  0
VERTEX
  8
254
 42
0.0
 10
6.693634
 20
-1.2259541
 70
0
  0
VERTEX
  8
254
 42
0.0
 10
7.8486481
 20
-7.0936203E-002
 70
0
  0
SEQEND
  0
POLYLINE
  8
254
  6
CONTINUOUS
 62
6
 66
1
 40
1.0E-003
 41
1.0E-003
 70
0
  0
VERTEX
  8
254
 42
0.0
 10
3.9289246
 20
-4.2735233
 70
0
  0
VERTEX
  8
254
 42
0.0
 10
4.3386536
 20
-3.8637886
 70
0
  0
SEQEND
  0
POLYLINE
  8
254
  6
CONTINUOUS
 62
6
 66
1
 40
1.0E-003
 41
1.0E-003
 70
0
  0
VERTEX
  8
254
 42
0.0
 10
4.7286377
 20
-3.4738026
 70
0
  0
VERTEX
  8
254
 42
0.0
 10
5.9839172
 20
-2.2185249
 70
0
  0
SEQEND
  0
POLYLINE
  8
254
  6
CONTINUOUS
 62
6
 66
1
 40
1.0E-003
 41
1.0E-003
 70
0
  0
VERTEX
  8
254
 42
0.0
 10
6.693634
 20
-1.5087986
 70
0
  0
VERTEX
  8
254
 42
0.0
 10
7.8486481
 20
-3.5377884E-001
 70
0
  0
SEQEND
  0
POLYLINE
  8
254
  6
CONTINUOUS
 62
6
 66
1
 40
1.0E-003
 41
1.0E-003
 70
0
  0
VERTEX
  8
254
 42
0.0
 10
8.2386322
 20
3.6207199E-002
 70
0
  0
VERTEX
  8
254
 42
0.0
 10
8.428894
 20
2.2647285E-001
 70
0
  0
SEQEND
  0
POLYLINE
  8
254
  6
CONTINUOUS
 62
6
 66
1
 40
1.0E-003
 41
1.0E-003
 70
0
  0
VERTEX
  8
254
 42
0.0
 10
4.2117615
 20
-4.2735233
 70
0
  0
VERTEX
  8
254
 42
0.0
 10
4.3386536
 20
-4.1466312
 70
0
  0
SEQEND
  0
POLYLINE
  8
254
  6
CONTINUOUS
 62
6
 66
1
 40
1.0E-003
 41
1.0E-003
 70
0
  0
VERTEX
  8
254
 42
0.0
 10
4.7286377
 20
-3.7566452
 70
0
  0
VERTEX
  8
254
 42
0.0
 10
6.181076
 20
-2.3042011
 70
0
  0
SEQEND
  0
POLYLINE
  8
254
  6
CONTINUOUS
 62
6
 66
1
 40
1.0E-003
 41
1.0E-003
 70
0
  0
VERTEX
  8
254
 42
0.0
 10
6.693634
 20
-1.7916412
 70
0
  0
VERTEX
  8
254
 42
0.0
 10
7.8486481
 20
-6.3662148E-001
 70
0
  0
SEQEND
  0
POLYLINE
  8
254
  6
CONTINUOUS
 62
6
 66
1
 40
1.0E-003
 41
1.0E-003
 70
0
  0
VERTEX
  8
254
 42
0.0
 10
8.2386322
 20
-2.4663544E-001
 70
0
  0
VERTEX
  8
254
 42
0.0
 10
8.6889954
 20
2.0372772E-001
 70
0
  0
SEQEND
  0
POLYLINE
  8
254
  6
CONTINUOUS
 62
6
 66
1
 40
1.0E-003
 41
1.0E-003
 70
0
  0
VERTEX
  8
254
 42
0.0
 10
4.7286377
 20
-4.0394897
 70
0
  0
VERTEX
  8
254
 42
0.0
 10
6.2656097
 20
-2.5025082
 70
0
  0
SEQEND
  0
POLYLINE
  8
254
  6
CONTINUOUS
 62
6
 66
1
 40
1.0E-003
 41
1.0E-003
 70
0
  0
VERTEX
  8
254
 42
0.0
 10
6.9395905
 20
-1.8285255
 70
0
  0
VERTEX
  8
254
 42
0.0
 10
7.8486481
 20
-9.1946602E-001
 70
0
  0
SEQEND
  0
POLYLINE
  8
254
  6
CONTINUOUS
 62
6
 66
1
 40
1.0E-003
 41
1.0E-003
 70
0
  0
VERTEX
  8
254
 42
0.0
 10
8.2386322
 20
-5.2947998E-001
 70
0
  0
VERTEX
  8
254
 42
0.0
 10
8.9050598
 20
1.3694763E-001
 70
0
  0
SEQEND
  0
POLYLINE
  8
254
  6
CONTINUOUS
 62
6
 66
1
 40
1.0E-003
 41
1.0E-003
 70
0
  0
VERTEX
  8
254
 42
0.0
 10
4.7774506
 20
-4.2735233
 70
0
  0
VERTEX
  8
254
 42
0.0
 10
6.3190155
 20
-2.7319412
 70
0
  0
SEQEND
  0
POLYLINE
  8
254
  6
CONTINUOUS
 62
6
 66
1
 40
1.0E-003
 41
1.0E-003
 70
0
  0
VERTEX
  8
254
 42
0.0
 10
6.693634
 20
-2.3573284
 70
0
  0
VERTEX
  8
254
 42
0.0
 10
6.8324432
 20
-2.2185249
 70
0
  0
SEQEND
  0
POLYLINE
  8
254
  6
CONTINUOUS
 62
6
 66
1
 40
1.0E-003
 41
1.0E-003
 70
0
  0
VERTEX
  8
254
 42
0.0
 10
7.2224274
 20
-1.8285255
 70
0
  0
VERTEX
  8
254
 42
0.0
 10
7.8486481
 20
-1.2023087
 70
0
  0
SEQEND
  0
POLYLINE
  8
254
  6
CONTINUOUS
 62
6
 66
1
 40
1.0E-003
 41
1.0E-003
 70
0
  0
VERTEX
  8
254
 42
0.0
 10
8.2386322
 20
-8.1232262E-001
 70
0
  0
VERTEX
  8
254
 42
0.0
 10
9.0850067
 20
3.4049988E-002
 70
0
  0
SEQEND
  0
POLYLINE
  8
254
  6
CONTINUOUS
 62
6
 66
1
 40
1.0E-003
 41
1.0E-003
 70
0
  0
VERTEX
  8
254
 42
0.0
 10
5.0675201
 20
-4.2662849
 70
0
  0
VERTEX
  8
254
 42
0.0
 10
6.3274994
 20
-3.0063057
 70
0
  0
SEQEND
  0
POLYLINE
  8
254
  6
CONTINUOUS
 62
6
 66
1
 40
1.0E-003
 41
1.0E-003
 70
0
  0
VERTEX
  8
254
 42
0.0
 10
6.693634
 20
-2.6401711
 70
0
  0
VERTEX
  8
254
 42
0.0
 10
7.1152802
 20
-2.2185249
 70
0
  0
SEQEND
  0
POLYLINE
  8
254
  6
CONTINUOUS
 62
6
 66
1
 40
1.0E-003
 41
1.0E-003
 70
0
  0
VERTEX
  8
254
 42
0.0
 10
7.5052795
 20
-1.8285255
 70
0
  0
VERTEX
  8
254
 42
0.0
 10
7.8486481
 20
-1.4851513
 70
0
  0
SEQEND
  0
POLYLINE
  8
254
  6
CONTINUOUS
 62
6
 66
1
 40
1.0E-003
 41
1.0E-003
 70
0
  0
VERTEX
  8
254
 42
0.0
 10
8.2386322
 20
-1.0951672
 70
0
  0
VERTEX
  8
254
 42
0.0
 10
9.2350922
 20
-9.869957E-002
 70
0
  0
SEQEND
  0
POLYLINE
  8
254
  6
CONTINUOUS
 62
6
 66
1
 40
1.0E-003
 41
1.0E-003
 70
0
  0
VERTEX
  8
254
 42
0.0
 10
5.416275
 20
-4.2003727
 70
0
  0
VERTEX
  8
254
 42
0.0
 10
6.2580872
 20
-3.3585587
 70
0
  0
SEQEND
  0
POLYLINE
  8
254
  6
CONTINUOUS
 62
6
 66
1
 40
1.0E-003
 41
1.0E-003
 70
0
  0
VERTEX
  8
254
 42
0.0
 10
6.693634
 20
-2.9230137
 70
0
  0
VERTEX
  8
254
 42
0.0
 10
7.3981171
 20
-2.2185249
 70
0
  0
SEQEND
  0
POLYLINE
  8
254
  6
CONTINUOUS
 62
6
 66
1
 40
1.0E-003
 41
1.0E-003
 70
0
  0
VERTEX
  8
254
 42
0.0
 10
7.7881165
 20
-1.8285255
 70
0
  0
VERTEX
  8
254
 42
0.0
 10
7.8486481
 20
-1.7679958
 70
0
  0
SEQEND
  0
POLYLINE
  8
254
  6
CONTINUOUS
 62
6
 66
1
 40
1.0E-003
 41
1.0E-003
 70
0
  0
VERTEX
  8
254
 42
0.0
 10
8.2386322
 20
-1.3780098
 70
0
  0
VERTEX
  8
254
 42
0.0
 10
9.3569641
 20
-2.5967217E-001
 70
0
  0
SEQEND
  0
POLYLINE
  8
254
  6
CONTINUOUS
 62
6
 66
1
 40
1.0E-003
 41
1.0E-003
 70
0
  0
VERTEX
  8
254
 42
0.0
 10
6.693634
 20
-3.2058582
 70
0
  0
VERTEX
  8
254
 42
0.0
 10
7.6809692
 20
-2.2185249
 70
0
  0
SEQEND
  0
POLYLINE
  8
254
  6
CONTINUOUS
 62
6
 66
1
 40
1.0E-003
 41
1.0E-003
 70
0
  0
VERTEX
  8
254
 42
0.0
 10
8.2386322
 20
-1.6608524
 70
0
  0
VERTEX
  8
254
 42
0.0
 10
9.4486694
 20
-4.5081711E-001
 70
0
  0
SEQEND
  0
POLYLINE
  8
254
  6
CONTINUOUS
 62
6
 66
1
 40
1.0E-003
 41
1.0E-003
 70
0
  0
VERTEX
  8
254
 42
0.0
 10
6.693634
 20
-3.4887009
 70
0
  0
VERTEX
  8
254
 42
0.0
 10
7.8486481
 20
-2.3336811
 70
0
  0
SEQEND
  0
POLYLINE
  8
254
  6
CONTINUOUS
 62
6
 66
1
 40
1.0E-003
 41
1.0E-003
 70
0
  0
VERTEX
  8
254
 42
0.0
 10
8.3538055
 20
-1.8285255
 70
0
  0
VERTEX
  8
254
 42
0.0
 10
9.4981384
 20
-6.8418121E-001
 70
0
  0
SEQEND
  0
POLYLINE
  8
254
  6
CONTINUOUS
 62
6
 66
1
 40
1.0E-003
 41
1.0E-003
 70
0
  0
VERTEX
  8
254
 42
0.0
 10
6.693634
 20
-3.7715435
 70
0
  0
VERTEX
  8
254
 42
0.0
 10
7.8486481
 20
-2.6165256
 70
0
  0
SEQEND
  0
POLYLINE
  8
254
  6
CONTINUOUS
 62
6
 66
1
 40
1.0E-003
 41
1.0E-003
 70
0
  0
VERTEX
  8
254
 42
0.0
 10
8.2386322
 20
-2.2265396
 70
0
  0
VERTEX
  8
254
 42
0.0
 10
8.2466431
 20
-2.2185249
 70
0
  0
SEQEND
  0
POLYLINE
  8
254
  6
CONTINUOUS
 62
6
 66
1
 40
1.0E-003
 41
1.0E-003
 70
0
  0
VERTEX
  8
254
 42
0.0
 10
8.6366425
 20
-1.8285255
 70
0
  0
VERTEX
  8
254
 42
0.0
 10
9.4822998
 20
-9.8287392E-001
 70
0
  0
SEQEND
  0
POLYLINE
  8
254
  6
CONTINUOUS
 62
6
 66
1
 40
1.0E-003
 41
1.0E-003
 70
0
  0
VERTEX
  8
254
 42
0.0
 10
6.693634
 20
-4.054388
 70
0
  0
VERTEX
  8
254
 42
0.0
 10
7.8486481
 20
-2.8993683
 70
0
  0
SEQEND
  0
POLYLINE
  8
254
  6
CONTINUOUS
 62
6
 66
1
 40
1.0E-003
 41
1.0E-003
 70
0
  0
VERTEX
  8
254
 42
0.0
 10
8.2386322
 20
-2.5093822
 70
0
  0
VERTEX
  8
254
 42
0.0
 10
8.5294952
 20
-2.2185249
 70
0
  0
SEQEND
  0
POLYLINE
  8
254
  6
CONTINUOUS
 62
6
 66
1
 40
1.0E-003
 41
1.0E-003
 70
0
  0
VERTEX
  8
254
 42
0.0
 10
8.9194946
 20
-1.8285255
 70
0
  0
VERTEX
  8
254
 42
0.0
 10
9.0524445
 20
-1.6955605
 70
0
  0
SEQEND
  0
POLYLINE
  8
254
  6
CONTINUOUS
 62
6
 66
1
 40
1.0E-003
 41
1.0E-003
 70
0
  0
VERTEX
  8
254
 42
0.0
 10
6.7573395
 20
-4.2735233
 70
0
  0
VERTEX
  8
254
 42
0.0
 10
7.8486481
 20
-3.1822128
 70
0
  0
SEQEND
  0
POLYLINE
  8
254
  6
CONTINUOUS
 62
6
 66
1
 40
1.0E-003
 41
1.0E-003
 70
0
  0
VERTEX
  8
254
 42
0.0
 10
8.2386322
 20
-2.7922268
 70
0
  0
VERTEX
  8
254
 42
0.0
 10
8.8123322
 20
-2.2185249
 70
0
  0
SEQEND
  0
POLYLINE
  8
254
  6
CONTINUOUS
 62
6
 66
1
 40
1.0E-003
 41
1.0E-003
 70
0
  0
VERTEX
  8
254
 42
0.0
 10
9.2023315
 20
-1.8285255
 70
0
  0
VERTEX
  8
254
 42
0.0
 10
9.2325897
 20
-1.7982578
 70
0
  0
SEQEND
  0
POLYLINE
  8
254
  6
CONTINUOUS
 62
6
 66
1
 40
1.0E-003
 41
1.0E-003
 70
0
  0
VERTEX
  8
254
 42
0.0
 10
7.0401917
 20
-4.2735233
 70
0
  0
VERTEX
  8
254
 42
0.0
 10
7.8486481
 20
-3.4650555
 70
0
  0
SEQEND
  0
POLYLINE
  8
254
  6
CONTINUOUS
 62
6
 66
1
 40
1.0E-003
 41
1.0E-003
 70
0
  0
VERTEX
  8
254
 42
0.0
 10
8.2386322
 20
-3.0750694
 70
0
  0
VERTEX
  8
254
 42
0.0
 10
9.0951691
 20
-2.2185249
 70
0
  0
SEQEND
  0
POLYLINE
  8
254
  6
CONTINUOUS
 62
6
 66
1
 40
1.0E-003
 41
1.0E-003
 70
0
  0
VERTEX
  8
254
 42
0.0
 10
7.3230286
 20
-4.2735233
 70
0
  0
VERTEX
  8
254
 42
0.0
 10
7.8486481
 20
-3.7478981
 70
0
  0
SEQEND
  0
POLYLINE
  8
254
  6
CONTINUOUS
 62
6
 66
1
 40
1.0E-003
 41
1.0E-003
 70
0
  0
VERTEX
  8
254
 42
0.0
 10
8.2386322
 20
-3.3579121
 70
0
  0
VERTEX
  8
254
 42
0.0
 10
9.3780212
 20
-2.2185249
 70
0
  0
SEQEND
  0
POLYLINE
  8
254
  6
CONTINUOUS
 62
6
 66
1
 40
1.0E-003
 41
1.0E-003
 70
0
  0
VERTEX
  8
254
 42
0.0
 10
7.6058655
 20
-4.2735233
 70
0
  0
VERTEX
  8
254
 42
0.0
 10
7.8486481
 20
-4.0307426
 70
0
  0
SEQEND
  0
POLYLINE
  8
254
  6
CONTINUOUS
 62
6
 66
1
 40
1.0E-003
 41
1.0E-003
 70
0
  0
VERTEX
  8
254
 42
0.0
 10
8.2386322
 20
-3.6407566
 70
0
  0
VERTEX
  8
254
 42
0.0
 10
9.6507568
 20
-2.228632
 70
0
  0
SEQEND
  0
POLYLINE
  8
254
  6
CONTINUOUS
 62
6
 66
1
 40
1.0E-003
 41
1.0E-003
 70
0
  0
VERTEX
  8
254
 42
0.0
 10
8.2386322
 20
-3.9235992
 70
0
  0
VERTEX
  8
254
 42
0.0
 10
9.7415924
 20
-2.4206371
 70
0
  0
SEQEND
  0
POLYLINE
  8
254
  6
CONTINUOUS
 62
6
 66
1
 40
1.0E-003
 41
1.0E-003
 70
0
  0
VERTEX
  8
254
 42
0.0
 10
8.2386322
 20
-4.2064419
 70
0
  0
VERTEX
  8
254
 42
0.0
 10
9.8081055
 20
-2.6369629
 70
0
  0
SEQEND
  0
POLYLINE
  8
254
  6
CONTINUOUS
 62
6
 66
1
 40
1.0E-003
 41
1.0E-003
 70
0
  0
VERTEX
  8
254
 42
0.0
 10
8.4543915
 20
-4.2735233
 70
0
  0
VERTEX
  8
254
 42
0.0
 10
9.8392181
 20
-2.8886967
 70
0
  0
SEQEND
  0
POLYLINE
  8
254
  6
CONTINUOUS
 62
6
 66
1
 40
1.0E-003
 41
1.0E-003
 70
0
  0
VERTEX
  8
254
 42
0.0
 10
8.7687836
 20
-4.2419796
 70
0
  0
VERTEX
  8
254
 42
0.0
 10
9.8147125
 20
-3.196043
 70
0
  0
SEQEND
  0
POLYLINE
  8
254
  6
CONTINUOUS
 62
6
 66
1
 40
1.0E-003
 41
1.0E-003
 70
0
  0
VERTEX
  8
254
 42
0.0
 10
9.275238
 20
-4.0183601
 70
0
  0
VERTEX
  8
254
 42
0.0
 10
9.5876312
 20
-3.7059689
 70
0
  0
SEQEND
  0
ENDBLK
  0
BLOCK
  2
RAHMENA4
 10
0.0
 20
0.0
 70
0
  0
POLYLINE
  8
1
  6
CONTINUOUS
 62
6
 66
1
 40
7.0E-001
 41
7.0E-001
 70
0
  0
VERTEX
  8
1
 42
0.0
 10
1.9000008E+001
 20
2.9150003E+002
 70
0
  0
VERTEX
  8
1
 42
0.0
 10
1.9000008E+001
 20
5.5
 70
0
  0
SEQEND
  0
POLYLINE
  8
1
  6
CONTINUOUS
 62
6
 66
1
 40
7.0E-001
 41
7.0E-001
 70
0
  0
VERTEX
  8
1
 42
0.0
 10
2.05E+002
 20
5.5
 70
0
  0
VERTEX
  8
1
 42
0.0
 10
1.9000008E+001
 20
5.5
 70
0
  0
SEQEND
  0
POLYLINE
  8
1
  6
CONTINUOUS
 62
6
 66
1
 40
7.0E-001
 41
7.0E-001
 70
0
  0
VERTEX
  8
1
 42
0.0
 10
5.0
 20
5.5
 70
0
  0
VERTEX
  8
1
 42
0.0
 10
5.0
 20
1.045E+002
 70
0
  0
SEQEND
  0
POLYLINE
  8
1
  6
CONTINUOUS
 62
6
 66
1
 40
7.0E-001
 41
7.0E-001
 70
0
  0
VERTEX
  8
1
 42
0.0
 10
5.0
 20
1.045E+002
 70
0
  0
VERTEX
  8
1
 42
0.0
 10
1.9000008E+001
 20
1.045E+002
 70
0
  0
SEQEND
  0
POLYLINE
  8
1
  6
CONTINUOUS
 62
6
 66
1
 40
1.0E-003
 41
1.0E-003
 70
0
  0
VERTEX
  8
1
 42
0.0
 10
1.9000008E+001
 20
1.335E+002
 70
0
  0
VERTEX
  8
1
 42
0.0
 10
1.4500008E+001
 20
1.335E+002
 70
0
  0
SEQEND
  0
POLYLINE
  8
1
  6
CONTINUOUS
 62
6
 66
1
 40
1.0E-003
 41
1.0E-003
 70
0
  0
VERTEX
  8
1
 42
0.0
 10
1.9000008E+001
 20
1.435E+002
 70
0
  0
VERTEX
  8
1
 42
0.0
 10
1.4500008E+001
 20
1.435E+002
 70
0
  0
SEQEND
  0
POLYLINE
  8
1
  6
CONTINUOUS
 62
6
 66
1
 40
1.0E-003
 41
1.0E-003
 70
0
  0
VERTEX
  8
1
 42
0.0
 10
1.9000008E+001
 20
1.5350002E+002
 70
0
  0
VERTEX
  8
1
 42
0.0
 10
1.4500008E+001
 20
1.5350002E+002
 70
0
  0
SEQEND
  0
POLYLINE
  8
1
  6
CONTINUOUS
 62
6
 66
1
 40
1.0E-003
 41
1.0E-003
 70
0
  0
VERTEX
  8
1
 42
0.0
 10
1.9000008E+001
 20
1.6350002E+002
 70
0
  0
VERTEX
  8
1
 42
0.0
 10
1.4500008E+001
 20
1.6350002E+002
 70
0
  0
SEQEND
  0
POLYLINE
  8
1
  6
CONTINUOUS
 62
6
 66
1
 40
1.0E-003
 41
1.0E-003
 70
0
  0
VERTEX
  8
1
 42
0.0
 10
1.9000008E+001
 20
1.7350002E+002
 70
0
  0
VERTEX
  8
1
 42
0.0
 10
1.4500008E+001
 20
1.7350002E+002
 70
0
  0
SEQEND
  0
POLYLINE
  8
1
  6
CONTINUOUS
 62
6
 66
1
 40
1.0E-003
 41
1.0E-003
 70
0
  0
VERTEX
  8
1
 42
0.0
 10
1.9000008E+001
 20
1.285E+002
 70
0
  0
VERTEX
  8
1
 42
0.0
 10
1.7000008E+001
 20
1.285E+002
 70
0
  0
SEQEND
  0
POLYLINE
  8
1
  6
CONTINUOUS
 62
6
 66
1
 40
1.0E-003
 41
1.0E-003
 70
0
  0
VERTEX
  8
1
 42
0.0
 10
1.9000008E+001
 20
1.385E+002
 70
0
  0
VERTEX
  8
1
 42
0.0
 10
1.7000008E+001
 20
1.385E+002
 70
0
  0
SEQEND
  0
POLYLINE
  8
1
  6
CONTINUOUS
 62
6
 66
1
 40
1.0E-003
 41
1.0E-003
 70
0
  0
VERTEX
  8
1
 42
0.0
 10
1.9000008E+001
 20
1.4850002E+002
 70
0
  0
VERTEX
  8
1
 42
0.0
 10
1.2345772E+001
 20
1.4850002E+002
 70
0
  0
SEQEND
  0
POLYLINE
  8
1
  6
CONTINUOUS
 62
6
 66
1
 40
1.0E-003
 41
1.0E-003
 70
0
  0
VERTEX
  8
1
 42
0.0
 10
1.9000008E+001
 20
1.5850002E+002
 70
0
  0
VERTEX
  8
1
 42
0.0
 10
1.7000008E+001
 20
1.5850002E+002
 70
0
  0
SEQEND
  0
POLYLINE
  8
1
  6
CONTINUOUS
 62
6
 66
1
 40
1.0E-003
 41
1.0E-003
 70
0
  0
VERTEX
  8
1
 42
0.0
 10
1.9000008E+001
 20
1.6850002E+002
 70
0
  0
VERTEX
  8
1
 42
0.0
 10
1.7000008E+001
 20
1.6850002E+002
 70
0
  0
SEQEND
  0
POLYLINE
  8
1
  6
CONTINUOUS
 62
6
 66
1
 40
1.0E-003
 41
1.0E-003
 70
0
  0
VERTEX
  8
1
 42
0.0
 10
1.7568611E+001
 20
1.235E+002
 70
0
  0
VERTEX
  8
1
 42
0.0
 10
1.9000008E+001
 20
1.235E+002
 70
0
  0
SEQEND
  0
POLYLINE
  8
1
  6
CONTINUOUS
 62
6
 66
1
 40
1.0E-003
 41
1.0E-003
 70
0
  0
VERTEX
  8
1
 42
0.0
 10
1.9000008E+001
 20
1.235E+002
 70
0
  0
VERTEX
  8
1
 42
0.0
 10
1.5000008E+001
 20
1.235E+002
 70
0
  0
SEQEND
  0
POLYLINE
  8
1
  6
CONTINUOUS
 62
6
 66
1
 40
1.0E-003
 41
1.0E-003
 70
0
  0
VERTEX
  8
1
 42
0.0
 10
1.9000008E+001
 20
1.235E+002
 70
0
  0
VERTEX
  8
1
 42
0.0
 10
1.4500008E+001
 20
1.235E+002
 70
0
  0
SEQEND
  0
POLYLINE
  8
1
  6
CONTINUOUS
 62
3
 66
1
 40
1.0E-003
 41
1.0E-003
 70
0
  0
VERTEX
  8
1
 42
0.0
 10
1.6487923E+001
 20
2.0867195E+002
 70
0
  0
VERTEX
  8
1
 42
0.0
 10
1.3487923E+001
 20
2.0867195E+002
 70
0
  0
SEQEND
  0
POLYLINE
  8
1
  6
CONTINUOUS
 62
3
 66
1
 40
1.0E-003
 41
1.0E-003
 70
0
  0
VERTEX
  8
1
 42
0.0
 10
1.3487923E+001
 20
2.2806367E+002
 70
0
  0
VERTEX
  8
1
 42
0.0
 10
1.6487923E+001
 20
2.2806367E+002
 70
0
  0
SEQEND
  0
POLYLINE
  8
1
  6
CONTINUOUS
 62
3
 66
1
 40
1.0E-003
 41
1.0E-003
 70
0
  0
VERTEX
  8
1
 42
0.0
 10
1.3487923E+001
 20
2.3106367E+002
 70
0
  0
VERTEX
  8
1
 42
0.0
 10
1.6487923E+001
 20
2.3106367E+002
 70
0
  0
SEQEND
  0
POLYLINE
  8
1
  6
CONTINUOUS
 62
3
 66
1
 40
1.0E-003
 41
1.0E-003
 70
0
  0
VERTEX
  8
1
 42
0.0
 10
1.6487923E+001
 20
2.1167192E+002
 70
0
  0
VERTEX
  8
1
 42
0.0
 10
1.3487923E+001
 20
2.1167192E+002
 70
0
  0
SEQEND
  0
POLYLINE
  8
1
  6
CONTINUOUS
 62
3
 66
1
 40
1.0E-003
 41
1.0E-003
 70
0
  0
VERTEX
  8
1
 42
0.0
 10
1.3487923E+001
 20
2.2806367E+002
 70
0
  0
VERTEX
  8
1
 42
0.0
 10
1.3487923E+001
 20
2.3106367E+002
 70
0
  0
SEQEND
  0
POLYLINE
  8
1
  6
CONTINUOUS
 62
3
 66
1
 40
1.0E-003
 41
1.0E-003
 70
0
  0
VERTEX
  8
1
 42
0.0
 10
1.3487923E+001
 20
2.0867195E+002
 70
0
  0
VERTEX
  8
1
 42
0.0
 10
1.3487923E+001
 20
2.1167192E+002
 70
0
  0
SEQEND
  0
POLYLINE
  8
1
  6
CONTINUOUS
 62
3
 66
1
 40
1.0E-003
 41
1.0E-003
 70
0
  0
VERTEX
  8
1
 42
0.0
 10
1.6487923E+001
 20
2.2806367E+002
 70
0
  0
VERTEX
  8
1
 42
0.0
 10
1.6487923E+001
 20
2.3106367E+002
 70
0
  0
SEQEND
  0
POLYLINE
  8
1
  6
CONTINUOUS
 62
4
 66
1
 40
1.0E-003
 41
1.0E-003
 70
0
  0
VERTEX
  8
1
 42
0.0
 10
2.1E+002
 20
0.0
 70
0
  0
VERTEX
  8
1
 42
0.0
 10
2.1E+002
 20
2.9700003E+002
 70
0
  0
SEQEND
  0
POLYLINE
  8
1
  6
CONTINUOUS
 62
6
 66
1
 40
7.0E-001
 41
7.0E-001
 70
0
  0
VERTEX
  8
1
 42
0.0
 10
2.05E+002
 20
2.9150003E+002
 70
0
  0
VERTEX
  8
1
 42
0.0
 10
2.05E+002
 20
5.5
 70
0
  0
SEQEND
  0
POLYLINE
  8
1
  6
CONTINUOUS
 62
6
 66
1
 40
7.0E-001
 41
7.0E-001
 70
0
  0
VERTEX
  8
1
 42
0.0
 10
1.9000008E+001
 20
2.9150003E+002
 70
0
  0
VERTEX
  8
1
 42
0.0
 10
2.05E+002
 20
2.9150003E+002
 70
0
  0
SEQEND
  0
LINE
  8
1
  6
CONTINUOUS
 62
6
 10
3.0000008E+001
 20
2.6550003E+002
 11
2.05E+002
 21
2.6550003E+002
  0
POLYLINE
  8
1
  6
CONTINUOUS
 62
6
 66
1
 40
7.0E-001
 41
7.0E-001
 70
0
  0
VERTEX
  8
1
 42
0.0
 10
2.05E+002
 20
2.7800003E+002
 70
0
  0
VERTEX
  8
1
 42
0.0
 10
3.0000008E+001
 20
2.7800003E+002
 70
0
  0
SEQEND
  0
POLYLINE
  8
1
  6
CONTINUOUS
 62
6
 66
1
 40
7.0E-001
 41
7.0E-001
 70
0
  0
VERTEX
  8
1
 42
0.0
 10
3.0000008E+001
 20
2.9150003E+002
 70
0
  0
VERTEX
  8
1
 42
0.0
 10
3.0000008E+001
 20
2.6550003E+002
 70
0
  0
SEQEND
  0
POLYLINE
  8
1
  6
CONTINUOUS
 62
6
 66
1
 40
5.0E-001
 41
5.0E-001
 70
0
  0
VERTEX
  8
1
 42
0.0
 10
3.7000008E+001
 20
2.9150003E+002
 70
0
  0
VERTEX
  8
1
 42
0.0
 10
3.7000008E+001
 20
2.6550003E+002
 70
0
  0
SEQEND
  0
LINE
  8
1
  6
CONTINUOUS
 62
6
 10
4.2000008E+001
 20
2.9150003E+002
 11
4.2000008E+001
 21
2.6550003E+002
  0
POLYLINE
  8
1
  6
CONTINUOUS
 62
6
 66
1
 40
7.0E-001
 41
7.0E-001
 70
0
  0
VERTEX
  8
1
 42
0.0
 10
5.4000008E+001
 20
2.9150003E+002
 70
0
  0
VERTEX
  8
1
 42
0.0
 10
5.4000008E+001
 20
2.6550003E+002
 70
0
  0
SEQEND
  0
POLYLINE
  8
1
  6
CONTINUOUS
 62
6
 66
1
 40
5.0E-001
 41
5.0E-001
 70
0
  0
VERTEX
  8
1
 42
0.0
 10
1.2000001E+002
 20
2.9150003E+002
 70
0
  0
VERTEX
  8
1
 42
0.0
 10
1.2000001E+002
 20
2.6550003E+002
 70
0
  0
SEQEND
  0
POLYLINE
  8
1
  6
CONTINUOUS
 62
6
 66
1
 40
5.0E-001
 41
5.0E-001
 70
0
  0
VERTEX
  8
1
 42
0.0
 10
1.61E+002
 20
2.9150003E+002
 70
0
  0
VERTEX
  8
1
 42
0.0
 10
1.61E+002
 20
2.6550003E+002
 70
0
  0
SEQEND
  0
POLYLINE
  8
1
  6
CONTINUOUS
 62
6
 66
1
 40
5.0E-001
 41
5.0E-001
 70
0
  0
VERTEX
  8
1
 42
0.0
 10
1.66E+002
 20
2.9150003E+002
 70
0
  0
VERTEX
  8
1
 42
0.0
 10
1.66E+002
 20
2.6550003E+002
 70
0
  0
SEQEND
  0
POLYLINE
  8
1
  6
CONTINUOUS
 62
6
 66
1
 40
5.0E-001
 41
5.0E-001
 70
0
  0
VERTEX
  8
1
 42
0.0
 10
1.76E+002
 20
2.9150003E+002
 70
0
  0
VERTEX
  8
1
 42
0.0
 10
1.76E+002
 20
2.6550003E+002
 70
0
  0
SEQEND
  0
POLYLINE
  8
1
  6
CONTINUOUS
 62
6
 66
1
 40
5.0E-001
 41
5.0E-001
 70
0
  0
VERTEX
  8
1
 42
0.0
 10
1.92E+002
 20
2.9150003E+002
 70
0
  0
VERTEX
  8
1
 42
0.0
 10
1.92E+002
 20
2.6550003E+002
 70
0
  0
SEQEND
  0
LINE
  8
1
  6
CONTINUOUS
 62
6
 10
3.0000008E+001
 20
2.7175003E+002
 11
2.05E+002
 21
2.7175003E+002
  0
POLYLINE
  8
1
  6
CONTINUOUS
 62
6
 66
1
 40
5.0E-001
 41
5.0E-001
 70
0
  0
VERTEX
  8
1
 42
0.0
 10
1.66E+002
 20
2.8475003E+002
 70
0
  0
VERTEX
  8
1
 42
0.0
 10
1.92E+002
 20
2.8475003E+002
 70
0
  0
SEQEND
  0
POLYLINE
  8
1
  6
CONTINUOUS
 62
4
 66
1
 40
1.0E-003
 41
1.0E-003
 70
0
  0
VERTEX
  8
1
 42
0.0
 10
0.0
 20
2.9700003E+002
 70
0
  0
VERTEX
  8
1
 42
0.0
 10
2.1E+002
 20
2.9700003E+002
 70
0
  0
SEQEND
  0
POLYLINE
  8
1
  6
CONTINUOUS
 62
6
 66
1
 40
1.0E-003
 41
1.0E-003
 70
0
  0
VERTEX
  8
1
 42
0.0
 10
2.05E+002
 20
2.5925003E+002
 70
0
  0
VERTEX
  8
1
 42
0.0
 10
2.0E+002
 20
2.5925003E+002
 70
0
  0
SEQEND
  0
POLYLINE
  8
1
  6
CONTINUOUS
 62
6
 66
1
 40
1.0E-003
 41
1.0E-003
 70
0
  0
VERTEX
  8
1
 42
0.0
 10
2.05E+002
 20
2.53E+002
 70
0
  0
VERTEX
  8
1
 42
0.0
 10
2.0E+002
 20
2.53E+002
 70
0
  0
SEQEND
  0
POLYLINE
  8
1
  6
CONTINUOUS
 62
6
 66
1
 40
1.0E-003
 41
1.0E-003
 70
0
  0
VERTEX
  8
1
 42
0.0
 10
2.05E+002
 20
2.4674998E+002
 70
0
  0
VERTEX
  8
1
 42
0.0
 10
2.0E+002
 20
2.4674998E+002
 70
0
  0
SEQEND
  0
POLYLINE
  8
1
  6
CONTINUOUS
 62
6
 66
1
 40
1.0E-003
 41
1.0E-003
 70
0
  0
VERTEX
  8
1
 42
0.0
 10
2.05E+002
 20
2.4049998E+002
 70
0
  0
VERTEX
  8
1
 42
0.0
 10
2.0E+002
 20
2.4049998E+002
 70
0
  0
SEQEND
  0
POLYLINE
  8
1
  6
CONTINUOUS
 62
6
 66
1
 40
1.0E-003
 41
1.0E-003
 70
0
  0
VERTEX
  8
1
 42
0.0
 10
2.05E+002
 20
2.3424998E+002
 70
0
  0
VERTEX
  8
1
 42
0.0
 10
2.0E+002
 20
2.3424998E+002
 70
0
  0
SEQEND
  0
POLYLINE
  8
1
  6
CONTINUOUS
 62
6
 66
1
 40
1.0E-003
 41
1.0E-003
 70
0
  0
VERTEX
  8
1
 42
0.0
 10
2.05E+002
 20
2.2800002E+002
 70
0
  0
VERTEX
  8
1
 42
0.0
 10
2.0E+002
 20
2.2800002E+002
 70
0
  0
SEQEND
  0
POLYLINE
  8
1
  6
CONTINUOUS
 62
6
 66
1
 40
1.0E-003
 41
1.0E-003
 70
0
  0
VERTEX
  8
1
 42
0.0
 10
2.05E+002
 20
2.2175002E+002
 70
0
  0
VERTEX
  8
1
 42
0.0
 10
2.0E+002
 20
2.2175002E+002
 70
0
  0
SEQEND
  0
POLYLINE
  8
1
  6
CONTINUOUS
 62
6
 66
1
 40
1.0E-003
 41
1.0E-003
 70
0
  0
VERTEX
  8
1
 42
0.0
 10
2.05E+002
 20
2.1550002E+002
 70
0
  0
VERTEX
  8
1
 42
0.0
 10
2.0E+002
 20
2.1550002E+002
 70
0
  0
SEQEND
  0
POLYLINE
  8
1
  6
CONTINUOUS
 62
6
 66
1
 40
1.0E-003
 41
1.0E-003
 70
0
  0
VERTEX
  8
1
 42
0.0
 10
2.05E+002
 20
2.9150003E+002
 70
0
  0
VERTEX
  8
1
 42
0.0
 10
2.075E+002
 20
2.9150003E+002
 70
0
  0
SEQEND
  0
POLYLINE
  8
1
  6
CONTINUOUS
 62
6
 66
1
 40
1.0E-003
 41
1.0E-003
 70
0
  0
VERTEX
  8
1
 42
0.0
 10
2.05E+002
 20
2.3175002E+002
 70
0
  0
VERTEX
  8
1
 42
0.0
 10
2.075E+002
 20
2.3175002E+002
 70
0
  0
SEQEND
  0
POLYLINE
  8
1
  6
CONTINUOUS
 62
6
 66
1
 40
1.0E-003
 41
1.0E-003
 70
0
  0
VERTEX
  8
1
 42
0.0
 10
2.05E+002
 20
1.7200002E+002
 70
0
  0
VERTEX
  8
1
 42
0.0
 10
2.075E+002
 20
1.7200002E+002
 70
0
  0
SEQEND
  0
POLYLINE
  8
1
  6
CONTINUOUS
 62
6
 66
1
 40
1.0E-003
 41
1.0E-003
 70
0
  0
VERTEX
  8
1
 42
0.0
 10
2.05E+002
 20
1.1225E+002
 70
0
  0
VERTEX
  8
1
 42
0.0
 10
2.075E+002
 20
1.1225E+002
 70
0
  0
SEQEND
  0
POLYLINE
  8
1
  6
CONTINUOUS
 62
6
 66
1
 40
1.0E-003
 41
1.0E-003
 70
0
  0
VERTEX
  8
1
 42
0.0
 10
2.05E+002
 20
2.9150003E+002
 70
0
  0
VERTEX
  8
1
 42
0.0
 10
2.05E+002
 20
2.9400003E+002
 70
0
  0
SEQEND
  0
POLYLINE
  8
1
  6
CONTINUOUS
 62
6
 66
1
 40
1.0E-003
 41
1.0E-003
 70
0
  0
VERTEX
  8
1
 42
0.0
 10
1.585E+002
 20
2.9150003E+002
 70
0
  0
VERTEX
  8
1
 42
0.0
 10
1.585E+002
 20
2.9400003E+002
 70
0
  0
SEQEND
  0
POLYLINE
  8
1
  6
CONTINUOUS
 62
6
 66
1
 40
1.0E-003
 41
1.0E-003
 70
0
  0
VERTEX
  8
1
 42
0.0
 10
1.1200001E+002
 20
2.9150003E+002
 70
0
  0
VERTEX
  8
1
 42
0.0
 10
1.1200001E+002
 20
2.9400003E+002
 70
0
  0
SEQEND
  0
POLYLINE
  8
1
  6
CONTINUOUS
 62
6
 66
1
 40
1.0E-003
 41
1.0E-003
 70
0
  0
VERTEX
  8
1
 42
0.0
 10
1.9000008E+001
 20
2.9150003E+002
 70
0
  0
VERTEX
  8
1
 42
0.0
 10
1.9000008E+001
 20
2.9400003E+002
 70
0
  0
SEQEND
  0
POLYLINE
  8
1
  6
CONTINUOUS
 62
6
 66
1
 40
1.0E-003
 41
1.0E-003
 70
0
  0
VERTEX
  8
1
 42
0.0
 10
6.5500008E+001
 20
2.9150003E+002
 70
0
  0
VERTEX
  8
1
 42
0.0
 10
6.5500008E+001
 20
2.9400003E+002
 70
0
  0
SEQEND
  0
POLYLINE
  8
1
  6
CONTINUOUS
 62
6
 66
1
 40
7.0E-001
 41
7.0E-001
 70
0
  0
VERTEX
  8
1
 42
0.0
 10
1.0650001E+002
 20
5.5
 70
0
  0
VERTEX
  8
1
 42
0.0
 10
1.0650001E+002
 20
1.5
 70
0
  0
SEQEND
  0
POLYLINE
  8
1
  6
CONTINUOUS
 62
6
 66
1
 40
7.0E-001
 41
7.0E-001
 70
0
  0
VERTEX
  8
1
 42
0.0
 10
1.0350001E+002
 20
5.5
 70
0
  0
VERTEX
  8
1
 42
0.0
 10
1.0350001E+002
 20
1.5
 70
0
  0
SEQEND
  0
POLYLINE
  8
1
  6
CONTINUOUS
 62
6
 66
1
 40
7.0E-001
 41
7.0E-001
 70
0
  0
VERTEX
  8
1
 42
0.0
 10
1.0650001E+002
 20
2.9150003E+002
 70
0
  0
VERTEX
  8
1
 42
0.0
 10
1.0650001E+002
 20
2.9550003E+002
 70
0
  0
SEQEND
  0
POLYLINE
  8
1
  6
CONTINUOUS
 62
6
 66
1
 40
7.0E-001
 41
7.0E-001
 70
0
  0
VERTEX
  8
1
 42
0.0
 10
1.0350001E+002
 20
2.9150003E+002
 70
0
  0
VERTEX
  8
1
 42
0.0
 10
1.0350001E+002
 20
2.9550003E+002
 70
0
  0
SEQEND
  0
POLYLINE
  8
1
  6
CONTINUOUS
 62
6
 66
1
 40
1.0E-003
 41
1.0E-003
 70
0
  0
VERTEX
  8
1
 42
0.0
 10
2.05E+002
 20
5.25E+001
 70
0
  0
VERTEX
  8
1
 42
0.0
 10
2.075E+002
 20
5.25E+001
 70
0
  0
SEQEND
  0
POLYLINE
  8
1
  6
CONTINUOUS
 62
6
 66
1
 40
7.0E-001
 41
7.0E-001
 70
0
  0
VERTEX
  8
1
 42
0.0
 10
1.9000008E+001
 20
5.5
 70
0
  0
VERTEX
  8
1
 42
0.0
 10
5.0
 20
5.5
 70
0
  0
SEQEND
  0
POLYLINE
  8
1
  6
CONTINUOUS
 62
4
 66
1
 40
1.0E-003
 41
1.0E-003
 70
0
  0
VERTEX
  8
1
 42
0.0
 10
0.0
 20
0.0
 70
0
  0
VERTEX
  8
1
 42
0.0
 10
2.1E+002
 20
0.0
 70
0
  0
SEQEND
  0
POLYLINE
  8
1
  6
CONTINUOUS
 62
3
 66
1
 40
1.0E-003
 41
1.0E-003
 70
0
  0
VERTEX
  8
1
 42
0.0
 10
1.6487923E+001
 20
2.1167192E+002
 70
0
  0
VERTEX
  8
1
 42
0.0
 10
1.6487923E+001
 20
2.0867195E+002
 70
0
  0
SEQEND
  0
POLYLINE
  8
1
  6
CONTINUOUS
 62
3
 66
1
 40
1.0E-003
 41
1.0E-003
 70
0
  0
VERTEX
  8
1
 42
0.0
 10
1.6487923E+001
 20
2.1167192E+002
 70
0
  0
VERTEX
  8
1
 42
0.0
 10
1.6487923E+001
 20
2.0867195E+002
 70
0
  0
SEQEND
  0
TEXT
  8
1
  6
CONTINUOUS
 62
3
 10
2.065E+002
 20
2.6162503E+002
 40
2.0
  1
A
  0
TEXT
  8
1
  6
CONTINUOUS
 62
3
 10
2.065E+002
 20
2.0187502E+002
 40
2.0
  1
B
  0
TEXT
  8
1
  6
CONTINUOUS
 62
3
 10
2.065E+002
 20
1.42125E+002
 40
2.0
  1
C
  0
TEXT
  8
1
  6
CONTINUOUS
 62
3
 10
2.065E+002
 20
8.2375E+001
 40
2.0
  1
D
  0
TEXT
  8
1
  6
CONTINUOUS
 62
3
 10
1.6509621E+001
 20
2.1872429E+002
 40
2.0
  1
"grob"
 41
6.5E-001
 50
9.0000003E+001
  0
TEXT
  8
1
  6
CONTINUOUS
 62
3
 10
1.6487923E+001
 20
1.9736339E+002
 40
2.0
  1
"mittel"
 41
6.5E-001
 50
9.0000003E+001
  0
TEXT
  8
1
  6
CONTINUOUS
 62
3
 10
5.8622437
 20
1.9528923E+002
 40
2.0
  1
Allgemeintoleranzen nach
 41
8.0E-001
 50
9.0000003E+001
  0
TEXT
  8
1
  6
CONTINUOUS
 62
3
 10
5.8622437
 20
1.2295421E+002
 40
2.0
  1
Rauheits-Symbole nach GZN 020007
 41
8.0E-001
 50
9.0000003E+001
  0
TEXT
  8
1
  6
CONTINUOUS
 62
3
 10
9.8622437
 20
1.2295421E+002
 40
2.0
  1
    entsprechend DIN ISO 1302
 41
8.0E-001
 50
9.0000003E+001
  0
TEXT
  8
1
  6
CONTINUOUS
 62
6
 10
1.306617E+001
 20
1.2349451E+002
 40
2.0
  1
0
 41
5.25E-001
 50
9.0000003E+001
  0
TEXT
  8
1
  6
CONTINUOUS
 62
6
 10
1.306617E+001
 20
1.7212105E+002
 40
2.0
  1
50
 41
6.75E-001
 50
9.0000003E+001
  0
POLYLINE
  8
1
  6
CONTINUOUS
 62
4
 66
1
 40
1.0E-003
 41
1.0E-003
 70
0
  0
VERTEX
  8
1
 42
0.0
 10
0.0
 20
2.9700003E+002
 70
0
  0
VERTEX
  8
1
 42
0.0
 10
0.0
 20
0.0
 70
0
  0
SEQEND
  0
POLYLINE
  8
1
  6
CONTINUOUS
 62
4
 66
1
 40
1.0E-003
 41
1.0E-003
 70
0
  0
VERTEX
  8
1
 42
0.0
 10
0.0
 20
0.0
 70
0
  0
VERTEX
  8
1
 42
0.0
 10
0.0
 20
2.9700003E+002
 70
0
  0
SEQEND
  0
TEXT
  8
1
  6
CONTINUOUS
 62
3
 10
1.7001917E+002
 20
2.8040002E+002
 40
2.0
  1
I
 41
3.17E-001
  0
TEXT
  8
1
  6
CONTINUOUS
 62
3
 10
4.2250008E+001
 20
2.9300003E+002
 40
2.0
  1
1
  0
TEXT
  8
1
  6
CONTINUOUS
 62
3
 10
8.8750008E+001
 20
2.9300003E+002
 40
2.0
  1
2
  0
TEXT
  8
1
  6
CONTINUOUS
 62
3
 10
1.3525E+002
 20
2.9300003E+002
 40
2.0
  1
3
  0
TEXT
  8
1
  6
CONTINUOUS
 62
3
 10
1.8175E+002
 20
2.9300003E+002
 40
2.0
  1
4
  0
TEXT
  8
1
  6
CONTINUOUS
 62
3
 10
3.0841621E+001
 20
2.8556284E+002
 40
2.0
  1
Ein-
 41
7.925E-001
  0
TEXT
  8
1
  6
CONTINUOUS
 62
3
 10
3.0841621E+001
 20
2.8256284E+002
 40
2.0
  1
heit
 41
7.925E-001
  0
TEXT
  8
1
  6
CONTINUOUS
 62
3
 10
3.8324684E+001
 20
2.8350003E+002
 40
2.0
  1
ZC
 41
7.925E-001
  0
TEXT
  8
1
  6
CONTINUOUS
 62
3
 10
1.6235593E+002
 20
2.8350003E+002
 40
2.0
  1
EC
 41
7.925E-001
  0
TEXT
  8
1
  6
CONTINUOUS
 62
3
 10
1.6759302E+002
 20
2.8716838E+002
 40
2.0
  1
Aend.
 41
8.0E-001
  0
TEXT
  8
1
  6
CONTINUOUS
 62
3
 10
1.7796625E+002
 20
2.8715002E+002
 40
2.0
  1
Masse/E
 41
7.925E-001
  0
TEXT
  8
1
  6
CONTINUOUS
 62
3
 10
1.2262052E+002
 20
2.8350003E+002
 40
2.0
  1
Ident-Nummer
 41
7.925E-001
  0
TEXT
  8
1
  6
CONTINUOUS
 62
3
 10
5.6489449E+001
 20
2.8350003E+002
 40
2.0
  1
Text
 41
7.925E-001
  0
TEXT
  8
1
  6
CONTINUOUS
 62
3
 10
4.343354E+001
 20
2.8350003E+002
 40
2.0
  1
Pos.-Nr.
 41
6.0E-001
  0
TEXT
  8
1
  6
CONTINUOUS
 62
3
 10
1.8364273E+002
 20
2.8040002E+002
 40
2.0
  1
II
 41
7.5E-001
  0
TEXT
  8
1
  6
CONTINUOUS
 62
3
 10
1.9726633E+002
 20
2.8350003E+002
 40
2.0
  1
III
 41
7.5E-001
  0
TEXT
  8
1
  6
CONTINUOUS
 62
3
 10
8.58746
 20
8.773347
 40
1.7
  1
Fuer diese Unterlage behalten wir uns alle Rechte, auch fuer den Fall der Patent-
 41
6.8E-001
 50
9.0000003E+001
  0
TEXT
  8
1
  6
CONTINUOUS
 62
3
 10
1.1408791E+001
 20
8.3925096
 40
1.7
  1
erteilung und der Eintragung eines anderen gewerblichen Schutzrechtes, vor.
 41
6.8E-001
 50
9.0000003E+001
  0
TEXT
  8
1
  6
CONTINUOUS
 62
3
 10
1.4298791E+001
 20
8.3925096
 40
1.7
  1
Missbraeuchliche Verwendung, wie insbesondere Vervielfaeltigung und Weitergabe an
 41
6.8E-001
 50
9.0000003E+001
  0
TEXT
  8
1
  6
CONTINUOUS
 62
3
 10
1.7188792E+001
 20
8.3925096
 40
1.7
  1
Dritte ist nicht gestattet: sie kann zivil- und strafrechtlich geahndet werden.
 41
6.8E-001
 50
9.0000003E+001
  0
TEXT
  8
1
  6
CONTINUOUS
 62
3
 10
1.0199852E+001
 20
2.0239064E+002
 40
2.0
  1
ISO 2768
 41
8.0E-001
 50
9.0000003E+001
  0
POLYLINE
  8
1
  6
CONTINUOUS
 62
6
 66
1
 40
7.0E-001
 41
7.0E-001
 70
0
  0
VERTEX
  8
1
 42
0.0
 10
1.8999985E+001
 20
3.1E+001
 70
0
  0
VERTEX
  8
1
 42
0.0
 10
2.05E+002
 20
3.1E+001
 70
0
  0
SEQEND
  0
POLYLINE
  8
1
  6
CONTINUOUS
 62
6
 66
1
 40
7.0E-001
 41
7.0E-001
 70
0
  0
VERTEX
  8
1
 42
0.0
 10
1.8999985E+001
 20
1.4E+001
 70
0
  0
VERTEX
  8
1
 42
0.0
 10
5.85E+001
 20
1.4E+001
 70
0
  0
SEQEND
  0
LINE
  8
1
  6
CONTINUOUS
 62
6
 10
2.4499985E+001
 20
3.1E+001
 11
2.4499985E+001
 21
1.4E+001
  0
TEXT
  8
1
  6
CONTINUOUS
 62
3
 10
2.2718704E+001
 20
1.9207314E+001
 40
2.0
  1
Aend.
 41
5.0E-001
 50
9.0000003E+001
  0
LINE
  8
1
  6
CONTINUOUS
 62
6
 10
2.4499985E+001
 20
2.675E+001
 11
5.85E+001
 21
2.675E+001
  0
POLYLINE
  8
1
  6
CONTINUOUS
 62
6
 66
1
 40
5.0E-001
 41
5.0E-001
 70
0
  0
VERTEX
  8
1
 42
0.0
 10
1.465E+002
 20
2.675E+001
 70
0
  0
VERTEX
  8
1
 42
0.0
 10
2.05E+002
 20
2.675E+001
 70
0
  0
SEQEND
  0
POLYLINE
  8
1
  6
CONTINUOUS
 62
1
 66
1
 40
1.0E-003
 41
1.0E-003
 70
0
  0
VERTEX
  8
1
 42
0.0
 10
1.75E+002
 20
3.1E+001
 70
0
  0
VERTEX
  8
1
 42
0.0
 10
1.75E+002
 20
2.25E+001
 70
0
  0
SEQEND
  0
POLYLINE
  8
1
  6
CONTINUOUS
 62
6
 66
1
 40
7.0E-001
 41
7.0E-001
 70
0
  0
VERTEX
  8
1
 42
0.0
 10
1.465E+002
 20
3.1E+001
 70
0
  0
VERTEX
  8
1
 42
0.0
 10
1.465E+002
 20
5.5
 70
0
  0
SEQEND
  0
POLYLINE
  8
1
  6
CONTINUOUS
 62
6
 66
1
 40
7.0E-001
 41
7.0E-001
 70
0
  0
VERTEX
  8
1
 42
0.0
 10
1.35E+002
 20
3.0795013E+001
 70
0
  0
VERTEX
  8
1
 42
0.0
 10
1.35E+002
 20
1.4E+001
 70
0
  0
SEQEND
  0
POLYLINE
  8
1
  6
CONTINUOUS
 62
6
 66
1
 40
7.0E-001
 41
7.0E-001
 70
0
  0
VERTEX
  8
1
 42
0.0
 10
9.75E+001
 20
3.1E+001
 70
0
  0
VERTEX
  8
1
 42
0.0
 10
9.75E+001
 20
1.4E+001
 70
0
  0
SEQEND
  0
POLYLINE
  8
1
  6
CONTINUOUS
 62
6
 66
1
 40
7.0E-001
 41
7.0E-001
 70
0
  0
VERTEX
  8
1
 42
0.0
 10
5.85E+001
 20
3.1E+001
 70
0
  0
VERTEX
  8
1
 42
0.0
 10
5.85E+001
 20
1.4E+001
 70
0
  0
SEQEND
  0
POLYLINE
  8
1
  6
CONTINUOUS
 62
6
 66
1
 40
5.0E-001
 41
5.0E-001
 70
0
  0
VERTEX
  8
1
 42
0.0
 10
5.85E+001
 20
2.25E+001
 70
0
  0
VERTEX
  8
1
 42
0.0
 10
1.35E+002
 20
2.25E+001
 70
0
  0
SEQEND
  0
POLYLINE
  8
1
  6
CONTINUOUS
 62
6
 66
1
 40
5.0E-001
 41
5.0E-001
 70
0
  0
VERTEX
  8
1
 42
0.0
 10
5.85E+001
 20
1.825E+001
 70
0
  0
VERTEX
  8
1
 42
0.0
 10
1.35E+002
 20
1.825E+001
 70
0
  0
SEQEND
  0
POLYLINE
  8
1
  6
CONTINUOUS
 62
6
 66
1
 40
7.0E-001
 41
7.0E-001
 70
0
  0
VERTEX
  8
1
 42
0.0
 10
5.85E+001
 20
1.4E+001
 70
0
  0
VERTEX
  8
1
 42
0.0
 10
2.05E+002
 20
1.4E+001
 70
0
  0
SEQEND
  0
POLYLINE
  8
1
  6
CONTINUOUS
 62
6
 66
1
 40
7.0E-001
 41
7.0E-001
 70
0
  0
VERTEX
  8
1
 42
0.0
 10
1.35E+002
 20
2.25E+001
 70
0
  0
VERTEX
  8
1
 42
0.0
 10
2.05E+002
 20
2.25E+001
 70
0
  0
SEQEND
  0
POLYLINE
  8
1
  6
CONTINUOUS
 62
6
 66
1
 40
7.0E-001
 41
7.0E-001
 70
0
  0
VERTEX
  8
1
 42
0.0
 10
1.58E+002
 20
2.25E+001
 70
0
  0
VERTEX
  8
1
 42
0.0
 10
1.58E+002
 20
1.4E+001
 70
0
  0
SEQEND
  0
POLYLINE
  8
1
  6
CONTINUOUS
 62
110
 66
1
 40
7.0E-001
 41
7.0E-001
 70
0
  0
VERTEX
  8
1
 42
0.0
 10
1.68E+002
 20
2.25E+001
 70
0
  0
VERTEX
  8
1
 42
0.0
 10
1.68E+002
 20
1.4E+001
 70
0
  0
SEQEND
  0
POLYLINE
  8
1
  6
CONTINUOUS
 62
110
 66
1
 40
7.0E-001
 41
7.0E-001
 70
0
  0
VERTEX
  8
1
 42
0.0
 10
1.795E+002
 20
2.25E+001
 70
0
  0
VERTEX
  8
1
 42
0.0
 10
1.795E+002
 20
1.4E+001
 70
0
  0
SEQEND
  0
POLYLINE
  8
1
  6
CONTINUOUS
 62
110
 66
1
 40
7.0E-001
 41
7.0E-001
 70
0
  0
VERTEX
  8
1
 42
0.0
 10
1.915E+002
 20
2.25E+001
 70
0
  0
VERTEX
  8
1
 42
0.0
 10
1.915E+002
 20
1.4E+001
 70
0
  0
SEQEND
  0
LINE
  8
1
  6
HIDDEN
 62
6
 10
1.465E+002
 20
7.0
 11
2.05E+002
 21
7.0
  0
LINE
  8
1
  6
CONTINUOUS
 62
6
 10
2.4499985E+001
 20
2.25E+001
 11
5.85E+001
 21
2.25E+001
  0
LINE
  8
1
  6
CONTINUOUS
 62
6
 10
2.4499985E+001
 20
1.825E+001
 11
5.85E+001
 21
1.825E+001
  0
POLYLINE
  8
1
  6
CONTINUOUS
 62
6
 66
1
 40
5.0E-001
 41
5.0E-001
 70
0
  0
VERTEX
  8
1
 42
0.0
 10
5.85E+001
 20
2.675E+001
 70
0
  0
VERTEX
  8
1
 42
0.0
 10
1.35E+002
 20
2.675E+001
 70
0
  0
SEQEND
  0
POLYLINE
  8
1
  6
CONTINUOUS
 62
6
 66
1
 40
7.0E-001
 41
7.0E-001
 70
0
  0
VERTEX
  8
1
 42
0.0
 10
3.3999985E+001
 20
1.4E+001
 70
0
  0
VERTEX
  8
1
 42
0.0
 10
3.3999985E+001
 20
5.5
 70
0
  0
SEQEND
  0
POLYLINE
  8
1
  6
HIDDEN
 62
3
 66
1
 40
1.0E-003
 41
1.0E-003
 70
0
  0
VERTEX
  8
1
 42
0.0
 10
1.5225E+002
 20
1.825E+001
 70
0
  0
VERTEX
  8
1
 42
0.0
 10
1.5225E+002
 20
1.4E+001
 70
0
  0
SEQEND
  0
POLYLINE
  8
1
  6
HIDDEN
 62
3
 66
1
 40
1.0E-003
 41
1.0E-003
 70
0
  0
VERTEX
  8
1
 42
0.0
 10
1.63E+002
 20
1.825E+001
 70
0
  0
VERTEX
  8
1
 42
0.0
 10
1.63E+002
 20
1.4E+001
 70
0
  0
SEQEND
  0
POLYLINE
  8
1
  6
CONTINUOUS
 62
3
 66
1
 40
1.0E-003
 41
1.0E-003
 70
0
  0
VERTEX
  8
1
 42
0.0
 10
1.7079001E+002
 20
2.7410446E+001
 70
0
  0
VERTEX
  8
1
 42
0.0
 10
1.7079001E+002
 20
3.0034676E+001
 70
0
  0
SEQEND
  0
POLYLINE
  8
1
  6
CONTINUOUS
 62
3
 66
1
 40
1.0E-003
 41
1.0E-003
 70
0
  0
VERTEX
  8
1
 42
0.0
 10
1.7079001E+002
 20
3.0034676E+001
 70
0
  0
VERTEX
  8
1
 42
0.0
 10
1.7397659E+002
 20
3.0034676E+001
 70
0
  0
SEQEND
  0
POLYLINE
  8
1
  6
CONTINUOUS
 62
3
 66
1
 40
1.0E-003
 41
1.0E-003
 70
0
  0
VERTEX
  8
1
 42
0.0
 10
1.7397659E+002
 20
3.0034676E+001
 70
0
  0
VERTEX
  8
1
 42
0.0
 10
1.7397659E+002
 20
2.7410446E+001
 70
0
  0
SEQEND
  0
POLYLINE
  8
1
  6
CONTINUOUS
 62
3
 66
1
 40
1.0E-003
 41
1.0E-003
 70
0
  0
VERTEX
  8
1
 42
0.0
 10
1.7397659E+002
 20
2.7410446E+001
 70
0
  0
VERTEX
  8
1
 42
0.0
 10
1.7079001E+002
 20
2.7410446E+001
 70
0
  0
SEQEND
  0
POLYLINE
  8
1
  6
CONTINUOUS
 62
3
 66
1
 40
1.0E-003
 41
1.0E-003
 70
0
  0
VERTEX
  8
1
 42
0.0
 10
2.0079001E+002
 20
2.7410446E+001
 70
0
  0
VERTEX
  8
1
 42
0.0
 10
2.0079001E+002
 20
3.0034676E+001
 70
0
  0
SEQEND
  0
POLYLINE
  8
1
  6
CONTINUOUS
 62
3
 66
1
 40
1.0E-003
 41
1.0E-003
 70
0
  0
VERTEX
  8
1
 42
0.0
 10
2.0079001E+002
 20
3.0034676E+001
 70
0
  0
VERTEX
  8
1
 42
0.0
 10
2.0397659E+002
 20
3.0034676E+001
 70
0
  0
SEQEND
  0
POLYLINE
  8
1
  6
CONTINUOUS
 62
3
 66
1
 40
1.0E-003
 41
1.0E-003
 70
0
  0
VERTEX
  8
1
 42
0.0
 10
2.0397659E+002
 20
3.0034676E+001
 70
0
  0
VERTEX
  8
1
 42
0.0
 10
2.0397659E+002
 20
2.7410446E+001
 70
0
  0
SEQEND
  0
POLYLINE
  8
1
  6
CONTINUOUS
 62
3
 66
1
 40
1.0E-003
 41
1.0E-003
 70
0
  0
VERTEX
  8
1
 42
0.0
 10
2.0397659E+002
 20
2.7410446E+001
 70
0
  0
VERTEX
  8
1
 42
0.0
 10
2.0079001E+002
 20
2.7410446E+001
 70
0
  0
SEQEND
  0
POLYLINE
  8
1
  6
CONTINUOUS
 62
3
 66
1
 40
1.0E-003
 41
1.0E-003
 70
0
  0
VERTEX
  8
1
 42
0.0
 10
1.7079001E+002
 20
2.3160446E+001
 70
0
  0
VERTEX
  8
1
 42
0.0
 10
1.7079001E+002
 20
2.5784676E+001
 70
0
  0
SEQEND
  0
POLYLINE
  8
1
  6
CONTINUOUS
 62
3
 66
1
 40
1.0E-003
 41
1.0E-003
 70
0
  0
VERTEX
  8
1
 42
0.0
 10
1.7079001E+002
 20
2.5784676E+001
 70
0
  0
VERTEX
  8
1
 42
0.0
 10
1.7397659E+002
 20
2.5784676E+001
 70
0
  0
SEQEND
  0
POLYLINE
  8
1
  6
CONTINUOUS
 62
3
 66
1
 40
1.0E-003
 41
1.0E-003
 70
0
  0
VERTEX
  8
1
 42
0.0
 10
1.7397659E+002
 20
2.5784676E+001
 70
0
  0
VERTEX
  8
1
 42
0.0
 10
1.7397659E+002
 20
2.3160446E+001
 70
0
  0
SEQEND
  0
POLYLINE
  8
1
  6
CONTINUOUS
 62
3
 66
1
 40
1.0E-003
 41
1.0E-003
 70
0
  0
VERTEX
  8
1
 42
0.0
 10
1.7397659E+002
 20
2.3160446E+001
 70
0
  0
VERTEX
  8
1
 42
0.0
 10
1.7079001E+002
 20
2.3160446E+001
 70
0
  0
SEQEND
  0
LINE
  8
1
  6
CONTINUOUS
 62
6
 10
3.1499985E+001
 20
3.1E+001
 11
3.1499985E+001
 21
1.4E+001
  0
POLYLINE
  8
1
  6
CONTINUOUS
 62
3
 66
1
 40
1.0E-003
 41
1.0E-003
 70
0
  0
VERTEX
  8
1
 42
0.0
 10
1.3877496E+002
 20
2.025E+001
 70
0
  0
VERTEX
  8
1
 42
0.0
 10
1.3877496E+002
 20
1.625E+001
 70
0
  0
SEQEND
  0
POLYLINE
  8
1
  6
CONTINUOUS
 62
3
 66
1
 40
1.0E-003
 41
1.0E-003
 70
0
  0
VERTEX
  8
1
 42
0.0
 10
1.3601489E+002
 20
1.925E+001
 70
0
  0
VERTEX
  8
1
 42
0.0
 10
1.3601489E+002
 20
1.725E+001
 70
0
  0
SEQEND
  0
POLYLINE
  8
1
  6
CONTINUOUS
 62
3
 66
1
 40
1.0E-003
 41
1.0E-003
 70
0
  0
VERTEX
  8
1
 42
0.0
 10
1.3601489E+002
 20
1.925E+001
 70
0
  0
VERTEX
  8
1
 42
0.0
 10
1.3877496E+002
 20
2.025E+001
 70
0
  0
SEQEND
  0
POLYLINE
  8
1
  6
CONTINUOUS
 62
3
 66
1
 40
1.0E-003
 41
1.0E-003
 70
0
  0
VERTEX
  8
1
 42
0.0
 10
1.3601489E+002
 20
1.725E+001
 70
0
  0
VERTEX
  8
1
 42
0.0
 10
1.3877496E+002
 20
1.625E+001
 70
0
  0
SEQEND
  0
POLYLINE
  8
1
  6
HIDDEN
 62
3
 66
1
 40
1.0E-003
 41
1.0E-003
 70
0
  0
VERTEX
  8
1
 42
0.0
 10
1.4252081E+002
 20
2.0649994E+001
 70
0
  0
VERTEX
  8
1
 42
0.0
 10
1.4252081E+002
 20
1.5849998E+001
 70
0
  0
SEQEND
  0
POLYLINE
  8
1
  6
HIDDEN
 62
3
 66
1
 40
1.0E-003
 41
1.0E-003
 70
0
  0
VERTEX
  8
1
 42
0.0
 10
1.4492081E+002
 20
1.825E+001
 70
0
  0
VERTEX
  8
1
 42
0.0
 10
1.3581775E+002
 20
1.825E+001
 70
0
  0
SEQEND
  0
TEXT
  8
1
  6
CONTINUOUS
 62
3
 10
5.9224213E+001
 20
2.3520981E+001
 40
2.0
  1
Ersatz fuer:
 41
6.0E-001
  0
TEXT
  8
1
  6
CONTINUOUS
 62
3
 10
5.9224213E+001
 20
1.9296745E+001
 40
2.0
  1
Ers. durch:
 41
6.5308091E-001
  0
TEXT
  8
1
  6
CONTINUOUS
 62
3
 10
5.9096191E+001
 20
1.4944511E+001
 40
2.0
  1
Zust. Stelle:
 41
6.3073385E-001
  0
TEXT
  8
1
  6
CONTINUOUS
 62
3
 10
9.8266327E+001
 20
2.7745209E+001
 40
2.0
  1
Ausgest.:
 41
6.0E-001
  0
TEXT
  8
1
  6
CONTINUOUS
 62
3
 10
9.8138336E+001
 20
2.3648987E+001
 40
2.0
  1
Geprueft:
 41
6.0E-001
  0
TEXT
  8
1
  6
CONTINUOUS
 62
3
 10
9.8138336E+001
 20
1.9424751E+001
 40
2.0
  1
Normgepr.:
 41
6.0E-001
  0
TEXT
  8
1
  6
CONTINUOUS
 62
3
 10
9.8138336E+001
 20
1.5072517E+001
 40
2.0
  1
Freigeg.:
 41
6.0E-001
  0
TEXT
  8
1
  6
CONTINUOUS
 62
3
 10
3.4718704E+001
 20
1.0957314E+001
 40
2.0
  1
Titel:
 41
5.9703E-001
  0
TEXT
  8
1
  6
CONTINUOUS
 62
3
 10
1.3619501E+002
 20
2.7965616E+001
 40
2.0
  1
Massstab
 41
6.0E-001
  0
TEXT
  8
1
  6
CONTINUOUS
 62
3
 10
1.7571872E+002
 20
2.7957314E+001
 40
2.0
  1
Sep.SL anderer Nr.
 41
6.0E-001
  0
TEXT
  8
1
  6
CONTINUOUS
 62
3
 10
1.4721872E+002
 20
1.9457314E+001
 40
2.0
  1
Dok.-Art
 41
6.0E-001
  0
TEXT
  8
1
  6
CONTINUOUS
 62
3
 10
1.5971872E+002
 20
1.9457314E+001
 40
2.0
  1
Format
 41
6.0E-001
  0
TEXT
  8
1
  6
CONTINUOUS
 62
3
 10
1.6971872E+002
 20
1.9457314E+001
 40
2.0
  1
Sprache
 41
6.0E-001
  0
TEXT
  8
1
  6
CONTINUOUS
 62
3
 10
1.8171872E+002
 20
1.9457314E+001
 40
2.0
  1
Bl. Nr.
 41
6.0E-001
  0
TEXT
  8
1
  6
CONTINUOUS
 62
3
 10
1.9221872E+002
 20
1.9457314E+001
 40
2.0
  1
Anz. Bl.
 41
6.0E-001
  0
TEXT
  8
1
  6
CONTINUOUS
 62
3
 10
1.4721872E+002
 20
2.7957314E+001
 40
2.0
  1
Sep.SL gleicher Nr.
 41
6.0E-001
  0
TEXT
  8
1
  6
CONTINUOUS
 62
3
 10
1.472323E+002
 20
2.3457428E+001
 40
2.0
  1
O
 41
6.3E-001
  0
TEXT
  8
1
  6
CONTINUOUS
 62
3
 10
1.486723E+002
 20
2.3457428E+001
 40
2.0
  1
hne sep. Stckl.:
 41
6.3727875E-001
  0
TEXT
  8
1
  6
CONTINUOUS
 62
6
 10
1.7570981E+002
 20
2.3817909E+001
 40
2.0
  1
 
 41
8.1E-001
  0
TEXT
  8
1
  6
CONTINUOUS
 62
3
 10
1.7603071E+002
 20
2.3683216E+001
 40
2.0
  1
Uebern. Stelle:
 41
6.0127615E-001
  0
TEXT
  8
1
  6
CONTINUOUS
 62
3
 10
1.595E+002
 20
1.5E+001
 40
2.5
  1
A
  0
TEXT
  8
1
  6
CONTINUOUS
 62
3
 10
1.645E+002
 20
1.5E+001
 40
2.5
  1
4
  0
TEXT
  8
1
  6
CONTINUOUS
 62
3
 10
1.7312595E+002
 20
1.5027565E+001
 40
2.5
  1
D
  0
TEXT
  8
1
  6
CONTINUOUS
 62
3
 10
1.8441553E+002
 20
1.5027565E+001
 40
2.5
  1
1
  0
TEXT
  8
1
  6
CONTINUOUS
 62
3
 10
1.9647238E+002
 20
1.5027565E+001
 40
2.5
  1
1
  0
TEXT
  8
1
  6
CONTINUOUS
 62
3
 10
5.9352203E+001
 20
2.7617203E+001
 40
2.0
  1
E
 41
6.3E-001
  0
TEXT
  8
1
  6
CONTINUOUS
 62
3
 10
6.0612213E+001
 20
2.7617203E+001
 40
2.0
  1
ntst. aus:
 41
6.09444E-001
  0
POLYLINE
  8
1
  6
CONTINUOUS
 62
3
 66
1
 40
1.0E-003
 41
1.0E-003
 70
0
  0
VERTEX
  8
1
 42
0.0
 10
2.0301865E+001
 20
7.3082472
 70
0
  0
VERTEX
  8
1
 42
0.0
 10
2.1426865E+001
 20
7.3082472
 70
0
  0
SEQEND
  0
POLYLINE
  8
1
  6
CONTINUOUS
 62
3
 66
1
 40
1.0E-003
 41
1.0E-003
 70
0
  0
VERTEX
  8
1
 42
0.0
 10
2.1426865E+001
 20
7.3082472
 70
0
  0
VERTEX
  8
1
 42
0.0
 10
2.1741867E+001
 20
8.2082449
 70
0
  0
SEQEND
  0
POLYLINE
  8
1
  6
CONTINUOUS
 62
3
 66
1
 40
1.0E-003
 41
1.0E-003
 70
0
  0
VERTEX
  8
1
 42
0.0
 10
2.1741867E+001
 20
8.2082449
 70
0
  0
VERTEX
  8
1
 42
0.0
 10
2.2356873E+001
 20
8.2082449
 70
0
  0
SEQEND
  0
POLYLINE
  8
1
  6
CONTINUOUS
 62
3
 66
1
 40
1.0E-003
 41
1.0E-003
 70
0
  0
VERTEX
  8
1
 42
0.0
 10
2.2356873E+001
 20
8.2082449
 70
0
  0
VERTEX
  8
1
 42
0.0
 10
2.2356873E+001
 20
9.3632456
 70
0
  0
SEQEND
  0
POLYLINE
  8
1
  6
CONTINUOUS
 62
3
 66
1
 40
1.0E-003
 41
1.0E-003
 70
0
  0
VERTEX
  8
1
 42
0.0
 10
2.2356873E+001
 20
9.3632456
 70
0
  0
VERTEX
  8
1
 42
0.0
 10
2.1073608E+001
 20
9.3632456
 70
0
  0
SEQEND
  0
POLYLINE
  8
1
  6
CONTINUOUS
 62
3
 66
1
 40
1.0E-003
 41
1.0E-003
 70
0
  0
VERTEX
  8
1
 42
0.0
 10
2.1073608E+001
 20
9.3632456
 70
0
  0
VERTEX
  8
1
 42
0.0
 10
2.0301865E+001
 20
7.3082472
 70
0
  0
SEQEND
  0
POLYLINE
  8
1
  6
CONTINUOUS
 62
3
 66
1
 40
1.0E-003
 41
1.0E-003
 70
0
  0
VERTEX
  8
1
 42
0.0
 10
2.4801865E+001
 20
7.3082472
 70
0
  0
VERTEX
  8
1
 42
0.0
 10
2.3676865E+001
 20
7.3082472
 70
0
  0
SEQEND
  0
POLYLINE
  8
1
  6
CONTINUOUS
 62
3
 66
1
 40
1.0E-003
 41
1.0E-003
 70
0
  0
VERTEX
  8
1
 42
0.0
 10
2.3676865E+001
 20
7.3082472
 70
0
  0
VERTEX
  8
1
 42
0.0
 10
2.3361862E+001
 20
8.2082449
 70
0
  0
SEQEND
  0
POLYLINE
  8
1
  6
CONTINUOUS
 62
3
 66
1
 40
1.0E-003
 41
1.0E-003
 70
0
  0
VERTEX
  8
1
 42
0.0
 10
2.3361862E+001
 20
8.2082449
 70
0
  0
VERTEX
  8
1
 42
0.0
 10
2.2746872E+001
 20
8.2082449
 70
0
  0
SEQEND
  0
POLYLINE
  8
1
  6
CONTINUOUS
 62
3
 66
1
 40
1.0E-003
 41
1.0E-003
 70
0
  0
VERTEX
  8
1
 42
0.0
 10
2.2746872E+001
 20
8.2082449
 70
0
  0
VERTEX
  8
1
 42
0.0
 10
2.2746872E+001
 20
9.3632456
 70
0
  0
SEQEND
  0
POLYLINE
  8
1
  6
CONTINUOUS
 62
3
 66
1
 40
1.0E-003
 41
1.0E-003
 70
0
  0
VERTEX
  8
1
 42
0.0
 10
2.2746872E+001
 20
9.3632456
 70
0
  0
VERTEX
  8
1
 42
0.0
 10
2.4030121E+001
 20
9.3632456
 70
0
  0
SEQEND
  0
POLYLINE
  8
1
  6
CONTINUOUS
 62
3
 66
1
 40
1.0E-003
 41
1.0E-003
 70
0
  0
VERTEX
  8
1
 42
0.0
 10
2.4030121E+001
 20
9.3632456
 70
0
  0
VERTEX
  8
1
 42
0.0
 10
2.4801865E+001
 20
7.3082472
 70
0
  0
SEQEND
  0
POLYLINE
  8
1
  6
CONTINUOUS
 62
3
 66
1
 40
1.0E-003
 41
1.0E-003
 70
0
  0
VERTEX
  8
1
 42
0.0
 10
2.2356873E+001
 20
9.753245
 70
0
  0
VERTEX
  8
1
 42
0.0
 10
2.1105118E+001
 20
9.753245
 70
0
  0
SEQEND
  0
POLYLINE
  8
1
  6
CONTINUOUS
 62
3
 66
1
 40
1.0E-003
 41
1.0E-003
 70
0
  0
VERTEX
  8
1
 42
0.0
 10
2.2356873E+001
 20
1.1808243E+001
 70
0
  0
VERTEX
  8
1
 42
0.0
 10
2.2356873E+001
 20
9.753245
 70
0
  0
SEQEND
  0
POLYLINE
  8
1
  6
CONTINUOUS
 62
3
 66
1
 40
1.0E-003
 41
1.0E-003
 70
0
  0
VERTEX
  8
1
 42
0.0
 10
2.2356873E+001
 20
1.1808243E+001
 70
0
  0
VERTEX
  8
1
 42
0.0
 10
2.1876862E+001
 20
1.1808243E+001
 70
0
  0
SEQEND
  0
POLYLINE
  8
1
  6
CONTINUOUS
 62
3
 66
1
 40
1.0E-003
 41
1.0E-003
 70
0
  0
VERTEX
  8
1
 42
0.0
 10
2.1876862E+001
 20
1.1808243E+001
 70
0
  0
VERTEX
  8
1
 42
0.0
 10
2.1105118E+001
 20
9.753245
 70
0
  0
SEQEND
  0
POLYLINE
  8
1
  6
CONTINUOUS
 62
3
 66
1
 40
1.0E-003
 41
1.0E-003
 70
0
  0
VERTEX
  8
1
 42
0.0
 10
2.2746872E+001
 20
9.753245
 70
0
  0
VERTEX
  8
1
 42
0.0
 10
2.3998611E+001
 20
9.753245
 70
0
  0
SEQEND
  0
POLYLINE
  8
1
  6
CONTINUOUS
 62
3
 66
1
 40
1.0E-003
 41
1.0E-003
 70
0
  0
VERTEX
  8
1
 42
0.0
 10
2.2746872E+001
 20
1.1808243E+001
 70
0
  0
VERTEX
  8
1
 42
0.0
 10
2.2746872E+001
 20
9.753245
 70
0
  0
SEQEND
  0
POLYLINE
  8
1
  6
CONTINUOUS
 62
3
 66
1
 40
1.0E-003
 41
1.0E-003
 70
0
  0
VERTEX
  8
1
 42
0.0
 10
2.2746872E+001
 20
1.1808243E+001
 70
0
  0
VERTEX
  8
1
 42
0.0
 10
2.3226868E+001
 20
1.1808243E+001
 70
0
  0
SEQEND
  0
POLYLINE
  8
1
  6
CONTINUOUS
 62
3
 66
1
 40
1.0E-003
 41
1.0E-003
 70
0
  0
VERTEX
  8
1
 42
0.0
 10
2.3226868E+001
 20
1.1808243E+001
 70
0
  0
VERTEX
  8
1
 42
0.0
 10
2.3998611E+001
 20
9.753245
 70
0
  0
SEQEND
  0
POLYLINE
  8
1
  6
CONTINUOUS
 62
3
 66
1
 40
1.0E-003
 41
1.0E-003
 70
0
  0
VERTEX
  8
1
 42
0.0
 10
2.5116867E+001
 20
9.3632456
 70
0
  0
VERTEX
  8
1
 42
0.0
 10
2.5116867E+001
 20
7.3082472
 70
0
  0
SEQEND
  0
POLYLINE
  8
1
  6
CONTINUOUS
 62
3
 66
1
 40
1.0E-003
 41
1.0E-003
 70
0
  0
VERTEX
  8
1
 42
0.0
 10
2.5116867E+001
 20
7.3082472
 70
0
  0
VERTEX
  8
1
 42
0.0
 10
2.6271881E+001
 20
7.3082472
 70
0
  0
SEQEND
  0
POLYLINE
  8
1
  6
CONTINUOUS
 62
3
 66
1
 40
1.0E-003
 41
1.0E-003
 70
0
  0
VERTEX
  8
1
 42
0.0
 10
2.6271881E+001
 20
9.3632456
 70
0
  0
VERTEX
  8
1
 42
0.0
 10
2.6271881E+001
 20
7.3082472
 70
0
  0
SEQEND
  0
POLYLINE
  8
1
  6
CONTINUOUS
 62
3
 66
1
 40
1.0E-003
 41
1.0E-003
 70
0
  0
VERTEX
  8
1
 42
0.0
 10
2.5116867E+001
 20
9.3632456
 70
0
  0
VERTEX
  8
1
 42
0.0
 10
2.6271881E+001
 20
9.3632456
 70
0
  0
SEQEND
  0
POLYLINE
  8
1
  6
CONTINUOUS
 62
3
 66
1
 40
1.0E-003
 41
1.0E-003
 70
0
  0
VERTEX
  8
1
 42
0.0
 10
2.5116867E+001
 20
9.753245
 70
0
  0
VERTEX
  8
1
 42
0.0
 10
2.6271881E+001
 20
9.753245
 70
0
  0
SEQEND
  0
POLYLINE
  8
1
  6
CONTINUOUS
 62
3
 66
1
 40
1.0E-003
 41
1.0E-003
 70
0
  0
VERTEX
  8
1
 42
0.0
 10
2.5116867E+001
 20
1.1808243E+001
 70
0
  0
VERTEX
  8
1
 42
0.0
 10
2.5116867E+001
 20
9.753245
 70
0
  0
SEQEND
  0
POLYLINE
  8
1
  6
CONTINUOUS
 62
3
 66
1
 40
1.0E-003
 41
1.0E-003
 70
0
  0
VERTEX
  8
1
 42
0.0
 10
2.5116867E+001
 20
1.1808243E+001
 70
0
  0
VERTEX
  8
1
 42
0.0
 10
2.6271881E+001
 20
1.1808243E+001
 70
0
  0
SEQEND
  0
POLYLINE
  8
1
  6
CONTINUOUS
 62
3
 66
1
 40
1.0E-003
 41
1.0E-003
 70
0
  0
VERTEX
  8
1
 42
0.0
 10
2.6271881E+001
 20
1.1808243E+001
 70
0
  0
VERTEX
  8
1
 42
0.0
 10
2.6271881E+001
 20
9.753245
 70
0
  0
SEQEND
  0
POLYLINE
  8
1
  6
CONTINUOUS
 62
3
 66
1
 40
1.0E-003
 41
1.0E-003
 70
0
  0
VERTEX
  8
1
 42
0.0
 10
2.6661865E+001
 20
9.3632456
 70
0
  0
VERTEX
  8
1
 42
0.0
 10
2.6661865E+001
 20
7.3082472
 70
0
  0
SEQEND
  0
POLYLINE
  8
1
  6
CONTINUOUS
 62
3
 66
1
 40
1.0E-003
 41
1.0E-003
 70
0
  0
VERTEX
  8
1
 42
0.0
 10
2.6661865E+001
 20
7.3082472
 70
0
  0
VERTEX
  8
1
 42
0.0
 10
2.691687E+001
 20
7.3082472
 70
0
  0
SEQEND
  0
POLYLINE
  8
1
  6
CONTINUOUS
 62
3
 66
1
 40
1.0E-003
 41
1.0E-003
 70
0
  0
VERTEX
  8
1
 42
0.0
 10
2.6661865E+001
 20
9.3632456
 70
0
  0
VERTEX
  8
1
 42
0.0
 10
2.8068161E+001
 20
9.3632456
 70
0
  0
SEQEND
  0
POLYLINE
  8
1
  6
CONTINUOUS
 62
3
 66
1
 40
1.0E-003
 41
1.0E-003
 70
0
  0
VERTEX
  8
1
 42
0.0
 10
2.6661865E+001
 20
1.1808243E+001
 70
0
  0
VERTEX
  8
1
 42
0.0
 10
2.6661865E+001
 20
9.753245
 70
0
  0
SEQEND
  0
POLYLINE
  8
1
  6
CONTINUOUS
 62
3
 66
1
 40
1.0E-003
 41
1.0E-003
 70
0
  0
VERTEX
  8
1
 42
0.0
 10
2.6661865E+001
 20
9.753245
 70
0
  0
VERTEX
  8
1
 42
0.0
 10
2.7706482E+001
 20
9.753245
 70
0
  0
SEQEND
  0
POLYLINE
  8
1
  6
CONTINUOUS
 62
3
 66
1
 40
1.0E-003
 41
1.0E-003
 70
0
  0
VERTEX
  8
1
 42
0.0
 10
2.6661865E+001
 20
1.1808243E+001
 70
0
  0
VERTEX
  8
1
 42
0.0
 10
2.691687E+001
 20
1.1808243E+001
 70
0
  0
SEQEND
  0
POLYLINE
  8
1
  6
CONTINUOUS
 62
3
 66
1
 40
1.0E-003
 41
1.0E-003
 70
0
  0
VERTEX
  8
1
 42
0.0
 10
2.8626862E+001
 20
9.3632456
 70
0
  0
VERTEX
  8
1
 42
0.0
 10
2.8626862E+001
 20
7.3082472
 70
0
  0
SEQEND
  0
POLYLINE
  8
1
  6
CONTINUOUS
 62
3
 66
1
 40
1.0E-003
 41
1.0E-003
 70
0
  0
VERTEX
  8
1
 42
0.0
 10
2.8626862E+001
 20
7.3082472
 70
0
  0
VERTEX
  8
1
 42
0.0
 10
2.9781876E+001
 20
7.3082472
 70
0
  0
SEQEND
  0
POLYLINE
  8
1
  6
CONTINUOUS
 62
3
 66
1
 40
1.0E-003
 41
1.0E-003
 70
0
  0
VERTEX
  8
1
 42
0.0
 10
2.9781876E+001
 20
9.3632456
 70
0
  0
VERTEX
  8
1
 42
0.0
 10
2.9781876E+001
 20
7.3082472
 70
0
  0
SEQEND
  0
POLYLINE
  8
1
  6
CONTINUOUS
 62
3
 66
1
 40
1.0E-003
 41
1.0E-003
 70
0
  0
VERTEX
  8
1
 42
0.0
 10
2.8626862E+001
 20
9.3632456
 70
0
  0
VERTEX
  8
1
 42
0.0
 10
2.9781876E+001
 20
9.3632456
 70
0
  0
SEQEND
  0
POLYLINE
  8
1
  6
CONTINUOUS
 62
3
 66
1
 40
1.0E-003
 41
1.0E-003
 70
0
  0
VERTEX
  8
1
 42
0.0
 10
2.8626862E+001
 20
1.1808243E+001
 70
0
  0
VERTEX
  8
1
 42
0.0
 10
2.8626862E+001
 20
9.753245
 70
0
  0
SEQEND
  0
POLYLINE
  8
1
  6
CONTINUOUS
 62
3
 66
1
 40
1.0E-003
 41
1.0E-003
 70
0
  0
VERTEX
  8
1
 42
0.0
 10
2.8626862E+001
 20
9.753245
 70
0
  0
VERTEX
  8
1
 42
0.0
 10
2.9781876E+001
 20
9.753245
 70
0
  0
SEQEND
  0
POLYLINE
  8
1
  6
CONTINUOUS
 62
3
 66
1
 40
1.0E-003
 41
1.0E-003
 70
0
  0
VERTEX
  8
1
 42
0.0
 10
2.9781876E+001
 20
1.1808243E+001
 70
0
  0
VERTEX
  8
1
 42
0.0
 10
2.9781876E+001
 20
9.753245
 70
0
  0
SEQEND
  0
POLYLINE
  8
1
  6
CONTINUOUS
 62
3
 66
1
 40
1.0E-003
 41
1.0E-003
 70
0
  0
VERTEX
  8
1
 42
0.0
 10
2.8626862E+001
 20
1.1808243E+001
 70
0
  0
VERTEX
  8
1
 42
0.0
 10
2.9781876E+001
 20
1.1808243E+001
 70
0
  0
SEQEND
  0
POLYLINE
  8
1
  6
CONTINUOUS
 62
3
 66
1
 40
1.0E-003
 41
1.0E-003
 70
0
  0
VERTEX
  8
1
 42
0.0
 10
3.017186E+001
 20
9.3632456
 70
0
  0
VERTEX
  8
1
 42
0.0
 10
3.017186E+001
 20
7.3082472
 70
0
  0
SEQEND
  0
POLYLINE
  8
1
  6
CONTINUOUS
 62
3
 66
1
 40
1.0E-003
 41
1.0E-003
 70
0
  0
VERTEX
  8
1
 42
0.0
 10
3.017186E+001
 20
7.3082472
 70
0
  0
VERTEX
  8
1
 42
0.0
 10
3.0426865E+001
 20
7.3082472
 70
0
  0
SEQEND
  0
POLYLINE
  8
1
  6
CONTINUOUS
 62
3
 66
1
 40
1.0E-003
 41
1.0E-003
 70
0
  0
VERTEX
  8
1
 42
0.0
 10
3.017186E+001
 20
9.3632456
 70
0
  0
VERTEX
  8
1
 42
0.0
 10
3.1578156E+001
 20
9.3632456
 70
0
  0
SEQEND
  0
POLYLINE
  8
1
  6
CONTINUOUS
 62
3
 66
1
 40
1.0E-003
 41
1.0E-003
 70
0
  0
VERTEX
  8
1
 42
0.0
 10
3.017186E+001
 20
1.1808243E+001
 70
0
  0
VERTEX
  8
1
 42
0.0
 10
3.017186E+001
 20
9.753245
 70
0
  0
SEQEND
  0
POLYLINE
  8
1
  6
CONTINUOUS
 62
3
 66
1
 40
1.0E-003
 41
1.0E-003
 70
0
  0
VERTEX
  8
1
 42
0.0
 10
3.017186E+001
 20
9.753245
 70
0
  0
VERTEX
  8
1
 42
0.0
 10
3.1216476E+001
 20
9.753245
 70
0
  0
SEQEND
  0
POLYLINE
  8
1
  6
CONTINUOUS
 62
3
 66
1
 40
1.0E-003
 41
1.0E-003
 70
0
  0
VERTEX
  8
1
 42
0.0
 10
3.017186E+001
 20
1.1808243E+001
 70
0
  0
VERTEX
  8
1
 42
0.0
 10
3.0426865E+001
 20
1.1808243E+001
 70
0
  0
SEQEND
  0
INSERT
  2
XHXH1NEW02NEW00NEW00
  8
1
 10
2.1933228E+001
 20
1.1581771E+001
  0
POLYLINE
  8
1
  6
CONTINUOUS
 62
3
 66
1
 40
1.0E-003
 41
1.0E-003
 70
0
  0
VERTEX
  8
1
 42
1.0
 10
1.4452078E+002
 20
1.825E+001
 70
0
  0
VERTEX
  8
1
 42
1.0
 10
1.4052078E+002
 20
1.825E+001
 70
0
  0
VERTEX
  8
1
 42
0.0
 10
1.4452078E+002
 20
1.825E+001
 70
0
  0
SEQEND
  0
POLYLINE
  8
1
  6
CONTINUOUS
 62
3
 66
1
 40
1.0E-003
 41
1.0E-003
 70
0
  0
VERTEX
  8
1
 42
1.0
 10
1.4352078E+002
 20
1.825E+001
 70
0
  0
VERTEX
  8
1
 42
1.0
 10
1.4152078E+002
 20
1.825E+001
 70
0
  0
VERTEX
  8
1
 42
0.0
 10
1.4352078E+002
 20
1.825E+001
 70
0
  0
SEQEND
  0
POLYLINE
  8
1
  6
CONTINUOUS
 62
3
 66
1
 40
1.0E-003
 41
1.0E-003
 70
0
  0
VERTEX
  8
1
 42
5.8600137E-001
 10
2.691687E+001
 20
7.3082456
 70
0
  0
VERTEX
  8
1
 42
0.0
 10
2.8068163E+001
 20
9.3632459
 70
0
  0
SEQEND
  0
POLYLINE
  8
1
  6
CONTINUOUS
 62
3
 66
1
 40
1.0E-003
 41
1.0E-003
 70
0
  0
VERTEX
  8
1
 42
6.2051509E-002
 10
2.7706476E+001
 20
9.7532445
 70
0
  0
VERTEX
  8
1
 42
0.0
 10
2.7413674E+001
 20
9.9135089
 70
0
  0
SEQEND
  0
POLYLINE
  8
1
  6
CONTINUOUS
 62
3
 66
1
 40
1.0E-003
 41
1.0E-003
 70
0
  0
VERTEX
  8
1
 42
7.7160142E-001
 10
2.7413674E+001
 20
9.9135095
 70
0
  0
VERTEX
  8
1
 42
0.0
 10
2.691687E+001
 20
1.1808246E+001
 70
0
  0
SEQEND
  0
POLYLINE
  8
1
  6
CONTINUOUS
 62
3
 66
1
 40
1.0E-003
 41
1.0E-003
 70
0
  0
VERTEX
  8
1
 42
5.8600137E-001
 10
3.0426865E+001
 20
7.3082456
 70
0
  0
VERTEX
  8
1
 42
0.0
 10
3.1578157E+001
 20
9.3632459
 70
0
  0
SEQEND
  0
POLYLINE
  8
1
  6
CONTINUOUS
 62
3
 66
1
 40
1.0E-003
 41
1.0E-003
 70
0
  0
VERTEX
  8
1
 42
6.2051509E-002
 10
3.1216471E+001
 20
9.7532445
 70
0
  0
VERTEX
  8
1
 42
0.0
 10
3.0923669E+001
 20
9.9135089
 70
0
  0
SEQEND
  0
POLYLINE
  8
1
  6
CONTINUOUS
 62
3
 66
1
 40
1.0E-003
 41
1.0E-003
 70
0
  0
VERTEX
  8
1
 42
7.7160142E-001
 10
3.0923669E+001
 20
9.9135095
 70
0
  0
VERTEX
  8
1
 42
0.0
 10
3.0426865E+001
 20
1.1808246E+001
 70
0
  0
SEQEND
  0
POINT
  8
Drafting_Hidden_Entities
  6
CONTINUOUS
 62
1
 10
0.0
 20
0.0
  0
ENDBLK
  0
BLOCK
  2
*E413
  3
*E413
 10
7.4615954E+001
 20
1.7437199E+002
 70
65
  0
ARC
  8
1
  6
CONTINUOUS
 62
3
 10
7.4615954E+001
 20
1.7437199E+002
 40
1.0
 50
1.7999999E+002
 51
2.7E+002
  0
ENDBLK
  0
BLOCK
  2
*D433
  3
*D
 10
0.0
 20
0.0
 70
65
  0
LINE
  8
1
  6
CONTINUOUS
 62
4
 10
7.5639194E+001
 20
1.2804109E+002
 11
1.3073885E+002
 21
1.2804109E+002
  0
LINE
  8
1
  6
CONTINUOUS
 62
4
 10
1.3751365E+002
 20
1.2804109E+002
 11
1.4527648E+002
 21
1.2804109E+002
  0
LINE
  8
1
  6
CONTINUOUS
 62
4
 10
1.2529538E+002
 20
9.3041052E+001
 11
1.4527648E+002
 21
9.3041052E+001
  0
SOLID
  8
1
  6
CONTINUOUS
 62
0
 10
1.4377648E+002
 20
1.2804109E+002
 11
1.4327648E+002
 21
1.2504109E+002
 12
1.4427649E+002
 22
1.2504109E+002
 13
1.4427649E+002
 23
1.2504109E+002
  0
SOLID
  8
1
  6
CONTINUOUS
 62
0
 10
1.4377648E+002
 20
9.3041052E+001
 11
1.4427649E+002
 21
9.6041052E+001
 12
1.4327648E+002
 22
9.6041052E+001
 13
1.4327648E+002
 23
9.6041052E+001
  0
LINE
  8
1
  6
CONTINUOUS
 62
4
 10
1.4377648E+002
 20
1.2804109E+002
 11
1.4377648E+002
 21
1.1130349E+002
  0
LINE
  8
1
  6
CONTINUOUS
 62
4
 10
1.4377648E+002
 20
9.3041052E+001
 11
1.4377648E+002
 21
1.1130349E+002
  0
TEXT
  8
1
  6
CONTINUOUS
 62
4
 10
1.4227548E+002
 20
1.0890349E+002
 40
3.0
  1
35
 41
8.0E-001
 50
9.0E+001
 51
1.0
  0
ENDBLK
  0
BLOCK
  2
*E453
  3
*E453
 10
1.1601598E+002
 20
1.3099109E+002
 70
65
  0
ARC
  8
1
  6
CONTINUOUS
 62
3
 10
1.1601598E+002
 20
1.3099109E+002
 40
8.0E-001
 50
9.0E+001
 51
1.7999999E+002
  0
ENDBLK
  0
BLOCK
  2
*E454
  3
*E454
 10
1.1601598E+002
 20
8.5091072E+001
 70
65
  0
ARC
  8
1
  6
CONTINUOUS
 62
3
 10
1.1601598E+002
 20
8.5091072E+001
 40
8.0E-001
 50
0.0
 51
9.0E+001
  0
ENDBLK
  0
BLOCK
  2
*E456
  3
*E456
 10
7.5415944E+001
 20
1.3099109E+002
 70
65
  0
ARC
  8
1
  6
CONTINUOUS
 62
3
 10
7.5415944E+001
 20
1.3099109E+002
 40
8.0E-001
 50
1.7999999E+002
 51
2.7E+002
  0
ENDBLK
  0
BLOCK
  2
*E457
  3
*E
 10
0.0
 20
0.0
 70
65
  0
CIRCLE
  8
1
  6
CONTINUOUS
 62
3
 10
0.0
 20
0.0
 40
1.0
  0
ENDBLK
  0
BLOCK
  2
*E458
  3
*E458
 10
1.2071598E+002
 20
8.3041062E+001
 70
65
  0
ARC
  8
1
  6
CONTINUOUS
 62
3
 10
1.2071598E+002
 20
8.3041062E+001
 40
2.25
 50
2.972661E+002
 51
4.772661E+002
  0
ENDBLK
  0
BLOCK
  2
*E459
  3
*E459
 10
7.0715954E+001
 20
1.2804109E+002
 70
65
  0
ARC
  8
1
  6
CONTINUOUS
 62
3
 10
7.0715954E+001
 20
1.2804109E+002
 40
3.75
 50
1.7999999E+002
 51
3.6E+002
  0
ENDBLK
  0
BLOCK
  2
*E460
  3
*E460
 10
1.2071598E+002
 20
9.3041052E+001
 70
65
  0
ARC
  8
1
  6
CONTINUOUS
 62
3
 10
1.2071598E+002
 20
9.3041052E+001
 40
3.75
 50
9.0E+001
 51
1.7999999E+002
  0
ENDBLK
  0
BLOCK
  2
*E461
  3
*E461
 10
1.2071598E+002
 20
8.3041062E+001
 70
65
  0
ARC
  8
1
  6
CONTINUOUS
 62
3
 10
1.2071598E+002
 20
8.3041062E+001
 40
3.75
 50
3.09346E+002
 51
4.5E+002
  0
ENDBLK
  0
BLOCK
  2
*E462
  3
*E462
 10
1.2071598E+002
 20
8.8041052E+001
 70
65
  0
ARC
  8
1
  6
CONTINUOUS
 62
3
 10
1.2071598E+002
 20
8.8041052E+001
 40
2.25
 50
6.27339E+001
 51
2.4273393E+002
  0
ENDBLK
  0
BLOCK
  2
*E463
  3
*E463
 10
1.2071598E+002
 20
9.3041052E+001
 70
65
  0
ARC
  8
1
  6
CONTINUOUS
 62
3
 10
1.2071598E+002
 20
9.3041052E+001
 40
2.25
 50
2.972661E+002
 51
6.0273393E+002
  0
ENDBLK
  0
BLOCK
  2
*E500
  3
*E
 10
0.0
 20
0.0
 70
65
  0
CIRCLE
  8
1
  6
CONTINUOUS
 62
3
 10
0.0
 20
0.0
 40
1.0
  0
ENDBLK
  0
BLOCK
  2
*E501
  3
*E
 10
0.0
 20
0.0
 70
65
  0
CIRCLE
  8
1
  6
CONTINUOUS
 62
3
 10
0.0
 20
0.0
 40
1.0
  0
ENDBLK
  0
BLOCK
  2
*E502
  3
*E
 10
0.0
 20
0.0
 70
65
  0
CIRCLE
  8
1
  6
CONTINUOUS
 62
3
 10
0.0
 20
0.0
 40
1.0
  0
ENDBLK
  0
BLOCK
  2
*E658
  3
*E658
 10
8.4215944E+001
 20
2.4047199E+002
 70
65
  0
ARC
  8
1
  6
CONTINUOUS
 62
3
 10
8.4215944E+001
 20
2.4047199E+002
 40
3.0
 50
1.7999999E+002
 51
2.7E+002
  0
ENDBLK
  0
BLOCK
  2
*E659
  3
*E659
 10
1.0721598E+002
 20
2.4047199E+002
 70
65
  0
ARC
  8
1
  6
CONTINUOUS
 62
3
 10
1.0721598E+002
 20
2.4047199E+002
 40
3.0
 50
9.0E+001
 51
1.7999999E+002
  0
ENDBLK
  0
BLOCK
  2
*E720
  3
*E720
 10
7.5415914E+001
 20
8.5091082E+001
 70
65
  0
ARC
  8
1
  6
CONTINUOUS
 62
3
 10
7.5415914E+001
 20
8.5091082E+001
 40
8.0E-001
 50
2.7E+002
 51
3.6E+002
  0
ENDBLK
  0
BLOCK
  2
*E740
  3
*E740
 10
1.1601588E+002
 20
1.3099109E+002
 70
65
  0
ARC
  8
1
  6
CONTINUOUS
 62
3
 10
1.1601588E+002
 20
1.3099109E+002
 40
8.0E-001
 50
9.0E+001
 51
1.7999999E+002
  0
ENDBLK
  0
BLOCK
  2
*E746
  3
*E746
 10
1.1631588E+002
 20
8.5141072E+001
 70
65
  0
ARC
  8
1
  6
CONTINUOUS
 62
3
 10
1.1631588E+002
 20
8.5141072E+001
 40
5.0E-001
 50
9.0E+001
 51
1.7999999E+002
  0
ENDBLK
  0
BLOCK
  2
*E749
  3
*E749
 10
7.5115934E+001
 20
1.3094109E+002
 70
65
  0
ARC
  8
1
  6
CONTINUOUS
 62
3
 10
7.5115934E+001
 20
1.3094109E+002
 40
5.0E-001
 50
2.7E+002
 51
3.6E+002
  0
ENDBLK
  0
BLOCK
  2
*D802
  3
*D
 10
0.0
 20
0.0
 70
65
  0
LINE
  8
1
  6
CONTINUOUS
 62
4
 10
7.5639194E+001
 20
1.2804109E+002
 11
1.3050524E+002
 21
1.2804109E+002
  0
LINE
  8
1
  6
CONTINUOUS
 62
4
 10
1.3763045E+002
 20
1.2804109E+002
 11
1.5316308E+002
 21
1.2804109E+002
  0
LINE
  8
1
  6
CONTINUOUS
 62
4
 10
1.2512998E+002
 20
8.8041052E+001
 11
1.5316308E+002
 21
8.8041052E+001
  0
SOLID
  8
1
  6
CONTINUOUS
 62
0
 10
1.5166308E+002
 20
1.2804109E+002
 11
1.5116308E+002
 21
1.2504109E+002
 12
1.5216309E+002
 22
1.2504109E+002
 13
1.5216309E+002
 23
1.2504109E+002
  0
SOLID
  8
1
  6
CONTINUOUS
 62
0
 10
1.5166308E+002
 20
8.8041052E+001
 11
1.5216309E+002
 21
9.1041052E+001
 12
1.5116308E+002
 22
9.1041052E+001
 13
1.5116308E+002
 23
9.1041052E+001
  0
LINE
  8
1
  6
CONTINUOUS
 62
4
 10
1.5166308E+002
 20
1.2804109E+002
 11
1.5166308E+002
 21
1.0725237E+002
  0
LINE
  8
1
  6
CONTINUOUS
 62
4
 10
1.5166308E+002
 20
8.8041052E+001
 11
1.5166308E+002
 21
1.0725237E+002
  0
TEXT
  8
1
  6
CONTINUOUS
 62
4
 10
1.5016208E+002
 20
1.0485237E+002
 40
3.0
  1
40
 41
8.0E-001
 50
9.0E+001
 51
1.0
  0
ENDBLK
  0
BLOCK
  2
*D804
  3
*D
 10
0.0
 20
0.0
 70
65
  0
LINE
  8
1
  6
CONTINUOUS
 62
4
 10
7.8215864E+001
 20
1.7537199E+002
 11
5.2276484E+001
 21
1.7537199E+002
  0
LINE
  8
1
  6
CONTINUOUS
 62
4
 10
7.6515834E+001
 20
2.1887199E+002
 11
5.2276484E+001
 21
2.1887199E+002
  0
SOLID
  8
1
  6
CONTINUOUS
 62
0
 10
5.3776484E+001
 20
1.7537199E+002
 11
5.4276487E+001
 21
1.7837199E+002
 12
5.327648E+001
 22
1.7837199E+002
 13
5.327648E+001
 23
1.7837199E+002
  0
SOLID
  8
1
  6
CONTINUOUS
 62
0
 10
5.3776484E+001
 20
2.1887199E+002
 11
5.327648E+001
 21
2.1587199E+002
 12
5.4276487E+001
 22
2.1587199E+002
 13
5.4276487E+001
 23
2.1587199E+002
  0
LINE
  8
1
  6
CONTINUOUS
 62
4
 10
5.3776484E+001
 20
1.7537199E+002
 11
5.3776484E+001
 21
1.9730349E+002
  0
LINE
  8
1
  6
CONTINUOUS
 62
4
 10
5.3776484E+001
 20
2.1887199E+002
 11
5.3776484E+001
 21
1.9730349E+002
  0
ENDBLK
  0
BLOCK
  2
*D805
  3
*D
 10
0.0
 20
0.0
 70
65
  0
LINE
  8
1
  6
CONTINUOUS
 62
4
 10
8.6015864E+001
 20
2.4547199E+002
 11
3.6019385E+001
 21
2.4547199E+002
  0
LINE
  8
1
  6
CONTINUOUS
 62
4
 10
7.8215864E+001
 20
1.7537199E+002
 11
3.6019385E+001
 21
1.7537199E+002
  0
SOLID
  8
1
  6
CONTINUOUS
 62
0
 10
3.7519385E+001
 20
2.4547199E+002
 11
3.7019381E+001
 21
2.4247199E+002
 12
3.8019389E+001
 22
2.4247199E+002
 13
3.8019389E+001
 23
2.4247199E+002
  0
SOLID
  8
1
  6
CONTINUOUS
 62
0
 10
3.7519385E+001
 20
1.7537199E+002
 11
3.8019389E+001
 21
1.7837199E+002
 12
3.7019381E+001
 22
1.7837199E+002
 13
3.7019381E+001
 23
1.7837199E+002
  0
LINE
  8
1
  6
CONTINUOUS
 62
4
 10
3.7519385E+001
 20
2.4547199E+002
 11
3.7519385E+001
 21
2.0892981E+002
  0
LINE
  8
1
  6
CONTINUOUS
 62
4
 10
3.7519385E+001
 20
1.7537199E+002
 11
3.7519385E+001
 21
2.0892981E+002
  0
TEXT
  8
1
  6
CONTINUOUS
 62
4
 10
3.6018385E+001
 20
2.0652981E+002
 40
3.0
  1
70
 41
8.0E-001
 50
9.0E+001
 51
1.0
  0
ENDBLK
  0
BLOCK
  2
*D810
  3
*D
 10
0.0
 20
0.0
 70
65
  0
LINE
  8
1
  6
CONTINUOUS
 62
4
 10
8.6015864E+001
 20
2.4547199E+002
 11
2.805986E+001
 21
2.4547199E+002
  0
LINE
  8
1
  6
CONTINUOUS
 62
4
 10
6.6965864E+001
 20
1.7237199E+002
 11
2.805986E+001
 21
1.7237199E+002
  0
SOLID
  8
1
  6
CONTINUOUS
 62
0
 10
2.955986E+001
 20
2.4547199E+002
 11
2.9059856E+001
 21
2.4247199E+002
 12
3.0059864E+001
 22
2.4247199E+002
 13
3.0059864E+001
 23
2.4247199E+002
  0
SOLID
  8
1
  6
CONTINUOUS
 62
0
 10
2.955986E+001
 20
1.7237199E+002
 11
3.0059864E+001
 21
1.7537199E+002
 12
2.9059856E+001
 22
1.7537199E+002
 13
2.9059856E+001
 23
1.7537199E+002
  0
LINE
  8
1
  6
CONTINUOUS
 62
4
 10
2.955986E+001
 20
2.4547199E+002
 11
2.955986E+001
 21
2.1503828E+002
  0
LINE
  8
1
  6
CONTINUOUS
 62
4
 10
2.955986E+001
 20
1.7237199E+002
 11
2.955986E+001
 21
2.1503828E+002
  0
TEXT
  8
1
  6
CONTINUOUS
 62
4
 10
2.805886E+001
 20
2.1263828E+002
 40
3.0
  1
73
 41
8.0E-001
 50
9.0E+001
 51
1.0
  0
ENDBLK
  0
BLOCK
  2
*D812
  3
*D
 10
0.0
 20
0.0
 70
65
  0
LINE
  8
1
  6
CONTINUOUS
 62
4
 10
9.0665944E+001
 20
2.4714719E+002
 11
9.0665944E+001
 21
2.527899E+002
  0
LINE
  8
1
  6
CONTINUOUS
 62
4
 10
1.0076598E+002
 20
2.4704479E+002
 11
1.0076598E+002
 21
2.527899E+002
  0
SOLID
  8
1
  6
CONTINUOUS
 62
0
 10
9.0665944E+001
 20
2.512899E+002
 11
8.7665944E+001
 21
2.5178991E+002
 12
8.7665944E+001
 22
2.507899E+002
 13
8.7665944E+001
 23
2.507899E+002
  0
SOLID
  8
1
  6
CONTINUOUS
 62
0
 10
1.0076598E+002
 20
2.512899E+002
 11
1.0376598E+002
 21
2.507899E+002
 12
1.0376598E+002
 22
2.5178991E+002
 13
1.0376598E+002
 23
2.5178991E+002
  0
LINE
  8
1
  6
CONTINUOUS
 62
4
 10
8.4665944E+001
 20
2.512899E+002
 11
9.0665944E+001
 21
2.512899E+002
  0
LINE
  8
1
  6
CONTINUOUS
 62
4
 10
1.0676598E+002
 20
2.512899E+002
 11
9.0665944E+001
 21
2.512899E+002
  0
ENDBLK
  0
BLOCK
  2
*D813
  3
*D
 10
0.0
 20
0.0
 70
65
  0
LINE
  8
1
  6
CONTINUOUS
 62
4
 10
8.1215944E+001
 20
2.4047209E+002
 11
8.1215944E+001
 21
2.5901737E+002
  0
LINE
  8
1
  6
CONTINUOUS
 62
4
 10
1.1021598E+002
 20
2.4047209E+002
 11
1.1021598E+002
 21
2.5901737E+002
  0
SOLID
  8
1
  6
CONTINUOUS
 62
0
 10
8.1215944E+001
 20
2.5751737E+002
 11
8.4215944E+001
 21
2.5701737E+002
 12
8.4215944E+001
 22
2.5801737E+002
 13
8.4215944E+001
 23
2.5801737E+002
  0
SOLID
  8
1
  6
CONTINUOUS
 62
0
 10
1.1021598E+002
 20
2.5751737E+002
 11
1.0721598E+002
 21
2.5801737E+002
 12
1.0721598E+002
 22
2.5701737E+002
 13
1.0721598E+002
 23
2.5701737E+002
  0
LINE
  8
1
  6
CONTINUOUS
 62
4
 10
8.1215944E+001
 20
2.5751737E+002
 11
9.5353329E+001
 21
2.5751737E+002
  0
LINE
  8
1
  6
CONTINUOUS
 62
4
 10
1.1021598E+002
 20
2.5751737E+002
 11
9.5353329E+001
 21
2.5751737E+002
  0
TEXT
  8
1
  6
CONTINUOUS
 62
4
 10
9.2953329E+001
 20
2.5901837E+002
 40
3.0
  1
29
 41
8.0E-001
 51
1.0
  0
ENDBLK
  0
BLOCK
  2
*D814
  3
*D
 10
0.0
 20
0.0
 70
65
  0
LINE
  8
1
  6
CONTINUOUS
 62
4
 10
1.1601608E+002
 20
1.3179099E+002
 11
1.3727648E+002
 21
1.3179099E+002
  0
LINE
  8
1
  6
CONTINUOUS
 62
4
 10
9.8836084E+001
 20
1.2179105E+002
 11
1.3727648E+002
 21
1.2179105E+002
  0
SOLID
  8
1
  6
CONTINUOUS
 62
0
 10
1.3577648E+002
 20
1.3179099E+002
 11
1.3527648E+002
 21
1.2879099E+002
 12
1.3627649E+002
 22
1.2879099E+002
 13
1.3627649E+002
 23
1.2879099E+002
  0
SOLID
  8
1
  6
CONTINUOUS
 62
0
 10
1.3577648E+002
 20
1.2179105E+002
 11
1.3627649E+002
 21
1.2479105E+002
 12
1.3527648E+002
 22
1.2479105E+002
 13
1.3527648E+002
 23
1.2479105E+002
  0
LINE
  8
1
  6
CONTINUOUS
 62
4
 10
1.3577648E+002
 20
1.3179099E+002
 11
1.3577648E+002
 21
1.2530349E+002
  0
LINE
  8
1
  6
CONTINUOUS
 62
4
 10
1.3577648E+002
 20
1.2179105E+002
 11
1.3577648E+002
 21
1.2530349E+002
  0
TEXT
  8
1
  6
CONTINUOUS
 62
4
 10
1.3427548E+002
 20
1.2290349E+002
 40
3.0
  1
10
 41
8.0E-001
 50
9.0E+001
 51
1.0
  0
ENDBLK
  0
BLOCK
  2
*D817
  3
*D
 10
0.0
 20
0.0
 70
65
  0
LINE
  8
1
  6
CONTINUOUS
 62
4
 10
8.7545844E+001
 20
9.8941062E+001
 11
5.2276484E+001
 21
9.8941062E+001
  0
LINE
  8
1
  6
CONTINUOUS
 62
4
 10
7.9895834E+001
 20
1.0804105E+002
 11
5.2276484E+001
 21
1.0804105E+002
  0
SOLID
  8
1
  6
CONTINUOUS
 62
0
 10
5.3776484E+001
 20
9.8941062E+001
 11
5.4276487E+001
 21
1.0194106E+002
 12
5.327648E+001
 22
1.0194106E+002
 13
5.327648E+001
 23
1.0194106E+002
  0
SOLID
  8
1
  6
CONTINUOUS
 62
0
 10
5.3776484E+001
 20
1.0804105E+002
 11
5.327648E+001
 21
1.0504105E+002
 12
5.4276487E+001
 22
1.0504105E+002
 13
5.4276487E+001
 23
1.0504105E+002
  0
LINE
  8
1
  6
CONTINUOUS
 62
4
 10
5.3776484E+001
 20
9.8941062E+001
 11
5.3776484E+001
 21
1.0330349E+002
  0
LINE
  8
1
  6
CONTINUOUS
 62
4
 10
5.3776484E+001
 20
1.0804105E+002
 11
5.3776484E+001
 21
1.0330349E+002
  0
ENDBLK
  0
BLOCK
  2
*D819
  3
*D
 10
0.0
 20
0.0
 70
65
  0
LINE
  8
1
  6
CONTINUOUS
 62
4
 10
7.5415854E+001
 20
1.3179099E+002
 11
4.4276484E+001
 21
1.3179099E+002
  0
LINE
  8
1
  6
CONTINUOUS
 62
4
 10
7.5415854E+001
 20
8.4291042E+001
 11
4.4276484E+001
 21
8.4291042E+001
  0
SOLID
  8
1
  6
CONTINUOUS
 62
0
 10
4.5776484E+001
 20
1.3179099E+002
 11
4.527648E+001
 21
1.2879099E+002
 12
4.6276487E+001
 22
1.2879099E+002
 13
4.6276487E+001
 23
1.2879099E+002
  0
SOLID
  8
1
  6
CONTINUOUS
 62
0
 10
4.5776484E+001
 20
8.4291042E+001
 11
4.6276487E+001
 21
8.7291042E+001
 12
4.527648E+001
 22
8.7291042E+001
 13
4.527648E+001
 23
8.7291042E+001
  0
LINE
  8
1
  6
CONTINUOUS
 62
4
 10
4.5776484E+001
 20
1.3179099E+002
 11
4.5776484E+001
 21
1.0730349E+002
  0
LINE
  8
1
  6
CONTINUOUS
 62
4
 10
4.5776484E+001
 20
8.4291042E+001
 11
4.5776484E+001
 21
1.0730349E+002
  0
ENDBLK
  0
BLOCK
  2
*D820
  3
*D
 10
0.0
 20
0.0
 70
65
  0
LINE
  8
1
  6
CONTINUOUS
 62
4
 10
1.1831588E+002
 20
1.0604095E+002
 11
1.1831588E+002
 21
6.8802492E+001
  0
LINE
  8
1
  6
CONTINUOUS
 62
4
 10
7.3115934E+001
 20
1.0604095E+002
 11
7.3115934E+001
 21
6.8802492E+001
  0
SOLID
  8
1
  6
CONTINUOUS
 62
0
 10
1.1831588E+002
 20
7.0302492E+001
 11
1.1531588E+002
 21
7.0802496E+001
 12
1.1531588E+002
 22
6.9802488E+001
 13
1.1531588E+002
 23
6.9802488E+001
  0
SOLID
  8
1
  6
CONTINUOUS
 62
0
 10
7.3115934E+001
 20
7.0302492E+001
 11
7.6115934E+001
 21
6.9802488E+001
 12
7.6115934E+001
 22
7.0802496E+001
 13
7.6115934E+001
 23
7.0802496E+001
  0
LINE
  8
1
  6
CONTINUOUS
 62
4
 10
1.1831588E+002
 20
7.0302492E+001
 11
9.4775484E+001
 21
7.0302492E+001
  0
LINE
  8
1
  6
CONTINUOUS
 62
4
 10
7.3115934E+001
 20
7.0302492E+001
 11
9.4775484E+001
 21
7.0302492E+001
  0
TEXT
  8
1
  6
CONTINUOUS
 62
4
 10
9.2375484E+001
 20
7.1803492E+001
 40
3.0
  1
45
 41
8.0E-001
 50
3.6E+002
 51
1.0
  0
ENDBLK
  0
BLOCK
  2
*D845
  3
*D
 10
0.0
 20
0.0
 70
65
  0
LINE
  8
1
  6
CONTINUOUS
 62
4
 10
1.2446598E+002
 20
9.3041152E+001
 11
1.2446598E+002
 21
1.5380249E+002
  0
LINE
  8
1
  6
CONTINUOUS
 62
4
 10
6.6965954E+001
 20
1.2804119E+002
 11
6.6965954E+001
 21
1.5380249E+002
  0
SOLID
  8
1
  6
CONTINUOUS
 62
0
 10
1.2446598E+002
 20
1.5230249E+002
 11
1.2146598E+002
 21
1.528025E+002
 12
1.2146598E+002
 22
1.5180249E+002
 13
1.2146598E+002
 23
1.5180249E+002
  0
SOLID
  8
1
  6
CONTINUOUS
 62
0
 10
6.6965954E+001
 20
1.5230249E+002
 11
6.9965954E+001
 21
1.5180249E+002
 12
6.9965954E+001
 22
1.528025E+002
 13
6.9965954E+001
 23
1.528025E+002
  0
LINE
  8
1
  6
CONTINUOUS
 62
4
 10
1.2446598E+002
 20
1.5230249E+002
 11
9.4775484E+001
 21
1.5230249E+002
  0
LINE
  8
1
  6
CONTINUOUS
 62
4
 10
6.6965954E+001
 20
1.5230249E+002
 11
9.4775484E+001
 21
1.5230249E+002
  0
ENDBLK
  0
BLOCK
  2
*D846
  3
*D
 10
0.0
 20
0.0
 70
65
  0
LINE
  8
1
  6
CONTINUOUS
 62
4
 10
7.4615944E+001
 20
1.3099119E+002
 11
7.4615944E+001
 21
1.3780249E+002
  0
LINE
  8
1
  6
CONTINUOUS
 62
4
 10
1.1681588E+002
 20
1.3044119E+002
 11
1.1681588E+002
 21
1.3780249E+002
  0
SOLID
  8
1
  6
CONTINUOUS
 62
0
 10
7.4615944E+001
 20
1.3630249E+002
 11
7.7615944E+001
 21
1.3580249E+002
 12
7.7615944E+001
 22
1.368025E+002
 13
7.7615944E+001
 23
1.368025E+002
  0
SOLID
  8
1
  6
CONTINUOUS
 62
0
 10
1.1681588E+002
 20
1.3630249E+002
 11
1.1381588E+002
 21
1.368025E+002
 12
1.1381588E+002
 22
1.3580249E+002
 13
1.1381588E+002
 23
1.3580249E+002
  0
LINE
  8
1
  6
CONTINUOUS
 62
4
 10
7.4615944E+001
 20
1.3630249E+002
 11
9.4775484E+001
 21
1.3630249E+002
  0
LINE
  8
1
  6
CONTINUOUS
 62
4
 10
1.1681588E+002
 20
1.3630249E+002
 11
9.4775484E+001
 21
1.3630249E+002
  0
TEXT
  8
1
  6
CONTINUOUS
 62
4
 10
9.2375484E+001
 20
1.3780349E+002
 40
3.0
  1
42
 41
8.0E-001
 51
1.0
  0
ENDBLK
  0
BLOCK
  2
*D847
  3
*D
 10
0.0
 20
0.0
 70
65
  0
LINE
  8
1
  6
CONTINUOUS
 62
4
 10
7.0715954E+001
 20
1.3277119E+002
 11
7.0715954E+001
 21
1.4580249E+002
  0
LINE
  8
1
  6
CONTINUOUS
 62
4
 10
1.2071598E+002
 20
9.8172762E+001
 11
1.2071598E+002
 21
1.4580249E+002
  0
SOLID
  8
1
  6
CONTINUOUS
 62
0
 10
7.0715954E+001
 20
1.4430249E+002
 11
7.3715954E+001
 21
1.4380249E+002
 12
7.3715954E+001
 22
1.448025E+002
 13
7.3715954E+001
 23
1.448025E+002
  0
SOLID
  8
1
  6
CONTINUOUS
 62
0
 10
1.2071598E+002
 20
1.4430249E+002
 11
1.1771598E+002
 21
1.448025E+002
 12
1.1771598E+002
 22
1.4380249E+002
 13
1.1771598E+002
 23
1.4380249E+002
  0
LINE
  8
1
  6
CONTINUOUS
 62
4
 10
7.0715954E+001
 20
1.4430249E+002
 11
9.4775484E+001
 21
1.4430249E+002
  0
LINE
  8
1
  6
CONTINUOUS
 62
4
 10
1.2071598E+002
 20
1.4430249E+002
 11
9.4775484E+001
 21
1.4430249E+002
  0
TEXT
  8
1
  6
CONTINUOUS
 62
4
 10
9.2375484E+001
 20
1.4580349E+002
 40
3.0
  1
50
 41
8.0E-001
 51
1.0
  0
ENDBLK
  0
BLOCK
  2
*D849
  3
*D
 10
0.0
 20
0.0
 70
65
  0
LINE
  8
1
  6
CONTINUOUS
 62
4
 10
7.0715854E+001
 20
1.3029109E+002
 11
6.0276484E+001
 21
1.3029109E+002
  0
LINE
  8
1
  6
CONTINUOUS
 62
4
 10
7.0715854E+001
 20
1.2579109E+002
 11
6.0276484E+001
 21
1.2579109E+002
  0
SOLID
  8
1
  6
CONTINUOUS
 62
0
 10
6.1776484E+001
 20
1.3029109E+002
 11
6.2276487E+001
 21
1.3329109E+002
 12
6.127648E+001
 22
1.3329109E+002
 13
6.127648E+001
 23
1.3329109E+002
  0
SOLID
  8
1
  6
CONTINUOUS
 62
0
 10
6.1776484E+001
 20
1.2579109E+002
 11
6.127648E+001
 21
1.2279109E+002
 12
6.2276487E+001
 22
1.2279109E+002
 13
6.2276487E+001
 23
1.2279109E+002
  0
LINE
  8
1
  6
CONTINUOUS
 62
4
 10
6.1776484E+001
 20
1.3029109E+002
 11
6.1776484E+001
 21
1.4401777E+002
  0
LINE
  8
1
  6
CONTINUOUS
 62
4
 10
6.1776484E+001
 20
1.1979109E+002
 11
6.1776484E+001
 21
1.3029109E+002
  0
ENDBLK
  0
BLOCK
  2
*D855
  3
*D
 10
0.0
 20
0.0
 70
65
  0
LINE
  8
1
  6
CONTINUOUS
 62
4
 10
1.2396608E+002
 20
1.7687199E+002
 11
1.3927648E+002
 21
1.7687199E+002
  0
LINE
  8
1
  6
CONTINUOUS
 62
4
 10
1.2446608E+002
 20
1.7237199E+002
 11
1.3927648E+002
 21
1.7237199E+002
  0
SOLID
  8
1
  6
CONTINUOUS
 62
0
 10
1.3777648E+002
 20
1.7687199E+002
 11
1.3827649E+002
 21
1.7987199E+002
 12
1.3727648E+002
 22
1.7987199E+002
 13
1.3727648E+002
 23
1.7987199E+002
  0
SOLID
  8
1
  6
CONTINUOUS
 62
0
 10
1.3777648E+002
 20
1.7237199E+002
 11
1.3727648E+002
 21
1.6937199E+002
 12
1.3827649E+002
 22
1.6937199E+002
 13
1.3827649E+002
 23
1.6937199E+002
  0
LINE
  8
1
  6
CONTINUOUS
 62
4
 10
1.3777648E+002
 20
1.7687199E+002
 11
1.3777648E+002
 21
1.9001777E+002
  0
LINE
  8
1
  6
CONTINUOUS
 62
4
 10
1.3777648E+002
 20
1.6637199E+002
 11
1.3777648E+002
 21
1.7687199E+002
  0
ENDBLK
  0
BLOCK
  2
*D856
  3
*D
 10
0.0
 20
0.0
 70
65
  0
LINE
  8
1
  6
CONTINUOUS
 62
4
 10
8.5665844E+001
 20
2.3457199E+002
 11
4.4349122E+001
 21
2.3457199E+002
  0
LINE
  8
1
  6
CONTINUOUS
 62
4
 10
7.8215864E+001
 20
1.7537199E+002
 11
4.4349122E+001
 21
1.7537199E+002
  0
SOLID
  8
1
  6
CONTINUOUS
 62
0
 10
4.5849122E+001
 20
2.3457199E+002
 11
4.5349118E+001
 21
2.3157199E+002
 12
4.6349126E+001
 22
2.3157199E+002
 13
4.6349126E+001
 23
2.3157199E+002
  0
SOLID
  8
1
  6
CONTINUOUS
 62
0
 10
4.5849122E+001
 20
1.7537199E+002
 11
4.6349126E+001
 21
1.7837199E+002
 12
4.5349118E+001
 22
1.7837199E+002
 13
4.5349118E+001
 23
1.7837199E+002
  0
LINE
  8
1
  6
CONTINUOUS
 62
4
 10
4.5849122E+001
 20
2.3457199E+002
 11
4.5849122E+001
 21
2.0430218E+002
  0
LINE
  8
1
  6
CONTINUOUS
 62
4
 10
4.5849122E+001
 20
1.7537199E+002
 11
4.5849122E+001
 21
2.0430218E+002
  0
TEXT
  8
1
  6
CONTINUOUS
 62
4
 10
4.4348122E+001
 20
2.0190218E+002
 40
3.0
  1
59
 41
8.0E-001
 50
9.0E+001
 51
1.0
  0
ENDBLK
  0
BLOCK
  2
*D868
  3
*D
 10
0.0
 20
0.0
 70
65
  0
LINE
  8
1
  6
CONTINUOUS
 62
4
 10
7.8215864E+001
 20
1.7537199E+002
 11
6.0276484E+001
 21
1.7537199E+002
  0
LINE
  8
1
  6
CONTINUOUS
 62
4
 10
7.8015834E+001
 20
2.0897199E+002
 11
6.0276484E+001
 21
2.0897199E+002
  0
SOLID
  8
1
  6
CONTINUOUS
 62
0
 10
6.1776484E+001
 20
1.7537199E+002
 11
6.2276487E+001
 21
1.7837199E+002
 12
6.127648E+001
 22
1.7837199E+002
 13
6.127648E+001
 23
1.7837199E+002
  0
SOLID
  8
1
  6
CONTINUOUS
 62
0
 10
6.1776484E+001
 20
2.0897199E+002
 11
6.127648E+001
 21
2.0597199E+002
 12
6.2276487E+001
 22
2.0597199E+002
 13
6.2276487E+001
 23
2.0597199E+002
  0
LINE
  8
1
  6
CONTINUOUS
 62
4
 10
6.1776484E+001
 20
1.7537199E+002
 11
6.1776484E+001
 21
1.9330349E+002
  0
LINE
  8
1
  6
CONTINUOUS
 62
4
 10
6.1776484E+001
 20
2.0897199E+002
 11
6.1776484E+001
 21
1.9330349E+002
  0
ENDBLK
  0
BLOCK
  2
*E878
  3
*E878
 10
1.1491598E+002
 20
2.1807199E+002
 70
65
  0
ARC
  8
1
  6
CONTINUOUS
 62
3
 10
1.1491598E+002
 20
2.1807199E+002
 40
8.0E-001
 50
9.0E+001
 51
1.7999999E+002
  0
ENDBLK
  0
BLOCK
  2
*E891
  3
*E891
 10
1.2396588E+002
 20
1.7637199E+002
 70
65
  0
ARC
  8
1
  6
CONTINUOUS
 62
3
 10
1.2396588E+002
 20
1.7637199E+002
 40
5.0E-001
 50
9.0E+001
 51
1.7999999E+002
  0
ENDBLK
  0
BLOCK
  2
*D1056
  3
*D
 10
0.0
 20
0.0
 70
65
  0
LINE
  8
1
  6
CONTINUOUS
 62
4
 10
7.1895834E+001
 20
1.1714104E+002
 11
5.2276484E+001
 21
1.1714104E+002
  0
LINE
  8
1
  6
CONTINUOUS
 62
4
 10
7.9545844E+001
 20
1.0804107E+002
 11
5.2276484E+001
 21
1.0804107E+002
  0
SOLID
  8
1
  6
CONTINUOUS
 62
0
 10
5.3776484E+001
 20
1.1714104E+002
 11
5.327648E+001
 21
1.1414104E+002
 12
5.4276487E+001
 22
1.1414104E+002
 13
5.4276487E+001
 23
1.1414104E+002
  0
SOLID
  8
1
  6
CONTINUOUS
 62
0
 10
5.3776484E+001
 20
1.0804107E+002
 11
5.4276487E+001
 21
1.1104107E+002
 12
5.327648E+001
 22
1.1104107E+002
 13
5.327648E+001
 23
1.1104107E+002
  0
LINE
  8
1
  6
CONTINUOUS
 62
4
 10
5.3776484E+001
 20
1.1714104E+002
 11
5.3776484E+001
 21
1.1330349E+002
  0
LINE
  8
1
  6
CONTINUOUS
 62
4
 10
5.3776484E+001
 20
1.0804107E+002
 11
5.3776484E+001
 21
1.1330349E+002
  0
ENDBLK
  0
BLOCK
  2
*D1094
  3
*D
 10
0.0
 20
0.0
 70
65
  0
LINE
  8
1
  6
CONTINUOUS
 62
4
 10
7.5639194E+001
 20
1.2804109E+002
 11
1.3073885E+002
 21
1.2804109E+002
  0
LINE
  8
1
  6
CONTINUOUS
 62
4
 10
1.3751365E+002
 20
1.2804109E+002
 11
1.6127648E+002
 21
1.2804109E+002
  0
LINE
  8
1
  6
CONTINUOUS
 62
4
 10
1.2512998E+002
 20
8.3041062E+001
 11
1.6127648E+002
 21
8.3041062E+001
  0
SOLID
  8
1
  6
CONTINUOUS
 62
0
 10
1.5977648E+002
 20
1.2804109E+002
 11
1.5927648E+002
 21
1.2504109E+002
 12
1.6027649E+002
 22
1.2504109E+002
 13
1.6027649E+002
 23
1.2504109E+002
  0
SOLID
  8
1
  6
CONTINUOUS
 62
0
 10
1.5977648E+002
 20
8.3041062E+001
 11
1.6027649E+002
 21
8.6041062E+001
 12
1.5927648E+002
 22
8.6041062E+001
 13
1.5927648E+002
 23
8.6041062E+001
  0
LINE
  8
1
  6
CONTINUOUS
 62
4
 10
1.5977648E+002
 20
1.2804109E+002
 11
1.5977648E+002
 21
1.0330349E+002
  0
LINE
  8
1
  6
CONTINUOUS
 62
4
 10
1.5977648E+002
 20
8.3041062E+001
 11
1.5977648E+002
 21
1.0330349E+002
  0
TEXT
  8
1
  6
CONTINUOUS
 62
4
 10
1.5827548E+002
 20
1.0090349E+002
 40
3.0
  1
45
 41
8.0E-001
 50
9.0E+001
 51
1.0
  0
ENDBLK
  0
BLOCK
  2
*D1110
  3
*D
 10
0.0
 20
0.0
 70
65
  0
LINE
  8
1
  6
CONTINUOUS
 62
4
 10
7.9895834E+001
 20
1.2624109E+002
 11
5.2276484E+001
 21
1.2624109E+002
  0
LINE
  8
1
  6
CONTINUOUS
 62
4
 10
7.9895834E+001
 20
1.1714104E+002
 11
5.2276484E+001
 21
1.1714104E+002
  0
SOLID
  8
1
  6
CONTINUOUS
 62
0
 10
5.3776484E+001
 20
1.2624109E+002
 11
5.327648E+001
 21
1.2324109E+002
 12
5.4276487E+001
 22
1.2324109E+002
 13
5.4276487E+001
 23
1.2324109E+002
  0
SOLID
  8
1
  6
CONTINUOUS
 62
0
 10
5.3776484E+001
 20
1.1714104E+002
 11
5.4276487E+001
 21
1.2014104E+002
 12
5.327648E+001
 22
1.2014104E+002
 13
5.327648E+001
 23
1.2014104E+002
  0
LINE
  8
1
  6
CONTINUOUS
 62
4
 10
5.3776484E+001
 20
1.2624109E+002
 11
5.3776484E+001
 21
1.2130349E+002
  0
LINE
  8
1
  6
CONTINUOUS
 62
4
 10
5.3776484E+001
 20
1.1714104E+002
 11
5.3776484E+001
 21
1.2130349E+002
  0
ENDBLK
  0
BLOCK
  2
*D1122
  3
*D
 10
0.0
 20
0.0
 70
65
  0
LINE
  8
1
  6
CONTINUOUS
 62
4
 10
7.9895834E+001
 20
9.8941052E+001
 11
5.2276484E+001
 21
9.8941052E+001
  0
LINE
  8
1
  6
CONTINUOUS
 62
4
 10
7.9895834E+001
 20
8.9841042E+001
 11
5.2276484E+001
 21
8.9841042E+001
  0
SOLID
  8
1
  6
CONTINUOUS
 62
0
 10
5.3776484E+001
 20
9.8941052E+001
 11
5.327648E+001
 21
9.5941052E+001
 12
5.4276487E+001
 22
9.5941052E+001
 13
5.4276487E+001
 23
9.5941052E+001
  0
SOLID
  8
1
  6
CONTINUOUS
 62
0
 10
5.3776484E+001
 20
8.9841042E+001
 11
5.4276487E+001
 21
9.2841042E+001
 12
5.327648E+001
 22
9.2841042E+001
 13
5.327648E+001
 23
9.2841042E+001
  0
LINE
  8
1
  6
CONTINUOUS
 62
4
 10
5.3776484E+001
 20
9.8941052E+001
 11
5.3776484E+001
 21
9.5601702E+001
  0
LINE
  8
1
  6
CONTINUOUS
 62
4
 10
5.3776484E+001
 20
8.9841042E+001
 11
5.3776484E+001
 21
9.5601702E+001
  0
ENDBLK
  0
ENDSEC
  0
SECTION
  2
ENTITIES
  0
TEXT
  8
1
  6
CONTINUOUS
 62
4
 10
2.5729455E+001
 20
2.7746806E+001
 40
2.5
  1
 -
 41
7.6E-001
  0
TEXT
  8
1
  6
CONTINUOUS
 62
4
 10
3.2843975E+001
 20
2.7748686E+001
 40
2.2
  1
L12 049
 41
7.0E-001
  0
INSERT
  2
RAHMENA4
  8
1
 10
0.0
 20
0.0
  0
POLYLINE
  8
1
  6
CONTINUOUS
 62
3
 66
1
 40
5.0E-001
 41
5.0E-001
 70
0
  0
VERTEX
  8
1
 42
4.1421351E-001
 10
6.7465964E+001
 20
1.7687199E+002
 70
0
  0
VERTEX
  8
1
 42
0.0
 10
6.6965964E+001
 20
1.7637199E+002
 70
0
  0
SEQEND
  0
POLYLINE
  8
1
  6
CONTINUOUS
 62
3
 66
1
 40
5.0E-001
 41
5.0E-001
 70
0
  0
VERTEX
  8
1
 42
4.1421356E-001
 10
7.5615964E+001
 20
1.8387199E+002
 70
0
  0
VERTEX
  8
1
 42
0.0
 10
7.6115964E+001
 20
1.8337199E+002
 70
0
  0
SEQEND
  0
POLYLINE
  8
1
  6
CONTINUOUS
 62
3
 66
1
 40
5.0E-001
 41
5.0E-001
 70
0
  0
VERTEX
  8
1
 42
4.5162701E-002
 10
8.2199568E+001
 20
1.7519248E+002
 70
0
  0
VERTEX
  8
1
 42
0.0
 10
8.3215949E+001
 20
1.7537202E+002
 70
0
  0
SEQEND
  0
POLYLINE
  8
1
  6
CONTINUOUS
 62
3
 66
1
 40
5.0E-001
 41
5.0E-001
 70
0
  0
VERTEX
  8
1
 42
5.5490383E-002
 10
8.0015975E+001
 20
1.7407982E+002
 70
0
  0
VERTEX
  8
1
 42
0.0
 10
7.9546211E+001
 20
1.7437197E+002
 70
0
  0
SEQEND
  0
POLYLINE
  8
1
  6
CONTINUOUS
 62
3
 66
1
 40
5.0E-001
 41
5.0E-001
 70
0
  0
VERTEX
  8
1
 42
4.1421356E-001
 10
1.1531598E+002
 20
1.8337199E+002
 70
0
  0
VERTEX
  8
1
 42
0.0
 10
1.1581598E+002
 20
1.8387199E+002
 70
0
  0
SEQEND
  0
POLYLINE
  8
1
  6
CONTINUOUS
 62
3
 66
1
 40
5.0E-001
 41
5.0E-001
 70
0
  0
VERTEX
  8
1
 42
0.0
 10
1.1361598E+002
 20
1.7447029E+002
 70
0
  0
VERTEX
  8
1
 42
0.0
 10
1.1417818E+002
 20
1.7237199E+002
 70
0
  0
SEQEND
  0
INSERT
  2
*E413
  8
1
 10
7.4615954E+001
 20
1.7437199E+002
 41
1.0
 42
1.0
 43
1.0
 50
2.7E+002
 62
3
  0
POLYLINE
  8
1
  6
CONTINUOUS
 62
3
 66
1
 40
5.0E-001
 41
5.0E-001
 70
0
  0
VERTEX
  8
1
 42
0.0
 10
1.0051598E+002
 20
2.4467199E+002
 70
0
  0
VERTEX
  8
1
 42
0.0
 10
1.0051598E+002
 20
2.1887199E+002
 70
0
  0
SEQEND
  0
POLYLINE
  8
1
  6
CONTINUOUS
 62
3
 66
1
 40
5.0E-001
 41
5.0E-001
 70
0
  0
VERTEX
  8
1
 42
0.0
 10
1.1681598E+002
 20
1.9347199E+002
 70
0
  0
VERTEX
  8
1
 42
0.0
 10
1.1681598E+002
 20
1.7687199E+002
 70
0
  0
SEQEND
  0
POLYLINE
  8
1
  6
CONTINUOUS
 62
3
 66
1
 40
5.0E-001
 41
5.0E-001
 70
0
  0
VERTEX
  8
1
 42
0.0
 10
1.1581598E+002
 20
1.8387199E+002
 70
0
  0
VERTEX
  8
1
 42
0.0
 10
1.1581598E+002
 20
1.9347199E+002
 70
0
  0
SEQEND
  0
POLYLINE
  8
1
  6
CONTINUOUS
 62
3
 66
1
 40
5.0E-001
 41
5.0E-001
 70
0
  0
VERTEX
  8
1
 42
0.0
 10
7.5615964E+001
 20
1.9347199E+002
 70
0
  0
VERTEX
  8
1
 42
0.0
 10
7.5615964E+001
 20
1.8387199E+002
 70
0
  0
SEQEND
  0
POLYLINE
  8
1
  6
CONTINUOUS
 62
3
 66
1
 40
5.0E-001
 41
5.0E-001
 70
0
  0
VERTEX
  8
1
 42
0.0
 10
7.4615954E+001
 20
1.9347199E+002
 70
0
  0
VERTEX
  8
1
 42
0.0
 10
7.4615954E+001
 20
1.7237199E+002
 70
0
  0
SEQEND
  0
LINE
  8
1
  6
CENTERLINE
 62
1
 10
7.0715964E+001
 20
1.7803259E+002
 11
7.0715964E+001
 21
1.7156419E+002
  0
POLYLINE
  8
1
  6
CONTINUOUS
 62
3
 66
1
 40
5.0E-001
 41
5.0E-001
 70
0
  0
VERTEX
  8
1
 42
0.0
 10
6.6965964E+001
 20
1.7637199E+002
 70
0
  0
VERTEX
  8
1
 42
0.0
 10
6.6965964E+001
 20
1.7237199E+002
 70
0
  0
SEQEND
  0
POLYLINE
  8
1
  6
CONTINUOUS
 62
3
 66
1
 40
5.0E-001
 41
5.0E-001
 70
0
  0
VERTEX
  8
1
 42
0.0
 10
7.4615954E+001
 20
1.9347199E+002
 70
0
  0
VERTEX
  8
1
 42
0.0
 10
7.5615964E+001
 20
1.9347199E+002
 70
0
  0
SEQEND
  0
POLYLINE
  8
1
  6
CONTINUOUS
 62
3
 66
1
 40
5.0E-001
 41
5.0E-001
 70
0
  0
VERTEX
  8
1
 42
0.0
 10
1.1581598E+002
 20
1.9347199E+002
 70
0
  0
VERTEX
  8
1
 42
0.0
 10
1.1681598E+002
 20
1.9347199E+002
 70
0
  0
SEQEND
  0
POLYLINE
  8
1
  6
CONTINUOUS
 62
3
 66
1
 40
5.0E-001
 41
5.0E-001
 70
0
  0
VERTEX
  8
1
 42
0.0
 10
1.1390458E+002
 20
1.7237199E+002
 70
0
  0
VERTEX
  8
1
 42
0.0
 10
1.1681598E+002
 20
1.7237199E+002
 70
0
  0
SEQEND
  0
POLYLINE
  8
1
  6
CONTINUOUS
 62
3
 66
1
 40
5.0E-001
 41
5.0E-001
 70
0
  0
VERTEX
  8
1
 42
0.0
 10
6.7465964E+001
 20
1.7687199E+002
 70
0
  0
VERTEX
  8
1
 42
0.0
 10
7.4615954E+001
 20
1.7687199E+002
 70
0
  0
SEQEND
  0
POLYLINE
  8
1
  6
CONTINUOUS
 62
3
 66
1
 40
5.0E-001
 41
5.0E-001
 70
0
  0
VERTEX
  8
1
 42
0.0
 10
7.3615954E+001
 20
1.7437199E+002
 70
0
  0
VERTEX
  8
1
 42
0.0
 10
7.3615954E+001
 20
1.7237199E+002
 70
0
  0
SEQEND
  0
POLYLINE
  8
1
  6
CONTINUOUS
 62
3
 66
1
 40
5.0E-001
 41
5.0E-001
 70
0
  0
VERTEX
  8
1
 42
0.0
 10
6.6965964E+001
 20
1.7237199E+002
 70
0
  0
VERTEX
  8
1
 42
0.0
 10
7.3615954E+001
 20
1.7237199E+002
 70
0
  0
SEQEND
  0
ARC
  8
1
  6
PHANTOM
 62
4
 10
1.0771598E+002
 20
1.6937199E+002
 40
5.0E-001
 50
2.7E+002
 51
3.6E+002
  0
ARC
  8
1
  6
PHANTOM
 62
4
 10
1.0971598E+002
 20
1.7387199E+002
 40
5.0E-001
 50
9.0E+001
 51
1.8E+002
  0
LINE
  8
1
  6
PHANTOM
 62
4
 10
8.1415934E+001
 20
1.7537199E+002
 11
7.8215934E+001
 21
1.7537199E+002
  0
ARC
  8
1
  6
PHANTOM
 62
4
 10
1.0741598E+002
 20
1.6967199E+002
 40
1.8
 50
2.7E+002
 51
3.6E+002
  0
LINE
  8
1
  6
PHANTOM
 62
4
 10
1.1001598E+002
 20
1.7537199E+002
 11
1.1321598E+002
 21
1.7537199E+002
  0
POLYLINE
  8
1
  6
CONTINUOUS
 62
3
 66
1
 40
5.0E-001
 41
5.0E-001
 70
0
  0
VERTEX
  8
1
 42
0.0
 10
8.0015964E+001
 20
1.7407989E+002
 70
0
  0
VERTEX
  8
1
 42
0.0
 10
8.0015964E+001
 20
1.7237199E+002
 70
0
  0
SEQEND
  0
DIMENSION
  8
1
  6
CONTINUOUS
 62
4
  2
*D433
  3
DSTYLE1
 10
1.4377648E+002
 20
9.3041052E+001
 11
1.4077548E+002
 21
1.1130349E+002
 70
128
 13
7.5639194E+001
 23
1.2804109E+002
 14
1.2529538E+002
 24
9.3041052E+001
 40
1.25E-001
 50
9.0E+001
  0
POLYLINE
  8
1
  6
CONTINUOUS
 62
3
 66
1
 40
5.0E-001
 41
5.0E-001
 70
0
  0
VERTEX
  8
1
 42
0.0
 10
7.4615954E+001
 20
1.7237199E+002
 70
0
  0
VERTEX
  8
1
 42
0.0
 10
8.0015964E+001
 20
1.7237199E+002
 70
0
  0
SEQEND
  0
POLYLINE
  8
1
  6
CONTINUOUS
 62
3
 66
1
 40
5.0E-001
 41
5.0E-001
 70
0
  0
VERTEX
  8
1
 42
1.6286034E-001
 10
1.1360368E+002
 20
1.7247267E+002
 70
0
  0
VERTEX
  8
1
 42
0.0
 10
1.1390458E+002
 20
1.7237199E+002
 70
0
  0
SEQEND
  0
POLYLINE
  8
1
  6
CONTINUOUS
 62
3
 66
1
 40
5.0E-001
 41
5.0E-001
 70
0
  0
VERTEX
  8
1
 42
0.0
 10
1.1361598E+002
 20
1.7447029E+002
 70
0
  0
VERTEX
  8
1
 42
0.0
 10
1.1361598E+002
 20
1.7537199E+002
 70
0
  0
SEQEND
  0
LINE
  8
1
  6
PHANTOM
 62
4
 10
1.1321598E+002
 20
1.7537009E+002
 11
1.1321598E+002
 21
1.7447029E+002
  0
POLYLINE
  8
1
  6
CONTINUOUS
 62
3
 66
1
 40
5.0E-001
 41
5.0E-001
 70
0
  0
VERTEX
  8
1
 42
0.0
 10
7.8215964E+001
 20
1.7537199E+002
 70
0
  0
VERTEX
  8
1
 42
0.0
 10
7.8215964E+001
 20
1.7477199E+002
 70
0
  0
SEQEND
  0
POLYLINE
  8
1
  6
CONTINUOUS
 62
3
 66
1
 40
5.0E-001
 41
5.0E-001
 70
0
  0
VERTEX
  8
1
 42
0.0
 10
1.1282288E+002
 20
1.7437199E+002
 70
0
  0
VERTEX
  8
1
 42
0.0
 10
1.1171598E+002
 20
1.7409519E+002
 70
0
  0
SEQEND
  0
POLYLINE
  8
1
  6
CONTINUOUS
 62
3
 66
1
 40
5.0E-001
 41
5.0E-001
 70
0
  0
VERTEX
  8
1
 42
0.0
 10
1.1171598E+002
 20
1.7537199E+002
 70
0
  0
VERTEX
  8
1
 42
0.0
 10
1.1171598E+002
 20
1.7536909E+002
 70
0
  0
SEQEND
  0
POLYLINE
  8
1
  6
CONTINUOUS
 62
3
 66
1
 40
5.0E-001
 41
5.0E-001
 70
0
  0
VERTEX
  8
1
 42
0.0
 10
7.8215964E+001
 20
1.7537199E+002
 70
0
  0
VERTEX
  8
1
 42
0.0
 10
1.1361598E+002
 20
1.7537199E+002
 70
0
  0
SEQEND
  0
ARC
  8
1
  6
PHANTOM
 62
4
 10
8.1715934E+001
 20
1.7387199E+002
 40
5.0E-001
 50
0.0
 51
9.0E+001
  0
ARC
  8
1
  6
PHANTOM
 62
4
 10
1.1001598E+002
 20
1.7357199E+002
 40
1.8
 50
9.0E+001
 51
1.8E+002
  0
POLYLINE
  8
1
  6
CONTINUOUS
 62
3
 66
1
 40
5.0E-001
 41
5.0E-001
 70
0
  0
VERTEX
  8
1
 42
0.0
 10
7.4615954E+001
 20
1.7537199E+002
 70
0
  0
VERTEX
  8
1
 42
0.0
 10
7.0715964E+001
 20
1.7537199E+002
 70
0
  0
SEQEND
  0
POLYLINE
  8
1
  6
CONTINUOUS
 62
3
 66
1
 40
5.0E-001
 41
5.0E-001
 70
0
  0
VERTEX
  8
1
 42
0.0
 10
7.4615954E+001
 20
1.8816869E+002
 70
0
  0
VERTEX
  8
1
 42
0.0
 10
7.4615964E+001
 20
1.8816869E+002
 70
0
  0
SEQEND
  0
POLYLINE
  8
1
  6
CONTINUOUS
 62
3
 66
1
 40
5.0E-001
 41
5.0E-001
 70
0
  0
VERTEX
  8
1
 42
0.0
 10
7.4615954E+001
 20
1.8463319E+002
 70
0
  0
VERTEX
  8
1
 42
0.0
 10
7.4615964E+001
 20
1.8463319E+002
 70
0
  0
SEQEND
  0
POLYLINE
  8
1
  6
CONTINUOUS
 62
3
 66
1
 40
5.0E-001
 41
5.0E-001
 70
0
  0
VERTEX
  8
1
 42
0.0
 10
7.4615954E+001
 20
1.8816869E+002
 70
0
  0
VERTEX
  8
1
 42
0.0
 10
7.4615964E+001
 20
1.8816869E+002
 70
0
  0
SEQEND
  0
POLYLINE
  8
1
  6
CONTINUOUS
 62
3
 66
1
 40
5.0E-001
 41
5.0E-001
 70
0
  0
VERTEX
  8
1
 42
0.0
 10
7.9276624E+001
 20
1.7537199E+002
 70
0
  0
VERTEX
  8
1
 42
0.0
 10
7.9276644E+001
 20
1.7537199E+002
 70
0
  0
SEQEND
  0
POLYLINE
  8
1
  6
CONTINUOUS
 62
3
 66
1
 40
5.0E-001
 41
5.0E-001
 70
0
  0
VERTEX
  8
1
 42
0.0
 10
1.1171598E+002
 20
1.7389519E+002
 70
0
  0
VERTEX
  8
1
 42
0.0
 10
1.1360368E+002
 20
1.7247269E+002
 70
0
  0
SEQEND
  0
LINE
  8
1
  6
PHANTOM
 62
4
 10
1.1321598E+002
 20
1.7537009E+002
 11
1.1321598E+002
 21
1.7537009E+002
  0
POLYLINE
  8
1
  6
CONTINUOUS
 62
3
 66
1
 40
5.0E-001
 41
5.0E-001
 70
0
  0
VERTEX
  8
1
 42
0.0
 10
1.1681598E+002
 20
1.7537199E+002
 70
0
  0
VERTEX
  8
1
 42
0.0
 10
1.1681598E+002
 20
1.7237199E+002
 70
0
  0
SEQEND
  0
POLYLINE
  8
1
  6
CONTINUOUS
 62
3
 66
1
 40
5.0E-001
 41
5.0E-001
 70
0
  0
VERTEX
  8
1
 42
0.0
 10
1.1171598E+002
 20
1.7409519E+002
 70
0
  0
VERTEX
  8
1
 42
0.0
 10
1.1171598E+002
 20
1.7389519E+002
 70
0
  0
SEQEND
  0
INSERT
  2
*E453
  8
1
 10
1.1601598E+002
 20
1.3099109E+002
 41
1.0
 42
1.0
 43
1.0
 50
2.7E+002
 62
3
  0
INSERT
  2
*E454
  8
1
 10
1.1601598E+002
 20
8.5091072E+001
 41
1.0
 42
1.0
 43
1.0
 50
2.7E+002
 62
3
  0
POLYLINE
  8
1
  6
CONTINUOUS
 62
3
 66
1
 40
5.0E-001
 41
5.0E-001
 70
0
  0
VERTEX
  8
1
 42
4.1421356E-001
 10
7.4615944E+001
 20
8.5091072E+001
 70
0
  0
VERTEX
  8
1
 42
0.0
 10
7.5415944E+001
 20
8.4291072E+001
 70
0
  0
SEQEND
  0
INSERT
  2
*E456
  8
1
 10
7.5415944E+001
 20
1.3099109E+002
 41
1.0
 42
1.0
 43
1.0
 50
2.7E+002
 62
3
  0
INSERT
  2
*E457
  8
1
 10
7.0715954E+001
 20
1.2804109E+002
 41
2.25
 42
2.25
 43
2.25
 50
2.7E+002
 62
3
  0
INSERT
  2
*E458
  8
1
 10
1.2071598E+002
 20
8.3041062E+001
 41
1.0
 42
1.0
 43
1.0
 50
2.7E+002
 62
3
  0
INSERT
  2
*E459
  8
1
 10
7.0715954E+001
 20
1.2804109E+002
 41
1.0
 42
1.0
 43
1.0
 50
2.7E+002
 62
3
  0
INSERT
  2
*E460
  8
1
 10
1.2071598E+002
 20
9.3041052E+001
 41
1.0
 42
1.0
 43
1.0
 50
2.7E+002
 62
3
  0
INSERT
  2
*E461
  8
1
 10
1.2071598E+002
 20
8.3041062E+001
 41
1.0
 42
1.0
 43
1.0
 50
2.7E+002
 62
3
  0
INSERT
  2
*E462
  8
1
 10
1.2071598E+002
 20
8.8041052E+001
 41
1.0
 42
1.0
 43
1.0
 50
2.7E+002
 62
3
  0
INSERT
  2
*E463
  8
1
 10
1.2071598E+002
 20
9.3041052E+001
 41
1.0
 42
1.0
 43
1.0
 50
2.7E+002
 62
3
  0
POLYLINE
  8
1
  6
CONTINUOUS
 62
3
 66
1
 40
5.0E-001
 41
5.0E-001
 70
0
  0
VERTEX
  8
1
 42
0.0
 10
1.1686598E+002
 20
9.1791052E+001
 70
0
  0
VERTEX
  8
1
 42
0.0
 10
1.1781598E+002
 20
9.1791052E+001
 70
0
  0
SEQEND
  0
LINE
  8
1
  6
PHANTOM
 62
4
 10
8.1715934E+001
 20
1.7437199E+002
 11
7.8215934E+001
 21
1.7437199E+002
  0
POLYLINE
  8
1
  6
CONTINUOUS
 62
3
 66
1
 40
5.0E-001
 41
5.0E-001
 70
0
  0
VERTEX
  8
1
 42
0.0
 10
7.0715954E+001
 20
1.3179109E+002
 70
0
  0
VERTEX
  8
1
 42
0.0
 10
7.5415944E+001
 20
1.3179109E+002
 70
0
  0
SEQEND
  0
POLYLINE
  8
1
  6
CONTINUOUS
 62
3
 66
1
 40
5.0E-001
 41
5.0E-001
 70
0
  0
VERTEX
  8
1
 42
0.0
 10
1.1681598E+002
 20
1.3099109E+002
 70
0
  0
VERTEX
  8
1
 42
0.0
 10
1.1681598E+002
 20
1.2784109E+002
 70
0
  0
SEQEND
  0
POLYLINE
  8
1
  6
CONTINUOUS
 62
3
 66
1
 40
5.0E-001
 41
5.0E-001
 70
0
  0
VERTEX
  8
1
 42
0.0
 10
7.4615944E+001
 20
1.3099109E+002
 70
0
  0
VERTEX
  8
1
 42
0.0
 10
7.4615944E+001
 20
1.2784109E+002
 70
0
  0
SEQEND
  0
LINE
  8
1
  6
CENTERLINE
 62
3
 10
7.0715954E+001
 20
1.3277109E+002
 11
7.0715954E+001
 21
1.2344454E+002
  0
LINE
  8
1
  6
CENTERLINE
 62
1
 10
1.2071598E+002
 20
9.8172662E+001
 11
1.2071598E+002
 21
7.8165762E+001
  0
LINE
  8
1
  6
CENTERLINE
 62
3
 10
7.5639094E+001
 20
1.2804109E+002
 11
6.6312574E+001
 21
1.2804109E+002
  0
LINE
  8
1
  6
CENTERLINE
 62
1
 10
1.2529528E+002
 20
9.3041052E+001
 11
1.1596538E+002
 21
9.3041052E+001
  0
LINE
  8
1
  6
CENTERLINE
 62
1
 10
1.2512988E+002
 20
8.8041052E+001
 11
1.1640508E+002
 21
8.8041052E+001
  0
LINE
  8
1
  6
CENTERLINE
 62
1
 10
1.1685638E+002
 20
8.3041062E+001
 11
1.2512988E+002
 21
8.3041062E+001
  0
POLYLINE
  8
1
  6
CONTINUOUS
 62
3
 66
1
 40
5.0E-001
 41
5.0E-001
 70
0
  0
VERTEX
  8
1
 42
0.0
 10
1.1781598E+002
 20
8.4291062E+001
 70
0
  0
VERTEX
  8
1
 42
0.0
 10
1.1781598E+002
 20
8.0663562E+001
 70
0
  0
SEQEND
  0
POLYLINE
  8
1
  6
CONTINUOUS
 62
3
 66
1
 40
5.0E-001
 41
5.0E-001
 70
0
  0
VERTEX
  8
1
 42
0.0
 10
7.0715954E+001
 20
1.2429105E+002
 70
0
  0
VERTEX
  8
1
 42
0.0
 10
7.4615944E+001
 20
1.2429105E+002
 70
0
  0
SEQEND
  0
POLYLINE
  8
1
  6
CONTINUOUS
 62
3
 66
1
 40
5.0E-001
 41
5.0E-001
 70
0
  0
VERTEX
  8
1
 42
0.0
 10
1.2071598E+002
 20
9.6791052E+001
 70
0
  0
VERTEX
  8
1
 42
0.0
 10
1.1781598E+002
 20
9.6791052E+001
 70
0
  0
SEQEND
  0
POLYLINE
  8
1
  6
CONTINUOUS
 62
3
 66
1
 40
5.0E-001
 41
5.0E-001
 70
0
  0
VERTEX
  8
1
 42
0.0
 10
1.2446598E+002
 20
9.3041052E+001
 70
0
  0
VERTEX
  8
1
 42
0.0
 10
1.2446598E+002
 20
8.3041062E+001
 70
0
  0
SEQEND
  0
POLYLINE
  8
1
  6
CONTINUOUS
 62
3
 66
1
 40
5.0E-001
 41
5.0E-001
 70
0
  0
VERTEX
  8
1
 42
0.0
 10
1.1601598E+002
 20
8.4291062E+001
 70
0
  0
VERTEX
  8
1
 42
0.0
 10
1.1781598E+002
 20
8.4291062E+001
 70
0
  0
SEQEND
  0
POLYLINE
  8
1
  6
CONTINUOUS
 62
3
 66
1
 40
5.0E-001
 41
5.0E-001
 70
0
  0
VERTEX
  8
1
 42
0.0
 10
1.2271598E+002
 20
8.7010282E+001
 70
0
  0
VERTEX
  8
1
 42
0.0
 10
1.2271598E+002
 20
8.4071842E+001
 70
0
  0
SEQEND
  0
POLYLINE
  8
1
  6
CONTINUOUS
 62
3
 66
1
 40
5.0E-001
 41
5.0E-001
 70
0
  0
VERTEX
  8
1
 42
0.0
 10
1.1871598E+002
 20
8.9071832E+001
 70
0
  0
VERTEX
  8
1
 42
0.0
 10
1.1871598E+002
 20
8.2010282E+001
 70
0
  0
SEQEND
  0
POLYLINE
  8
1
  6
CONTINUOUS
 62
3
 66
1
 40
5.0E-001
 41
5.0E-001
 70
0
  0
VERTEX
  8
1
 42
0.0
 10
1.1871598E+002
 20
9.4071832E+001
 70
0
  0
VERTEX
  8
1
 42
0.0
 10
1.1871598E+002
 20
9.2010282E+001
 70
0
  0
SEQEND
  0
POLYLINE
  8
1
  6
CONTINUOUS
 62
3
 66
1
 40
5.0E-001
 41
5.0E-001
 70
0
  0
VERTEX
  8
1
 42
0.0
 10
1.1781598E+002
 20
9.6791052E+001
 70
0
  0
VERTEX
  8
1
 42
0.0
 10
1.1781598E+002
 20
9.1791052E+001
 70
0
  0
SEQEND
  0
POLYLINE
  8
1
  6
CONTINUOUS
 62
3
 66
1
 40
5.0E-001
 41
5.0E-001
 70
0
  0
VERTEX
  8
1
 42
0.0
 10
7.4615944E+001
 20
8.8241072E+001
 70
0
  0
VERTEX
  8
1
 42
0.0
 10
7.4615944E+001
 20
8.5091072E+001
 70
0
  0
SEQEND
  0
POLYLINE
  8
1
  6
CONTINUOUS
 62
3
 66
1
 40
5.0E-001
 41
5.0E-001
 70
0
  0
VERTEX
  8
1
 42
0.0
 10
1.1581598E+002
 20
1.2204105E+002
 70
0
  0
VERTEX
  8
1
 42
0.0
 10
1.1631598E+002
 20
1.2204105E+002
 70
0
  0
SEQEND
  0
POLYLINE
  8
1
  6
CONTINUOUS
 62
3
 66
1
 40
5.0E-001
 41
5.0E-001
 70
0
  0
VERTEX
  8
1
 42
0.0
 10
7.5115964E+001
 20
1.2204105E+002
 70
0
  0
VERTEX
  8
1
 42
0.0
 10
7.5615964E+001
 20
1.2204105E+002
 70
0
  0
SEQEND
  0
POLYLINE
  8
1
  6
CONTINUOUS
 62
3
 66
1
 40
5.0E-001
 41
5.0E-001
 70
0
  0
VERTEX
  8
1
 42
0.0
 10
1.1581598E+002
 20
9.4041052E+001
 70
0
  0
VERTEX
  8
1
 42
0.0
 10
1.1631598E+002
 20
9.4041052E+001
 70
0
  0
SEQEND
  0
POLYLINE
  8
1
  6
CONTINUOUS
 62
3
 66
1
 40
5.0E-001
 41
5.0E-001
 70
0
  0
VERTEX
  8
1
 42
0.0
 10
7.4615944E+001
 20
1.2234106E+002
 70
0
  0
VERTEX
  8
1
 42
0.0
 10
7.4615944E+001
 20
9.3741072E+001
 70
0
  0
SEQEND
  0
POLYLINE
  8
1
  6
CONTINUOUS
 62
3
 66
1
 40
5.0E-001
 41
5.0E-001
 70
0
  0
VERTEX
  8
1
 42
0.0
 10
1.1681598E+002
 20
1.2234106E+002
 70
0
  0
VERTEX
  8
1
 42
0.0
 10
1.1681598E+002
 20
9.3741072E+001
 70
0
  0
SEQEND
  0
POLYLINE
  8
1
  6
CONTINUOUS
 62
3
 66
1
 40
5.0E-001
 41
5.0E-001
 70
0
  0
VERTEX
  8
1
 42
0.0
 10
9.8965984E+001
 20
2.1887199E+002
 70
0
  0
VERTEX
  8
1
 42
0.0
 10
9.8965984E+001
 20
2.2439699E+002
 70
0
  0
SEQEND
  0
POLYLINE
  8
1
  6
CONTINUOUS
 62
3
 66
1
 40
5.0E-001
 41
5.0E-001
 70
0
  0
VERTEX
  8
1
 42
0.0
 10
1.0944098E+002
 20
9.3391112E+001
 70
0
  0
VERTEX
  8
1
 42
0.0
 10
1.0101598E+002
 20
9.3391112E+001
 70
0
  0
SEQEND
  0
POLYLINE
  8
1
  6
CONTINUOUS
 62
3
 66
1
 40
5.0E-001
 41
5.0E-001
 70
0
  0
VERTEX
  8
1
 42
0.0
 10
8.1715954E+001
 20
1.0399107E+002
 70
0
  0
VERTEX
  8
1
 42
0.0
 10
8.5215954E+001
 20
1.0399107E+002
 70
0
  0
SEQEND
  0
POLYLINE
  8
1
  6
CONTINUOUS
 62
3
 66
1
 40
5.0E-001
 41
5.0E-001
 70
0
  0
VERTEX
  8
1
 42
0.0
 10
8.1715954E+001
 20
1.0299107E+002
 70
0
  0
VERTEX
  8
1
 42
0.0
 10
8.5215954E+001
 20
1.0299107E+002
 70
0
  0
SEQEND
  0
POLYLINE
  8
1
  6
CONTINUOUS
 62
3
 66
1
 40
5.0E-001
 41
5.0E-001
 70
0
  0
VERTEX
  8
1
 42
0.0
 10
8.5215954E+001
 20
9.4891092E+001
 70
0
  0
VERTEX
  8
1
 42
0.0
 10
8.1990944E+001
 20
9.4891092E+001
 70
0
  0
SEQEND
  0
POLYLINE
  8
1
  6
CONTINUOUS
 62
3
 66
1
 40
5.0E-001
 41
5.0E-001
 70
0
  0
VERTEX
  8
1
 42
0.0
 10
1.0621588E+002
 20
9.4891092E+001
 70
0
  0
VERTEX
  8
1
 42
0.0
 10
1.0944098E+002
 20
9.4891092E+001
 70
0
  0
SEQEND
  0
POLYLINE
  8
1
  6
CONTINUOUS
 62
3
 66
1
 40
5.0E-001
 41
5.0E-001
 70
0
  0
VERTEX
  8
1
 42
0.0
 10
1.0621588E+002
 20
1.0299107E+002
 70
0
  0
VERTEX
  8
1
 42
0.0
 10
1.0971588E+002
 20
1.0299107E+002
 70
0
  0
SEQEND
  0
POLYLINE
  8
1
  6
CONTINUOUS
 62
3
 66
1
 40
5.0E-001
 41
5.0E-001
 70
0
  0
VERTEX
  8
1
 42
1.0000013
 10
1.0971588E+002
 20
1.0299107E+002
 70
0
  0
VERTEX
  8
1
 42
0.0
 10
1.0971588E+002
 20
1.0399107E+002
 70
0
  0
SEQEND
  0
POLYLINE
  8
1
  6
CONTINUOUS
 62
3
 66
1
 40
5.0E-001
 41
5.0E-001
 70
0
  0
VERTEX
  8
1
 42
1.0
 10
8.1715954E+001
 20
1.0399107E+002
 70
0
  0
VERTEX
  8
1
 42
0.0
 10
8.1715954E+001
 20
1.0299107E+002
 70
0
  0
SEQEND
  0
POLYLINE
  8
1
  6
CONTINUOUS
 62
3
 66
1
 40
5.0E-001
 41
5.0E-001
 70
0
  0
VERTEX
  8
1
 42
1.0
 10
9.3265924E+001
 20
1.0804105E+002
 70
0
  0
VERTEX
  8
1
 42
1.0
 10
8.8065924E+001
 20
1.0804105E+002
 70
0
  0
VERTEX
  8
1
 42
0.0
 10
9.3265924E+001
 20
1.0804105E+002
 70
0
  0
SEQEND
  0
INSERT
  2
*E500
  8
1
 10
9.0665924E+001
 20
9.8941052E+001
 41
2.6
 42
2.6
 43
2.6
 50
2.7E+002
 62
3
  0
INSERT
  2
*E501
  8
1
 10
1.0076598E+002
 20
9.8941052E+001
 41
2.6
 42
2.6
 43
2.6
 50
2.7E+002
 62
3
  0
INSERT
  2
*E502
  8
1
 10
1.0076598E+002
 20
1.0804105E+002
 41
2.6
 42
2.6
 43
2.6
 50
2.7E+002
 62
3
  0
POLYLINE
  8
1
  6
CONTINUOUS
 62
3
 66
1
 40
5.0E-001
 41
5.0E-001
 70
0
  0
VERTEX
  8
1
 42
0.0
 10
1.0051598E+002
 20
9.2891092E+001
 70
0
  0
VERTEX
  8
1
 42
0.0
 10
1.0051598E+002
 20
8.5091062E+001
 70
0
  0
SEQEND
  0
POLYLINE
  8
1
  6
CONTINUOUS
 62
3
 66
1
 40
5.0E-001
 41
5.0E-001
 70
0
  0
VERTEX
  8
1
 42
0.0
 10
9.0915944E+001
 20
9.2891092E+001
 70
0
  0
VERTEX
  8
1
 42
0.0
 10
9.0915944E+001
 20
8.8591082E+001
 70
0
  0
SEQEND
  0
POLYLINE
  8
1
  6
CONTINUOUS
 62
3
 66
1
 40
5.0E-001
 41
5.0E-001
 70
0
  0
VERTEX
  8
1
 42
4.1421356E-001
 10
1.0101598E+002
 20
9.3391092E+001
 70
0
  0
VERTEX
  8
1
 42
0.0
 10
1.0051598E+002
 20
9.2891092E+001
 70
0
  0
SEQEND
  0
POLYLINE
  8
1
  6
CONTINUOUS
 62
3
 66
1
 40
5.0E-001
 41
5.0E-001
 70
0
  0
VERTEX
  8
1
 42
4.1421356E-001
 10
9.0915944E+001
 20
9.2891092E+001
 70
0
  0
VERTEX
  8
1
 42
0.0
 10
9.0415944E+001
 20
9.3391092E+001
 70
0
  0
SEQEND
  0
POLYLINE
  8
1
  6
CONTINUOUS
 62
3
 66
1
 40
5.0E-001
 41
5.0E-001
 70
0
  0
VERTEX
  8
1
 42
0.0
 10
8.7815954E+001
 20
1.3179109E+002
 70
0
  0
VERTEX
  8
1
 42
0.0
 10
1.0361598E+002
 20
1.3179109E+002
 70
0
  0
SEQEND
  0
POLYLINE
  8
1
  6
CONTINUOUS
 62
3
 66
1
 40
5.0E-001
 41
5.0E-001
 70
0
  0
VERTEX
  8
1
 42
0.0
 10
1.0621588E+002
 20
1.0399107E+002
 70
0
  0
VERTEX
  8
1
 42
0.0
 10
1.0971588E+002
 20
1.0399107E+002
 70
0
  0
SEQEND
  0
POLYLINE
  8
1
  6
CONTINUOUS
 62
3
 66
1
 40
5.0E-001
 41
5.0E-001
 70
0
  0
VERTEX
  8
1
 42
0.0
 10
9.0415944E+001
 20
9.3391112E+001
 70
0
  0
VERTEX
  8
1
 42
0.0
 10
8.1990944E+001
 20
9.3391112E+001
 70
0
  0
SEQEND
  0
POLYLINE
  8
1
  6
CONTINUOUS
 62
3
 66
1
 40
5.0E-001
 41
5.0E-001
 70
0
  0
VERTEX
  8
1
 42
0.0
 10
1.0971588E+002
 20
1.3179109E+002
 70
0
  0
VERTEX
  8
1
 42
0.0
 10
8.1715954E+001
 20
1.3179109E+002
 70
0
  0
SEQEND
  0
POLYLINE
  8
1
  6
CONTINUOUS
 62
3
 66
1
 40
5.0E-001
 41
5.0E-001
 70
0
  0
VERTEX
  8
1
 42
0.0
 10
9.4665954E+001
 20
1.1724104E+002
 70
0
  0
VERTEX
  8
1
 42
0.0
 10
9.4165924E+001
 20
1.1774104E+002
 70
0
  0
SEQEND
  0
POLYLINE
  8
1
  6
CONTINUOUS
 62
3
 66
1
 40
5.0E-001
 41
5.0E-001
 70
0
  0
VERTEX
  8
1
 42
0.0
 10
9.7265984E+001
 20
1.1774104E+002
 70
0
  0
VERTEX
  8
1
 42
0.0
 10
9.6765944E+001
 20
1.1724104E+002
 70
0
  0
SEQEND
  0
POLYLINE
  8
1
  6
CONTINUOUS
 62
3
 66
1
 40
5.0E-001
 41
5.0E-001
 70
0
  0
VERTEX
  8
1
 42
0.0
 10
9.4665954E+001
 20
1.1474104E+002
 70
0
  0
VERTEX
  8
1
 42
0.0
 10
9.4165924E+001
 20
1.1424104E+002
 70
0
  0
SEQEND
  0
POLYLINE
  8
1
  6
CONTINUOUS
 62
3
 66
1
 40
5.0E-001
 41
5.0E-001
 70
0
  0
VERTEX
  8
1
 42
0.0
 10
9.7265984E+001
 20
1.1424104E+002
 70
0
  0
VERTEX
  8
1
 42
0.0
 10
9.6765944E+001
 20
1.1474104E+002
 70
0
  0
SEQEND
  0
POLYLINE
  8
1
  6
CONTINUOUS
 62
3
 66
1
 40
5.0E-001
 41
5.0E-001
 70
0
  0
VERTEX
  8
1
 42
0.0
 10
9.4165924E+001
 20
1.2934109E+002
 70
0
  0
VERTEX
  8
1
 42
0.0
 10
9.4665954E+001
 20
1.2884109E+002
 70
0
  0
SEQEND
  0
POLYLINE
  8
1
  6
CONTINUOUS
 62
3
 66
1
 40
5.0E-001
 41
5.0E-001
 70
0
  0
VERTEX
  8
1
 42
0.0
 10
9.4165924E+001
 20
1.2584109E+002
 70
0
  0
VERTEX
  8
1
 42
0.0
 10
9.4665954E+001
 20
1.2634109E+002
 70
0
  0
SEQEND
  0
POLYLINE
  8
1
  6
CONTINUOUS
 62
3
 66
1
 40
5.0E-001
 41
5.0E-001
 70
0
  0
VERTEX
  8
1
 42
0.0
 10
9.7265984E+001
 20
1.2584109E+002
 70
0
  0
VERTEX
  8
1
 42
0.0
 10
9.6765944E+001
 20
1.2634109E+002
 70
0
  0
SEQEND
  0
POLYLINE
  8
1
  6
CONTINUOUS
 62
3
 66
1
 40
5.0E-001
 41
5.0E-001
 70
0
  0
VERTEX
  8
1
 42
0.0
 10
9.7265984E+001
 20
1.2934109E+002
 70
0
  0
VERTEX
  8
1
 42
0.0
 10
9.6765944E+001
 20
1.2884109E+002
 70
0
  0
SEQEND
  0
POLYLINE
  8
1
  6
CONTINUOUS
 62
3
 66
1
 40
5.0E-001
 41
5.0E-001
 70
0
  0
VERTEX
  8
1
 42
0.0
 10
9.4165924E+001
 20
1.1774104E+002
 70
0
  0
VERTEX
  8
1
 42
0.0
 10
9.4165924E+001
 20
1.1424104E+002
 70
0
  0
SEQEND
  0
POLYLINE
  8
1
  6
CONTINUOUS
 62
3
 66
1
 40
5.0E-001
 41
5.0E-001
 70
0
  0
VERTEX
  8
1
 42
0.0
 10
9.4165924E+001
 20
1.1424104E+002
 70
0
  0
VERTEX
  8
1
 42
0.0
 10
9.7265984E+001
 20
1.1424104E+002
 70
0
  0
SEQEND
  0
POLYLINE
  8
1
  6
CONTINUOUS
 62
3
 66
1
 40
5.0E-001
 41
5.0E-001
 70
0
  0
VERTEX
  8
1
 42
0.0
 10
9.7265984E+001
 20
1.1774104E+002
 70
0
  0
VERTEX
  8
1
 42
0.0
 10
9.7265984E+001
 20
1.1424104E+002
 70
0
  0
SEQEND
  0
POLYLINE
  8
1
  6
CONTINUOUS
 62
3
 66
1
 40
5.0E-001
 41
5.0E-001
 70
0
  0
VERTEX
  8
1
 42
0.0
 10
9.4165924E+001
 20
1.1774104E+002
 70
0
  0
VERTEX
  8
1
 42
0.0
 10
9.7265984E+001
 20
1.1774104E+002
 70
0
  0
SEQEND
  0
POLYLINE
  8
1
  6
CONTINUOUS
 62
3
 66
1
 40
5.0E-001
 41
5.0E-001
 70
0
  0
VERTEX
  8
1
 42
0.0
 10
9.4165924E+001
 20
1.2584109E+002
 70
0
  0
VERTEX
  8
1
 42
0.0
 10
9.7265984E+001
 20
1.2584109E+002
 70
0
  0
SEQEND
  0
POLYLINE
  8
1
  6
CONTINUOUS
 62
3
 66
1
 40
5.0E-001
 41
5.0E-001
 70
0
  0
VERTEX
  8
1
 42
0.0
 10
9.4165924E+001
 20
1.2934109E+002
 70
0
  0
VERTEX
  8
1
 42
0.0
 10
9.7265984E+001
 20
1.2934109E+002
 70
0
  0
SEQEND
  0
POLYLINE
  8
1
  6
CONTINUOUS
 62
3
 66
1
 40
5.0E-001
 41
5.0E-001
 70
0
  0
VERTEX
  8
1
 42
0.0
 10
9.7265984E+001
 20
1.2934109E+002
 70
0
  0
VERTEX
  8
1
 42
0.0
 10
9.7265984E+001
 20
1.2584109E+002
 70
0
  0
SEQEND
  0
POLYLINE
  8
1
  6
CONTINUOUS
 62
3
 66
1
 40
5.0E-001
 41
5.0E-001
 70
0
  0
VERTEX
  8
1
 42
0.0
 10
9.4165924E+001
 20
1.2934109E+002
 70
0
  0
VERTEX
  8
1
 42
0.0
 10
9.4165924E+001
 20
1.2584109E+002
 70
0
  0
SEQEND
  0
POLYLINE
  8
1
  6
CONTINUOUS
 62
3
 66
1
 40
5.0E-001
 41
5.0E-001
 70
0
  0
VERTEX
  8
1
 42
0.0
 10
9.6765944E+001
 20
1.1724104E+002
 70
0
  0
VERTEX
  8
1
 42
0.0
 10
9.6765944E+001
 20
1.1474104E+002
 70
0
  0
SEQEND
  0
POLYLINE
  8
1
  6
CONTINUOUS
 62
3
 66
1
 40
5.0E-001
 41
5.0E-001
 70
0
  0
VERTEX
  8
1
 42
0.0
 10
9.4665954E+001
 20
1.1724104E+002
 70
0
  0
VERTEX
  8
1
 42
0.0
 10
9.4665954E+001
 20
1.1474104E+002
 70
0
  0
SEQEND
  0
POLYLINE
  8
1
  6
CONTINUOUS
 62
3
 66
1
 40
5.0E-001
 41
5.0E-001
 70
0
  0
VERTEX
  8
1
 42
0.0
 10
9.6765944E+001
 20
1.2884109E+002
 70
0
  0
VERTEX
  8
1
 42
0.0
 10
9.6765944E+001
 20
1.2634109E+002
 70
0
  0
SEQEND
  0
POLYLINE
  8
1
  6
CONTINUOUS
 62
3
 66
1
 40
5.0E-001
 41
5.0E-001
 70
0
  0
VERTEX
  8
1
 42
0.0
 10
9.4665954E+001
 20
1.2884109E+002
 70
0
  0
VERTEX
  8
1
 42
0.0
 10
9.4665954E+001
 20
1.2634109E+002
 70
0
  0
SEQEND
  0
POLYLINE
  8
1
  6
CONTINUOUS
 62
3
 66
1
 40
5.0E-001
 41
5.0E-001
 70
0
  0
VERTEX
  8
1
 42
0.0
 10
9.4665954E+001
 20
1.1724104E+002
 70
0
  0
VERTEX
  8
1
 42
0.0
 10
9.6765944E+001
 20
1.1724104E+002
 70
0
  0
SEQEND
  0
POLYLINE
  8
1
  6
CONTINUOUS
 62
3
 66
1
 40
5.0E-001
 41
5.0E-001
 70
0
  0
VERTEX
  8
1
 42
0.0
 10
9.4665954E+001
 20
1.1474104E+002
 70
0
  0
VERTEX
  8
1
 42
0.0
 10
9.6765944E+001
 20
1.1474104E+002
 70
0
  0
SEQEND
  0
POLYLINE
  8
1
  6
CONTINUOUS
 62
3
 66
1
 40
5.0E-001
 41
5.0E-001
 70
0
  0
VERTEX
  8
1
 42
0.0
 10
9.4665954E+001
 20
1.2634109E+002
 70
0
  0
VERTEX
  8
1
 42
0.0
 10
9.6765944E+001
 20
1.2634109E+002
 70
0
  0
SEQEND
  0
POLYLINE
  8
1
  6
CONTINUOUS
 62
3
 66
1
 40
5.0E-001
 41
5.0E-001
 70
0
  0
VERTEX
  8
1
 42
0.0
 10
9.4665954E+001
 20
1.2884109E+002
 70
0
  0
VERTEX
  8
1
 42
0.0
 10
9.6765944E+001
 20
1.2884109E+002
 70
0
  0
SEQEND
  0
POLYLINE
  8
1
  6
CONTINUOUS
 62
3
 66
1
 40
5.0E-001
 41
5.0E-001
 70
0
  0
VERTEX
  8
1
 42
1.0
 10
9.8315944E+001
 20
1.2179105E+002
 70
0
  0
VERTEX
  8
1
 42
1.0
 10
9.3115944E+001
 20
1.2179105E+002
 70
0
  0
VERTEX
  8
1
 42
0.0
 10
9.8315944E+001
 20
1.2179105E+002
 70
0
  0
SEQEND
  0
POLYLINE
  8
1
  6
CONTINUOUS
 62
3
 66
1
 40
5.0E-001
 41
5.0E-001
 70
0
  0
VERTEX
  8
1
 42
0.0
 10
1.0101598E+002
 20
9.3391112E+001
 70
0
  0
VERTEX
  8
1
 42
0.0
 10
1.0571588E+002
 20
9.3391112E+001
 70
0
  0
SEQEND
  0
POLYLINE
  8
1
  6
CONTINUOUS
 62
3
 66
1
 40
5.0E-001
 41
5.0E-001
 70
0
  0
VERTEX
  8
1
 42
0.0
 10
8.5715954E+001
 20
9.3391112E+001
 70
0
  0
VERTEX
  8
1
 42
0.0
 10
9.0415944E+001
 20
9.3391112E+001
 70
0
  0
SEQEND
  0
POLYLINE
  8
1
  6
CONTINUOUS
 62
3
 66
1
 40
5.0E-001
 41
5.0E-001
 70
0
  0
VERTEX
  8
1
 42
4.1421356E-001
 10
1.0101598E+002
 20
9.3391092E+001
 70
0
  0
VERTEX
  8
1
 42
0.0
 10
1.0051598E+002
 20
9.2891092E+001
 70
0
  0
SEQEND
  0
POLYLINE
  8
1
  6
CONTINUOUS
 62
3
 66
1
 40
5.0E-001
 41
5.0E-001
 70
0
  0
VERTEX
  8
1
 42
0.0
 10
9.0915944E+001
 20
9.2891092E+001
 70
0
  0
VERTEX
  8
1
 42
0.0
 10
9.0915944E+001
 20
8.5091062E+001
 70
0
  0
SEQEND
  0
POLYLINE
  8
1
  6
CONTINUOUS
 62
3
 66
1
 40
5.0E-001
 41
5.0E-001
 70
0
  0
VERTEX
  8
1
 42
4.1421356E-001
 10
9.0915944E+001
 20
9.2891092E+001
 70
0
  0
VERTEX
  8
1
 42
0.0
 10
9.0415944E+001
 20
9.3391092E+001
 70
0
  0
SEQEND
  0
POLYLINE
  8
1
  6
CONTINUOUS
 62
3
 66
1
 40
5.0E-001
 41
5.0E-001
 70
0
  0
VERTEX
  8
1
 42
0.0
 10
9.1715924E+001
 20
8.7791082E+001
 70
0
  0
VERTEX
  8
1
 42
0.0
 10
9.9715984E+001
 20
8.7791082E+001
 70
0
  0
SEQEND
  0
POLYLINE
  8
1
  6
CONTINUOUS
 62
3
 66
1
 40
5.0E-001
 41
5.0E-001
 70
0
  0
VERTEX
  8
1
 42
4.1421356E-001
 10
9.0915924E+001
 20
8.8591082E+001
 70
0
  0
VERTEX
  8
1
 42
0.0
 10
9.1715924E+001
 20
8.7791082E+001
 70
0
  0
SEQEND
  0
POLYLINE
  8
1
  6
CONTINUOUS
 62
3
 66
1
 40
5.0E-001
 41
5.0E-001
 70
0
  0
VERTEX
  8
1
 42
4.1421356E-001
 10
9.9715984E+001
 20
8.7791082E+001
 70
0
  0
VERTEX
  8
1
 42
0.0
 10
1.0051598E+002
 20
8.8591082E+001
 70
0
  0
SEQEND
  0
POLYLINE
  8
1
  6
CONTINUOUS
 62
3
 66
1
 40
5.0E-001
 41
5.0E-001
 70
0
  0
VERTEX
  8
1
 42
0.0
 10
1.0621588E+002
 20
1.3129109E+002
 70
0
  0
VERTEX
  8
1
 42
0.0
 10
1.0621588E+002
 20
9.3891112E+001
 70
0
  0
SEQEND
  0
POLYLINE
  8
1
  6
CONTINUOUS
 62
3
 66
1
 40
5.0E-001
 41
5.0E-001
 70
0
  0
VERTEX
  8
1
 42
0.0
 10
8.5215954E+001
 20
1.3129109E+002
 70
0
  0
VERTEX
  8
1
 42
0.0
 10
8.5215954E+001
 20
9.3891112E+001
 70
0
  0
SEQEND
  0
POLYLINE
  8
1
  6
CONTINUOUS
 62
3
 66
1
 40
5.0E-001
 41
5.0E-001
 70
0
  0
VERTEX
  8
1
 42
4.1421356E-001
 10
1.0571588E+002
 20
9.3391112E+001
 70
0
  0
VERTEX
  8
1
 42
0.0
 10
1.0621588E+002
 20
9.3891112E+001
 70
0
  0
SEQEND
  0
POLYLINE
  8
1
  6
CONTINUOUS
 62
3
 66
1
 40
5.0E-001
 41
5.0E-001
 70
0
  0
VERTEX
  8
1
 42
4.1421356E-001
 10
8.5215954E+001
 20
9.3891112E+001
 70
0
  0
VERTEX
  8
1
 42
0.0
 10
8.5715954E+001
 20
9.3391112E+001
 70
0
  0
SEQEND
  0
POLYLINE
  8
1
  6
CONTINUOUS
 62
3
 66
1
 40
5.0E-001
 41
5.0E-001
 70
0
  0
VERTEX
  8
1
 42
0.0
 10
1.0140038E+002
 20
1.0764106E+002
 70
0
  0
VERTEX
  8
1
 42
0.0
 10
1.0333498E+002
 20
1.0764106E+002
 70
0
  0
SEQEND
  0
POLYLINE
  8
1
  6
CONTINUOUS
 62
3
 66
1
 40
5.0E-001
 41
5.0E-001
 70
0
  0
VERTEX
  8
1
 42
0.0
 10
1.0129628E+002
 20
1.0857139E+002
 70
0
  0
VERTEX
  8
1
 42
0.0
 10
1.0147308E+002
 20
1.0874815E+002
 70
0
  0
SEQEND
  0
POLYLINE
  8
1
  6
CONTINUOUS
 62
3
 66
1
 40
5.0E-001
 41
5.0E-001
 70
0
  0
VERTEX
  8
1
 42
0.0
 10
1.0116598E+002
 20
1.0659538E+002
 70
0
  0
VERTEX
  8
1
 42
0.0
 10
1.0116598E+002
 20
1.0740662E+002
 70
0
  0
SEQEND
  0
POLYLINE
  8
1
  6
CONTINUOUS
 62
3
 66
1
 40
5.0E-001
 41
5.0E-001
 70
0
  0
VERTEX
  8
1
 42
1.0
 10
1.0151598E+002
 20
1.0804105E+002
 70
0
  0
VERTEX
  8
1
 42
1.0
 10
1.0001598E+002
 20
1.0804105E+002
 70
0
  0
VERTEX
  8
1
 42
0.0
 10
1.0151598E+002
 20
1.0804105E+002
 70
0
  0
SEQEND
  0
POLYLINE
  8
1
  6
CONTINUOUS
 62
3
 66
1
 40
5.0E-001
 41
5.0E-001
 70
0
  0
VERTEX
  8
1
 42
1.3579006E-001
 10
9.9320299E+001
 20
1.0844105E+002
 70
0
  0
VERTEX
  8
1
 42
0.0
 10
9.9320299E+001
 20
1.0764106E+002
 70
0
  0
SEQEND
  0
POLYLINE
  8
1
  6
CONTINUOUS
 62
3
 66
1
 40
5.0E-001
 41
5.0E-001
 70
0
  0
VERTEX
  8
1
 42
0.0
 10
1.0005888E+002
 20
1.0733396E+002
 70
0
  0
VERTEX
  8
1
 42
0.0
 10
1.0023558E+002
 20
1.0751072E+002
 70
0
  0
SEQEND
  0
POLYLINE
  8
1
  6
CONTINUOUS
 62
3
 66
1
 40
5.0E-001
 41
5.0E-001
 70
0
  0
VERTEX
  8
1
 42
0.0
 10
1.0147308E+002
 20
1.0733396E+002
 70
0
  0
VERTEX
  8
1
 42
0.0
 10
1.0129628E+002
 20
1.0751072E+002
 70
0
  0
SEQEND
  0
POLYLINE
  8
1
  6
CONTINUOUS
 62
3
 66
1
 40
5.0E-001
 41
5.0E-001
 70
0
  0
VERTEX
  8
1
 42
0.0
 10
1.0023558E+002
 20
1.0857139E+002
 70
0
  0
VERTEX
  8
1
 42
0.0
 10
1.0005888E+002
 20
1.0874815E+002
 70
0
  0
SEQEND
  0
POLYLINE
  8
1
  6
CONTINUOUS
 62
3
 66
1
 40
5.0E-001
 41
5.0E-001
 70
0
  0
VERTEX
  8
1
 42
0.0
 10
1.0140038E+002
 20
1.0844105E+002
 70
0
  0
VERTEX
  8
1
 42
0.0
 10
1.0333498E+002
 20
1.0844105E+002
 70
0
  0
SEQEND
  0
POLYLINE
  8
1
  6
CONTINUOUS
 62
3
 66
1
 40
5.0E-001
 41
5.0E-001
 70
0
  0
VERTEX
  8
1
 42
1.3578979E-001
 10
1.0116598E+002
 20
1.0948674E+002
 70
0
  0
VERTEX
  8
1
 42
0.0
 10
1.0036599E+002
 20
1.0948674E+002
 70
0
  0
SEQEND
  0
POLYLINE
  8
1
  6
CONTINUOUS
 62
3
 66
1
 40
5.0E-001
 41
5.0E-001
 70
0
  0
VERTEX
  8
1
 42
0.0
 10
1.0036598E+002
 20
1.0659538E+002
 70
0
  0
VERTEX
  8
1
 42
0.0
 10
1.0036598E+002
 20
1.0740662E+002
 70
0
  0
SEQEND
  0
POLYLINE
  8
1
  6
CONTINUOUS
 62
3
 66
1
 40
5.0E-001
 41
5.0E-001
 70
0
  0
VERTEX
  8
1
 42
0.0
 10
9.8196884E+001
 20
1.0764106E+002
 70
0
  0
VERTEX
  8
1
 42
0.0
 10
1.0013148E+002
 20
1.0764106E+002
 70
0
  0
SEQEND
  0
POLYLINE
  8
1
  6
CONTINUOUS
 62
3
 66
1
 40
5.0E-001
 41
5.0E-001
 70
0
  0
VERTEX
  8
1
 42
1.3579006E-001
 10
1.0036599E+002
 20
1.0659537E+002
 70
0
  0
VERTEX
  8
1
 42
0.0
 10
1.0116598E+002
 20
1.0659537E+002
 70
0
  0
SEQEND
  0
POLYLINE
  8
1
  6
CONTINUOUS
 62
3
 66
1
 40
5.0E-001
 41
5.0E-001
 70
0
  0
VERTEX
  8
1
 42
1.3578992E-001
 10
1.0221167E+002
 20
1.0764106E+002
 70
0
  0
VERTEX
  8
1
 42
0.0
 10
1.0221167E+002
 20
1.0844105E+002
 70
0
  0
SEQEND
  0
POLYLINE
  8
1
  6
CONTINUOUS
 62
3
 66
1
 40
5.0E-001
 41
5.0E-001
 70
0
  0
VERTEX
  8
1
 42
0.0
 10
1.0036598E+002
 20
1.0867548E+002
 70
0
  0
VERTEX
  8
1
 42
0.0
 10
1.0036598E+002
 20
1.0948673E+002
 70
0
  0
SEQEND
  0
POLYLINE
  8
1
  6
CONTINUOUS
 62
3
 66
1
 40
5.0E-001
 41
5.0E-001
 70
0
  0
VERTEX
  8
1
 42
0.0
 10
1.0116598E+002
 20
1.0867548E+002
 70
0
  0
VERTEX
  8
1
 42
0.0
 10
1.0116598E+002
 20
1.0948673E+002
 70
0
  0
SEQEND
  0
POLYLINE
  8
1
  6
CONTINUOUS
 62
3
 66
1
 40
5.0E-001
 41
5.0E-001
 70
0
  0
VERTEX
  8
1
 42
0.0
 10
9.8196884E+001
 20
1.0844105E+002
 70
0
  0
VERTEX
  8
1
 42
0.0
 10
1.0013148E+002
 20
1.0844105E+002
 70
0
  0
SEQEND
  0
POLYLINE
  8
1
  6
CONTINUOUS
 62
3
 66
1
 40
5.0E-001
 41
5.0E-001
 70
0
  0
VERTEX
  8
1
 42
0.0
 10
1.0140038E+002
 20
9.8541052E+001
 70
0
  0
VERTEX
  8
1
 42
0.0
 10
1.0333498E+002
 20
9.8541052E+001
 70
0
  0
SEQEND
  0
POLYLINE
  8
1
  6
CONTINUOUS
 62
3
 66
1
 40
5.0E-001
 41
5.0E-001
 70
0
  0
VERTEX
  8
1
 42
0.0
 10
1.0129628E+002
 20
9.9471382E+001
 70
0
  0
VERTEX
  8
1
 42
0.0
 10
1.0147308E+002
 20
9.9648142E+001
 70
0
  0
SEQEND
  0
POLYLINE
  8
1
  6
CONTINUOUS
 62
3
 66
1
 40
5.0E-001
 41
5.0E-001
 70
0
  0
VERTEX
  8
1
 42
0.0
 10
1.0116598E+002
 20
9.7495372E+001
 70
0
  0
VERTEX
  8
1
 42
0.0
 10
1.0116598E+002
 20
9.8306622E+001
 70
0
  0
SEQEND
  0
POLYLINE
  8
1
  6
CONTINUOUS
 62
3
 66
1
 40
5.0E-001
 41
5.0E-001
 70
0
  0
VERTEX
  8
1
 42
1.0
 10
1.0151598E+002
 20
9.8941052E+001
 70
0
  0
VERTEX
  8
1
 42
1.0
 10
1.0001598E+002
 20
9.8941052E+001
 70
0
  0
VERTEX
  8
1
 42
0.0
 10
1.0151598E+002
 20
9.8941052E+001
 70
0
  0
SEQEND
  0
POLYLINE
  8
1
  6
CONTINUOUS
 62
3
 66
1
 40
5.0E-001
 41
5.0E-001
 70
0
  0
VERTEX
  8
1
 42
1.3579006E-001
 10
9.9320299E+001
 20
9.9341047E+001
 70
0
  0
VERTEX
  8
1
 42
0.0
 10
9.9320299E+001
 20
9.8541057E+001
 70
0
  0
SEQEND
  0
POLYLINE
  8
1
  6
CONTINUOUS
 62
3
 66
1
 40
5.0E-001
 41
5.0E-001
 70
0
  0
VERTEX
  8
1
 42
0.0
 10
1.0005888E+002
 20
9.8233962E+001
 70
0
  0
VERTEX
  8
1
 42
0.0
 10
1.0023558E+002
 20
9.8410712E+001
 70
0
  0
SEQEND
  0
POLYLINE
  8
1
  6
CONTINUOUS
 62
3
 66
1
 40
5.0E-001
 41
5.0E-001
 70
0
  0
VERTEX
  8
1
 42
0.0
 10
1.0147308E+002
 20
9.8233962E+001
 70
0
  0
VERTEX
  8
1
 42
0.0
 10
1.0129628E+002
 20
9.8410712E+001
 70
0
  0
SEQEND
  0
POLYLINE
  8
1
  6
CONTINUOUS
 62
3
 66
1
 40
5.0E-001
 41
5.0E-001
 70
0
  0
VERTEX
  8
1
 42
0.0
 10
1.0023558E+002
 20
9.9471382E+001
 70
0
  0
VERTEX
  8
1
 42
0.0
 10
1.0005888E+002
 20
9.9648142E+001
 70
0
  0
SEQEND
  0
POLYLINE
  8
1
  6
CONTINUOUS
 62
3
 66
1
 40
5.0E-001
 41
5.0E-001
 70
0
  0
VERTEX
  8
1
 42
0.0
 10
1.0140038E+002
 20
9.9341042E+001
 70
0
  0
VERTEX
  8
1
 42
0.0
 10
1.0333498E+002
 20
9.9341042E+001
 70
0
  0
SEQEND
  0
POLYLINE
  8
1
  6
CONTINUOUS
 62
3
 66
1
 40
5.0E-001
 41
5.0E-001
 70
0
  0
VERTEX
  8
1
 42
1.3578979E-001
 10
1.0116598E+002
 20
1.0038674E+002
 70
0
  0
VERTEX
  8
1
 42
0.0
 10
1.0036599E+002
 20
1.0038674E+002
 70
0
  0
SEQEND
  0
POLYLINE
  8
1
  6
CONTINUOUS
 62
3
 66
1
 40
5.0E-001
 41
5.0E-001
 70
0
  0
VERTEX
  8
1
 42
0.0
 10
1.0036598E+002
 20
9.7495372E+001
 70
0
  0
VERTEX
  8
1
 42
0.0
 10
1.0036598E+002
 20
9.8306622E+001
 70
0
  0
SEQEND
  0
POLYLINE
  8
1
  6
CONTINUOUS
 62
3
 66
1
 40
5.0E-001
 41
5.0E-001
 70
0
  0
VERTEX
  8
1
 42
0.0
 10
9.8196884E+001
 20
9.8541052E+001
 70
0
  0
VERTEX
  8
1
 42
0.0
 10
1.0013148E+002
 20
9.8541052E+001
 70
0
  0
SEQEND
  0
POLYLINE
  8
1
  6
CONTINUOUS
 62
3
 66
1
 40
5.0E-001
 41
5.0E-001
 70
0
  0
VERTEX
  8
1
 42
1.3579006E-001
 10
1.0036599E+002
 20
9.7495367E+001
 70
0
  0
VERTEX
  8
1
 42
0.0
 10
1.0116598E+002
 20
9.7495367E+001
 70
0
  0
SEQEND
  0
POLYLINE
  8
1
  6
CONTINUOUS
 62
3
 66
1
 40
5.0E-001
 41
5.0E-001
 70
0
  0
VERTEX
  8
1
 42
1.3578992E-001
 10
1.0221167E+002
 20
9.8541057E+001
 70
0
  0
VERTEX
  8
1
 42
0.0
 10
1.0221167E+002
 20
9.9341046E+001
 70
0
  0
SEQEND
  0
POLYLINE
  8
1
  6
CONTINUOUS
 62
3
 66
1
 40
5.0E-001
 41
5.0E-001
 70
0
  0
VERTEX
  8
1
 42
0.0
 10
1.0036598E+002
 20
9.9575482E+001
 70
0
  0
VERTEX
  8
1
 42
0.0
 10
1.0036598E+002
 20
1.0038673E+002
 70
0
  0
SEQEND
  0
POLYLINE
  8
1
  6
CONTINUOUS
 62
3
 66
1
 40
5.0E-001
 41
5.0E-001
 70
0
  0
VERTEX
  8
1
 42
0.0
 10
1.0116598E+002
 20
9.9575482E+001
 70
0
  0
VERTEX
  8
1
 42
0.0
 10
1.0116598E+002
 20
1.0038673E+002
 70
0
  0
SEQEND
  0
POLYLINE
  8
1
  6
CONTINUOUS
 62
3
 66
1
 40
5.0E-001
 41
5.0E-001
 70
0
  0
VERTEX
  8
1
 42
0.0
 10
9.8196884E+001
 20
9.9341042E+001
 70
0
  0
VERTEX
  8
1
 42
0.0
 10
1.0013148E+002
 20
9.9341042E+001
 70
0
  0
SEQEND
  0
POLYLINE
  8
1
  6
CONTINUOUS
 62
3
 66
1
 40
5.0E-001
 41
5.0E-001
 70
0
  0
VERTEX
  8
1
 42
0.0
 10
9.1300354E+001
 20
9.8541052E+001
 70
0
  0
VERTEX
  8
1
 42
0.0
 10
9.3234984E+001
 20
9.8541052E+001
 70
0
  0
SEQEND
  0
POLYLINE
  8
1
  6
CONTINUOUS
 62
3
 66
1
 40
5.0E-001
 41
5.0E-001
 70
0
  0
VERTEX
  8
1
 42
0.0
 10
9.1196264E+001
 20
9.9471382E+001
 70
0
  0
VERTEX
  8
1
 42
0.0
 10
9.1373014E+001
 20
9.9648142E+001
 70
0
  0
SEQEND
  0
POLYLINE
  8
1
  6
CONTINUOUS
 62
3
 66
1
 40
5.0E-001
 41
5.0E-001
 70
0
  0
VERTEX
  8
1
 42
0.0
 10
9.1065924E+001
 20
9.7495372E+001
 70
0
  0
VERTEX
  8
1
 42
0.0
 10
9.1065924E+001
 20
9.8306622E+001
 70
0
  0
SEQEND
  0
POLYLINE
  8
1
  6
CONTINUOUS
 62
3
 66
1
 40
5.0E-001
 41
5.0E-001
 70
0
  0
VERTEX
  8
1
 42
1.0
 10
9.1415924E+001
 20
9.8941052E+001
 70
0
  0
VERTEX
  8
1
 42
1.0
 10
8.9915924E+001
 20
9.8941052E+001
 70
0
  0
VERTEX
  8
1
 42
0.0
 10
9.1415924E+001
 20
9.8941052E+001
 70
0
  0
SEQEND
  0
POLYLINE
  8
1
  6
CONTINUOUS
 62
3
 66
1
 40
5.0E-001
 41
5.0E-001
 70
0
  0
VERTEX
  8
1
 42
1.3579006E-001
 10
8.9220239E+001
 20
9.9341047E+001
 70
0
  0
VERTEX
  8
1
 42
0.0
 10
8.9220239E+001
 20
9.8541057E+001
 70
0
  0
SEQEND
  0
POLYLINE
  8
1
  6
CONTINUOUS
 62
3
 66
1
 40
5.0E-001
 41
5.0E-001
 70
0
  0
VERTEX
  8
1
 42
0.0
 10
8.9958844E+001
 20
9.8233962E+001
 70
0
  0
VERTEX
  8
1
 42
0.0
 10
9.0135594E+001
 20
9.8410712E+001
 70
0
  0
SEQEND
  0
POLYLINE
  8
1
  6
CONTINUOUS
 62
3
 66
1
 40
5.0E-001
 41
5.0E-001
 70
0
  0
VERTEX
  8
1
 42
0.0
 10
9.1373014E+001
 20
9.8233962E+001
 70
0
  0
VERTEX
  8
1
 42
0.0
 10
9.1196264E+001
 20
9.8410712E+001
 70
0
  0
SEQEND
  0
POLYLINE
  8
1
  6
CONTINUOUS
 62
3
 66
1
 40
5.0E-001
 41
5.0E-001
 70
0
  0
VERTEX
  8
1
 42
0.0
 10
9.0135594E+001
 20
9.9471382E+001
 70
0
  0
VERTEX
  8
1
 42
0.0
 10
8.9958844E+001
 20
9.9648142E+001
 70
0
  0
SEQEND
  0
POLYLINE
  8
1
  6
CONTINUOUS
 62
3
 66
1
 40
5.0E-001
 41
5.0E-001
 70
0
  0
VERTEX
  8
1
 42
0.0
 10
9.1300354E+001
 20
9.9341042E+001
 70
0
  0
VERTEX
  8
1
 42
0.0
 10
9.3234984E+001
 20
9.9341042E+001
 70
0
  0
SEQEND
  0
POLYLINE
  8
1
  6
CONTINUOUS
 62
3
 66
1
 40
5.0E-001
 41
5.0E-001
 70
0
  0
VERTEX
  8
1
 42
1.3578979E-001
 10
9.1065918E+001
 20
1.0038674E+002
 70
0
  0
VERTEX
  8
1
 42
0.0
 10
9.026593E+001
 20
1.0038674E+002
 70
0
  0
SEQEND
  0
POLYLINE
  8
1
  6
CONTINUOUS
 62
3
 66
1
 40
5.0E-001
 41
5.0E-001
 70
0
  0
VERTEX
  8
1
 42
0.0
 10
9.0265934E+001
 20
9.7495372E+001
 70
0
  0
VERTEX
  8
1
 42
0.0
 10
9.0265934E+001
 20
9.8306622E+001
 70
0
  0
SEQEND
  0
POLYLINE
  8
1
  6
CONTINUOUS
 62
3
 66
1
 40
5.0E-001
 41
5.0E-001
 70
0
  0
VERTEX
  8
1
 42
0.0
 10
8.8096904E+001
 20
9.8541052E+001
 70
0
  0
VERTEX
  8
1
 42
0.0
 10
9.0031504E+001
 20
9.8541052E+001
 70
0
  0
SEQEND
  0
POLYLINE
  8
1
  6
CONTINUOUS
 62
3
 66
1
 40
5.0E-001
 41
5.0E-001
 70
0
  0
VERTEX
  8
1
 42
1.3579006E-001
 10
9.0265929E+001
 20
9.7495367E+001
 70
0
  0
VERTEX
  8
1
 42
0.0
 10
9.1065918E+001
 20
9.7495367E+001
 70
0
  0
SEQEND
  0
POLYLINE
  8
1
  6
CONTINUOUS
 62
3
 66
1
 40
5.0E-001
 41
5.0E-001
 70
0
  0
VERTEX
  8
1
 42
1.3578992E-001
 10
9.2111608E+001
 20
9.8541057E+001
 70
0
  0
VERTEX
  8
1
 42
0.0
 10
9.2111609E+001
 20
9.9341046E+001
 70
0
  0
SEQEND
  0
POLYLINE
  8
1
  6
CONTINUOUS
 62
3
 66
1
 40
5.0E-001
 41
5.0E-001
 70
0
  0
VERTEX
  8
1
 42
0.0
 10
9.0265934E+001
 20
9.9575482E+001
 70
0
  0
VERTEX
  8
1
 42
0.0
 10
9.0265934E+001
 20
1.0038673E+002
 70
0
  0
SEQEND
  0
POLYLINE
  8
1
  6
CONTINUOUS
 62
3
 66
1
 40
5.0E-001
 41
5.0E-001
 70
0
  0
VERTEX
  8
1
 42
0.0
 10
9.1065924E+001
 20
9.9575482E+001
 70
0
  0
VERTEX
  8
1
 42
0.0
 10
9.1065924E+001
 20
1.0038673E+002
 70
0
  0
SEQEND
  0
POLYLINE
  8
1
  6
CONTINUOUS
 62
3
 66
1
 40
5.0E-001
 41
5.0E-001
 70
0
  0
VERTEX
  8
1
 42
0.0
 10
8.8096904E+001
 20
9.9341042E+001
 70
0
  0
VERTEX
  8
1
 42
0.0
 10
9.0031504E+001
 20
9.9341042E+001
 70
0
  0
SEQEND
  0
POLYLINE
  8
1
  6
CONTINUOUS
 62
3
 66
1
 40
5.0E-001
 41
5.0E-001
 70
0
  0
VERTEX
  8
1
 42
0.0
 10
9.1300354E+001
 20
1.0764106E+002
 70
0
  0
VERTEX
  8
1
 42
0.0
 10
9.3234984E+001
 20
1.0764106E+002
 70
0
  0
SEQEND
  0
POLYLINE
  8
1
  6
CONTINUOUS
 62
3
 66
1
 40
5.0E-001
 41
5.0E-001
 70
0
  0
VERTEX
  8
1
 42
0.0
 10
9.1196264E+001
 20
1.0857139E+002
 70
0
  0
VERTEX
  8
1
 42
0.0
 10
9.1373014E+001
 20
1.0874815E+002
 70
0
  0
SEQEND
  0
POLYLINE
  8
1
  6
CONTINUOUS
 62
3
 66
1
 40
5.0E-001
 41
5.0E-001
 70
0
  0
VERTEX
  8
1
 42
0.0
 10
9.1065924E+001
 20
1.0659538E+002
 70
0
  0
VERTEX
  8
1
 42
0.0
 10
9.1065924E+001
 20
1.0740662E+002
 70
0
  0
SEQEND
  0
POLYLINE
  8
1
  6
CONTINUOUS
 62
3
 66
1
 40
5.0E-001
 41
5.0E-001
 70
0
  0
VERTEX
  8
1
 42
1.0
 10
9.1415924E+001
 20
1.0804105E+002
 70
0
  0
VERTEX
  8
1
 42
1.0
 10
8.9915924E+001
 20
1.0804105E+002
 70
0
  0
VERTEX
  8
1
 42
0.0
 10
9.1415924E+001
 20
1.0804105E+002
 70
0
  0
SEQEND
  0
POLYLINE
  8
1
  6
CONTINUOUS
 62
3
 66
1
 40
5.0E-001
 41
5.0E-001
 70
0
  0
VERTEX
  8
1
 42
1.3579006E-001
 10
8.9220239E+001
 20
1.0844105E+002
 70
0
  0
VERTEX
  8
1
 42
0.0
 10
8.9220239E+001
 20
1.0764106E+002
 70
0
  0
SEQEND
  0
POLYLINE
  8
1
  6
CONTINUOUS
 62
3
 66
1
 40
5.0E-001
 41
5.0E-001
 70
0
  0
VERTEX
  8
1
 42
0.0
 10
8.9958844E+001
 20
1.0733396E+002
 70
0
  0
VERTEX
  8
1
 42
0.0
 10
9.0135594E+001
 20
1.0751072E+002
 70
0
  0
SEQEND
  0
POLYLINE
  8
1
  6
CONTINUOUS
 62
3
 66
1
 40
5.0E-001
 41
5.0E-001
 70
0
  0
VERTEX
  8
1
 42
0.0
 10
9.1373014E+001
 20
1.0733396E+002
 70
0
  0
VERTEX
  8
1
 42
0.0
 10
9.1196264E+001
 20
1.0751072E+002
 70
0
  0
SEQEND
  0
POLYLINE
  8
1
  6
CONTINUOUS
 62
3
 66
1
 40
5.0E-001
 41
5.0E-001
 70
0
  0
VERTEX
  8
1
 42
0.0
 10
9.0135594E+001
 20
1.0857139E+002
 70
0
  0
VERTEX
  8
1
 42
0.0
 10
8.9958844E+001
 20
1.0874815E+002
 70
0
  0
SEQEND
  0
POLYLINE
  8
1
  6
CONTINUOUS
 62
3
 66
1
 40
5.0E-001
 41
5.0E-001
 70
0
  0
VERTEX
  8
1
 42
0.0
 10
9.1300354E+001
 20
1.0844105E+002
 70
0
  0
VERTEX
  8
1
 42
0.0
 10
9.3234984E+001
 20
1.0844105E+002
 70
0
  0
SEQEND
  0
POLYLINE
  8
1
  6
CONTINUOUS
 62
3
 66
1
 40
5.0E-001
 41
5.0E-001
 70
0
  0
VERTEX
  8
1
 42
1.3578979E-001
 10
9.1065918E+001
 20
1.0948674E+002
 70
0
  0
VERTEX
  8
1
 42
0.0
 10
9.026593E+001
 20
1.0948674E+002
 70
0
  0
SEQEND
  0
POLYLINE
  8
1
  6
CONTINUOUS
 62
3
 66
1
 40
5.0E-001
 41
5.0E-001
 70
0
  0
VERTEX
  8
1
 42
0.0
 10
9.0265934E+001
 20
1.0659538E+002
 70
0
  0
VERTEX
  8
1
 42
0.0
 10
9.0265934E+001
 20
1.0740662E+002
 70
0
  0
SEQEND
  0
POLYLINE
  8
1
  6
CONTINUOUS
 62
3
 66
1
 40
5.0E-001
 41
5.0E-001
 70
0
  0
VERTEX
  8
1
 42
0.0
 10
8.8096904E+001
 20
1.0764106E+002
 70
0
  0
VERTEX
  8
1
 42
0.0
 10
9.0031504E+001
 20
1.0764106E+002
 70
0
  0
SEQEND
  0
POLYLINE
  8
1
  6
CONTINUOUS
 62
3
 66
1
 40
5.0E-001
 41
5.0E-001
 70
0
  0
VERTEX
  8
1
 42
1.3579006E-001
 10
9.0265929E+001
 20
1.0659537E+002
 70
0
  0
VERTEX
  8
1
 42
0.0
 10
9.1065918E+001
 20
1.0659537E+002
 70
0
  0
SEQEND
  0
POLYLINE
  8
1
  6
CONTINUOUS
 62
3
 66
1
 40
5.0E-001
 41
5.0E-001
 70
0
  0
VERTEX
  8
1
 42
1.3578992E-001
 10
9.2111608E+001
 20
1.0764106E+002
 70
0
  0
VERTEX
  8
1
 42
0.0
 10
9.2111609E+001
 20
1.0844105E+002
 70
0
  0
SEQEND
  0
POLYLINE
  8
1
  6
CONTINUOUS
 62
3
 66
1
 40
5.0E-001
 41
5.0E-001
 70
0
  0
VERTEX
  8
1
 42
0.0
 10
9.0265934E+001
 20
1.0867548E+002
 70
0
  0
VERTEX
  8
1
 42
0.0
 10
9.0265934E+001
 20
1.0948673E+002
 70
0
  0
SEQEND
  0
POLYLINE
  8
1
  6
CONTINUOUS
 62
3
 66
1
 40
5.0E-001
 41
5.0E-001
 70
0
  0
VERTEX
  8
1
 42
0.0
 10
9.1065924E+001
 20
1.0867548E+002
 70
0
  0
VERTEX
  8
1
 42
0.0
 10
9.1065924E+001
 20
1.0948673E+002
 70
0
  0
SEQEND
  0
POLYLINE
  8
1
  6
CONTINUOUS
 62
3
 66
1
 40
5.0E-001
 41
5.0E-001
 70
0
  0
VERTEX
  8
1
 42
0.0
 10
8.8096904E+001
 20
1.0844105E+002
 70
0
  0
VERTEX
  8
1
 42
0.0
 10
9.0031504E+001
 20
1.0844105E+002
 70
0
  0
SEQEND
  0
POLYLINE
  8
1
  6
CONTINUOUS
 62
3
 66
1
 40
5.0E-001
 41
5.0E-001
 70
0
  0
VERTEX
  8
1
 42
0.0
 10
9.1715924E+001
 20
8.7791082E+001
 70
0
  0
VERTEX
  8
1
 42
0.0
 10
9.9715984E+001
 20
8.7791082E+001
 70
0
  0
SEQEND
  0
POLYLINE
  8
1
  6
CONTINUOUS
 62
3
 66
1
 40
5.0E-001
 41
5.0E-001
 70
0
  0
VERTEX
  8
1
 42
4.1421356E-001
 10
9.9715984E+001
 20
8.7791082E+001
 70
0
  0
VERTEX
  8
1
 42
0.0
 10
1.0051598E+002
 20
8.8591082E+001
 70
0
  0
SEQEND
  0
POLYLINE
  8
1
  6
CONTINUOUS
 62
3
 66
1
 40
5.0E-001
 41
5.0E-001
 70
0
  0
VERTEX
  8
1
 42
4.1421356E-001
 10
9.0915924E+001
 20
8.8591082E+001
 70
0
  0
VERTEX
  8
1
 42
0.0
 10
9.1715924E+001
 20
8.7791082E+001
 70
0
  0
SEQEND
  0
POLYLINE
  8
1
  6
CONTINUOUS
 62
3
 66
1
 40
5.0E-001
 41
5.0E-001
 70
0
  0
VERTEX
  8
1
 42
0.0
 10
9.4337064E+001
 20
1.211193E+002
 70
0
  0
VERTEX
  8
1
 42
0.0
 10
9.5008854E+001
 20
1.2179105E+002
 70
0
  0
SEQEND
  0
POLYLINE
  8
1
  6
CONTINUOUS
 62
3
 66
1
 40
5.0E-001
 41
5.0E-001
 70
0
  0
VERTEX
  8
1
 42
0.0
 10
9.5044224E+001
 20
1.2041221E+002
 70
0
  0
VERTEX
  8
1
 42
0.0
 10
9.5715944E+001
 20
1.2108393E+002
 70
0
  0
SEQEND
  0
POLYLINE
  8
1
  6
CONTINUOUS
 62
3
 66
1
 40
5.0E-001
 41
5.0E-001
 70
0
  0
VERTEX
  8
1
 42
0.0
 10
9.7094884E+001
 20
1.211193E+002
 70
0
  0
VERTEX
  8
1
 42
0.0
 10
9.6423074E+001
 20
1.2179105E+002
 70
0
  0
SEQEND
  0
POLYLINE
  8
1
  6
CONTINUOUS
 62
3
 66
1
 40
5.0E-001
 41
5.0E-001
 70
0
  0
VERTEX
  8
1
 42
0.0
 10
9.6387704E+001
 20
1.2041218E+002
 70
0
  0
VERTEX
  8
1
 42
0.0
 10
9.5715944E+001
 20
1.2108393E+002
 70
0
  0
SEQEND
  0
POLYLINE
  8
1
  6
CONTINUOUS
 62
3
 66
1
 40
5.0E-001
 41
5.0E-001
 70
0
  0
VERTEX
  8
1
 42
0.0
 10
9.5044224E+001
 20
1.2041221E+002
 70
0
  0
VERTEX
  8
1
 42
0.0
 10
9.4337064E+001
 20
1.211193E+002
 70
0
  0
SEQEND
  0
POLYLINE
  8
1
  6
CONTINUOUS
 62
3
 66
1
 40
5.0E-001
 41
5.0E-001
 70
0
  0
VERTEX
  8
1
 42
0.0
 10
9.7094884E+001
 20
1.2246281E+002
 70
0
  0
VERTEX
  8
1
 42
0.0
 10
9.6387704E+001
 20
1.2316993E+002
 70
0
  0
SEQEND
  0
POLYLINE
  8
1
  6
CONTINUOUS
 62
3
 66
1
 40
5.0E-001
 41
5.0E-001
 70
0
  0
VERTEX
  8
1
 42
0.0
 10
9.6387704E+001
 20
1.2041218E+002
 70
0
  0
VERTEX
  8
1
 42
0.0
 10
9.7094884E+001
 20
1.211193E+002
 70
0
  0
SEQEND
  0
POLYLINE
  8
1
  6
CONTINUOUS
 62
3
 66
1
 40
5.0E-001
 41
5.0E-001
 70
0
  0
VERTEX
  8
1
 42
0.0
 10
9.4337064E+001
 20
1.2246281E+002
 70
0
  0
VERTEX
  8
1
 42
0.0
 10
9.5044194E+001
 20
1.2316993E+002
 70
0
  0
SEQEND
  0
POLYLINE
  8
1
  6
CONTINUOUS
 62
3
 66
1
 40
5.0E-001
 41
5.0E-001
 70
0
  0
VERTEX
  8
1
 42
0.0
 10
9.5715944E+001
 20
1.2249818E+002
 70
0
  0
VERTEX
  8
1
 42
0.0
 10
9.5044194E+001
 20
1.2316993E+002
 70
0
  0
SEQEND
  0
POLYLINE
  8
1
  6
CONTINUOUS
 62
3
 66
1
 40
5.0E-001
 41
5.0E-001
 70
0
  0
VERTEX
  8
1
 42
0.0
 10
9.5008854E+001
 20
1.2179105E+002
 70
0
  0
VERTEX
  8
1
 42
0.0
 10
9.4337064E+001
 20
1.2246281E+002
 70
0
  0
SEQEND
  0
POLYLINE
  8
1
  6
CONTINUOUS
 62
3
 66
1
 40
5.0E-001
 41
5.0E-001
 70
0
  0
VERTEX
  8
1
 42
0.0
 10
9.6423074E+001
 20
1.2179105E+002
 70
0
  0
VERTEX
  8
1
 42
0.0
 10
9.7094884E+001
 20
1.2246281E+002
 70
0
  0
SEQEND
  0
POLYLINE
  8
1
  6
CONTINUOUS
 62
3
 66
1
 40
5.0E-001
 41
5.0E-001
 70
0
  0
VERTEX
  8
1
 42
0.0
 10
9.5715944E+001
 20
1.2249818E+002
 70
0
  0
VERTEX
  8
1
 42
0.0
 10
9.6387704E+001
 20
1.2316993E+002
 70
0
  0
SEQEND
  0
TEXT
  8
1
  6
CONTINUOUS
 62
4
 10
1.3695067E+002
 20
2.3363198E+001
 40
3.5
  1
1:1
 41
6.2085333E-001
  0
POLYLINE
  8
1
  6
CONTINUOUS
 62
3
 66
1
 40
5.0E-001
 41
5.0E-001
 70
0
  0
VERTEX
  8
1
 42
1.0000002
 10
1.0944098E+002
 20
9.339112E+001
 70
0
  0
VERTEX
  8
1
 42
0.0
 10
1.0944098E+002
 20
9.4891104E+001
 70
0
  0
SEQEND
  0
POLYLINE
  8
1
  6
CONTINUOUS
 62
3
 66
1
 40
5.0E-001
 41
5.0E-001
 70
0
  0
VERTEX
  8
1
 42
1.0
 10
8.1990944E+001
 20
9.4891104E+001
 70
0
  0
VERTEX
  8
1
 42
0.0
 10
8.1990944E+001
 20
9.339112E+001
 70
0
  0
SEQEND
  0
POLYLINE
  8
1
  6
CONTINUOUS
 62
3
 66
1
 40
5.0E-001
 41
5.0E-001
 70
0
  0
VERTEX
  8
1
 42
0.0
 10
8.1715954E+001
 20
1.1309107E+002
 70
0
  0
VERTEX
  8
1
 42
0.0
 10
8.5215954E+001
 20
1.1309107E+002
 70
0
  0
SEQEND
  0
POLYLINE
  8
1
  6
CONTINUOUS
 62
3
 66
1
 40
5.0E-001
 41
5.0E-001
 70
0
  0
VERTEX
  8
1
 42
0.0
 10
8.1715954E+001
 20
1.1209107E+002
 70
0
  0
VERTEX
  8
1
 42
0.0
 10
8.5215954E+001
 20
1.1209107E+002
 70
0
  0
SEQEND
  0
POLYLINE
  8
1
  6
CONTINUOUS
 62
3
 66
1
 40
5.0E-001
 41
5.0E-001
 70
0
  0
VERTEX
  8
1
 42
0.0
 10
1.0621588E+002
 20
1.1209107E+002
 70
0
  0
VERTEX
  8
1
 42
0.0
 10
1.0971588E+002
 20
1.1209107E+002
 70
0
  0
SEQEND
  0
POLYLINE
  8
1
  6
CONTINUOUS
 62
3
 66
1
 40
5.0E-001
 41
5.0E-001
 70
0
  0
VERTEX
  8
1
 42
1.0000013
 10
1.0971588E+002
 20
1.1209107E+002
 70
0
  0
VERTEX
  8
1
 42
0.0
 10
1.0971588E+002
 20
1.1309107E+002
 70
0
  0
SEQEND
  0
POLYLINE
  8
1
  6
CONTINUOUS
 62
3
 66
1
 40
5.0E-001
 41
5.0E-001
 70
0
  0
VERTEX
  8
1
 42
1.0
 10
8.1715954E+001
 20
1.1309107E+002
 70
0
  0
VERTEX
  8
1
 42
0.0
 10
8.1715954E+001
 20
1.1209107E+002
 70
0
  0
SEQEND
  0
POLYLINE
  8
1
  6
CONTINUOUS
 62
3
 66
1
 40
5.0E-001
 41
5.0E-001
 70
0
  0
VERTEX
  8
1
 42
0.0
 10
1.0621588E+002
 20
1.1309107E+002
 70
0
  0
VERTEX
  8
1
 42
0.0
 10
1.0971588E+002
 20
1.1309107E+002
 70
0
  0
SEQEND
  0
POLYLINE
  8
1
  6
CONTINUOUS
 62
3
 66
1
 40
5.0E-001
 41
5.0E-001
 70
0
  0
VERTEX
  8
1
 42
0.0
 10
8.1715954E+001
 20
1.2219108E+002
 70
0
  0
VERTEX
  8
1
 42
0.0
 10
8.5215954E+001
 20
1.2219108E+002
 70
0
  0
SEQEND
  0
POLYLINE
  8
1
  6
CONTINUOUS
 62
3
 66
1
 40
5.0E-001
 41
5.0E-001
 70
0
  0
VERTEX
  8
1
 42
0.0
 10
8.1715954E+001
 20
1.2119108E+002
 70
0
  0
VERTEX
  8
1
 42
0.0
 10
8.5215954E+001
 20
1.2119108E+002
 70
0
  0
SEQEND
  0
POLYLINE
  8
1
  6
CONTINUOUS
 62
3
 66
1
 40
5.0E-001
 41
5.0E-001
 70
0
  0
VERTEX
  8
1
 42
0.0
 10
1.0621588E+002
 20
1.2119108E+002
 70
0
  0
VERTEX
  8
1
 42
0.0
 10
1.0971588E+002
 20
1.2119108E+002
 70
0
  0
SEQEND
  0
POLYLINE
  8
1
  6
CONTINUOUS
 62
3
 66
1
 40
5.0E-001
 41
5.0E-001
 70
0
  0
VERTEX
  8
1
 42
1.0000013
 10
1.0971588E+002
 20
1.2119108E+002
 70
0
  0
VERTEX
  8
1
 42
0.0
 10
1.0971588E+002
 20
1.2219108E+002
 70
0
  0
SEQEND
  0
POLYLINE
  8
1
  6
CONTINUOUS
 62
3
 66
1
 40
5.0E-001
 41
5.0E-001
 70
0
  0
VERTEX
  8
1
 42
1.0
 10
8.1715954E+001
 20
1.2219108E+002
 70
0
  0
VERTEX
  8
1
 42
0.0
 10
8.1715954E+001
 20
1.2119108E+002
 70
0
  0
SEQEND
  0
POLYLINE
  8
1
  6
CONTINUOUS
 62
3
 66
1
 40
5.0E-001
 41
5.0E-001
 70
0
  0
VERTEX
  8
1
 42
0.0
 10
1.0621588E+002
 20
1.2219108E+002
 70
0
  0
VERTEX
  8
1
 42
0.0
 10
1.0971588E+002
 20
1.2219108E+002
 70
0
  0
SEQEND
  0
POLYLINE
  8
1
  6
CONTINUOUS
 62
3
 66
1
 40
5.0E-001
 41
5.0E-001
 70
0
  0
VERTEX
  8
1
 42
4.1421366E-001
 10
1.0621588E+002
 20
1.3129109E+002
 70
0
  0
VERTEX
  8
1
 42
0.0
 10
1.0571588E+002
 20
1.3179109E+002
 70
0
  0
SEQEND
  0
POLYLINE
  8
1
  6
CONTINUOUS
 62
3
 66
1
 40
5.0E-001
 41
5.0E-001
 70
0
  0
VERTEX
  8
1
 42
4.1421356E-001
 10
8.5715954E+001
 20
1.3179109E+002
 70
0
  0
VERTEX
  8
1
 42
0.0
 10
8.5215954E+001
 20
1.3129109E+002
 70
0
  0
SEQEND
  0
POLYLINE
  8
1
  6
CONTINUOUS
 62
3
 66
1
 40
5.0E-001
 41
5.0E-001
 70
0
  0
VERTEX
  8
1
 42
0.0
 10
1.0971588E+002
 20
1.3029109E+002
 70
0
  0
VERTEX
  8
1
 42
0.0
 10
1.0621588E+002
 20
1.3029109E+002
 70
0
  0
SEQEND
  0
POLYLINE
  8
1
  6
CONTINUOUS
 62
3
 66
1
 40
5.0E-001
 41
5.0E-001
 70
0
  0
VERTEX
  8
1
 42
0.0
 10
8.5215954E+001
 20
1.3029109E+002
 70
0
  0
VERTEX
  8
1
 42
0.0
 10
8.1715954E+001
 20
1.3029109E+002
 70
0
  0
SEQEND
  0
POLYLINE
  8
1
  6
CONTINUOUS
 62
3
 66
1
 40
5.0E-001
 41
5.0E-001
 70
0
  0
VERTEX
  8
1
 42
1.0
 10
8.1715954E+001
 20
1.3179109E+002
 70
0
  0
VERTEX
  8
1
 42
0.0
 10
8.1715954E+001
 20
1.3029109E+002
 70
0
  0
SEQEND
  0
POLYLINE
  8
1
  6
CONTINUOUS
 62
3
 66
1
 40
5.0E-001
 41
5.0E-001
 70
0
  0
VERTEX
  8
1
 42
1.0000002
 10
1.0971588E+002
 20
1.3029109E+002
 70
0
  0
VERTEX
  8
1
 42
0.0
 10
1.0971588E+002
 20
1.3179109E+002
 70
0
  0
SEQEND
  0
POLYLINE
  8
1
  6
CONTINUOUS
 62
3
 66
1
 40
5.0E-001
 41
5.0E-001
 70
0
  0
VERTEX
  8
1
 42
0.0
 10
9.9715984E+001
 20
8.4291062E+001
 70
0
  0
VERTEX
  8
1
 42
0.0
 10
9.8515984E+001
 20
8.4291062E+001
 70
0
  0
SEQEND
  0
POLYLINE
  8
1
  6
CONTINUOUS
 62
3
 66
1
 40
5.0E-001
 41
5.0E-001
 70
0
  0
VERTEX
  8
1
 42
0.0
 10
9.2265954E+001
 20
8.7791082E+001
 70
0
  0
VERTEX
  8
1
 42
0.0
 10
9.2265954E+001
 20
8.4291062E+001
 70
0
  0
SEQEND
  0
POLYLINE
  8
1
  6
CONTINUOUS
 62
3
 66
1
 40
5.0E-001
 41
5.0E-001
 70
0
  0
VERTEX
  8
1
 42
0.0
 10
9.9165984E+001
 20
8.7791082E+001
 70
0
  0
VERTEX
  8
1
 42
0.0
 10
9.9165984E+001
 20
8.4291062E+001
 70
0
  0
SEQEND
  0
POLYLINE
  8
1
  6
CONTINUOUS
 62
3
 66
1
 40
5.0E-001
 41
5.0E-001
 70
0
  0
VERTEX
  8
1
 42
4.1421356E-001
 10
9.9715984E+001
 20
8.4291062E+001
 70
0
  0
VERTEX
  8
1
 42
0.0
 10
1.0051598E+002
 20
8.5091062E+001
 70
0
  0
SEQEND
  0
POLYLINE
  8
1
  6
CONTINUOUS
 62
3
 66
1
 40
5.0E-001
 41
5.0E-001
 70
0
  0
VERTEX
  8
1
 42
4.1421356E-001
 10
9.0915964E+001
 20
8.5091062E+001
 70
0
  0
VERTEX
  8
1
 42
0.0
 10
9.1715964E+001
 20
8.4291062E+001
 70
0
  0
SEQEND
  0
POLYLINE
  8
1
  6
CONTINUOUS
 62
3
 66
1
 40
5.0E-001
 41
5.0E-001
 70
0
  0
VERTEX
  8
1
 42
0.0
 10
9.2915954E+001
 20
8.4291062E+001
 70
0
  0
VERTEX
  8
1
 42
0.0
 10
9.1715964E+001
 20
8.4291062E+001
 70
0
  0
SEQEND
  0
INSERT
  2
*E658
  8
1
 10
8.4215944E+001
 20
2.4047199E+002
 41
1.0
 42
1.0
 43
1.0
 50
2.7E+002
 62
3
  0
INSERT
  2
*E659
  8
1
 10
1.0721598E+002
 20
2.4047199E+002
 41
1.0
 42
1.0
 43
1.0
 50
2.7E+002
 62
3
  0
POLYLINE
  8
1
  6
CONTINUOUS
 62
3
 66
1
 40
5.0E-001
 41
5.0E-001
 70
0
  0
VERTEX
  8
1
 42
0.0
 10
1.0721598E+002
 20
2.4347199E+002
 70
0
  0
VERTEX
  8
1
 42
0.0
 10
8.4215944E+001
 20
2.4347199E+002
 70
0
  0
SEQEND
  0
POLYLINE
  8
1
  6
CONTINUOUS
 62
3
 66
1
 40
5.0E-001
 41
5.0E-001
 70
0
  0
VERTEX
  8
1
 42
0.0
 10
8.1215944E+001
 20
2.1887199E+002
 70
0
  0
VERTEX
  8
1
 42
0.0
 10
8.1215944E+001
 20
2.4047199E+002
 70
0
  0
SEQEND
  0
POLYLINE
  8
1
  6
CONTINUOUS
 62
3
 66
1
 40
5.0E-001
 41
5.0E-001
 70
0
  0
VERTEX
  8
1
 42
0.0
 10
1.1021598E+002
 20
2.1887199E+002
 70
0
  0
VERTEX
  8
1
 42
0.0
 10
1.1021598E+002
 20
2.4047199E+002
 70
0
  0
SEQEND
  0
POLYLINE
  8
1
  6
CONTINUOUS
 62
3
 66
1
 40
5.0E-001
 41
5.0E-001
 70
0
  0
VERTEX
  8
1
 42
0.0
 10
8.1215944E+001
 20
2.1887199E+002
 70
0
  0
VERTEX
  8
1
 42
0.0
 10
9.2915944E+001
 20
2.1887199E+002
 70
0
  0
SEQEND
  0
POLYLINE
  8
1
  6
CONTINUOUS
 62
3
 66
1
 40
5.0E-001
 41
5.0E-001
 70
0
  0
VERTEX
  8
1
 42
0.0
 10
8.6015964E+001
 20
2.4547199E+002
 70
0
  0
VERTEX
  8
1
 42
0.0
 10
1.0541598E+002
 20
2.4547199E+002
 70
0
  0
SEQEND
  0
POLYLINE
  8
1
  6
CONTINUOUS
 62
3
 66
1
 40
5.0E-001
 41
5.0E-001
 70
0
  0
VERTEX
  8
1
 42
0.0
 10
8.5215974E+001
 20
2.4347199E+002
 70
0
  0
VERTEX
  8
1
 42
0.0
 10
8.5215974E+001
 20
2.4467199E+002
 70
0
  0
SEQEND
  0
POLYLINE
  8
1
  6
CONTINUOUS
 62
3
 66
1
 40
5.0E-001
 41
5.0E-001
 70
0
  0
VERTEX
  8
1
 42
0.0
 10
1.0621598E+002
 20
2.4347199E+002
 70
0
  0
VERTEX
  8
1
 42
0.0
 10
1.0621598E+002
 20
2.4467199E+002
 70
0
  0
SEQEND
  0
POLYLINE
  8
1
  6
CONTINUOUS
 62
3
 66
1
 40
5.0E-001
 41
5.0E-001
 70
0
  0
VERTEX
  8
1
 42
4.1421356E-001
 10
1.0621598E+002
 20
2.4467199E+002
 70
0
  0
VERTEX
  8
1
 42
0.0
 10
1.0541598E+002
 20
2.4547199E+002
 70
0
  0
SEQEND
  0
POLYLINE
  8
1
  6
CONTINUOUS
 62
3
 66
1
 40
5.0E-001
 41
5.0E-001
 70
0
  0
VERTEX
  8
1
 42
4.1421356E-001
 10
8.6015964E+001
 20
2.4547199E+002
 70
0
  0
VERTEX
  8
1
 42
0.0
 10
8.5215964E+001
 20
2.4467199E+002
 70
0
  0
SEQEND
  0
LINE
  8
1
  6
PHANTOM
 62
4
 10
8.2215934E+001
 20
1.6967199E+002
 11
8.2215934E+001
 21
1.7387199E+002
  0
POLYLINE
  8
1
  6
CONTINUOUS
 62
3
 66
1
 40
5.0E-001
 41
5.0E-001
 70
0
  0
VERTEX
  8
1
 42
0.0
 10
1.1681588E+002
 20
1.3099109E+002
 70
0
  0
VERTEX
  8
1
 42
0.0
 10
1.1681588E+002
 20
1.3094109E+002
 70
0
  0
SEQEND
  0
POLYLINE
  8
1
  6
CONTINUOUS
 62
3
 66
1
 40
5.0E-001
 41
5.0E-001
 70
0
  0
VERTEX
  8
1
 42
0.0
 10
1.1701588E+002
 20
1.0954105E+002
 70
0
  0
VERTEX
  8
1
 42
0.0
 10
1.1681588E+002
 20
1.0954105E+002
 70
0
  0
SEQEND
  0
POLYLINE
  8
1
  6
CONTINUOUS
 62
3
 66
1
 40
5.0E-001
 41
5.0E-001
 70
0
  0
VERTEX
  8
1
 42
0.0
 10
1.1701588E+002
 20
1.0654105E+002
 70
0
  0
VERTEX
  8
1
 42
0.0
 10
1.1681588E+002
 20
1.0654105E+002
 70
0
  0
SEQEND
  0
LINE
  8
1
  6
PHANTOM
 62
4
 10
1.0821598E+002
 20
1.6937199E+002
 11
1.0821598E+002
 21
1.7357199E+002
  0
POLYLINE
  8
1
  6
CONTINUOUS
 62
3
 66
1
 40
5.0E-001
 41
5.0E-001
 70
0
  0
VERTEX
  8
1
 42
0.0
 10
1.1831588E+002
 20
1.1004105E+002
 70
0
  0
VERTEX
  8
1
 42
0.0
 10
1.1831588E+002
 20
1.0604105E+002
 70
0
  0
SEQEND
  0
POLYLINE
  8
1
  6
CONTINUOUS
 62
3
 66
1
 40
5.0E-001
 41
5.0E-001
 70
0
  0
VERTEX
  8
1
 42
0.0
 10
1.1831588E+002
 20
1.1004105E+002
 70
0
  0
VERTEX
  8
1
 42
0.0
 10
1.1811598E+002
 20
1.1004105E+002
 70
0
  0
SEQEND
  0
POLYLINE
  8
1
  6
CONTINUOUS
 62
3
 66
1
 40
5.0E-001
 41
5.0E-001
 70
0
  0
VERTEX
  8
1
 42
0.0
 10
1.1831588E+002
 20
1.0604105E+002
 70
0
  0
VERTEX
  8
1
 42
0.0
 10
1.1811598E+002
 20
1.0604105E+002
 70
0
  0
SEQEND
  0
POLYLINE
  8
1
  6
CONTINUOUS
 62
3
 66
1
 40
5.0E-001
 41
5.0E-001
 70
0
  0
VERTEX
  8
1
 42
0.0
 10
1.1701588E+002
 20
1.0954105E+002
 70
0
  0
VERTEX
  8
1
 42
0.0
 10
1.1811598E+002
 20
1.1004105E+002
 70
0
  0
SEQEND
  0
POLYLINE
  8
1
  6
CONTINUOUS
 62
3
 66
1
 40
5.0E-001
 41
5.0E-001
 70
0
  0
VERTEX
  8
1
 42
0.0
 10
1.1701588E+002
 20
1.0654105E+002
 70
0
  0
VERTEX
  8
1
 42
0.0
 10
1.1811598E+002
 20
1.0604105E+002
 70
0
  0
SEQEND
  0
POLYLINE
  8
1
  6
CONTINUOUS
 62
3
 66
1
 40
5.0E-001
 41
5.0E-001
 70
0
  0
VERTEX
  8
1
 42
0.0
 10
1.1646588E+002
 20
1.2204105E+002
 70
0
  0
VERTEX
  8
1
 42
0.0
 10
1.1571598E+002
 20
1.2204105E+002
 70
0
  0
SEQEND
  0
POLYLINE
  8
1
  6
CONTINUOUS
 62
3
 66
1
 40
5.0E-001
 41
5.0E-001
 70
0
  0
VERTEX
  8
1
 42
0.0
 10
1.1646588E+002
 20
1.2134106E+002
 70
0
  0
VERTEX
  8
1
 42
0.0
 10
1.1571598E+002
 20
1.2134106E+002
 70
0
  0
SEQEND
  0
POLYLINE
  8
1
  6
CONTINUOUS
 62
3
 66
1
 40
5.0E-001
 41
5.0E-001
 70
0
  0
VERTEX
  8
1
 42
0.0
 10
1.1631588E+002
 20
1.3044109E+002
 70
0
  0
VERTEX
  8
1
 42
0.0
 10
1.1571598E+002
 20
1.3044109E+002
 70
0
  0
SEQEND
  0
POLYLINE
  8
1
  6
CONTINUOUS
 62
3
 66
1
 40
5.0E-001
 41
5.0E-001
 70
0
  0
VERTEX
  8
1
 42
0.0
 10
1.1686598E+002
 20
1.2784109E+002
 70
0
  0
VERTEX
  8
1
 42
0.0
 10
1.1571598E+002
 20
1.2784109E+002
 70
0
  0
SEQEND
  0
POLYLINE
  8
1
  6
CONTINUOUS
 62
3
 66
1
 40
5.0E-001
 41
5.0E-001
 70
0
  0
VERTEX
  8
1
 42
0.0
 10
1.1641588E+002
 20
1.3044109E+002
 70
0
  0
VERTEX
  8
1
 42
0.0
 10
1.1641588E+002
 20
1.2784109E+002
 70
0
  0
SEQEND
  0
POLYLINE
  8
1
  6
CONTINUOUS
 62
3
 66
1
 40
5.0E-001
 41
5.0E-001
 70
0
  0
VERTEX
  8
1
 42
0.0
 10
1.1646588E+002
 20
1.1294106E+002
 70
0
  0
VERTEX
  8
1
 42
0.0
 10
1.1571598E+002
 20
1.1294106E+002
 70
0
  0
SEQEND
  0
POLYLINE
  8
1
  6
CONTINUOUS
 62
3
 66
1
 40
5.0E-001
 41
5.0E-001
 70
0
  0
VERTEX
  8
1
 42
0.0
 10
1.1646588E+002
 20
1.1224107E+002
 70
0
  0
VERTEX
  8
1
 42
0.0
 10
1.1571598E+002
 20
1.1224107E+002
 70
0
  0
SEQEND
  0
POLYLINE
  8
1
  6
CONTINUOUS
 62
3
 66
1
 40
5.0E-001
 41
5.0E-001
 70
0
  0
VERTEX
  8
1
 42
0.0
 10
1.1646588E+002
 20
1.0384106E+002
 70
0
  0
VERTEX
  8
1
 42
0.0
 10
1.1571598E+002
 20
1.0384106E+002
 70
0
  0
SEQEND
  0
POLYLINE
  8
1
  6
CONTINUOUS
 62
3
 66
1
 40
5.0E-001
 41
5.0E-001
 70
0
  0
VERTEX
  8
1
 42
0.0
 10
1.1646588E+002
 20
1.0314106E+002
 70
0
  0
VERTEX
  8
1
 42
0.0
 10
1.1571598E+002
 20
1.0314106E+002
 70
0
  0
SEQEND
  0
POLYLINE
  8
1
  6
CONTINUOUS
 62
3
 66
1
 40
5.0E-001
 41
5.0E-001
 70
0
  0
VERTEX
  8
1
 42
0.0
 10
1.1646588E+002
 20
9.4741072E+001
 70
0
  0
VERTEX
  8
1
 42
0.0
 10
1.1571598E+002
 20
9.4741072E+001
 70
0
  0
SEQEND
  0
POLYLINE
  8
1
  6
CONTINUOUS
 62
3
 66
1
 40
5.0E-001
 41
5.0E-001
 70
0
  0
VERTEX
  8
1
 42
0.0
 10
1.1571598E+002
 20
9.3741072E+001
 70
0
  0
VERTEX
  8
1
 42
0.0
 10
1.1686598E+002
 20
9.3741072E+001
 70
0
  0
SEQEND
  0
POLYLINE
  8
1
  6
CONTINUOUS
 62
3
 66
1
 40
5.0E-001
 41
5.0E-001
 70
0
  0
VERTEX
  8
1
 42
0.0
 10
1.1681588E+002
 20
8.5141072E+001
 70
0
  0
VERTEX
  8
1
 42
0.0
 10
1.1681588E+002
 20
8.5091082E+001
 70
0
  0
SEQEND
  0
POLYLINE
  8
1
  6
CONTINUOUS
 62
3
 66
1
 40
5.0E-001
 41
5.0E-001
 70
0
  0
VERTEX
  8
1
 42
0.0
 10
1.1686598E+002
 20
8.8241072E+001
 70
0
  0
VERTEX
  8
1
 42
0.0
 10
1.1571598E+002
 20
8.8241072E+001
 70
0
  0
SEQEND
  0
POLYLINE
  8
1
  6
CONTINUOUS
 62
3
 66
1
 40
5.0E-001
 41
5.0E-001
 70
0
  0
VERTEX
  8
1
 42
0.0
 10
1.1641588E+002
 20
8.8241072E+001
 70
0
  0
VERTEX
  8
1
 42
0.0
 10
1.1641588E+002
 20
8.5641072E+001
 70
0
  0
SEQEND
  0
POLYLINE
  8
1
  6
CONTINUOUS
 62
3
 66
1
 40
5.0E-001
 41
5.0E-001
 70
0
  0
VERTEX
  8
1
 42
0.0
 10
1.1571598E+002
 20
1.2234106E+002
 70
0
  0
VERTEX
  8
1
 42
0.0
 10
1.1686598E+002
 20
1.2234106E+002
 70
0
  0
SEQEND
  0
POLYLINE
  8
1
  6
CONTINUOUS
 62
3
 66
1
 40
5.0E-001
 41
5.0E-001
 70
0
  0
VERTEX
  8
1
 42
0.0
 10
1.1681598E+002
 20
8.8241072E+001
 70
0
  0
VERTEX
  8
1
 42
0.0
 10
1.1681598E+002
 20
8.5091072E+001
 70
0
  0
SEQEND
  0
POLYLINE
  8
1
  6
CONTINUOUS
 62
3
 66
1
 40
5.0E-001
 41
5.0E-001
 70
0
  0
VERTEX
  8
1
 42
0.0
 10
1.1686598E+002
 20
1.2784109E+002
 70
0
  0
VERTEX
  8
1
 42
0.0
 10
1.1686598E+002
 20
1.2234106E+002
 70
0
  0
SEQEND
  0
POLYLINE
  8
1
  6
CONTINUOUS
 62
3
 66
1
 40
5.0E-001
 41
5.0E-001
 70
0
  0
VERTEX
  8
1
 42
0.0
 10
1.1686598E+002
 20
9.3741072E+001
 70
0
  0
VERTEX
  8
1
 42
0.0
 10
1.1686598E+002
 20
8.8241072E+001
 70
0
  0
SEQEND
  0
POLYLINE
  8
1
  6
CONTINUOUS
 62
3
 66
1
 40
5.0E-001
 41
5.0E-001
 70
0
  0
VERTEX
  8
1
 42
0.0
 10
1.1681588E+002
 20
1.3044109E+002
 70
0
  0
VERTEX
  8
1
 42
0.0
 10
1.1681588E+002
 20
1.3099109E+002
 70
0
  0
SEQEND
  0
POLYLINE
  8
1
  6
CONTINUOUS
 62
3
 66
1
 40
5.0E-001
 41
5.0E-001
 70
0
  0
VERTEX
  8
1
 42
0.0
 10
1.1641588E+002
 20
1.3014109E+002
 70
0
  0
VERTEX
  8
1
 42
0.0
 10
1.1681588E+002
 20
1.3044109E+002
 70
0
  0
SEQEND
  0
POLYLINE
  8
1
  6
CONTINUOUS
 62
3
 66
1
 40
5.0E-001
 41
5.0E-001
 70
0
  0
VERTEX
  8
1
 42
0.0
 10
1.1681588E+002
 20
8.5136442E+001
 70
0
  0
VERTEX
  8
1
 42
0.0
 10
1.1681588E+002
 20
8.5641072E+001
 70
0
  0
SEQEND
  0
POLYLINE
  8
1
  6
CONTINUOUS
 62
3
 66
1
 40
5.0E-001
 41
5.0E-001
 70
0
  0
VERTEX
  8
1
 42
0.0
 10
1.1641588E+002
 20
8.5941072E+001
 70
0
  0
VERTEX
  8
1
 42
0.0
 10
1.1681588E+002
 20
8.5641072E+001
 70
0
  0
SEQEND
  0
POLYLINE
  8
1
  6
CONTINUOUS
 62
3
 66
1
 40
5.0E-001
 41
5.0E-001
 70
0
  0
VERTEX
  8
1
 42
0.0
 10
1.1681588E+002
 20
1.1054105E+002
 70
0
  0
VERTEX
  8
1
 42
0.0
 10
1.1571598E+002
 20
1.1054105E+002
 70
0
  0
SEQEND
  0
POLYLINE
  8
1
  6
CONTINUOUS
 62
3
 66
1
 40
5.0E-001
 41
5.0E-001
 70
0
  0
VERTEX
  8
1
 42
0.0
 10
1.1681588E+002
 20
1.0554105E+002
 70
0
  0
VERTEX
  8
1
 42
0.0
 10
1.1571598E+002
 20
1.0554105E+002
 70
0
  0
SEQEND
  0
POLYLINE
  8
1
  6
CONTINUOUS
 62
3
 66
1
 40
5.0E-001
 41
5.0E-001
 70
0
  0
VERTEX
  8
1
 42
0.0
 10
7.4615934E+001
 20
1.3099109E+002
 70
0
  0
VERTEX
  8
1
 42
0.0
 10
7.4615934E+001
 20
1.3094109E+002
 70
0
  0
SEQEND
  0
POLYLINE
  8
1
  6
CONTINUOUS
 62
3
 66
1
 40
5.0E-001
 41
5.0E-001
 70
0
  0
VERTEX
  8
1
 42
0.0
 10
7.4415914E+001
 20
1.0954105E+002
 70
0
  0
VERTEX
  8
1
 42
0.0
 10
7.4615934E+001
 20
1.0954105E+002
 70
0
  0
SEQEND
  0
POLYLINE
  8
1
  6
CONTINUOUS
 62
3
 66
1
 40
5.0E-001
 41
5.0E-001
 70
0
  0
VERTEX
  8
1
 42
0.0
 10
7.4415914E+001
 20
1.0654105E+002
 70
0
  0
VERTEX
  8
1
 42
0.0
 10
7.4615934E+001
 20
1.0654105E+002
 70
0
  0
SEQEND
  0
LINE
  8
1
  6
PHANTOM
 62
4
 10
8.3215934E+001
 20
1.6937199E+002
 11
8.3215934E+001
 21
1.7357199E+002
  0
POLYLINE
  8
1
  6
CONTINUOUS
 62
3
 66
1
 40
5.0E-001
 41
5.0E-001
 70
0
  0
VERTEX
  8
1
 42
0.0
 10
7.4966024E+001
 20
1.2204105E+002
 70
0
  0
VERTEX
  8
1
 42
0.0
 10
7.5715924E+001
 20
1.2204105E+002
 70
0
  0
SEQEND
  0
POLYLINE
  8
1
  6
CONTINUOUS
 62
3
 66
1
 40
5.0E-001
 41
5.0E-001
 70
0
  0
VERTEX
  8
1
 42
0.0
 10
7.4966024E+001
 20
1.2134106E+002
 70
0
  0
VERTEX
  8
1
 42
0.0
 10
7.5715924E+001
 20
1.2134106E+002
 70
0
  0
SEQEND
  0
POLYLINE
  8
1
  6
CONTINUOUS
 62
3
 66
1
 40
5.0E-001
 41
5.0E-001
 70
0
  0
VERTEX
  8
1
 42
0.0
 10
7.5115934E+001
 20
1.3044109E+002
 70
0
  0
VERTEX
  8
1
 42
0.0
 10
7.5715924E+001
 20
1.3044109E+002
 70
0
  0
SEQEND
  0
POLYLINE
  8
1
  6
CONTINUOUS
 62
3
 66
1
 40
5.0E-001
 41
5.0E-001
 70
0
  0
VERTEX
  8
1
 42
0.0
 10
7.4565944E+001
 20
1.2784109E+002
 70
0
  0
VERTEX
  8
1
 42
0.0
 10
7.5715924E+001
 20
1.2784109E+002
 70
0
  0
SEQEND
  0
POLYLINE
  8
1
  6
CONTINUOUS
 62
3
 66
1
 40
5.0E-001
 41
5.0E-001
 70
0
  0
VERTEX
  8
1
 42
0.0
 10
7.5015924E+001
 20
1.3044109E+002
 70
0
  0
VERTEX
  8
1
 42
0.0
 10
7.5015924E+001
 20
1.2784109E+002
 70
0
  0
SEQEND
  0
POLYLINE
  8
1
  6
CONTINUOUS
 62
3
 66
1
 40
5.0E-001
 41
5.0E-001
 70
0
  0
VERTEX
  8
1
 42
0.0
 10
7.4966024E+001
 20
1.1294106E+002
 70
0
  0
VERTEX
  8
1
 42
0.0
 10
7.5715924E+001
 20
1.1294106E+002
 70
0
  0
SEQEND
  0
POLYLINE
  8
1
  6
CONTINUOUS
 62
3
 66
1
 40
5.0E-001
 41
5.0E-001
 70
0
  0
VERTEX
  8
1
 42
0.0
 10
7.4966024E+001
 20
1.1224107E+002
 70
0
  0
VERTEX
  8
1
 42
0.0
 10
7.5715924E+001
 20
1.1224107E+002
 70
0
  0
SEQEND
  0
POLYLINE
  8
1
  6
CONTINUOUS
 62
3
 66
1
 40
5.0E-001
 41
5.0E-001
 70
0
  0
VERTEX
  8
1
 42
0.0
 10
7.4966024E+001
 20
1.0384106E+002
 70
0
  0
VERTEX
  8
1
 42
0.0
 10
7.5715924E+001
 20
1.0384106E+002
 70
0
  0
SEQEND
  0
POLYLINE
  8
1
  6
CONTINUOUS
 62
3
 66
1
 40
5.0E-001
 41
5.0E-001
 70
0
  0
VERTEX
  8
1
 42
0.0
 10
7.4966024E+001
 20
1.0314106E+002
 70
0
  0
VERTEX
  8
1
 42
0.0
 10
7.5715924E+001
 20
1.0314106E+002
 70
0
  0
SEQEND
  0
POLYLINE
  8
1
  6
CONTINUOUS
 62
3
 66
1
 40
5.0E-001
 41
5.0E-001
 70
0
  0
VERTEX
  8
1
 42
0.0
 10
7.5024404E+001
 20
9.4741072E+001
 70
0
  0
VERTEX
  8
1
 42
0.0
 10
7.5715924E+001
 20
9.4741072E+001
 70
0
  0
SEQEND
  0
POLYLINE
  8
1
  6
CONTINUOUS
 62
3
 66
1
 40
5.0E-001
 41
5.0E-001
 70
0
  0
VERTEX
  8
1
 42
0.0
 10
7.4966024E+001
 20
9.4041072E+001
 70
0
  0
VERTEX
  8
1
 42
0.0
 10
7.5715924E+001
 20
9.4041072E+001
 70
0
  0
SEQEND
  0
POLYLINE
  8
1
  6
CONTINUOUS
 62
3
 66
1
 40
5.0E-001
 41
5.0E-001
 70
0
  0
VERTEX
  8
1
 42
0.0
 10
7.5715924E+001
 20
9.3741072E+001
 70
0
  0
VERTEX
  8
1
 42
0.0
 10
7.4565944E+001
 20
9.3741072E+001
 70
0
  0
SEQEND
  0
POLYLINE
  8
1
  6
CONTINUOUS
 62
3
 66
1
 40
5.0E-001
 41
5.0E-001
 70
0
  0
VERTEX
  8
1
 42
0.0
 10
7.5115934E+001
 20
8.5641072E+001
 70
0
  0
VERTEX
  8
1
 42
0.0
 10
7.5715924E+001
 20
8.5641072E+001
 70
0
  0
SEQEND
  0
INSERT
  2
*E720
  8
1
 10
7.5415914E+001
 20
8.5091082E+001
 41
1.0
 42
1.0
 43
1.0
 50
2.7E+002
 62
3
  0
POLYLINE
  8
1
  6
CONTINUOUS
 62
3
 66
1
 40
5.0E-001
 41
5.0E-001
 70
0
  0
VERTEX
  8
1
 42
0.0
 10
7.4615934E+001
 20
8.5141072E+001
 70
0
  0
VERTEX
  8
1
 42
0.0
 10
7.4615934E+001
 20
8.5091082E+001
 70
0
  0
SEQEND
  0
POLYLINE
  8
1
  6
CONTINUOUS
 62
3
 66
1
 40
5.0E-001
 41
5.0E-001
 70
0
  0
VERTEX
  8
1
 42
4.1421351E-001
 10
7.5115934E+001
 20
8.5641072E+001
 70
0
  0
VERTEX
  8
1
 42
0.0
 10
7.4615934E+001
 20
8.5141072E+001
 70
0
  0
SEQEND
  0
POLYLINE
  8
1
  6
CONTINUOUS
 62
3
 66
1
 40
5.0E-001
 41
5.0E-001
 70
0
  0
VERTEX
  8
1
 42
0.0
 10
7.4565944E+001
 20
8.8241072E+001
 70
0
  0
VERTEX
  8
1
 42
0.0
 10
7.5715924E+001
 20
8.8241072E+001
 70
0
  0
SEQEND
  0
POLYLINE
  8
1
  6
CONTINUOUS
 62
3
 66
1
 40
5.0E-001
 41
5.0E-001
 70
0
  0
VERTEX
  8
1
 42
0.0
 10
7.5015924E+001
 20
8.8241072E+001
 70
0
  0
VERTEX
  8
1
 42
0.0
 10
7.5015924E+001
 20
8.5641072E+001
 70
0
  0
SEQEND
  0
POLYLINE
  8
1
  6
CONTINUOUS
 62
3
 66
1
 40
5.0E-001
 41
5.0E-001
 70
0
  0
VERTEX
  8
1
 42
0.0
 10
7.5715924E+001
 20
1.2234106E+002
 70
0
  0
VERTEX
  8
1
 42
0.0
 10
7.4565944E+001
 20
1.2234106E+002
 70
0
  0
SEQEND
  0
POLYLINE
  8
1
  6
CONTINUOUS
 62
3
 66
1
 40
5.0E-001
 41
5.0E-001
 70
0
  0
VERTEX
  8
1
 42
0.0
 10
7.4565944E+001
 20
1.2784109E+002
 70
0
  0
VERTEX
  8
1
 42
0.0
 10
7.4565944E+001
 20
1.2234106E+002
 70
0
  0
SEQEND
  0
POLYLINE
  8
1
  6
CONTINUOUS
 62
3
 66
1
 40
5.0E-001
 41
5.0E-001
 70
0
  0
VERTEX
  8
1
 42
0.0
 10
7.4565944E+001
 20
9.3741072E+001
 70
0
  0
VERTEX
  8
1
 42
0.0
 10
7.4565944E+001
 20
8.8241072E+001
 70
0
  0
SEQEND
  0
POLYLINE
  8
1
  6
CONTINUOUS
 62
3
 66
1
 40
5.0E-001
 41
5.0E-001
 70
0
  0
VERTEX
  8
1
 42
0.0
 10
7.4615934E+001
 20
1.3044109E+002
 70
0
  0
VERTEX
  8
1
 42
0.0
 10
7.4615934E+001
 20
1.3099109E+002
 70
0
  0
SEQEND
  0
POLYLINE
  8
1
  6
CONTINUOUS
 62
3
 66
1
 40
5.0E-001
 41
5.0E-001
 70
0
  0
VERTEX
  8
1
 42
0.0
 10
7.5015924E+001
 20
1.3014109E+002
 70
0
  0
VERTEX
  8
1
 42
0.0
 10
7.4615934E+001
 20
1.3044109E+002
 70
0
  0
SEQEND
  0
POLYLINE
  8
1
  6
CONTINUOUS
 62
3
 66
1
 40
5.0E-001
 41
5.0E-001
 70
0
  0
VERTEX
  8
1
 42
0.0
 10
7.4615934E+001
 20
8.5136442E+001
 70
0
  0
VERTEX
  8
1
 42
0.0
 10
7.4615934E+001
 20
8.5641072E+001
 70
0
  0
SEQEND
  0
POLYLINE
  8
1
  6
CONTINUOUS
 62
3
 66
1
 40
5.0E-001
 41
5.0E-001
 70
0
  0
VERTEX
  8
1
 42
0.0
 10
7.5015924E+001
 20
8.5941072E+001
 70
0
  0
VERTEX
  8
1
 42
0.0
 10
7.4615934E+001
 20
8.5641072E+001
 70
0
  0
SEQEND
  0
POLYLINE
  8
1
  6
CONTINUOUS
 62
3
 66
1
 40
5.0E-001
 41
5.0E-001
 70
0
  0
VERTEX
  8
1
 42
0.0
 10
7.4615934E+001
 20
1.1054105E+002
 70
0
  0
VERTEX
  8
1
 42
0.0
 10
7.5715924E+001
 20
1.1054105E+002
 70
0
  0
SEQEND
  0
POLYLINE
  8
1
  6
CONTINUOUS
 62
3
 66
1
 40
5.0E-001
 41
5.0E-001
 70
0
  0
VERTEX
  8
1
 42
0.0
 10
7.4615934E+001
 20
1.0554105E+002
 70
0
  0
VERTEX
  8
1
 42
0.0
 10
7.5715924E+001
 20
1.0554105E+002
 70
0
  0
SEQEND
  0
POLYLINE
  8
1
  6
CONTINUOUS
 62
3
 66
1
 40
5.0E-001
 41
5.0E-001
 70
0
  0
VERTEX
  8
1
 42
0.0
 10
7.4415914E+001
 20
1.0654105E+002
 70
0
  0
VERTEX
  8
1
 42
0.0
 10
7.3315924E+001
 20
1.0604105E+002
 70
0
  0
SEQEND
  0
POLYLINE
  8
1
  6
CONTINUOUS
 62
3
 66
1
 40
5.0E-001
 41
5.0E-001
 70
0
  0
VERTEX
  8
1
 42
0.0
 10
7.3115934E+001
 20
1.1004105E+002
 70
0
  0
VERTEX
  8
1
 42
0.0
 10
7.3115934E+001
 20
1.0604105E+002
 70
0
  0
SEQEND
  0
POLYLINE
  8
1
  6
CONTINUOUS
 62
3
 66
1
 40
5.0E-001
 41
5.0E-001
 70
0
  0
VERTEX
  8
1
 42
0.0
 10
7.3115934E+001
 20
1.1004105E+002
 70
0
  0
VERTEX
  8
1
 42
0.0
 10
7.3315924E+001
 20
1.1004105E+002
 70
0
  0
SEQEND
  0
POLYLINE
  8
1
  6
CONTINUOUS
 62
3
 66
1
 40
5.0E-001
 41
5.0E-001
 70
0
  0
VERTEX
  8
1
 42
0.0
 10
7.3115934E+001
 20
1.0604105E+002
 70
0
  0
VERTEX
  8
1
 42
0.0
 10
7.3315924E+001
 20
1.0604105E+002
 70
0
  0
SEQEND
  0
POLYLINE
  8
1
  6
CONTINUOUS
 62
3
 66
1
 40
5.0E-001
 41
5.0E-001
 70
0
  0
VERTEX
  8
1
 42
0.0
 10
7.4415914E+001
 20
1.0954105E+002
 70
0
  0
VERTEX
  8
1
 42
0.0
 10
7.3315924E+001
 20
1.1004105E+002
 70
0
  0
SEQEND
  0
POLYLINE
  8
1
  6
CONTINUOUS
 62
3
 66
1
 40
5.0E-001
 41
5.0E-001
 70
0
  0
VERTEX
  8
1
 42
0.0
 10
9.3315944E+001
 20
2.0907199E+002
 70
0
  0
VERTEX
  8
1
 42
0.0
 10
9.3315944E+001
 20
2.1577199E+002
 70
0
  0
SEQEND
  0
INSERT
  2
*E740
  8
1
 10
1.1601588E+002
 20
1.3099109E+002
 41
1.0
 42
1.0
 43
1.0
 50
2.7E+002
 62
3
  0
POLYLINE
  8
1
  6
CONTINUOUS
 62
3
 66
1
 40
5.0E-001
 41
5.0E-001
 70
0
  0
VERTEX
  8
1
 42
4.1421356E-001
 10
1.1631588E+002
 20
1.3044109E+002
 70
0
  0
VERTEX
  8
1
 42
0.0
 10
1.1681588E+002
 20
1.3094109E+002
 70
0
  0
SEQEND
  0
POLYLINE
  8
1
  6
CONTINUOUS
 62
3
 66
1
 40
5.0E-001
 41
5.0E-001
 70
0
  0
VERTEX
  8
1
 42
1.0000002
 10
1.1646588E+002
 20
1.1224107E+002
 70
0
  0
VERTEX
  8
1
 42
0.0
 10
1.1646588E+002
 20
1.1294107E+002
 70
0
  0
SEQEND
  0
POLYLINE
  8
1
  6
CONTINUOUS
 62
3
 66
1
 40
5.0E-001
 41
5.0E-001
 70
0
  0
VERTEX
  8
1
 42
1.0000002
 10
1.1646588E+002
 20
1.0314106E+002
 70
0
  0
VERTEX
  8
1
 42
0.0
 10
1.1646588E+002
 20
1.0384106E+002
 70
0
  0
SEQEND
  0
POLYLINE
  8
1
  6
CONTINUOUS
 62
3
 66
1
 40
5.0E-001
 41
5.0E-001
 70
0
  0
VERTEX
  8
1
 42
1.0000002
 10
1.1646588E+002
 20
9.4041073E+001
 70
0
  0
VERTEX
  8
1
 42
0.0
 10
1.1646588E+002
 20
9.474107E+001
 70
0
  0
SEQEND
  0
POLYLINE
  8
1
  6
CONTINUOUS
 62
3
 66
1
 40
5.0E-001
 41
5.0E-001
 70
0
  0
VERTEX
  8
1
 42
4.1421356E-001
 10
1.1601588E+002
 20
8.4291082E+001
 70
0
  0
VERTEX
  8
1
 42
0.0
 10
1.1681588E+002
 20
8.5091082E+001
 70
0
  0
SEQEND
  0
INSERT
  2
*E746
  8
1
 10
1.1631588E+002
 20
8.5141072E+001
 41
1.0
 42
1.0
 43
1.0
 50
2.7E+002
 62
3
  0
POLYLINE
  8
1
  6
CONTINUOUS
 62
3
 66
1
 40
5.0E-001
 41
5.0E-001
 70
0
  0
VERTEX
  8
1
 42
4.1421351E-001
 10
7.5415913E+001
 20
1.3179109E+002
 70
0
  0
VERTEX
  8
1
 42
0.0
 10
7.4615914E+001
 20
1.3099109E+002
 70
0
  0
SEQEND
  0
POLYLINE
  8
1
  6
CONTINUOUS
 62
3
 66
1
 40
5.0E-001
 41
5.0E-001
 70
0
  0
VERTEX
  8
1
 42
1.0
 10
7.4966024E+001
 20
1.2204106E+002
 70
0
  0
VERTEX
  8
1
 42
0.0
 10
7.4966024E+001
 20
1.2134106E+002
 70
0
  0
SEQEND
  0
INSERT
  2
*E749
  8
1
 10
7.5115934E+001
 20
1.3094109E+002
 41
1.0
 42
1.0
 43
1.0
 50
2.7E+002
 62
3
  0
POLYLINE
  8
1
  6
CONTINUOUS
 62
3
 66
1
 40
5.0E-001
 41
5.0E-001
 70
0
  0
VERTEX
  8
1
 42
1.0
 10
7.4966024E+001
 20
1.1294107E+002
 70
0
  0
VERTEX
  8
1
 42
0.0
 10
7.4966024E+001
 20
1.1224107E+002
 70
0
  0
SEQEND
  0
POLYLINE
  8
1
  6
CONTINUOUS
 62
3
 66
1
 40
5.0E-001
 41
5.0E-001
 70
0
  0
VERTEX
  8
1
 42
1.0
 10
7.4966024E+001
 20
1.0384106E+002
 70
0
  0
VERTEX
  8
1
 42
0.0
 10
7.4966024E+001
 20
1.0314106E+002
 70
0
  0
SEQEND
  0
POLYLINE
  8
1
  6
CONTINUOUS
 62
3
 66
1
 40
5.0E-001
 41
5.0E-001
 70
0
  0
VERTEX
  8
1
 42
1.080411
 10
7.5024393E+001
 20
9.4741065E+001
 70
0
  0
VERTEX
  8
1
 42
0.0
 10
7.4966006E+001
 20
9.4041079E+001
 70
0
  0
SEQEND
  0
LINE
  8
1
  6
CENTERLINE
 62
1
 10
9.5715934E+001
 20
1.3496159E+002
 11
9.5715934E+001
 21
8.0249472E+001
  0
POLYLINE
  8
1
  6
CONTINUOUS
 62
3
 66
1
 40
5.0E-001
 41
5.0E-001
 70
0
  0
VERTEX
  8
1
 42
0.0
 10
1.1646588E+002
 20
9.4041072E+001
 70
0
  0
VERTEX
  8
1
 42
0.0
 10
1.1571598E+002
 20
9.4041072E+001
 70
0
  0
SEQEND
  0
POLYLINE
  8
1
  6
CONTINUOUS
 62
3
 66
1
 40
5.0E-001
 41
5.0E-001
 70
0
  0
VERTEX
  8
1
 42
0.0
 10
1.1631588E+002
 20
8.5641072E+001
 70
0
  0
VERTEX
  8
1
 42
0.0
 10
1.1571598E+002
 20
8.5641072E+001
 70
0
  0
SEQEND
  0
LINE
  8
1
  6
PHANTOM
 62
4
 10
1.0921598E+002
 20
1.6967199E+002
 11
1.0921598E+002
 21
1.7387199E+002
  0
POLYLINE
  8
1
  6
CONTINUOUS
 62
3
 66
1
 40
5.0E-001
 41
5.0E-001
 70
0
  0
VERTEX
  8
1
 42
0.0
 10
1.1581588E+002
 20
2.1687199E+002
 70
0
  0
VERTEX
  8
1
 42
0.0
 10
1.1681588E+002
 20
2.1587199E+002
 70
0
  0
SEQEND
  0
POLYLINE
  8
1
  6
CONTINUOUS
 62
3
 66
1
 40
5.0E-001
 41
5.0E-001
 70
0
  0
VERTEX
  8
1
 42
0.0
 10
7.5765934E+001
 20
1.9387199E+002
 70
0
  0
VERTEX
  8
1
 42
0.0
 10
7.5765934E+001
 20
1.8387199E+002
 70
0
  0
SEQEND
  0
POLYLINE
  8
1
  6
CONTINUOUS
 62
3
 66
1
 40
5.0E-001
 41
5.0E-001
 70
0
  0
VERTEX
  8
1
 42
0.0
 10
7.4615934E+001
 20
1.9387199E+002
 70
0
  0
VERTEX
  8
1
 42
0.0
 10
7.5765934E+001
 20
1.9387199E+002
 70
0
  0
SEQEND
  0
POLYLINE
  8
1
  6
CONTINUOUS
 62
3
 66
1
 40
5.0E-001
 41
5.0E-001
 70
0
  0
VERTEX
  8
1
 42
0.0
 10
1.1566588E+002
 20
1.9387199E+002
 70
0
  0
VERTEX
  8
1
 42
0.0
 10
1.1681588E+002
 20
1.9387199E+002
 70
0
  0
SEQEND
  0
POLYLINE
  8
1
  6
CONTINUOUS
 62
3
 66
1
 40
5.0E-001
 41
5.0E-001
 70
0
  0
VERTEX
  8
1
 42
0.0
 10
9.8265884E+001
 20
1.8537199E+002
 70
0
  0
VERTEX
  8
1
 42
0.0
 10
9.7765884E+001
 20
1.8587199E+002
 70
0
  0
SEQEND
  0
POLYLINE
  8
1
  6
CONTINUOUS
 62
3
 66
1
 40
5.0E-001
 41
5.0E-001
 70
0
  0
VERTEX
  8
1
 42
0.0
 10
9.3165914E+001
 20
1.8537199E+002
 70
0
  0
VERTEX
  8
1
 42
0.0
 10
9.3665944E+001
 20
1.8587199E+002
 70
0
  0
SEQEND
  0
POLYLINE
  8
1
  6
CONTINUOUS
 62
3
 66
1
 40
5.0E-001
 41
5.0E-001
 70
0
  0
VERTEX
  8
1
 42
0.0
 10
7.5765934E+001
 20
1.8387199E+002
 70
0
  0
VERTEX
  8
1
 42
0.0
 10
7.6265934E+001
 20
1.8337199E+002
 70
0
  0
SEQEND
  0
POLYLINE
  8
1
  6
CONTINUOUS
 62
3
 66
1
 40
5.0E-001
 41
5.0E-001
 70
0
  0
VERTEX
  8
1
 42
0.0
 10
7.3115934E+001
 20
1.9097199E+002
 70
0
  0
VERTEX
  8
1
 42
0.0
 10
7.4615934E+001
 20
1.9097199E+002
 70
0
  0
SEQEND
  0
POLYLINE
  8
1
  6
CONTINUOUS
 62
3
 66
1
 40
5.0E-001
 41
5.0E-001
 70
0
  0
VERTEX
  8
1
 42
0.0
 10
7.3115934E+001
 20
1.9947199E+002
 70
0
  0
VERTEX
  8
1
 42
0.0
 10
7.3115934E+001
 20
1.9097199E+002
 70
0
  0
SEQEND
  0
POLYLINE
  8
1
  6
CONTINUOUS
 62
3
 66
1
 40
5.0E-001
 41
5.0E-001
 70
0
  0
VERTEX
  8
1
 42
0.0
 10
7.3315934E+001
 20
1.9967199E+002
 70
0
  0
VERTEX
  8
1
 42
0.0
 10
7.3315934E+001
 20
1.9097199E+002
 70
0
  0
SEQEND
  0
POLYLINE
  8
1
  6
CONTINUOUS
 62
3
 66
1
 40
5.0E-001
 41
5.0E-001
 70
0
  0
VERTEX
  8
1
 42
0.0
 10
7.4415924E+001
 20
2.0077199E+002
 70
0
  0
VERTEX
  8
1
 42
0.0
 10
7.4415924E+001
 20
1.9097199E+002
 70
0
  0
SEQEND
  0
POLYLINE
  8
1
  6
CONTINUOUS
 62
3
 66
1
 40
5.0E-001
 41
5.0E-001
 70
0
  0
VERTEX
  8
1
 42
0.0
 10
9.3165914E+001
 20
2.0887199E+002
 70
0
  0
VERTEX
  8
1
 42
0.0
 10
9.5715934E+001
 20
2.0887199E+002
 70
0
  0
SEQEND
  0
POLYLINE
  8
1
  6
CONTINUOUS
 62
3
 66
1
 40
5.0E-001
 41
5.0E-001
 70
0
  0
VERTEX
  8
1
 42
0.0
 10
9.3165914E+001
 20
2.1687199E+002
 70
0
  0
VERTEX
  8
1
 42
0.0
 10
9.3165914E+001
 20
2.0887199E+002
 70
0
  0
SEQEND
  0
LINE
  8
1
  6
CENTERLINE
 62
1
 10
9.5715934E+001
 20
1.7110119E+002
 11
9.5715934E+001
 21
2.4770349E+002
  0
POLYLINE
  8
1
  6
CONTINUOUS
 62
3
 66
1
 40
5.0E-001
 41
5.0E-001
 70
0
  0
VERTEX
  8
1
 42
0.0
 10
1.1566588E+002
 20
1.9387199E+002
 70
0
  0
VERTEX
  8
1
 42
0.0
 10
1.1566588E+002
 20
1.8387199E+002
 70
0
  0
SEQEND
  0
POLYLINE
  8
1
  6
CONTINUOUS
 62
3
 66
1
 40
5.0E-001
 41
5.0E-001
 70
0
  0
VERTEX
  8
1
 42
0.0
 10
9.8265884E+001
 20
1.8337199E+002
 70
0
  0
VERTEX
  8
1
 42
0.0
 10
1.1531598E+002
 20
1.8337199E+002
 70
0
  0
SEQEND
  0
LINE
  8
1
  6
PHANTOM
 62
4
 10
1.0971598E+002
 20
1.7437199E+002
 11
1.1321598E+002
 21
1.7437199E+002
  0
POLYLINE
  8
1
  6
CONTINUOUS
 62
3
 66
1
 40
5.0E-001
 41
5.0E-001
 70
0
  0
VERTEX
  8
1
 42
0.0
 10
7.5615934E+001
 20
2.1687199E+002
 70
0
  0
VERTEX
  8
1
 42
0.0
 10
7.4615934E+001
 20
2.1587199E+002
 70
0
  0
SEQEND
  0
POLYLINE
  8
1
  6
CONTINUOUS
 62
3
 66
1
 40
5.0E-001
 41
5.0E-001
 70
0
  0
VERTEX
  8
1
 42
0.0
 10
7.4615934E+001
 20
2.0097199E+002
 70
0
  0
VERTEX
  8
1
 42
0.0
 10
7.3115934E+001
 20
1.9947199E+002
 70
0
  0
SEQEND
  0
POLYLINE
  8
1
  6
CONTINUOUS
 62
3
 66
1
 40
5.0E-001
 41
5.0E-001
 70
0
  0
VERTEX
  8
1
 42
0.0
 10
9.8265884E+001
 20
1.8537199E+002
 70
0
  0
VERTEX
  8
1
 42
0.0
 10
9.8265884E+001
 20
1.8337199E+002
 70
0
  0
SEQEND
  0
POLYLINE
  8
1
  6
CONTINUOUS
 62
3
 66
1
 40
5.0E-001
 41
5.0E-001
 70
0
  0
VERTEX
  8
1
 42
0.0
 10
9.3665944E+001
 20
1.8587199E+002
 70
0
  0
VERTEX
  8
1
 42
0.0
 10
9.7765884E+001
 20
1.8587199E+002
 70
0
  0
SEQEND
  0
POLYLINE
  8
1
  6
CONTINUOUS
 62
3
 66
1
 40
5.0E-001
 41
5.0E-001
 70
0
  0
VERTEX
  8
1
 42
0.0
 10
9.3165914E+001
 20
1.8537199E+002
 70
0
  0
VERTEX
  8
1
 42
0.0
 10
9.3165914E+001
 20
1.8337199E+002
 70
0
  0
SEQEND
  0
POLYLINE
  8
1
  6
CONTINUOUS
 62
3
 66
1
 40
5.0E-001
 41
5.0E-001
 70
0
  0
VERTEX
  8
1
 42
0.0
 10
7.6115964E+001
 20
1.8337199E+002
 70
0
  0
VERTEX
  8
1
 42
0.0
 10
9.3165914E+001
 20
1.8337199E+002
 70
0
  0
SEQEND
  0
POLYLINE
  8
1
  6
CONTINUOUS
 62
3
 66
1
 40
5.0E-001
 41
5.0E-001
 70
0
  0
VERTEX
  8
1
 42
0.0
 10
7.4615934E+001
 20
2.1587199E+002
 70
0
  0
VERTEX
  8
1
 42
0.0
 10
7.4615934E+001
 20
1.9097199E+002
 70
0
  0
SEQEND
  0
POLYLINE
  8
1
  6
CONTINUOUS
 62
3
 66
1
 40
5.0E-001
 41
5.0E-001
 70
0
  0
VERTEX
  8
1
 42
0.0
 10
1.1681588E+002
 20
2.1587199E+002
 70
0
  0
VERTEX
  8
1
 42
0.0
 10
1.1681588E+002
 20
1.9097199E+002
 70
0
  0
SEQEND
  0
POLYLINE
  8
1
  6
CONTINUOUS
 62
3
 66
1
 40
5.0E-001
 41
5.0E-001
 70
0
  0
VERTEX
  8
1
 42
0.0
 10
1.1566588E+002
 20
1.8387199E+002
 70
0
  0
VERTEX
  8
1
 42
0.0
 10
1.1516588E+002
 20
1.8337199E+002
 70
0
  0
SEQEND
  0
POLYLINE
  8
1
  6
CONTINUOUS
 62
3
 66
1
 40
5.0E-001
 41
5.0E-001
 70
0
  0
VERTEX
  8
1
 42
4.1421351E-001
 10
7.6515923E+001
 20
1.3179099E+002
 70
0
  0
VERTEX
  8
1
 42
0.0
 10
7.5715924E+001
 20
1.3099099E+002
 70
0
  0
SEQEND
  0
POLYLINE
  8
1
  6
CONTINUOUS
 62
3
 66
1
 40
5.0E-001
 41
5.0E-001
 70
0
  0
VERTEX
  8
1
 42
4.1421458E-001
 10
7.5715924E+001
 20
8.5091042E+001
 70
0
  0
VERTEX
  8
1
 42
0.0
 10
7.6515926E+001
 20
8.4291042E+001
 70
0
  0
SEQEND
  0
POLYLINE
  8
1
  6
CONTINUOUS
 62
3
 66
1
 40
5.0E-001
 41
5.0E-001
 70
0
  0
VERTEX
  8
1
 42
4.1421356E-001
 10
1.1491598E+002
 20
8.4291042E+001
 70
0
  0
VERTEX
  8
1
 42
0.0
 10
1.1571598E+002
 20
8.5091042E+001
 70
0
  0
SEQEND
  0
POLYLINE
  8
1
  6
CONTINUOUS
 62
3
 66
1
 40
5.0E-001
 41
5.0E-001
 70
0
  0
VERTEX
  8
1
 42
4.1421356E-001
 10
1.1571598E+002
 20
1.3099099E+002
 70
0
  0
VERTEX
  8
1
 42
0.0
 10
1.1491598E+002
 20
1.3179099E+002
 70
0
  0
SEQEND
  0
POLYLINE
  8
1
  6
CONTINUOUS
 62
3
 66
1
 40
5.0E-001
 41
5.0E-001
 70
0
  0
VERTEX
  8
1
 42
3.4642301
 10
8.5215951E+001
 20
1.2762659E+002
 70
0
  0
VERTEX
  8
1
 42
0.0
 10
8.5215951E+001
 20
1.2485539E+002
 70
0
  0
SEQEND
  0
POLYLINE
  8
1
  6
CONTINUOUS
 62
3
 66
1
 40
5.0E-001
 41
5.0E-001
 70
0
  0
VERTEX
  8
1
 42
3.4642301
 10
8.5215951E+001
 20
1.1852664E+002
 70
0
  0
VERTEX
  8
1
 42
0.0
 10
8.5215951E+001
 20
1.1575544E+002
 70
0
  0
SEQEND
  0
POLYLINE
  8
1
  6
CONTINUOUS
 62
3
 66
1
 40
5.0E-001
 41
5.0E-001
 70
0
  0
VERTEX
  8
1
 42
3.4642301
 10
8.5215951E+001
 20
1.0942664E+002
 70
0
  0
VERTEX
  8
1
 42
0.0
 10
8.5215951E+001
 20
1.0665544E+002
 70
0
  0
SEQEND
  0
POLYLINE
  8
1
  6
CONTINUOUS
 62
3
 66
1
 40
5.0E-001
 41
5.0E-001
 70
0
  0
VERTEX
  8
1
 42
3.4642301
 10
8.5215951E+001
 20
1.0032665E+002
 70
0
  0
VERTEX
  8
1
 42
0.0
 10
8.5215951E+001
 20
9.7555455E+001
 70
0
  0
SEQEND
  0
POLYLINE
  8
1
  6
CONTINUOUS
 62
3
 66
1
 40
5.0E-001
 41
5.0E-001
 70
0
  0
VERTEX
  8
1
 42
1.0
 10
8.5615924E+001
 20
8.9841042E+001
 70
0
  0
VERTEX
  8
1
 42
1.0
 10
8.0415924E+001
 20
8.9841042E+001
 70
0
  0
VERTEX
  8
1
 42
0.0
 10
8.5615924E+001
 20
8.9841042E+001
 70
0
  0
SEQEND
  0
POLYLINE
  8
1
  6
CONTINUOUS
 62
3
 66
1
 40
5.0E-001
 41
5.0E-001
 70
0
  0
VERTEX
  8
1
 42
3.4641615
 10
1.0621597E+002
 20
1.1575542E+002
 70
0
  0
VERTEX
  8
1
 42
0.0
 10
1.0621597E+002
 20
1.1852666E+002
 70
0
  0
SEQEND
  0
POLYLINE
  8
1
  6
CONTINUOUS
 62
3
 66
1
 40
5.0E-001
 41
5.0E-001
 70
0
  0
VERTEX
  8
1
 42
3.4641615
 10
1.0621597E+002
 20
1.0665542E+002
 70
0
  0
VERTEX
  8
1
 42
0.0
 10
1.0621597E+002
 20
1.0942666E+002
 70
0
  0
SEQEND
  0
POLYLINE
  8
1
  6
CONTINUOUS
 62
3
 66
1
 40
5.0E-001
 41
5.0E-001
 70
0
  0
VERTEX
  8
1
 42
4.1421356E-001
 10
9.5065924E+001
 20
2.1627199E+002
 70
0
  0
VERTEX
  8
1
 42
0.0
 10
9.4565924E+001
 20
2.1577199E+002
 70
0
  0
SEQEND
  0
POLYLINE
  8
1
  6
CONTINUOUS
 62
3
 66
1
 40
5.0E-001
 41
5.0E-001
 70
0
  0
VERTEX
  8
1
 42
0.0
 10
9.3165914E+001
 20
2.0907199E+002
 70
0
  0
VERTEX
  8
1
 42
0.0
 10
9.8265984E+001
 20
2.0907199E+002
 70
0
  0
SEQEND
  0
POLYLINE
  8
1
  6
CONTINUOUS
 62
3
 66
1
 40
5.0E-001
 41
5.0E-001
 70
0
  0
VERTEX
  8
1
 42
1.0
 10
1.1101598E+002
 20
8.9841042E+001
 70
0
  0
VERTEX
  8
1
 42
1.0
 10
1.0581598E+002
 20
8.9841042E+001
 70
0
  0
VERTEX
  8
1
 42
0.0
 10
1.1101598E+002
 20
8.9841042E+001
 70
0
  0
SEQEND
  0
TEXT
  8
1
  6
CONTINUOUS
 62
4
 10
1.108113E+002
 20
1.4791554E+001
 40
2.4
  1
2.8.04 GuNi
 41
6.0E-001
  0
TEXT
  8
1
  6
CONTINUOUS
 62
4
 10
1.2221165E+002
 20
5.0699394E+001
 40
3.0
  1
Massaenderungen vorbehalten!
 41
8.4482171E-001
  0
TEXT
  8
1
  6
CONTINUOUS
 62
4
 10
1.1028965E+002
 20
2.355773E+001
 40
2.4
  1
2.8.04 SteFei
 41
6.0E-001
  0
TEXT
  8
1
  6
CONTINUOUS
 62
4
 10
2.662209E+001
 20
5.063534E+001
 40
3.0
  1
Schaltstellungsanzeige
 41
8.0672693E-001
  0
DIMENSION
  8
1
  6
CONTINUOUS
 62
4
  2
*D802
  3
DSTYLE1
 10
1.5166308E+002
 20
8.8041052E+001
 11
1.4866208E+002
 21
1.0725237E+002
 70
128
 13
7.5639194E+001
 23
1.2804109E+002
 14
1.2512998E+002
 24
8.8041052E+001
 40
1.25E-001
 50
9.0E+001
  0
TEXT
  8
1
  6
CONTINUOUS
 62
4
 10
5.2508059E+001
 20
1.9071842E+002
 40
3.0
  1
43,5
 41
8.0E-001
 50
9.0E+001
  0
DIMENSION
  8
1
  6
CONTINUOUS
 62
4
  1
       
  2
*D804
  3
DSTYLE1
 10
5.3776484E+001
 20
2.1887199E+002
 11
5.0775484E+001
 21
1.9730349E+002
 70
128
 13
7.8215864E+001
 23
1.7537199E+002
 14
7.6515834E+001
 24
2.1887199E+002
 40
1.25E-001
 50
9.0E+001
  0
DIMENSION
  8
1
  6
CONTINUOUS
 62
4
  2
*D805
  3
DSTYLE2
 10
3.7519385E+001
 20
1.7537199E+002
 11
3.4518385E+001
 21
2.0892981E+002
 70
128
 13
8.6015864E+001
 23
2.4547199E+002
 14
7.8215864E+001
 24
1.7537199E+002
 40
1.25E-001
 50
9.0E+001
  0
POLYLINE
  8
1
  6
CONTINUOUS
 62
3
 66
1
 40
5.0E-001
 41
5.0E-001
 70
0
  0
VERTEX
  8
1
 42
3.4641615
 10
1.0621597E+002
 20
1.2485537E+002
 70
0
  0
VERTEX
  8
1
 42
0.0
 10
1.0621597E+002
 20
1.2762661E+002
 70
0
  0
SEQEND
  0
POLYLINE
  8
1
  6
CONTINUOUS
 62
3
 66
1
 40
5.0E-001
 41
5.0E-001
 70
0
  0
VERTEX
  8
1
 42
3.4641615
 10
1.0621597E+002
 20
9.7555432E+001
 70
0
  0
VERTEX
  8
1
 42
0.0
 10
1.0621597E+002
 20
1.0032667E+002
 70
0
  0
SEQEND
  0
POLYLINE
  8
1
  6
CONTINUOUS
 62
3
 66
1
 40
5.0E-001
 41
5.0E-001
 70
0
  0
VERTEX
  8
1
 42
4.1421356E-001
 10
9.3815944E+001
 20
2.1627199E+002
 70
0
  0
VERTEX
  8
1
 42
0.0
 10
9.3315944E+001
 20
2.1577199E+002
 70
0
  0
SEQEND
  0
POLYLINE
  8
1
  6
CONTINUOUS
 62
3
 66
1
 40
5.0E-001
 41
5.0E-001
 70
0
  0
VERTEX
  8
1
 42
4.1421366E-001
 10
9.6865934E+001
 20
2.1577199E+002
 70
0
  0
VERTEX
  8
1
 42
0.0
 10
9.6365933E+001
 20
2.1627199E+002
 70
0
  0
SEQEND
  0
DIMENSION
  8
1
  6
CONTINUOUS
 62
4
  2
*D810
  3
DSTYLE2
 10
2.955986E+001
 20
1.7237199E+002
 11
2.655886E+001
 21
2.1503828E+002
 70
128
 13
8.6015864E+001
 23
2.4547199E+002
 14
6.6965864E+001
 24
1.7237199E+002
 40
1.25E-001
 50
9.0E+001
  0
TEXT
  8
1
  6
CONTINUOUS
 62
4
 10
9.1432332E+001
 20
2.5290702E+002
 40
3.0
  1
10,1
 41
8.0E-001
  0
DIMENSION
  8
1
  6
CONTINUOUS
 62
4
  1
      
  2
*D812
  3
DSTYLE1
 10
1.0076598E+002
 20
2.512899E+002
 11
9.5583976E+001
 21
2.542909E+002
 70
128
 13
9.0665944E+001
 23
2.4714719E+002
 14
1.0076598E+002
 24
2.4704479E+002
 40
1.25E-001
 50
0.0
  0
DIMENSION
  8
1
  6
CONTINUOUS
 62
4
  2
*D813
  3
DSTYLE1
 10
1.1021598E+002
 20
2.5751737E+002
 11
9.5353329E+001
 21
2.6051837E+002
 70
128
 13
8.1215944E+001
 23
2.4047209E+002
 14
1.1021598E+002
 24
2.4047209E+002
 40
1.25E-001
 50
0.0
  0
DIMENSION
  8
1
  6
CONTINUOUS
 62
4
  2
*D814
  3
DSTYLE1
 10
1.3577648E+002
 20
1.2179105E+002
 11
1.3277548E+002
 21
1.2530349E+002
 70
128
 13
1.1601608E+002
 23
1.3179099E+002
 14
9.8836084E+001
 24
1.2179105E+002
 40
1.25E-001
 50
9.0E+001
  0
POLYLINE
  8
1
  6
CONTINUOUS
 62
3
 66
1
 40
5.0E-001
 41
5.0E-001
 70
0
  0
VERTEX
  8
1
 42
4.1421366E-001
 10
9.8115984E+001
 20
2.1577199E+002
 70
0
  0
VERTEX
  8
1
 42
0.0
 10
9.7615983E+001
 20
2.1627199E+002
 70
0
  0
SEQEND
  0
TEXT
  8
1
  6
CONTINUOUS
 62
4
 10
5.2244682E+001
 20
1.0009877E+002
 40
2.8
  1
9,1
 41
8.0586135E-001
 50
9.0E+001
  0
DIMENSION
  8
1
  6
CONTINUOUS
 62
4
  1
     
  2
*D817
  3
DSTYLE1
 10
5.3776484E+001
 20
1.0804105E+002
 11
5.0775484E+001
 21
1.0330349E+002
 70
128
 13
8.7545844E+001
 23
9.8941062E+001
 14
7.9895834E+001
 24
1.0804105E+002
 40
1.25E-001
 50
9.0E+001
  0
TEXT
  8
1
  6
CONTINUOUS
 62
4
 10
4.4501332E+001
 20
1.0090889E+002
 40
3.0
  1
47,5
 41
8.0E-001
 50
9.0E+001
  0
DIMENSION
  8
1
  6
CONTINUOUS
 62
4
  1
       
  2
*D819
  3
DSTYLE1
 10
4.5776484E+001
 20
8.4291042E+001
 11
4.2775484E+001
 21
1.0730349E+002
 70
128
 13
7.5415854E+001
 23
1.3179099E+002
 14
7.5415854E+001
 24
8.4291042E+001
 40
1.25E-001
 50
9.0E+001
  0
DIMENSION
  8
1
  6
CONTINUOUS
 62
4
  2
*D820
  3
DSTYLE2
 10
7.3115934E+001
 20
7.0302492E+001
 11
9.4775484E+001
 21
7.3303492E+001
 70
128
 13
1.1831588E+002
 23
1.0604095E+002
 14
7.3115934E+001
 24
1.0604095E+002
 40
1.25E-001
 50
0.0
  0
POLYLINE
  8
1
  6
CONTINUOUS
 62
3
 66
1
 40
5.0E-001
 41
5.0E-001
 70
0
  0
VERTEX
  8
1
 42
0.0
 10
1.0531598E+002
 20
2.1887199E+002
 70
0
  0
VERTEX
  8
1
 42
0.0
 10
1.0531598E+002
 20
2.2707199E+002
 70
0
  0
SEQEND
  0
POLYLINE
  8
1
  6
CONTINUOUS
 62
3
 66
1
 40
5.0E-001
 41
5.0E-001
 70
0
  0
VERTEX
  8
1
 42
0.0
 10
1.0531598E+002
 20
2.2707199E+002
 70
0
  0
VERTEX
  8
1
 42
0.0
 10
1.0636598E+002
 20
2.2707199E+002
 70
0
  0
SEQEND
  0
POLYLINE
  8
1
  6
CONTINUOUS
 62
3
 66
1
 40
5.0E-001
 41
5.0E-001
 70
0
  0
VERTEX
  8
1
 42
0.0
 10
8.5065934E+001
 20
2.2707199E+002
 70
0
  0
VERTEX
  8
1
 42
0.0
 10
8.6115934E+001
 20
2.2707199E+002
 70
0
  0
SEQEND
  0
POLYLINE
  8
1
  6
CONTINUOUS
 62
3
 66
1
 40
5.0E-001
 41
5.0E-001
 70
0
  0
VERTEX
  8
1
 42
0.0
 10
8.6115934E+001
 20
2.2707199E+002
 70
0
  0
VERTEX
  8
1
 42
0.0
 10
8.6115934E+001
 20
2.1887199E+002
 70
0
  0
SEQEND
  0
TEXT
  8
1
  6
CONTINUOUS
 62
4
 10
7.6904053E+001
 20
6.971422
 40
4.5
  1
Massbild 
 41
8.0E-001
 72
1
 11
6.0704053E+001
 21
6.971422
  0
TEXT
  8
1
  6
CONTINUOUS
 62
4
 10
1.1014984E+002
 20
2.7543795E+001
 40
2.4
  1
12.10.92  Dietzel
 41
6.0E-001
  0
TEXT
  8
1
  6
CONTINUOUS
 62
4
 10
1.4998033E+002
 20
7.08577
 40
5.0
  1
GJL 120 0424
 41
8.0E-001
  0
TEXT
  8
1
  6
CONTINUOUS
 62
4
 10
1.7114914E+002
 20
2.3156009E+001
 40
2.5
  1
X
 41
1.066667
  0
TEXT
  8
1
  6
CONTINUOUS
 62
4
 10
7.7149458E+001
 20
1.501537E+001
 40
2.5
  1
STO/CLD
 41
1.083333
  0
LINE
  8
1
  6
CENTERLINE
 62
1
 10
1.0841598E+002
 20
1.2936109E+002
 11
1.0841598E+002
 21
1.2312104E+002
  0
LINE
  8
1
  6
CENTERLINE
 62
1
 10
1.1153598E+002
 20
1.2624109E+002
 11
1.0529598E+002
 21
1.2624109E+002
  0
LINE
  8
1
  6
CENTERLINE
 62
1
 10
1.1153598E+002
 20
1.1714104E+002
 11
1.0529598E+002
 21
1.1714104E+002
  0
LINE
  8
1
  6
CENTERLINE
 62
1
 10
1.0841598E+002
 20
1.2026104E+002
 11
1.0841598E+002
 21
1.1402105E+002
  0
LINE
  8
1
  6
CENTERLINE
 62
1
 10
1.0841598E+002
 20
1.1116105E+002
 11
1.0841598E+002
 21
1.0492104E+002
  0
LINE
  8
1
  6
CENTERLINE
 62
1
 10
1.1153598E+002
 20
1.0804105E+002
 11
1.0529598E+002
 21
1.0804105E+002
  0
LINE
  8
1
  6
CENTERLINE
 62
1
 10
1.1153598E+002
 20
9.8941052E+001
 11
1.0529598E+002
 21
9.8941052E+001
  0
LINE
  8
1
  6
CENTERLINE
 62
1
 10
1.0841598E+002
 20
1.0206104E+002
 11
1.0841598E+002
 21
9.5821052E+001
  0
LINE
  8
1
  6
CENTERLINE
 62
1
 10
1.1153598E+002
 20
8.9841042E+001
 11
1.0529598E+002
 21
8.9841042E+001
  0
LINE
  8
1
  6
CENTERLINE
 62
1
 10
8.3015924E+001
 20
1.0206104E+002
 11
8.3015924E+001
 21
9.5821052E+001
  0
LINE
  8
1
  6
CENTERLINE
 62
1
 10
8.3015924E+001
 20
1.1116105E+002
 11
8.3015924E+001
 21
1.0492104E+002
  0
LINE
  8
1
  6
CENTERLINE
 62
1
 10
8.3015924E+001
 20
1.2026104E+002
 11
8.3015924E+001
 21
1.1402105E+002
  0
LINE
  8
1
  6
CENTERLINE
 62
1
 10
8.3015924E+001
 20
1.2936109E+002
 11
8.3015924E+001
 21
1.2312104E+002
  0
POLYLINE
  8
1
  6
CONTINUOUS
 62
3
 66
1
 40
5.0E-001
 41
5.0E-001
 70
0
  0
VERTEX
  8
1
 42
0.0
 10
9.2465934E+001
 20
2.1887199E+002
 70
0
  0
VERTEX
  8
1
 42
0.0
 10
9.2465934E+001
 20
2.2439699E+002
 70
0
  0
SEQEND
  0
TEXT
  8
1
  6
CONTINUOUS
 62
4
 10
8.8544152E+001
 20
1.5358341E+002
 40
3.0
  1
57,5
 41
8.0E-001
  0
DIMENSION
  8
1
  6
CONTINUOUS
 62
4
  1
       
  2
*D845
  3
DSTYLE1
 10
6.6965954E+001
 20
1.5230249E+002
 11
9.4775484E+001
 21
1.5530349E+002
 70
128
 13
1.2446598E+002
 23
9.3041152E+001
 14
6.6965954E+001
 24
1.2804119E+002
 40
1.25E-001
 50
0.0
  0
DIMENSION
  8
1
  6
CONTINUOUS
 62
4
  2
*D846
  3
DSTYLE2
 10
1.1681588E+002
 20
1.3630249E+002
 11
9.4775484E+001
 21
1.3930349E+002
 70
128
 13
7.4615944E+001
 23
1.3099119E+002
 14
1.1681588E+002
 24
1.3044119E+002
 40
1.25E-001
 50
0.0
  0
DIMENSION
  8
1
  6
CONTINUOUS
 62
4
  2
*D847
  3
DSTYLE1
 10
1.2071598E+002
 20
1.4430249E+002
 11
9.4775484E+001
 21
1.4730349E+002
 70
128
 13
7.0715954E+001
 23
1.3277119E+002
 14
1.2071598E+002
 24
9.8172762E+001
 40
1.25E-001
 50
0.0
  0
TEXT
  8
1
  6
CONTINUOUS
 62
4
 10
6.0304351E+001
 20
1.3467358E+002
 40
3.0
  1
4,5
 41
8.0E-001
 50
9.0E+001
  0
DIMENSION
  8
1
  6
CONTINUOUS
 62
4
  1
      
  2
*D849
  3
DSTYLE1
 10
6.1776484E+001
 20
1.2579109E+002
 11
5.8775484E+001
 21
1.3330349E+002
 70
128
 13
7.0715854E+001
 23
1.3029109E+002
 14
7.0715854E+001
 24
1.2579109E+002
 40
1.25E-001
 50
9.0E+001
  0
POLYLINE
  8
1
  6
CONTINUOUS
 62
3
 66
1
 40
5.0E-001
 41
5.0E-001
 70
0
  0
VERTEX
  8
1
 42
0.0
 10
7.5415944E+001
 20
8.4291042E+001
 70
0
  0
VERTEX
  8
1
 42
0.0
 10
9.5715924E+001
 20
8.4291042E+001
 70
0
  0
SEQEND
  0
POLYLINE
  8
1
  6
CONTINUOUS
 62
3
 66
1
 40
5.0E-001
 41
5.0E-001
 70
0
  0
VERTEX
  8
1
 42
0.0
 10
1.1601598E+002
 20
8.4291042E+001
 70
0
  0
VERTEX
  8
1
 42
0.0
 10
9.5715924E+001
 20
8.4291042E+001
 70
0
  0
SEQEND
  0
POLYLINE
  8
1
  6
CONTINUOUS
 62
3
 66
1
 40
5.0E-001
 41
5.0E-001
 70
0
  0
VERTEX
  8
1
 42
0.0
 10
7.5415944E+001
 20
1.3179099E+002
 70
0
  0
VERTEX
  8
1
 42
0.0
 10
1.1601598E+002
 20
1.3179099E+002
 70
0
  0
SEQEND
  0
TEXT
  8
1
  6
CONTINUOUS
 62
4
 10
1.359328E+002
 20
1.8041649E+002
 40
3.0
  1
4,5
 41
8.0E-001
 50
9.0E+001
  0
DIMENSION
  8
1
  6
CONTINUOUS
 62
4
  1
      
  2
*D855
  3
DSTYLE1
 10
1.3777648E+002
 20
1.7237199E+002
 11
1.3477548E+002
 21
1.7930349E+002
 70
128
 13
1.2396608E+002
 23
1.7687199E+002
 14
1.2446608E+002
 24
1.7237199E+002
 40
1.25E-001
 50
9.0E+001
  0
DIMENSION
  8
1
  6
CONTINUOUS
 62
4
  2
*D856
  3
DSTYLE2
 10
4.5849122E+001
 20
1.7537199E+002
 11
4.2848122E+001
 21
2.0430218E+002
 70
128
 13
8.5665844E+001
 23
2.3457199E+002
 14
7.8215864E+001
 24
1.7537199E+002
 40
1.25E-001
 50
9.0E+001
  0
LINE
  8
1
  6
CENTERLINE
 62
1
 10
8.3015924E+001
 20
9.2961052E+001
 11
8.3015924E+001
 21
8.6721052E+001
  0
LINE
  8
1
  6
CENTERLINE
 62
1
 10
1.0841598E+002
 20
9.2961052E+001
 11
1.0841598E+002
 21
8.6721052E+001
  0
POLYLINE
  8
1
  6
CONTINUOUS
 62
3
 66
1
 40
5.0E-001
 41
5.0E-001
 70
0
  0
VERTEX
  8
1
 42
0.0
 10
7.5715924E+001
 20
1.3099099E+002
 70
0
  0
VERTEX
  8
1
 42
0.0
 10
7.5715924E+001
 20
8.5091042E+001
 70
0
  0
SEQEND
  0
POLYLINE
  8
1
  6
CONTINUOUS
 62
3
 66
1
 40
5.0E-001
 41
5.0E-001
 70
0
  0
VERTEX
  8
1
 42
0.0
 10
1.1571598E+002
 20
1.3099099E+002
 70
0
  0
VERTEX
  8
1
 42
0.0
 10
1.1571598E+002
 20
8.5091042E+001
 70
0
  0
SEQEND
  0
LINE
  8
1
  6
CENTERLINE
 62
1
 10
8.6135934E+001
 20
1.2624109E+002
 11
7.9895934E+001
 21
1.2624109E+002
  0
LINE
  8
1
  6
CENTERLINE
 62
1
 10
8.6135934E+001
 20
1.1714104E+002
 11
7.9895934E+001
 21
1.1714104E+002
  0
LINE
  8
1
  6
CENTERLINE
 62
1
 10
8.6135934E+001
 20
1.0804105E+002
 11
7.9895934E+001
 21
1.0804105E+002
  0
LINE
  8
1
  6
CENTERLINE
 62
1
 10
8.6135934E+001
 20
9.8941052E+001
 11
7.9895934E+001
 21
9.8941052E+001
  0
LINE
  8
1
  6
CENTERLINE
 62
1
 10
8.6135934E+001
 20
8.9841042E+001
 11
7.9895934E+001
 21
8.9841042E+001
  0
POLYLINE
  8
1
  6
CONTINUOUS
 62
3
 66
1
 40
5.0E-001
 41
5.0E-001
 70
0
  0
VERTEX
  8
1
 42
0.0
 10
1.0636598E+002
 20
2.2707199E+002
 70
0
  0
VERTEX
  8
1
 42
0.0
 10
1.1021598E+002
 20
2.3092199E+002
 70
0
  0
SEQEND
  0
TEXT
  8
1
  6
CONTINUOUS
 62
4
 10
6.0506137E+001
 20
1.8677284E+002
 40
3.0
  1
33,5
 41
8.0E-001
 50
9.0E+001
  0
DIMENSION
  8
1
  6
CONTINUOUS
 62
4
  1
       
  2
*D868
  3
DSTYLE1
 10
6.1776484E+001
 20
2.0897199E+002
 11
5.8775484E+001
 21
1.9330349E+002
 70
128
 13
7.8215864E+001
 23
1.7537199E+002
 14
7.8015834E+001
 24
2.0897199E+002
 40
1.25E-001
 50
9.0E+001
  0
POLYLINE
  8
1
  6
CONTINUOUS
 62
3
 66
1
 40
5.0E-001
 41
5.0E-001
 70
0
  0
VERTEX
  8
1
 42
0.0
 10
8.1215944E+001
 20
2.1887199E+002
 70
0
  0
VERTEX
  8
1
 42
0.0
 10
9.4965934E+001
 20
2.1887199E+002
 70
0
  0
SEQEND
  0
POLYLINE
  8
1
  6
CONTINUOUS
 62
3
 66
1
 40
5.0E-001
 41
5.0E-001
 70
0
  0
VERTEX
  8
1
 42
0.0
 10
8.5065934E+001
 20
2.2707199E+002
 70
0
  0
VERTEX
  8
1
 42
0.0
 10
8.1215944E+001
 20
2.3092199E+002
 70
0
  0
SEQEND
  0
POLYLINE
  8
1
  6
CONTINUOUS
 62
3
 66
1
 40
5.0E-001
 41
5.0E-001
 70
0
  0
VERTEX
  8
1
 42
0.0
 10
7.5715924E+001
 20
2.1807199E+002
 70
0
  0
VERTEX
  8
1
 42
0.0
 10
7.5715924E+001
 20
2.1687199E+002
 70
0
  0
SEQEND
  0
POLYLINE
  8
1
  6
CONTINUOUS
 62
3
 66
1
 40
5.0E-001
 41
5.0E-001
 70
0
  0
VERTEX
  8
1
 42
4.1421351E-001
 10
7.6515933E+001
 20
2.1887199E+002
 70
0
  0
VERTEX
  8
1
 42
0.0
 10
7.5715934E+001
 20
2.1807199E+002
 70
0
  0
SEQEND
  0
POLYLINE
  8
1
  6
CONTINUOUS
 62
3
 66
1
 40
5.0E-001
 41
5.0E-001
 70
0
  0
VERTEX
  8
1
 42
0.0
 10
9.3115934E+001
 20
2.1737199E+002
 70
0
  0
VERTEX
  8
1
 42
0.0
 10
9.3115934E+001
 20
2.1687199E+002
 70
0
  0
SEQEND
  0
POLYLINE
  8
1
  6
CONTINUOUS
 62
3
 66
1
 40
5.0E-001
 41
5.0E-001
 70
0
  0
VERTEX
  8
1
 42
0.0
 10
9.2515934E+001
 20
2.1797199E+002
 70
0
  0
VERTEX
  8
1
 42
0.0
 10
9.2515934E+001
 20
2.1687199E+002
 70
0
  0
SEQEND
  0
POLYLINE
  8
1
  6
CONTINUOUS
 62
3
 66
1
 40
5.0E-001
 41
5.0E-001
 70
0
  0
VERTEX
  8
1
 42
0.0
 10
9.8915984E+001
 20
2.1797199E+002
 70
0
  0
VERTEX
  8
1
 42
0.0
 10
9.8915984E+001
 20
2.1687199E+002
 70
0
  0
SEQEND
  0
POLYLINE
  8
1
  6
CONTINUOUS
 62
3
 66
1
 40
5.0E-001
 41
5.0E-001
 70
0
  0
VERTEX
  8
1
 42
0.0
 10
9.3115934E+001
 20
2.1737199E+002
 70
0
  0
VERTEX
  8
1
 42
0.0
 10
9.1615934E+001
 20
2.1887199E+002
 70
0
  0
SEQEND
  0
POLYLINE
  8
1
  6
CONTINUOUS
 62
3
 66
1
 40
5.0E-001
 41
5.0E-001
 70
0
  0
VERTEX
  8
1
 42
0.0
 10
1.1571598E+002
 20
2.1807199E+002
 70
0
  0
VERTEX
  8
1
 42
0.0
 10
1.1571598E+002
 20
2.1687199E+002
 70
0
  0
SEQEND
  0
INSERT
  2
*E878
  8
1
 10
1.1491598E+002
 20
2.1807199E+002
 41
1.0
 42
1.0
 43
1.0
 50
2.7E+002
 62
3
  0
POLYLINE
  8
1
  6
CONTINUOUS
 62
3
 66
1
 40
5.0E-001
 41
5.0E-001
 70
0
  0
VERTEX
  8
1
 42
0.0
 10
9.8115984E+001
 20
2.0907199E+002
 70
0
  0
VERTEX
  8
1
 42
0.0
 10
9.8115984E+001
 20
2.1577199E+002
 70
0
  0
SEQEND
  0
LINE
  8
1
  6
CENTERLINE
 62
1
 10
8.3015934E+001
 20
2.2082399E+002
 11
8.3015934E+001
 21
2.0076139E+002
  0
LINE
  8
1
  6
CENTERLINE
 62
1
 10
1.0841598E+002
 20
2.2082399E+002
 11
1.0841598E+002
 21
2.0096039E+002
  0
POLYLINE
  8
1
  6
CONTINUOUS
 62
3
 66
1
 40
5.0E-001
 41
5.0E-001
 70
0
  0
VERTEX
  8
1
 42
0.0
 10
7.6515934E+001
 20
2.1887199E+002
 70
0
  0
VERTEX
  8
1
 42
0.0
 10
9.3715934E+001
 20
2.1887199E+002
 70
0
  0
SEQEND
  0
POLYLINE
  8
1
  6
CONTINUOUS
 62
3
 66
1
 40
5.0E-001
 41
5.0E-001
 70
0
  0
VERTEX
  8
1
 42
0.0
 10
7.5715924E+001
 20
2.1687199E+002
 70
0
  0
VERTEX
  8
1
 42
0.0
 10
9.3715934E+001
 20
2.1687199E+002
 70
0
  0
SEQEND
  0
POLYLINE
  8
1
  6
CONTINUOUS
 62
3
 66
1
 40
5.0E-001
 41
5.0E-001
 70
0
  0
VERTEX
  8
1
 42
0.0
 10
9.3115934E+001
 20
2.1737199E+002
 70
0
  0
VERTEX
  8
1
 42
0.0
 10
9.3715934E+001
 20
2.1737199E+002
 70
0
  0
SEQEND
  0
POLYLINE
  8
1
  6
CONTINUOUS
 62
3
 66
1
 40
5.0E-001
 41
5.0E-001
 70
0
  0
VERTEX
  8
1
 42
0.0
 10
9.8315984E+001
 20
2.1737199E+002
 70
0
  0
VERTEX
  8
1
 42
0.0
 10
9.9815984E+001
 20
2.1887199E+002
 70
0
  0
SEQEND
  0
POLYLINE
  8
1
  6
CONTINUOUS
 62
3
 66
1
 40
5.0E-001
 41
5.0E-001
 70
0
  0
VERTEX
  8
1
 42
0.0
 10
9.8315984E+001
 20
2.1737199E+002
 70
0
  0
VERTEX
  8
1
 42
0.0
 10
9.8315984E+001
 20
2.1687199E+002
 70
0
  0
SEQEND
  0
POLYLINE
  8
1
  6
CONTINUOUS
 62
3
 66
1
 40
5.0E-001
 41
5.0E-001
 70
0
  0
VERTEX
  8
1
 42
4.1421361E-001
 10
1.1781598E+002
 20
1.7437199E+002
 70
0
  0
VERTEX
  8
1
 42
0.0
 10
1.1681598E+002
 20
1.7537199E+002
 70
0
  0
SEQEND
  0
POLYLINE
  8
1
  6
CONTINUOUS
 62
3
 66
1
 40
5.0E-001
 41
5.0E-001
 70
0
  0
VERTEX
  8
1
 42
0.0
 10
1.1781598E+002
 20
1.7687199E+002
 70
0
  0
VERTEX
  8
1
 42
0.0
 10
1.1781598E+002
 20
1.7237199E+002
 70
0
  0
SEQEND
  0
POLYLINE
  8
1
  6
CONTINUOUS
 62
3
 66
1
 40
5.0E-001
 41
5.0E-001
 70
0
  0
VERTEX
  8
1
 42
0.0
 10
1.2446588E+002
 20
1.7237199E+002
 70
0
  0
VERTEX
  8
1
 42
0.0
 10
1.1781598E+002
 20
1.7237199E+002
 70
0
  0
SEQEND
  0
POLYLINE
  8
1
  6
CONTINUOUS
 62
3
 66
1
 40
5.0E-001
 41
5.0E-001
 70
0
  0
VERTEX
  8
1
 42
0.0
 10
1.2446588E+002
 20
1.7637199E+002
 70
0
  0
VERTEX
  8
1
 42
0.0
 10
1.2446588E+002
 20
1.7237199E+002
 70
0
  0
SEQEND
  0
INSERT
  2
*E891
  8
1
 10
1.2396588E+002
 20
1.7637199E+002
 41
1.0
 42
1.0
 43
1.0
 50
2.7E+002
 62
3
  0
POLYLINE
  8
1
  6
CONTINUOUS
 62
3
 66
1
 40
5.0E-001
 41
5.0E-001
 70
0
  0
VERTEX
  8
1
 42
0.0
 10
1.2396588E+002
 20
1.7687199E+002
 70
0
  0
VERTEX
  8
1
 42
0.0
 10
1.1681598E+002
 20
1.7687199E+002
 70
0
  0
SEQEND
  0
LINE
  8
1
  6
CENTERLINE
 62
1
 10
1.2071588E+002
 20
1.7803259E+002
 11
1.2071588E+002
 21
1.7156419E+002
  0
POLYLINE
  8
1
  6
CONTINUOUS
 62
3
 66
1
 40
5.0E-001
 41
5.0E-001
 70
0
  0
VERTEX
  8
1
 42
0.0
 10
1.1701598E+002
 20
2.0077199E+002
 70
0
  0
VERTEX
  8
1
 42
0.0
 10
1.1701598E+002
 20
1.9097199E+002
 70
0
  0
SEQEND
  0
POLYLINE
  8
1
  6
CONTINUOUS
 62
3
 66
1
 40
5.0E-001
 41
5.0E-001
 70
0
  0
VERTEX
  8
1
 42
0.0
 10
1.1811598E+002
 20
1.9967199E+002
 70
0
  0
VERTEX
  8
1
 42
0.0
 10
1.1811598E+002
 20
1.9097199E+002
 70
0
  0
SEQEND
  0
POLYLINE
  8
1
  6
CONTINUOUS
 62
3
 66
1
 40
5.0E-001
 41
5.0E-001
 70
0
  0
VERTEX
  8
1
 42
0.0
 10
1.1831598E+002
 20
1.9947199E+002
 70
0
  0
VERTEX
  8
1
 42
0.0
 10
1.1831598E+002
 20
1.9097199E+002
 70
0
  0
SEQEND
  0
POLYLINE
  8
1
  6
CONTINUOUS
 62
3
 66
1
 40
5.0E-001
 41
5.0E-001
 70
0
  0
VERTEX
  8
1
 42
0.0
 10
1.1681598E+002
 20
2.0097199E+002
 70
0
  0
VERTEX
  8
1
 42
0.0
 10
1.1831598E+002
 20
1.9947199E+002
 70
0
  0
SEQEND
  0
POLYLINE
  8
1
  6
CONTINUOUS
 62
3
 66
1
 40
5.0E-001
 41
5.0E-001
 70
0
  0
VERTEX
  8
1
 42
0.0
 10
1.1831598E+002
 20
1.9097199E+002
 70
0
  0
VERTEX
  8
1
 42
0.0
 10
1.1681598E+002
 20
1.9097199E+002
 70
0
  0
SEQEND
  0
POLYLINE
  8
1
  6
CONTINUOUS
 62
3
 66
1
 40
5.0E-001
 41
5.0E-001
 70
0
  0
VERTEX
  8
1
 42
0.0
 10
9.8265984E+001
 20
2.1687199E+002
 70
0
  0
VERTEX
  8
1
 42
0.0
 10
9.8265984E+001
 20
2.0887199E+002
 70
0
  0
SEQEND
  0
POLYLINE
  8
1
  6
CONTINUOUS
 62
3
 66
1
 40
5.0E-001
 41
5.0E-001
 70
0
  0
VERTEX
  8
1
 42
0.0
 10
9.8265984E+001
 20
2.0887199E+002
 70
0
  0
VERTEX
  8
1
 42
0.0
 10
9.5715934E+001
 20
2.0887199E+002
 70
0
  0
SEQEND
  0
POLYLINE
  8
1
  6
CONTINUOUS
 62
3
 66
1
 40
5.0E-001
 41
5.0E-001
 70
0
  0
VERTEX
  8
1
 42
1.0000002
 10
1.1646588E+002
 20
1.2134106E+002
 70
0
  0
VERTEX
  8
1
 42
0.0
 10
1.1646588E+002
 20
1.2204106E+002
 70
0
  0
SEQEND
  0
POLYLINE
  8
1
  6
CONTINUOUS
 62
3
 66
1
 40
5.0E-001
 41
5.0E-001
 70
0
  0
VERTEX
  8
1
 42
0.0
 10
9.2265944E+001
 20
2.2547199E+002
 70
0
  0
VERTEX
  8
1
 42
0.0
 10
9.2265944E+001
 20
2.1887199E+002
 70
0
  0
SEQEND
  0
POLYLINE
  8
1
  6
CONTINUOUS
 62
3
 66
1
 40
5.0E-001
 41
5.0E-001
 70
0
  0
VERTEX
  8
1
 42
0.0
 10
8.3650354E+001
 20
8.9441052E+001
 70
0
  0
VERTEX
  8
1
 42
0.0
 10
8.5584984E+001
 20
8.9441052E+001
 70
0
  0
SEQEND
  0
POLYLINE
  8
1
  6
CONTINUOUS
 62
3
 66
1
 40
5.0E-001
 41
5.0E-001
 70
0
  0
VERTEX
  8
1
 42
0.0
 10
8.3546254E+001
 20
9.0371382E+001
 70
0
  0
VERTEX
  8
1
 42
0.0
 10
8.3723014E+001
 20
9.0548132E+001
 70
0
  0
SEQEND
  0
POLYLINE
  8
1
  6
CONTINUOUS
 62
3
 66
1
 40
5.0E-001
 41
5.0E-001
 70
0
  0
VERTEX
  8
1
 42
0.0
 10
8.3415914E+001
 20
8.8395362E+001
 70
0
  0
VERTEX
  8
1
 42
0.0
 10
8.3415914E+001
 20
8.9206612E+001
 70
0
  0
SEQEND
  0
POLYLINE
  8
1
  6
CONTINUOUS
 62
3
 66
1
 40
5.0E-001
 41
5.0E-001
 70
0
  0
VERTEX
  8
1
 42
1.0
 10
8.3765924E+001
 20
8.9841042E+001
 70
0
  0
VERTEX
  8
1
 42
1.0
 10
8.2265924E+001
 20
8.9841042E+001
 70
0
  0
VERTEX
  8
1
 42
0.0
 10
8.3765924E+001
 20
8.9841042E+001
 70
0
  0
SEQEND
  0
POLYLINE
  8
1
  6
CONTINUOUS
 62
3
 66
1
 40
5.0E-001
 41
5.0E-001
 70
0
  0
VERTEX
  8
1
 42
1.3579006E-001
 10
8.1570239E+001
 20
9.0241037E+001
 70
0
  0
VERTEX
  8
1
 42
0.0
 10
8.1570239E+001
 20
8.9441047E+001
 70
0
  0
SEQEND
  0
POLYLINE
  8
1
  6
CONTINUOUS
 62
3
 66
1
 40
5.0E-001
 41
5.0E-001
 70
0
  0
VERTEX
  8
1
 42
0.0
 10
8.2308834E+001
 20
8.9133952E+001
 70
0
  0
VERTEX
  8
1
 42
0.0
 10
8.2485594E+001
 20
8.9310712E+001
 70
0
  0
SEQEND
  0
POLYLINE
  8
1
  6
CONTINUOUS
 62
3
 66
1
 40
5.0E-001
 41
5.0E-001
 70
0
  0
VERTEX
  8
1
 42
0.0
 10
8.3723014E+001
 20
8.9133952E+001
 70
0
  0
VERTEX
  8
1
 42
0.0
 10
8.3546254E+001
 20
8.9310712E+001
 70
0
  0
SEQEND
  0
POLYLINE
  8
1
  6
CONTINUOUS
 62
3
 66
1
 40
5.0E-001
 41
5.0E-001
 70
0
  0
VERTEX
  8
1
 42
0.0
 10
8.2485594E+001
 20
9.0371382E+001
 70
0
  0
VERTEX
  8
1
 42
0.0
 10
8.2308834E+001
 20
9.0548132E+001
 70
0
  0
SEQEND
  0
POLYLINE
  8
1
  6
CONTINUOUS
 62
3
 66
1
 40
5.0E-001
 41
5.0E-001
 70
0
  0
VERTEX
  8
1
 42
1.3578979E-001
 10
8.3415918E+001
 20
9.1286727E+001
 70
0
  0
VERTEX
  8
1
 42
0.0
 10
8.261593E+001
 20
9.1286727E+001
 70
0
  0
SEQEND
  0
POLYLINE
  8
1
  6
CONTINUOUS
 62
3
 66
1
 40
5.0E-001
 41
5.0E-001
 70
0
  0
VERTEX
  8
1
 42
0.0
 10
8.2615934E+001
 20
8.8395362E+001
 70
0
  0
VERTEX
  8
1
 42
0.0
 10
8.2615934E+001
 20
8.9206612E+001
 70
0
  0
SEQEND
  0
POLYLINE
  8
1
  6
CONTINUOUS
 62
3
 66
1
 40
5.0E-001
 41
5.0E-001
 70
0
  0
VERTEX
  8
1
 42
0.0
 10
8.0446894E+001
 20
8.9441052E+001
 70
0
  0
VERTEX
  8
1
 42
0.0
 10
8.2381494E+001
 20
8.9441052E+001
 70
0
  0
SEQEND
  0
POLYLINE
  8
1
  6
CONTINUOUS
 62
3
 66
1
 40
5.0E-001
 41
5.0E-001
 70
0
  0
VERTEX
  8
1
 42
1.3579006E-001
 10
8.2615929E+001
 20
8.8395357E+001
 70
0
  0
VERTEX
  8
1
 42
0.0
 10
8.3415918E+001
 20
8.8395357E+001
 70
0
  0
SEQEND
  0
POLYLINE
  8
1
  6
CONTINUOUS
 62
3
 66
1
 40
5.0E-001
 41
5.0E-001
 70
0
  0
VERTEX
  8
1
 42
1.3578992E-001
 10
8.4461608E+001
 20
8.9441047E+001
 70
0
  0
VERTEX
  8
1
 42
0.0
 10
8.4461609E+001
 20
9.0241036E+001
 70
0
  0
SEQEND
  0
POLYLINE
  8
1
  6
CONTINUOUS
 62
3
 66
1
 40
5.0E-001
 41
5.0E-001
 70
0
  0
VERTEX
  8
1
 42
0.0
 10
8.2615934E+001
 20
9.0475472E+001
 70
0
  0
VERTEX
  8
1
 42
0.0
 10
8.2615934E+001
 20
9.1286722E+001
 70
0
  0
SEQEND
  0
POLYLINE
  8
1
  6
CONTINUOUS
 62
3
 66
1
 40
5.0E-001
 41
5.0E-001
 70
0
  0
VERTEX
  8
1
 42
0.0
 10
8.3415914E+001
 20
9.0475472E+001
 70
0
  0
VERTEX
  8
1
 42
0.0
 10
8.3415914E+001
 20
9.1286722E+001
 70
0
  0
SEQEND
  0
POLYLINE
  8
1
  6
CONTINUOUS
 62
3
 66
1
 40
5.0E-001
 41
5.0E-001
 70
0
  0
VERTEX
  8
1
 42
0.0
 10
8.0446894E+001
 20
9.0241042E+001
 70
0
  0
VERTEX
  8
1
 42
0.0
 10
8.2381494E+001
 20
9.0241042E+001
 70
0
  0
SEQEND
  0
POLYLINE
  8
1
  6
CONTINUOUS
 62
3
 66
1
 40
5.0E-001
 41
5.0E-001
 70
0
  0
VERTEX
  8
1
 42
0.0
 10
9.9165984E+001
 20
2.1887199E+002
 70
0
  0
VERTEX
  8
1
 42
0.0
 10
9.9165984E+001
 20
2.2547199E+002
 70
0
  0
SEQEND
  0
POLYLINE
  8
1
  6
CONTINUOUS
 62
3
 66
1
 40
5.0E-001
 41
5.0E-001
 70
0
  0
VERTEX
  8
1
 42
0.0
 10
8.3650354E+001
 20
9.8541052E+001
 70
0
  0
VERTEX
  8
1
 42
0.0
 10
8.5215954E+001
 20
9.8541052E+001
 70
0
  0
SEQEND
  0
POLYLINE
  8
1
  6
CONTINUOUS
 62
3
 66
1
 40
5.0E-001
 41
5.0E-001
 70
0
  0
VERTEX
  8
1
 42
0.0
 10
8.3546254E+001
 20
9.9471382E+001
 70
0
  0
VERTEX
  8
1
 42
0.0
 10
8.3723014E+001
 20
9.9648142E+001
 70
0
  0
SEQEND
  0
POLYLINE
  8
1
  6
CONTINUOUS
 62
3
 66
1
 40
5.0E-001
 41
5.0E-001
 70
0
  0
VERTEX
  8
1
 42
0.0
 10
8.3415914E+001
 20
9.7495372E+001
 70
0
  0
VERTEX
  8
1
 42
0.0
 10
8.3415914E+001
 20
9.8306622E+001
 70
0
  0
SEQEND
  0
POLYLINE
  8
1
  6
CONTINUOUS
 62
3
 66
1
 40
5.0E-001
 41
5.0E-001
 70
0
  0
VERTEX
  8
1
 42
1.0
 10
8.3765924E+001
 20
9.8941052E+001
 70
0
  0
VERTEX
  8
1
 42
1.0
 10
8.2265924E+001
 20
9.8941052E+001
 70
0
  0
VERTEX
  8
1
 42
0.0
 10
8.3765924E+001
 20
9.8941052E+001
 70
0
  0
SEQEND
  0
POLYLINE
  8
1
  6
CONTINUOUS
 62
3
 66
1
 40
5.0E-001
 41
5.0E-001
 70
0
  0
VERTEX
  8
1
 42
1.3579006E-001
 10
8.1570239E+001
 20
9.9341047E+001
 70
0
  0
VERTEX
  8
1
 42
0.0
 10
8.1570239E+001
 20
9.8541057E+001
 70
0
  0
SEQEND
  0
POLYLINE
  8
1
  6
CONTINUOUS
 62
3
 66
1
 40
5.0E-001
 41
5.0E-001
 70
0
  0
VERTEX
  8
1
 42
0.0
 10
8.2308834E+001
 20
9.8233962E+001
 70
0
  0
VERTEX
  8
1
 42
0.0
 10
8.2485594E+001
 20
9.8410712E+001
 70
0
  0
SEQEND
  0
POLYLINE
  8
1
  6
CONTINUOUS
 62
3
 66
1
 40
5.0E-001
 41
5.0E-001
 70
0
  0
VERTEX
  8
1
 42
0.0
 10
8.3723014E+001
 20
9.8233962E+001
 70
0
  0
VERTEX
  8
1
 42
0.0
 10
8.3546254E+001
 20
9.8410712E+001
 70
0
  0
SEQEND
  0
POLYLINE
  8
1
  6
CONTINUOUS
 62
3
 66
1
 40
5.0E-001
 41
5.0E-001
 70
0
  0
VERTEX
  8
1
 42
0.0
 10
8.2485594E+001
 20
9.9471382E+001
 70
0
  0
VERTEX
  8
1
 42
0.0
 10
8.2308834E+001
 20
9.9648142E+001
 70
0
  0
SEQEND
  0
POLYLINE
  8
1
  6
CONTINUOUS
 62
3
 66
1
 40
5.0E-001
 41
5.0E-001
 70
0
  0
VERTEX
  8
1
 42
1.3578979E-001
 10
8.3415918E+001
 20
1.0038674E+002
 70
0
  0
VERTEX
  8
1
 42
0.0
 10
8.261593E+001
 20
1.0038674E+002
 70
0
  0
SEQEND
  0
POLYLINE
  8
1
  6
CONTINUOUS
 62
3
 66
1
 40
5.0E-001
 41
5.0E-001
 70
0
  0
VERTEX
  8
1
 42
0.0
 10
8.2615934E+001
 20
9.7495372E+001
 70
0
  0
VERTEX
  8
1
 42
0.0
 10
8.2615934E+001
 20
9.8306622E+001
 70
0
  0
SEQEND
  0
POLYLINE
  8
1
  6
CONTINUOUS
 62
3
 66
1
 40
5.0E-001
 41
5.0E-001
 70
0
  0
VERTEX
  8
1
 42
0.0
 10
8.0446894E+001
 20
9.8541052E+001
 70
0
  0
VERTEX
  8
1
 42
0.0
 10
8.2381494E+001
 20
9.8541052E+001
 70
0
  0
SEQEND
  0
POLYLINE
  8
1
  6
CONTINUOUS
 62
3
 66
1
 40
5.0E-001
 41
5.0E-001
 70
0
  0
VERTEX
  8
1
 42
1.3579006E-001
 10
8.2615929E+001
 20
9.7495367E+001
 70
0
  0
VERTEX
  8
1
 42
0.0
 10
8.3415918E+001
 20
9.7495367E+001
 70
0
  0
SEQEND
  0
POLYLINE
  8
1
  6
CONTINUOUS
 62
3
 66
1
 40
5.0E-001
 41
5.0E-001
 70
0
  0
VERTEX
  8
1
 42
1.3578992E-001
 10
8.4461608E+001
 20
9.8541057E+001
 70
0
  0
VERTEX
  8
1
 42
0.0
 10
8.4461609E+001
 20
9.9341046E+001
 70
0
  0
SEQEND
  0
POLYLINE
  8
1
  6
CONTINUOUS
 62
3
 66
1
 40
5.0E-001
 41
5.0E-001
 70
0
  0
VERTEX
  8
1
 42
0.0
 10
8.2615934E+001
 20
9.9575482E+001
 70
0
  0
VERTEX
  8
1
 42
0.0
 10
8.2615934E+001
 20
1.0038673E+002
 70
0
  0
SEQEND
  0
POLYLINE
  8
1
  6
CONTINUOUS
 62
3
 66
1
 40
5.0E-001
 41
5.0E-001
 70
0
  0
VERTEX
  8
1
 42
0.0
 10
8.3415914E+001
 20
9.9575482E+001
 70
0
  0
VERTEX
  8
1
 42
0.0
 10
8.3415914E+001
 20
1.0038673E+002
 70
0
  0
SEQEND
  0
POLYLINE
  8
1
  6
CONTINUOUS
 62
3
 66
1
 40
5.0E-001
 41
5.0E-001
 70
0
  0
VERTEX
  8
1
 42
0.0
 10
8.0446894E+001
 20
9.9341042E+001
 70
0
  0
VERTEX
  8
1
 42
0.0
 10
8.2381494E+001
 20
9.9341042E+001
 70
0
  0
SEQEND
  0
POLYLINE
  8
1
  6
CONTINUOUS
 62
3
 66
1
 40
5.0E-001
 41
5.0E-001
 70
0
  0
VERTEX
  8
1
 42
0.0
 10
9.0915944E+001
 20
2.1887199E+002
 70
0
  0
VERTEX
  8
1
 42
0.0
 10
9.0915944E+001
 20
2.4467199E+002
 70
0
  0
SEQEND
  0
POLYLINE
  8
1
  6
CONTINUOUS
 62
3
 66
1
 40
5.0E-001
 41
5.0E-001
 70
0
  0
VERTEX
  8
1
 42
0.0
 10
8.3650354E+001
 20
1.0764104E+002
 70
0
  0
VERTEX
  8
1
 42
0.0
 10
8.5215954E+001
 20
1.0764104E+002
 70
0
  0
SEQEND
  0
POLYLINE
  8
1
  6
CONTINUOUS
 62
3
 66
1
 40
5.0E-001
 41
5.0E-001
 70
0
  0
VERTEX
  8
1
 42
0.0
 10
8.3546254E+001
 20
1.0857137E+002
 70
0
  0
VERTEX
  8
1
 42
0.0
 10
8.3723014E+001
 20
1.0874813E+002
 70
0
  0
SEQEND
  0
POLYLINE
  8
1
  6
CONTINUOUS
 62
3
 66
1
 40
5.0E-001
 41
5.0E-001
 70
0
  0
VERTEX
  8
1
 42
0.0
 10
8.3415914E+001
 20
1.0659536E+002
 70
0
  0
VERTEX
  8
1
 42
0.0
 10
8.3415914E+001
 20
1.0740661E+002
 70
0
  0
SEQEND
  0
POLYLINE
  8
1
  6
CONTINUOUS
 62
3
 66
1
 40
5.0E-001
 41
5.0E-001
 70
0
  0
VERTEX
  8
1
 42
1.0
 10
8.3765924E+001
 20
1.0804104E+002
 70
0
  0
VERTEX
  8
1
 42
1.0
 10
8.2265924E+001
 20
1.0804104E+002
 70
0
  0
VERTEX
  8
1
 42
0.0
 10
8.3765924E+001
 20
1.0804104E+002
 70
0
  0
SEQEND
  0
POLYLINE
  8
1
  6
CONTINUOUS
 62
3
 66
1
 40
5.0E-001
 41
5.0E-001
 70
0
  0
VERTEX
  8
1
 42
1.3579006E-001
 10
8.1570239E+001
 20
1.0844104E+002
 70
0
  0
VERTEX
  8
1
 42
0.0
 10
8.1570239E+001
 20
1.0764105E+002
 70
0
  0
SEQEND
  0
POLYLINE
  8
1
  6
CONTINUOUS
 62
3
 66
1
 40
5.0E-001
 41
5.0E-001
 70
0
  0
VERTEX
  8
1
 42
0.0
 10
8.2308834E+001
 20
1.0733395E+002
 70
0
  0
VERTEX
  8
1
 42
0.0
 10
8.2485594E+001
 20
1.075107E+002
 70
0
  0
SEQEND
  0
POLYLINE
  8
1
  6
CONTINUOUS
 62
3
 66
1
 40
5.0E-001
 41
5.0E-001
 70
0
  0
VERTEX
  8
1
 42
0.0
 10
8.3723014E+001
 20
1.0733395E+002
 70
0
  0
VERTEX
  8
1
 42
0.0
 10
8.3546254E+001
 20
1.075107E+002
 70
0
  0
SEQEND
  0
POLYLINE
  8
1
  6
CONTINUOUS
 62
3
 66
1
 40
5.0E-001
 41
5.0E-001
 70
0
  0
VERTEX
  8
1
 42
0.0
 10
8.2485594E+001
 20
1.0857137E+002
 70
0
  0
VERTEX
  8
1
 42
0.0
 10
8.2308834E+001
 20
1.0874813E+002
 70
0
  0
SEQEND
  0
POLYLINE
  8
1
  6
CONTINUOUS
 62
3
 66
1
 40
5.0E-001
 41
5.0E-001
 70
0
  0
VERTEX
  8
1
 42
1.3578979E-001
 10
8.3415918E+001
 20
1.0948673E+002
 70
0
  0
VERTEX
  8
1
 42
0.0
 10
8.261593E+001
 20
1.0948673E+002
 70
0
  0
SEQEND
  0
POLYLINE
  8
1
  6
CONTINUOUS
 62
3
 66
1
 40
5.0E-001
 41
5.0E-001
 70
0
  0
VERTEX
  8
1
 42
0.0
 10
8.2615934E+001
 20
1.0659536E+002
 70
0
  0
VERTEX
  8
1
 42
0.0
 10
8.2615934E+001
 20
1.0740661E+002
 70
0
  0
SEQEND
  0
POLYLINE
  8
1
  6
CONTINUOUS
 62
3
 66
1
 40
5.0E-001
 41
5.0E-001
 70
0
  0
VERTEX
  8
1
 42
0.0
 10
8.0446894E+001
 20
1.0764104E+002
 70
0
  0
VERTEX
  8
1
 42
0.0
 10
8.2381494E+001
 20
1.0764104E+002
 70
0
  0
SEQEND
  0
POLYLINE
  8
1
  6
CONTINUOUS
 62
3
 66
1
 40
5.0E-001
 41
5.0E-001
 70
0
  0
VERTEX
  8
1
 42
1.3579006E-001
 10
8.2615929E+001
 20
1.0659536E+002
 70
0
  0
VERTEX
  8
1
 42
0.0
 10
8.3415918E+001
 20
1.0659536E+002
 70
0
  0
SEQEND
  0
POLYLINE
  8
1
  6
CONTINUOUS
 62
3
 66
1
 40
5.0E-001
 41
5.0E-001
 70
0
  0
VERTEX
  8
1
 42
1.3578992E-001
 10
8.4461608E+001
 20
1.0764105E+002
 70
0
  0
VERTEX
  8
1
 42
0.0
 10
8.4461609E+001
 20
1.0844104E+002
 70
0
  0
SEQEND
  0
POLYLINE
  8
1
  6
CONTINUOUS
 62
3
 66
1
 40
5.0E-001
 41
5.0E-001
 70
0
  0
VERTEX
  8
1
 42
0.0
 10
8.2615934E+001
 20
1.0867547E+002
 70
0
  0
VERTEX
  8
1
 42
0.0
 10
8.2615934E+001
 20
1.0948672E+002
 70
0
  0
SEQEND
  0
POLYLINE
  8
1
  6
CONTINUOUS
 62
3
 66
1
 40
5.0E-001
 41
5.0E-001
 70
0
  0
VERTEX
  8
1
 42
0.0
 10
8.3415914E+001
 20
1.0867547E+002
 70
0
  0
VERTEX
  8
1
 42
0.0
 10
8.3415914E+001
 20
1.0948672E+002
 70
0
  0
SEQEND
  0
POLYLINE
  8
1
  6
CONTINUOUS
 62
3
 66
1
 40
5.0E-001
 41
5.0E-001
 70
0
  0
VERTEX
  8
1
 42
0.0
 10
8.0446894E+001
 20
1.0844103E+002
 70
0
  0
VERTEX
  8
1
 42
0.0
 10
8.2381494E+001
 20
1.0844103E+002
 70
0
  0
SEQEND
  0
POLYLINE
  8
1
  6
CONTINUOUS
 62
3
 66
1
 40
5.0E-001
 41
5.0E-001
 70
0
  0
VERTEX
  8
1
 42
4.1421366E-001
 10
1.0051598E+002
 20
2.4467199E+002
 70
0
  0
VERTEX
  8
1
 42
0.0
 10
9.9715983E+001
 20
2.4547199E+002
 70
0
  0
SEQEND
  0
POLYLINE
  8
1
  6
CONTINUOUS
 62
3
 66
1
 40
5.0E-001
 41
5.0E-001
 70
0
  0
VERTEX
  8
1
 42
0.0
 10
8.3650354E+001
 20
1.1674105E+002
 70
0
  0
VERTEX
  8
1
 42
0.0
 10
8.5215954E+001
 20
1.1674105E+002
 70
0
  0
SEQEND
  0
POLYLINE
  8
1
  6
CONTINUOUS
 62
3
 66
1
 40
5.0E-001
 41
5.0E-001
 70
0
  0
VERTEX
  8
1
 42
0.0
 10
8.3546254E+001
 20
1.1767138E+002
 70
0
  0
VERTEX
  8
1
 42
0.0
 10
8.3723014E+001
 20
1.1784814E+002
 70
0
  0
SEQEND
  0
POLYLINE
  8
1
  6
CONTINUOUS
 62
3
 66
1
 40
5.0E-001
 41
5.0E-001
 70
0
  0
VERTEX
  8
1
 42
0.0
 10
8.3415914E+001
 20
1.1569537E+002
 70
0
  0
VERTEX
  8
1
 42
0.0
 10
8.3415914E+001
 20
1.1650662E+002
 70
0
  0
SEQEND
  0
POLYLINE
  8
1
  6
CONTINUOUS
 62
3
 66
1
 40
5.0E-001
 41
5.0E-001
 70
0
  0
VERTEX
  8
1
 42
1.0
 10
8.3765924E+001
 20
1.1714104E+002
 70
0
  0
VERTEX
  8
1
 42
1.0
 10
8.2265924E+001
 20
1.1714104E+002
 70
0
  0
VERTEX
  8
1
 42
0.0
 10
8.3765924E+001
 20
1.1714104E+002
 70
0
  0
SEQEND
  0
POLYLINE
  8
1
  6
CONTINUOUS
 62
3
 66
1
 40
5.0E-001
 41
5.0E-001
 70
0
  0
VERTEX
  8
1
 42
1.3579006E-001
 10
8.1570239E+001
 20
1.1754104E+002
 70
0
  0
VERTEX
  8
1
 42
0.0
 10
8.1570239E+001
 20
1.1674105E+002
 70
0
  0
SEQEND
  0
POLYLINE
  8
1
  6
CONTINUOUS
 62
3
 66
1
 40
5.0E-001
 41
5.0E-001
 70
0
  0
VERTEX
  8
1
 42
0.0
 10
8.2308834E+001
 20
1.1643395E+002
 70
0
  0
VERTEX
  8
1
 42
0.0
 10
8.2485594E+001
 20
1.1661071E+002
 70
0
  0
SEQEND
  0
POLYLINE
  8
1
  6
CONTINUOUS
 62
3
 66
1
 40
5.0E-001
 41
5.0E-001
 70
0
  0
VERTEX
  8
1
 42
0.0
 10
8.3723014E+001
 20
1.1643395E+002
 70
0
  0
VERTEX
  8
1
 42
0.0
 10
8.3546254E+001
 20
1.1661071E+002
 70
0
  0
SEQEND
  0
POLYLINE
  8
1
  6
CONTINUOUS
 62
3
 66
1
 40
5.0E-001
 41
5.0E-001
 70
0
  0
VERTEX
  8
1
 42
0.0
 10
8.2485594E+001
 20
1.1767138E+002
 70
0
  0
VERTEX
  8
1
 42
0.0
 10
8.2308834E+001
 20
1.1784814E+002
 70
0
  0
SEQEND
  0
POLYLINE
  8
1
  6
CONTINUOUS
 62
3
 66
1
 40
5.0E-001
 41
5.0E-001
 70
0
  0
VERTEX
  8
1
 42
1.3578979E-001
 10
8.3415918E+001
 20
1.1858673E+002
 70
0
  0
VERTEX
  8
1
 42
0.0
 10
8.261593E+001
 20
1.1858673E+002
 70
0
  0
SEQEND
  0
POLYLINE
  8
1
  6
CONTINUOUS
 62
3
 66
1
 40
5.0E-001
 41
5.0E-001
 70
0
  0
VERTEX
  8
1
 42
0.0
 10
8.2615934E+001
 20
1.1569537E+002
 70
0
  0
VERTEX
  8
1
 42
0.0
 10
8.2615934E+001
 20
1.1650662E+002
 70
0
  0
SEQEND
  0
POLYLINE
  8
1
  6
CONTINUOUS
 62
3
 66
1
 40
5.0E-001
 41
5.0E-001
 70
0
  0
VERTEX
  8
1
 42
0.0
 10
8.0446894E+001
 20
1.1674105E+002
 70
0
  0
VERTEX
  8
1
 42
0.0
 10
8.2381494E+001
 20
1.1674105E+002
 70
0
  0
SEQEND
  0
POLYLINE
  8
1
  6
CONTINUOUS
 62
3
 66
1
 40
5.0E-001
 41
5.0E-001
 70
0
  0
VERTEX
  8
1
 42
1.3579006E-001
 10
8.2615929E+001
 20
1.1569536E+002
 70
0
  0
VERTEX
  8
1
 42
0.0
 10
8.3415918E+001
 20
1.1569536E+002
 70
0
  0
SEQEND
  0
POLYLINE
  8
1
  6
CONTINUOUS
 62
3
 66
1
 40
5.0E-001
 41
5.0E-001
 70
0
  0
VERTEX
  8
1
 42
1.3578992E-001
 10
8.4461608E+001
 20
1.1674105E+002
 70
0
  0
VERTEX
  8
1
 42
0.0
 10
8.4461609E+001
 20
1.1754104E+002
 70
0
  0
SEQEND
  0
POLYLINE
  8
1
  6
CONTINUOUS
 62
3
 66
1
 40
5.0E-001
 41
5.0E-001
 70
0
  0
VERTEX
  8
1
 42
0.0
 10
8.2615934E+001
 20
1.1777547E+002
 70
0
  0
VERTEX
  8
1
 42
0.0
 10
8.2615934E+001
 20
1.1858672E+002
 70
0
  0
SEQEND
  0
POLYLINE
  8
1
  6
CONTINUOUS
 62
3
 66
1
 40
5.0E-001
 41
5.0E-001
 70
0
  0
VERTEX
  8
1
 42
0.0
 10
8.3415914E+001
 20
1.1777547E+002
 70
0
  0
VERTEX
  8
1
 42
0.0
 10
8.3415914E+001
 20
1.1858672E+002
 70
0
  0
SEQEND
  0
POLYLINE
  8
1
  6
CONTINUOUS
 62
3
 66
1
 40
5.0E-001
 41
5.0E-001
 70
0
  0
VERTEX
  8
1
 42
0.0
 10
8.0446894E+001
 20
1.1754104E+002
 70
0
  0
VERTEX
  8
1
 42
0.0
 10
8.2381494E+001
 20
1.1754104E+002
 70
0
  0
SEQEND
  0
POLYLINE
  8
1
  6
CONTINUOUS
 62
3
 66
1
 40
5.0E-001
 41
5.0E-001
 70
0
  0
VERTEX
  8
1
 42
4.1421356E-001
 10
9.1715944E+001
 20
2.4547199E+002
 70
0
  0
VERTEX
  8
1
 42
0.0
 10
9.0915944E+001
 20
2.4467199E+002
 70
0
  0
SEQEND
  0
POLYLINE
  8
1
  6
CONTINUOUS
 62
3
 66
1
 40
5.0E-001
 41
5.0E-001
 70
0
  0
VERTEX
  8
1
 42
0.0
 10
8.3650354E+001
 20
1.2584109E+002
 70
0
  0
VERTEX
  8
1
 42
0.0
 10
8.5215954E+001
 20
1.2584109E+002
 70
0
  0
SEQEND
  0
POLYLINE
  8
1
  6
CONTINUOUS
 62
3
 66
1
 40
5.0E-001
 41
5.0E-001
 70
0
  0
VERTEX
  8
1
 42
0.0
 10
8.3546254E+001
 20
1.2677139E+002
 70
0
  0
VERTEX
  8
1
 42
0.0
 10
8.3723014E+001
 20
1.2694809E+002
 70
0
  0
SEQEND
  0
POLYLINE
  8
1
  6
CONTINUOUS
 62
3
 66
1
 40
5.0E-001
 41
5.0E-001
 70
0
  0
VERTEX
  8
1
 42
0.0
 10
8.3415914E+001
 20
1.2479536E+002
 70
0
  0
VERTEX
  8
1
 42
0.0
 10
8.3415914E+001
 20
1.2560659E+002
 70
0
  0
SEQEND
  0
POLYLINE
  8
1
  6
CONTINUOUS
 62
3
 66
1
 40
5.0E-001
 41
5.0E-001
 70
0
  0
VERTEX
  8
1
 42
1.0
 10
8.3765924E+001
 20
1.2624099E+002
 70
0
  0
VERTEX
  8
1
 42
1.0
 10
8.2265924E+001
 20
1.2624099E+002
 70
0
  0
VERTEX
  8
1
 42
0.0
 10
8.3765924E+001
 20
1.2624099E+002
 70
0
  0
SEQEND
  0
POLYLINE
  8
1
  6
CONTINUOUS
 62
3
 66
1
 40
5.0E-001
 41
5.0E-001
 70
0
  0
VERTEX
  8
1
 42
1.3579006E-001
 10
8.1570239E+001
 20
1.2664099E+002
 70
0
  0
VERTEX
  8
1
 42
0.0
 10
8.1570239E+001
 20
1.25841E+002
 70
0
  0
SEQEND
  0
POLYLINE
  8
1
  6
CONTINUOUS
 62
3
 66
1
 40
5.0E-001
 41
5.0E-001
 70
0
  0
VERTEX
  8
1
 42
0.0
 10
8.2308834E+001
 20
1.2553399E+002
 70
0
  0
VERTEX
  8
1
 42
0.0
 10
8.2485594E+001
 20
1.2571069E+002
 70
0
  0
SEQEND
  0
POLYLINE
  8
1
  6
CONTINUOUS
 62
3
 66
1
 40
5.0E-001
 41
5.0E-001
 70
0
  0
VERTEX
  8
1
 42
0.0
 10
8.3723014E+001
 20
1.2553399E+002
 70
0
  0
VERTEX
  8
1
 42
0.0
 10
8.3546254E+001
 20
1.2571069E+002
 70
0
  0
SEQEND
  0
POLYLINE
  8
1
  6
CONTINUOUS
 62
3
 66
1
 40
5.0E-001
 41
5.0E-001
 70
0
  0
VERTEX
  8
1
 42
0.0
 10
8.2485594E+001
 20
1.2677139E+002
 70
0
  0
VERTEX
  8
1
 42
0.0
 10
8.2308834E+001
 20
1.2694809E+002
 70
0
  0
SEQEND
  0
POLYLINE
  8
1
  6
CONTINUOUS
 62
3
 66
1
 40
5.0E-001
 41
5.0E-001
 70
0
  0
VERTEX
  8
1
 42
1.3578979E-001
 10
8.3415918E+001
 20
1.2768668E+002
 70
0
  0
VERTEX
  8
1
 42
0.0
 10
8.261593E+001
 20
1.2768668E+002
 70
0
  0
SEQEND
  0
POLYLINE
  8
1
  6
CONTINUOUS
 62
3
 66
1
 40
5.0E-001
 41
5.0E-001
 70
0
  0
VERTEX
  8
1
 42
0.0
 10
8.2615934E+001
 20
1.2479536E+002
 70
0
  0
VERTEX
  8
1
 42
0.0
 10
8.2615934E+001
 20
1.2560659E+002
 70
0
  0
SEQEND
  0
POLYLINE
  8
1
  6
CONTINUOUS
 62
3
 66
1
 40
5.0E-001
 41
5.0E-001
 70
0
  0
VERTEX
  8
1
 42
0.0
 10
8.0446894E+001
 20
1.2584109E+002
 70
0
  0
VERTEX
  8
1
 42
0.0
 10
8.2381494E+001
 20
1.2584109E+002
 70
0
  0
SEQEND
  0
POLYLINE
  8
1
  6
CONTINUOUS
 62
3
 66
1
 40
5.0E-001
 41
5.0E-001
 70
0
  0
VERTEX
  8
1
 42
1.3579006E-001
 10
8.2615929E+001
 20
1.2479531E+002
 70
0
  0
VERTEX
  8
1
 42
0.0
 10
8.3415918E+001
 20
1.2479531E+002
 70
0
  0
SEQEND
  0
POLYLINE
  8
1
  6
CONTINUOUS
 62
3
 66
1
 40
5.0E-001
 41
5.0E-001
 70
0
  0
VERTEX
  8
1
 42
1.3578992E-001
 10
8.4461608E+001
 20
1.25841E+002
 70
0
  0
VERTEX
  8
1
 42
0.0
 10
8.4461609E+001
 20
1.2664099E+002
 70
0
  0
SEQEND
  0
POLYLINE
  8
1
  6
CONTINUOUS
 62
3
 66
1
 40
5.0E-001
 41
5.0E-001
 70
0
  0
VERTEX
  8
1
 42
0.0
 10
8.2615934E+001
 20
1.2687549E+002
 70
0
  0
VERTEX
  8
1
 42
0.0
 10
8.2615934E+001
 20
1.2768669E+002
 70
0
  0
SEQEND
  0
POLYLINE
  8
1
  6
CONTINUOUS
 62
3
 66
1
 40
5.0E-001
 41
5.0E-001
 70
0
  0
VERTEX
  8
1
 42
0.0
 10
8.3415914E+001
 20
1.2687549E+002
 70
0
  0
VERTEX
  8
1
 42
0.0
 10
8.3415914E+001
 20
1.2768669E+002
 70
0
  0
SEQEND
  0
POLYLINE
  8
1
  6
CONTINUOUS
 62
3
 66
1
 40
5.0E-001
 41
5.0E-001
 70
0
  0
VERTEX
  8
1
 42
0.0
 10
8.0446894E+001
 20
1.2664099E+002
 70
0
  0
VERTEX
  8
1
 42
0.0
 10
8.2381494E+001
 20
1.2664099E+002
 70
0
  0
SEQEND
  0
POLYLINE
  8
1
  6
CONTINUOUS
 62
3
 66
1
 40
5.0E-001
 41
5.0E-001
 70
0
  0
VERTEX
  8
1
 42
0.0
 10
1.0051598E+002
 20
2.2547199E+002
 70
0
  0
VERTEX
  8
1
 42
0.0
 10
9.0915944E+001
 20
2.2547199E+002
 70
0
  0
SEQEND
  0
POLYLINE
  8
1
  6
CONTINUOUS
 62
3
 66
1
 40
5.0E-001
 41
5.0E-001
 70
0
  0
VERTEX
  8
1
 42
0.0
 10
1.0905038E+002
 20
8.9441052E+001
 70
0
  0
VERTEX
  8
1
 42
0.0
 10
1.1098498E+002
 20
8.9441052E+001
 70
0
  0
SEQEND
  0
POLYLINE
  8
1
  6
CONTINUOUS
 62
3
 66
1
 40
5.0E-001
 41
5.0E-001
 70
0
  0
VERTEX
  8
1
 42
0.0
 10
1.0894628E+002
 20
9.0371382E+001
 70
0
  0
VERTEX
  8
1
 42
0.0
 10
1.0912298E+002
 20
9.0548132E+001
 70
0
  0
SEQEND
  0
POLYLINE
  8
1
  6
CONTINUOUS
 62
3
 66
1
 40
5.0E-001
 41
5.0E-001
 70
0
  0
VERTEX
  8
1
 42
0.0
 10
1.0881598E+002
 20
8.8395362E+001
 70
0
  0
VERTEX
  8
1
 42
0.0
 10
1.0881598E+002
 20
8.9206612E+001
 70
0
  0
SEQEND
  0
POLYLINE
  8
1
  6
CONTINUOUS
 62
3
 66
1
 40
5.0E-001
 41
5.0E-001
 70
0
  0
VERTEX
  8
1
 42
1.0
 10
1.0916598E+002
 20
8.9841042E+001
 70
0
  0
VERTEX
  8
1
 42
1.0
 10
1.0766598E+002
 20
8.9841042E+001
 70
0
  0
VERTEX
  8
1
 42
0.0
 10
1.0916598E+002
 20
8.9841042E+001
 70
0
  0
SEQEND
  0
POLYLINE
  8
1
  6
CONTINUOUS
 62
3
 66
1
 40
5.0E-001
 41
5.0E-001
 70
0
  0
VERTEX
  8
1
 42
1.3579006E-001
 10
1.069703E+002
 20
9.0241037E+001
 70
0
  0
VERTEX
  8
1
 42
0.0
 10
1.069703E+002
 20
8.9441047E+001
 70
0
  0
SEQEND
  0
POLYLINE
  8
1
  6
CONTINUOUS
 62
3
 66
1
 40
5.0E-001
 41
5.0E-001
 70
0
  0
VERTEX
  8
1
 42
0.0
 10
1.0770888E+002
 20
8.9133952E+001
 70
0
  0
VERTEX
  8
1
 42
0.0
 10
1.0788558E+002
 20
8.9310712E+001
 70
0
  0
SEQEND
  0
POLYLINE
  8
1
  6
CONTINUOUS
 62
3
 66
1
 40
5.0E-001
 41
5.0E-001
 70
0
  0
VERTEX
  8
1
 42
0.0
 10
1.0912298E+002
 20
8.9133952E+001
 70
0
  0
VERTEX
  8
1
 42
0.0
 10
1.0894628E+002
 20
8.9310712E+001
 70
0
  0
SEQEND
  0
POLYLINE
  8
1
  6
CONTINUOUS
 62
3
 66
1
 40
5.0E-001
 41
5.0E-001
 70
0
  0
VERTEX
  8
1
 42
0.0
 10
1.0788558E+002
 20
9.0371382E+001
 70
0
  0
VERTEX
  8
1
 42
0.0
 10
1.0770888E+002
 20
9.0548132E+001
 70
0
  0
SEQEND
  0
POLYLINE
  8
1
  6
CONTINUOUS
 62
3
 66
1
 40
5.0E-001
 41
5.0E-001
 70
0
  0
VERTEX
  8
1
 42
1.3578979E-001
 10
1.0881598E+002
 20
9.1286727E+001
 70
0
  0
VERTEX
  8
1
 42
0.0
 10
1.0801599E+002
 20
9.1286727E+001
 70
0
  0
SEQEND
  0
POLYLINE
  8
1
  6
CONTINUOUS
 62
3
 66
1
 40
5.0E-001
 41
5.0E-001
 70
0
  0
VERTEX
  8
1
 42
0.0
 10
1.0801598E+002
 20
8.8395362E+001
 70
0
  0
VERTEX
  8
1
 42
0.0
 10
1.0801598E+002
 20
8.9206612E+001
 70
0
  0
SEQEND
  0
POLYLINE
  8
1
  6
CONTINUOUS
 62
3
 66
1
 40
5.0E-001
 41
5.0E-001
 70
0
  0
VERTEX
  8
1
 42
0.0
 10
1.0584688E+002
 20
8.9441052E+001
 70
0
  0
VERTEX
  8
1
 42
0.0
 10
1.0778148E+002
 20
8.9441052E+001
 70
0
  0
SEQEND
  0
POLYLINE
  8
1
  6
CONTINUOUS
 62
3
 66
1
 40
5.0E-001
 41
5.0E-001
 70
0
  0
VERTEX
  8
1
 42
1.3579006E-001
 10
1.0801599E+002
 20
8.8395357E+001
 70
0
  0
VERTEX
  8
1
 42
0.0
 10
1.0881598E+002
 20
8.8395357E+001
 70
0
  0
SEQEND
  0
POLYLINE
  8
1
  6
CONTINUOUS
 62
3
 66
1
 40
5.0E-001
 41
5.0E-001
 70
0
  0
VERTEX
  8
1
 42
1.3578992E-001
 10
1.0986167E+002
 20
8.9441047E+001
 70
0
  0
VERTEX
  8
1
 42
0.0
 10
1.0986167E+002
 20
9.0241036E+001
 70
0
  0
SEQEND
  0
POLYLINE
  8
1
  6
CONTINUOUS
 62
3
 66
1
 40
5.0E-001
 41
5.0E-001
 70
0
  0
VERTEX
  8
1
 42
0.0
 10
1.0801598E+002
 20
9.0475472E+001
 70
0
  0
VERTEX
  8
1
 42
0.0
 10
1.0801598E+002
 20
9.1286722E+001
 70
0
  0
SEQEND
  0
POLYLINE
  8
1
  6
CONTINUOUS
 62
3
 66
1
 40
5.0E-001
 41
5.0E-001
 70
0
  0
VERTEX
  8
1
 42
0.0
 10
1.0881598E+002
 20
9.0475472E+001
 70
0
  0
VERTEX
  8
1
 42
0.0
 10
1.0881598E+002
 20
9.1286722E+001
 70
0
  0
SEQEND
  0
POLYLINE
  8
1
  6
CONTINUOUS
 62
3
 66
1
 40
5.0E-001
 41
5.0E-001
 70
0
  0
VERTEX
  8
1
 42
0.0
 10
1.0584688E+002
 20
9.0241042E+001
 70
0
  0
VERTEX
  8
1
 42
0.0
 10
1.0778148E+002
 20
9.0241042E+001
 70
0
  0
SEQEND
  0
POLYLINE
  8
1
  6
CONTINUOUS
 62
3
 66
1
 40
5.0E-001
 41
5.0E-001
 70
0
  0
VERTEX
  8
1
 42
0.0
 10
9.4565924E+001
 20
2.1577199E+002
 70
0
  0
VERTEX
  8
1
 42
0.0
 10
9.4565924E+001
 20
2.0907199E+002
 70
0
  0
SEQEND
  0
POLYLINE
  8
1
  6
CONTINUOUS
 62
3
 66
1
 40
5.0E-001
 41
5.0E-001
 70
0
  0
VERTEX
  8
1
 42
0.0
 10
1.0905038E+002
 20
9.8541052E+001
 70
0
  0
VERTEX
  8
1
 42
0.0
 10
1.1098498E+002
 20
9.8541052E+001
 70
0
  0
SEQEND
  0
POLYLINE
  8
1
  6
CONTINUOUS
 62
3
 66
1
 40
5.0E-001
 41
5.0E-001
 70
0
  0
VERTEX
  8
1
 42
0.0
 10
1.0894628E+002
 20
9.9471382E+001
 70
0
  0
VERTEX
  8
1
 42
0.0
 10
1.0912298E+002
 20
9.9648142E+001
 70
0
  0
SEQEND
  0
POLYLINE
  8
1
  6
CONTINUOUS
 62
3
 66
1
 40
5.0E-001
 41
5.0E-001
 70
0
  0
VERTEX
  8
1
 42
0.0
 10
1.0881598E+002
 20
9.7495372E+001
 70
0
  0
VERTEX
  8
1
 42
0.0
 10
1.0881598E+002
 20
9.8306622E+001
 70
0
  0
SEQEND
  0
POLYLINE
  8
1
  6
CONTINUOUS
 62
3
 66
1
 40
5.0E-001
 41
5.0E-001
 70
0
  0
VERTEX
  8
1
 42
1.0
 10
1.0916598E+002
 20
9.8941052E+001
 70
0
  0
VERTEX
  8
1
 42
1.0
 10
1.0766598E+002
 20
9.8941052E+001
 70
0
  0
VERTEX
  8
1
 42
0.0
 10
1.0916598E+002
 20
9.8941052E+001
 70
0
  0
SEQEND
  0
POLYLINE
  8
1
  6
CONTINUOUS
 62
3
 66
1
 40
5.0E-001
 41
5.0E-001
 70
0
  0
VERTEX
  8
1
 42
1.3579006E-001
 10
1.069703E+002
 20
9.9341047E+001
 70
0
  0
VERTEX
  8
1
 42
0.0
 10
1.069703E+002
 20
9.8541057E+001
 70
0
  0
SEQEND
  0
POLYLINE
  8
1
  6
CONTINUOUS
 62
3
 66
1
 40
5.0E-001
 41
5.0E-001
 70
0
  0
VERTEX
  8
1
 42
0.0
 10
1.0770888E+002
 20
9.8233962E+001
 70
0
  0
VERTEX
  8
1
 42
0.0
 10
1.0788558E+002
 20
9.8410712E+001
 70
0
  0
SEQEND
  0
POLYLINE
  8
1
  6
CONTINUOUS
 62
3
 66
1
 40
5.0E-001
 41
5.0E-001
 70
0
  0
VERTEX
  8
1
 42
0.0
 10
1.0912298E+002
 20
9.8233962E+001
 70
0
  0
VERTEX
  8
1
 42
0.0
 10
1.0894628E+002
 20
9.8410712E+001
 70
0
  0
SEQEND
  0
POLYLINE
  8
1
  6
CONTINUOUS
 62
3
 66
1
 40
5.0E-001
 41
5.0E-001
 70
0
  0
VERTEX
  8
1
 42
0.0
 10
1.0788558E+002
 20
9.9471382E+001
 70
0
  0
VERTEX
  8
1
 42
0.0
 10
1.0770888E+002
 20
9.9648142E+001
 70
0
  0
SEQEND
  0
POLYLINE
  8
1
  6
CONTINUOUS
 62
3
 66
1
 40
5.0E-001
 41
5.0E-001
 70
0
  0
VERTEX
  8
1
 42
1.3578979E-001
 10
1.0881598E+002
 20
1.0038674E+002
 70
0
  0
VERTEX
  8
1
 42
0.0
 10
1.0801599E+002
 20
1.0038674E+002
 70
0
  0
SEQEND
  0
POLYLINE
  8
1
  6
CONTINUOUS
 62
3
 66
1
 40
5.0E-001
 41
5.0E-001
 70
0
  0
VERTEX
  8
1
 42
0.0
 10
1.0801598E+002
 20
9.7495372E+001
 70
0
  0
VERTEX
  8
1
 42
0.0
 10
1.0801598E+002
 20
9.8306622E+001
 70
0
  0
SEQEND
  0
POLYLINE
  8
1
  6
CONTINUOUS
 62
3
 66
1
 40
5.0E-001
 41
5.0E-001
 70
0
  0
VERTEX
  8
1
 42
0.0
 10
1.0621588E+002
 20
9.8541052E+001
 70
0
  0
VERTEX
  8
1
 42
0.0
 10
1.0778148E+002
 20
9.8541052E+001
 70
0
  0
SEQEND
  0
POLYLINE
  8
1
  6
CONTINUOUS
 62
3
 66
1
 40
5.0E-001
 41
5.0E-001
 70
0
  0
VERTEX
  8
1
 42
1.3579006E-001
 10
1.0801599E+002
 20
9.7495367E+001
 70
0
  0
VERTEX
  8
1
 42
0.0
 10
1.0881598E+002
 20
9.7495367E+001
 70
0
  0
SEQEND
  0
POLYLINE
  8
1
  6
CONTINUOUS
 62
3
 66
1
 40
5.0E-001
 41
5.0E-001
 70
0
  0
VERTEX
  8
1
 42
1.3578992E-001
 10
1.0986167E+002
 20
9.8541057E+001
 70
0
  0
VERTEX
  8
1
 42
0.0
 10
1.0986167E+002
 20
9.9341046E+001
 70
0
  0
SEQEND
  0
POLYLINE
  8
1
  6
CONTINUOUS
 62
3
 66
1
 40
5.0E-001
 41
5.0E-001
 70
0
  0
VERTEX
  8
1
 42
0.0
 10
1.0801598E+002
 20
9.9575482E+001
 70
0
  0
VERTEX
  8
1
 42
0.0
 10
1.0801598E+002
 20
1.0038673E+002
 70
0
  0
SEQEND
  0
POLYLINE
  8
1
  6
CONTINUOUS
 62
3
 66
1
 40
5.0E-001
 41
5.0E-001
 70
0
  0
VERTEX
  8
1
 42
0.0
 10
1.0881598E+002
 20
9.9575482E+001
 70
0
  0
VERTEX
  8
1
 42
0.0
 10
1.0881598E+002
 20
1.0038673E+002
 70
0
  0
SEQEND
  0
POLYLINE
  8
1
  6
CONTINUOUS
 62
3
 66
1
 40
5.0E-001
 41
5.0E-001
 70
0
  0
VERTEX
  8
1
 42
0.0
 10
1.0621588E+002
 20
9.9341042E+001
 70
0
  0
VERTEX
  8
1
 42
0.0
 10
1.0778148E+002
 20
9.9341042E+001
 70
0
  0
SEQEND
  0
POLYLINE
  8
1
  6
CONTINUOUS
 62
3
 66
1
 40
5.0E-001
 41
5.0E-001
 70
0
  0
VERTEX
  8
1
 42
0.0
 10
9.6865984E+001
 20
2.0907199E+002
 70
0
  0
VERTEX
  8
1
 42
0.0
 10
9.6865984E+001
 20
2.1577199E+002
 70
0
  0
SEQEND
  0
POLYLINE
  8
1
  6
CONTINUOUS
 62
3
 66
1
 40
5.0E-001
 41
5.0E-001
 70
0
  0
VERTEX
  8
1
 42
0.0
 10
1.0905038E+002
 20
1.0764104E+002
 70
0
  0
VERTEX
  8
1
 42
0.0
 10
1.1098498E+002
 20
1.0764104E+002
 70
0
  0
SEQEND
  0
POLYLINE
  8
1
  6
CONTINUOUS
 62
3
 66
1
 40
5.0E-001
 41
5.0E-001
 70
0
  0
VERTEX
  8
1
 42
0.0
 10
1.0894628E+002
 20
1.0857137E+002
 70
0
  0
VERTEX
  8
1
 42
0.0
 10
1.0912298E+002
 20
1.0874813E+002
 70
0
  0
SEQEND
  0
POLYLINE
  8
1
  6
CONTINUOUS
 62
3
 66
1
 40
5.0E-001
 41
5.0E-001
 70
0
  0
VERTEX
  8
1
 42
0.0
 10
1.0881598E+002
 20
1.0659536E+002
 70
0
  0
VERTEX
  8
1
 42
0.0
 10
1.0881598E+002
 20
1.0740661E+002
 70
0
  0
SEQEND
  0
POLYLINE
  8
1
  6
CONTINUOUS
 62
3
 66
1
 40
5.0E-001
 41
5.0E-001
 70
0
  0
VERTEX
  8
1
 42
1.0
 10
1.0916598E+002
 20
1.0804104E+002
 70
0
  0
VERTEX
  8
1
 42
1.0
 10
1.0766598E+002
 20
1.0804104E+002
 70
0
  0
VERTEX
  8
1
 42
0.0
 10
1.0916598E+002
 20
1.0804104E+002
 70
0
  0
SEQEND
  0
POLYLINE
  8
1
  6
CONTINUOUS
 62
3
 66
1
 40
5.0E-001
 41
5.0E-001
 70
0
  0
VERTEX
  8
1
 42
1.3579006E-001
 10
1.069703E+002
 20
1.0844104E+002
 70
0
  0
VERTEX
  8
1
 42
0.0
 10
1.069703E+002
 20
1.0764105E+002
 70
0
  0
SEQEND
  0
POLYLINE
  8
1
  6
CONTINUOUS
 62
3
 66
1
 40
5.0E-001
 41
5.0E-001
 70
0
  0
VERTEX
  8
1
 42
0.0
 10
1.0770888E+002
 20
1.0733395E+002
 70
0
  0
VERTEX
  8
1
 42
0.0
 10
1.0788558E+002
 20
1.075107E+002
 70
0
  0
SEQEND
  0
POLYLINE
  8
1
  6
CONTINUOUS
 62
3
 66
1
 40
5.0E-001
 41
5.0E-001
 70
0
  0
VERTEX
  8
1
 42
0.0
 10
1.0912298E+002
 20
1.0733395E+002
 70
0
  0
VERTEX
  8
1
 42
0.0
 10
1.0894628E+002
 20
1.075107E+002
 70
0
  0
SEQEND
  0
POLYLINE
  8
1
  6
CONTINUOUS
 62
3
 66
1
 40
5.0E-001
 41
5.0E-001
 70
0
  0
VERTEX
  8
1
 42
0.0
 10
1.0788558E+002
 20
1.0857137E+002
 70
0
  0
VERTEX
  8
1
 42
0.0
 10
1.0770888E+002
 20
1.0874813E+002
 70
0
  0
SEQEND
  0
POLYLINE
  8
1
  6
CONTINUOUS
 62
3
 66
1
 40
5.0E-001
 41
5.0E-001
 70
0
  0
VERTEX
  8
1
 42
1.3578979E-001
 10
1.0881598E+002
 20
1.0948673E+002
 70
0
  0
VERTEX
  8
1
 42
0.0
 10
1.0801599E+002
 20
1.0948673E+002
 70
0
  0
SEQEND
  0
POLYLINE
  8
1
  6
CONTINUOUS
 62
3
 66
1
 40
5.0E-001
 41
5.0E-001
 70
0
  0
VERTEX
  8
1
 42
0.0
 10
1.0801598E+002
 20
1.0659536E+002
 70
0
  0
VERTEX
  8
1
 42
0.0
 10
1.0801598E+002
 20
1.0740661E+002
 70
0
  0
SEQEND
  0
POLYLINE
  8
1
  6
CONTINUOUS
 62
3
 66
1
 40
5.0E-001
 41
5.0E-001
 70
0
  0
VERTEX
  8
1
 42
0.0
 10
1.0621588E+002
 20
1.0764104E+002
 70
0
  0
VERTEX
  8
1
 42
0.0
 10
1.0778148E+002
 20
1.0764104E+002
 70
0
  0
SEQEND
  0
POLYLINE
  8
1
  6
CONTINUOUS
 62
3
 66
1
 40
5.0E-001
 41
5.0E-001
 70
0
  0
VERTEX
  8
1
 42
1.3579006E-001
 10
1.0801599E+002
 20
1.0659536E+002
 70
0
  0
VERTEX
  8
1
 42
0.0
 10
1.0881598E+002
 20
1.0659536E+002
 70
0
  0
SEQEND
  0
POLYLINE
  8
1
  6
CONTINUOUS
 62
3
 66
1
 40
5.0E-001
 41
5.0E-001
 70
0
  0
VERTEX
  8
1
 42
1.3578992E-001
 10
1.0986167E+002
 20
1.0764105E+002
 70
0
  0
VERTEX
  8
1
 42
0.0
 10
1.0986167E+002
 20
1.0844104E+002
 70
0
  0
SEQEND
  0
POLYLINE
  8
1
  6
CONTINUOUS
 62
3
 66
1
 40
5.0E-001
 41
5.0E-001
 70
0
  0
VERTEX
  8
1
 42
0.0
 10
1.0801598E+002
 20
1.0867547E+002
 70
0
  0
VERTEX
  8
1
 42
0.0
 10
1.0801598E+002
 20
1.0948672E+002
 70
0
  0
SEQEND
  0
POLYLINE
  8
1
  6
CONTINUOUS
 62
3
 66
1
 40
5.0E-001
 41
5.0E-001
 70
0
  0
VERTEX
  8
1
 42
0.0
 10
1.0881598E+002
 20
1.0867547E+002
 70
0
  0
VERTEX
  8
1
 42
0.0
 10
1.0881598E+002
 20
1.0948672E+002
 70
0
  0
SEQEND
  0
POLYLINE
  8
1
  6
CONTINUOUS
 62
3
 66
1
 40
5.0E-001
 41
5.0E-001
 70
0
  0
VERTEX
  8
1
 42
0.0
 10
1.0621588E+002
 20
1.0844103E+002
 70
0
  0
VERTEX
  8
1
 42
0.0
 10
1.0778148E+002
 20
1.0844103E+002
 70
0
  0
SEQEND
  0
POLYLINE
  8
1
  6
CONTINUOUS
 62
3
 66
1
 40
5.0E-001
 41
5.0E-001
 70
0
  0
VERTEX
  8
1
 42
0.0
 10
9.7615984E+001
 20
2.1627199E+002
 70
0
  0
VERTEX
  8
1
 42
0.0
 10
9.3815944E+001
 20
2.1627199E+002
 70
0
  0
SEQEND
  0
POLYLINE
  8
1
  6
CONTINUOUS
 62
3
 66
1
 40
5.0E-001
 41
5.0E-001
 70
0
  0
VERTEX
  8
1
 42
0.0
 10
1.0905038E+002
 20
1.1674105E+002
 70
0
  0
VERTEX
  8
1
 42
0.0
 10
1.1098498E+002
 20
1.1674105E+002
 70
0
  0
SEQEND
  0
POLYLINE
  8
1
  6
CONTINUOUS
 62
3
 66
1
 40
5.0E-001
 41
5.0E-001
 70
0
  0
VERTEX
  8
1
 42
0.0
 10
1.0894628E+002
 20
1.1767138E+002
 70
0
  0
VERTEX
  8
1
 42
0.0
 10
1.0912298E+002
 20
1.1784814E+002
 70
0
  0
SEQEND
  0
POLYLINE
  8
1
  6
CONTINUOUS
 62
3
 66
1
 40
5.0E-001
 41
5.0E-001
 70
0
  0
VERTEX
  8
1
 42
0.0
 10
1.0881598E+002
 20
1.1569537E+002
 70
0
  0
VERTEX
  8
1
 42
0.0
 10
1.0881598E+002
 20
1.1650662E+002
 70
0
  0
SEQEND
  0
POLYLINE
  8
1
  6
CONTINUOUS
 62
3
 66
1
 40
5.0E-001
 41
5.0E-001
 70
0
  0
VERTEX
  8
1
 42
1.0
 10
1.0916598E+002
 20
1.1714104E+002
 70
0
  0
VERTEX
  8
1
 42
1.0
 10
1.0766598E+002
 20
1.1714104E+002
 70
0
  0
VERTEX
  8
1
 42
0.0
 10
1.0916598E+002
 20
1.1714104E+002
 70
0
  0
SEQEND
  0
POLYLINE
  8
1
  6
CONTINUOUS
 62
3
 66
1
 40
5.0E-001
 41
5.0E-001
 70
0
  0
VERTEX
  8
1
 42
1.3579006E-001
 10
1.069703E+002
 20
1.1754104E+002
 70
0
  0
VERTEX
  8
1
 42
0.0
 10
1.069703E+002
 20
1.1674105E+002
 70
0
  0
SEQEND
  0
POLYLINE
  8
1
  6
CONTINUOUS
 62
3
 66
1
 40
5.0E-001
 41
5.0E-001
 70
0
  0
VERTEX
  8
1
 42
0.0
 10
1.0770888E+002
 20
1.1643395E+002
 70
0
  0
VERTEX
  8
1
 42
0.0
 10
1.0788558E+002
 20
1.1661071E+002
 70
0
  0
SEQEND
  0
POLYLINE
  8
1
  6
CONTINUOUS
 62
3
 66
1
 40
5.0E-001
 41
5.0E-001
 70
0
  0
VERTEX
  8
1
 42
0.0
 10
1.0912298E+002
 20
1.1643395E+002
 70
0
  0
VERTEX
  8
1
 42
0.0
 10
1.0894628E+002
 20
1.1661071E+002
 70
0
  0
SEQEND
  0
POLYLINE
  8
1
  6
CONTINUOUS
 62
3
 66
1
 40
5.0E-001
 41
5.0E-001
 70
0
  0
VERTEX
  8
1
 42
0.0
 10
1.0788558E+002
 20
1.1767138E+002
 70
0
  0
VERTEX
  8
1
 42
0.0
 10
1.0770888E+002
 20
1.1784814E+002
 70
0
  0
SEQEND
  0
POLYLINE
  8
1
  6
CONTINUOUS
 62
3
 66
1
 40
5.0E-001
 41
5.0E-001
 70
0
  0
VERTEX
  8
1
 42
1.3578979E-001
 10
1.0881598E+002
 20
1.1858673E+002
 70
0
  0
VERTEX
  8
1
 42
0.0
 10
1.0801599E+002
 20
1.1858673E+002
 70
0
  0
SEQEND
  0
POLYLINE
  8
1
  6
CONTINUOUS
 62
3
 66
1
 40
5.0E-001
 41
5.0E-001
 70
0
  0
VERTEX
  8
1
 42
0.0
 10
1.0801598E+002
 20
1.1569537E+002
 70
0
  0
VERTEX
  8
1
 42
0.0
 10
1.0801598E+002
 20
1.1650662E+002
 70
0
  0
SEQEND
  0
POLYLINE
  8
1
  6
CONTINUOUS
 62
3
 66
1
 40
5.0E-001
 41
5.0E-001
 70
0
  0
VERTEX
  8
1
 42
0.0
 10
1.0621588E+002
 20
1.1674105E+002
 70
0
  0
VERTEX
  8
1
 42
0.0
 10
1.0778148E+002
 20
1.1674105E+002
 70
0
  0
SEQEND
  0
POLYLINE
  8
1
  6
CONTINUOUS
 62
3
 66
1
 40
5.0E-001
 41
5.0E-001
 70
0
  0
VERTEX
  8
1
 42
1.3579006E-001
 10
1.0801599E+002
 20
1.1569536E+002
 70
0
  0
VERTEX
  8
1
 42
0.0
 10
1.0881598E+002
 20
1.1569536E+002
 70
0
  0
SEQEND
  0
POLYLINE
  8
1
  6
CONTINUOUS
 62
3
 66
1
 40
5.0E-001
 41
5.0E-001
 70
0
  0
VERTEX
  8
1
 42
1.3578992E-001
 10
1.0986167E+002
 20
1.1674105E+002
 70
0
  0
VERTEX
  8
1
 42
0.0
 10
1.0986167E+002
 20
1.1754104E+002
 70
0
  0
SEQEND
  0
POLYLINE
  8
1
  6
CONTINUOUS
 62
3
 66
1
 40
5.0E-001
 41
5.0E-001
 70
0
  0
VERTEX
  8
1
 42
0.0
 10
1.0801598E+002
 20
1.1777547E+002
 70
0
  0
VERTEX
  8
1
 42
0.0
 10
1.0801598E+002
 20
1.1858672E+002
 70
0
  0
SEQEND
  0
POLYLINE
  8
1
  6
CONTINUOUS
 62
3
 66
1
 40
5.0E-001
 41
5.0E-001
 70
0
  0
VERTEX
  8
1
 42
0.0
 10
1.0881598E+002
 20
1.1777547E+002
 70
0
  0
VERTEX
  8
1
 42
0.0
 10
1.0881598E+002
 20
1.1858672E+002
 70
0
  0
SEQEND
  0
POLYLINE
  8
1
  6
CONTINUOUS
 62
3
 66
1
 40
5.0E-001
 41
5.0E-001
 70
0
  0
VERTEX
  8
1
 42
0.0
 10
1.0621588E+002
 20
1.1754104E+002
 70
0
  0
VERTEX
  8
1
 42
0.0
 10
1.0778148E+002
 20
1.1754104E+002
 70
0
  0
SEQEND
  0
TEXT
  8
1
  6
CONTINUOUS
 62
4
 10
5.2244682E+001
 20
1.0909289E+002
 40
2.8
  1
9,1
 41
8.0586135E-001
 50
9.0E+001
  0
DIMENSION
  8
1
  6
CONTINUOUS
 62
4
  1
     
  2
*D1056
  3
DSTYLE1
 10
5.3776484E+001
 20
1.0804107E+002
 11
5.0775484E+001
 21
1.1330349E+002
 70
128
 13
7.1895834E+001
 23
1.1714104E+002
 14
7.9545844E+001
 24
1.0804107E+002
 40
1.25E-001
 50
9.0E+001
  0
POLYLINE
  8
1
  6
CONTINUOUS
 62
3
 66
1
 40
5.0E-001
 41
5.0E-001
 70
0
  0
VERTEX
  8
1
 42
0.0
 10
1.0905038E+002
 20
1.2584109E+002
 70
0
  0
VERTEX
  8
1
 42
0.0
 10
1.1098498E+002
 20
1.2584109E+002
 70
0
  0
SEQEND
  0
POLYLINE
  8
1
  6
CONTINUOUS
 62
3
 66
1
 40
5.0E-001
 41
5.0E-001
 70
0
  0
VERTEX
  8
1
 42
0.0
 10
1.0894628E+002
 20
1.2677139E+002
 70
0
  0
VERTEX
  8
1
 42
0.0
 10
1.0912298E+002
 20
1.2694809E+002
 70
0
  0
SEQEND
  0
POLYLINE
  8
1
  6
CONTINUOUS
 62
3
 66
1
 40
5.0E-001
 41
5.0E-001
 70
0
  0
VERTEX
  8
1
 42
0.0
 10
1.0881598E+002
 20
1.2479536E+002
 70
0
  0
VERTEX
  8
1
 42
0.0
 10
1.0881598E+002
 20
1.2560659E+002
 70
0
  0
SEQEND
  0
POLYLINE
  8
1
  6
CONTINUOUS
 62
3
 66
1
 40
5.0E-001
 41
5.0E-001
 70
0
  0
VERTEX
  8
1
 42
1.0
 10
1.0916598E+002
 20
1.2624099E+002
 70
0
  0
VERTEX
  8
1
 42
1.0
 10
1.0766598E+002
 20
1.2624099E+002
 70
0
  0
VERTEX
  8
1
 42
0.0
 10
1.0916598E+002
 20
1.2624099E+002
 70
0
  0
SEQEND
  0
POLYLINE
  8
1
  6
CONTINUOUS
 62
3
 66
1
 40
5.0E-001
 41
5.0E-001
 70
0
  0
VERTEX
  8
1
 42
1.3579006E-001
 10
1.069703E+002
 20
1.2664099E+002
 70
0
  0
VERTEX
  8
1
 42
0.0
 10
1.069703E+002
 20
1.25841E+002
 70
0
  0
SEQEND
  0
POLYLINE
  8
1
  6
CONTINUOUS
 62
3
 66
1
 40
5.0E-001
 41
5.0E-001
 70
0
  0
VERTEX
  8
1
 42
0.0
 10
1.0770888E+002
 20
1.2553399E+002
 70
0
  0
VERTEX
  8
1
 42
0.0
 10
1.0788558E+002
 20
1.2571069E+002
 70
0
  0
SEQEND
  0
POLYLINE
  8
1
  6
CONTINUOUS
 62
3
 66
1
 40
5.0E-001
 41
5.0E-001
 70
0
  0
VERTEX
  8
1
 42
0.0
 10
1.0912298E+002
 20
1.2553399E+002
 70
0
  0
VERTEX
  8
1
 42
0.0
 10
1.0894628E+002
 20
1.2571069E+002
 70
0
  0
SEQEND
  0
POLYLINE
  8
1
  6
CONTINUOUS
 62
3
 66
1
 40
5.0E-001
 41
5.0E-001
 70
0
  0
VERTEX
  8
1
 42
0.0
 10
1.0788558E+002
 20
1.2677139E+002
 70
0
  0
VERTEX
  8
1
 42
0.0
 10
1.0770888E+002
 20
1.2694809E+002
 70
0
  0
SEQEND
  0
POLYLINE
  8
1
  6
CONTINUOUS
 62
3
 66
1
 40
5.0E-001
 41
5.0E-001
 70
0
  0
VERTEX
  8
1
 42
1.3578979E-001
 10
1.0881598E+002
 20
1.2768668E+002
 70
0
  0
VERTEX
  8
1
 42
0.0
 10
1.0801599E+002
 20
1.2768668E+002
 70
0
  0
SEQEND
  0
POLYLINE
  8
1
  6
CONTINUOUS
 62
3
 66
1
 40
5.0E-001
 41
5.0E-001
 70
0
  0
VERTEX
  8
1
 42
0.0
 10
1.0801598E+002
 20
1.2479536E+002
 70
0
  0
VERTEX
  8
1
 42
0.0
 10
1.0801598E+002
 20
1.2560659E+002
 70
0
  0
SEQEND
  0
POLYLINE
  8
1
  6
CONTINUOUS
 62
3
 66
1
 40
5.0E-001
 41
5.0E-001
 70
0
  0
VERTEX
  8
1
 42
0.0
 10
1.0621588E+002
 20
1.2584109E+002
 70
0
  0
VERTEX
  8
1
 42
0.0
 10
1.0778148E+002
 20
1.2584109E+002
 70
0
  0
SEQEND
  0
POLYLINE
  8
1
  6
CONTINUOUS
 62
3
 66
1
 40
5.0E-001
 41
5.0E-001
 70
0
  0
VERTEX
  8
1
 42
1.3579006E-001
 10
1.0801599E+002
 20
1.2479531E+002
 70
0
  0
VERTEX
  8
1
 42
0.0
 10
1.0881598E+002
 20
1.2479531E+002
 70
0
  0
SEQEND
  0
POLYLINE
  8
1
  6
CONTINUOUS
 62
3
 66
1
 40
5.0E-001
 41
5.0E-001
 70
0
  0
VERTEX
  8
1
 42
1.3578992E-001
 10
1.0986167E+002
 20
1.25841E+002
 70
0
  0
VERTEX
  8
1
 42
0.0
 10
1.0986167E+002
 20
1.2664099E+002
 70
0
  0
SEQEND
  0
POLYLINE
  8
1
  6
CONTINUOUS
 62
3
 66
1
 40
5.0E-001
 41
5.0E-001
 70
0
  0
VERTEX
  8
1
 42
0.0
 10
1.0801598E+002
 20
1.2687549E+002
 70
0
  0
VERTEX
  8
1
 42
0.0
 10
1.0801598E+002
 20
1.2768669E+002
 70
0
  0
SEQEND
  0
POLYLINE
  8
1
  6
CONTINUOUS
 62
3
 66
1
 40
5.0E-001
 41
5.0E-001
 70
0
  0
VERTEX
  8
1
 42
0.0
 10
1.0881598E+002
 20
1.2687549E+002
 70
0
  0
VERTEX
  8
1
 42
0.0
 10
1.0881598E+002
 20
1.2768669E+002
 70
0
  0
SEQEND
  0
POLYLINE
  8
1
  6
CONTINUOUS
 62
3
 66
1
 40
5.0E-001
 41
5.0E-001
 70
0
  0
VERTEX
  8
1
 42
0.0
 10
1.0621588E+002
 20
1.2664099E+002
 70
0
  0
VERTEX
  8
1
 42
0.0
 10
1.0778148E+002
 20
1.2664099E+002
 70
0
  0
SEQEND
  0
POLYLINE
  8
1
  6
CONTINUOUS
 62
3
 66
1
 40
5.0E-001
 41
5.0E-001
 70
0
  0
VERTEX
  8
1
 42
0.0
 10
1.0905038E+002
 20
9.0241042E+001
 70
0
  0
VERTEX
  8
1
 42
0.0
 10
1.1098498E+002
 20
9.0241042E+001
 70
0
  0
SEQEND
  0
POLYLINE
  8
1
  6
CONTINUOUS
 62
3
 66
1
 40
5.0E-001
 41
5.0E-001
 70
0
  0
VERTEX
  8
1
 42
0.0
 10
1.0905038E+002
 20
9.9341042E+001
 70
0
  0
VERTEX
  8
1
 42
0.0
 10
1.1098498E+002
 20
9.9341042E+001
 70
0
  0
SEQEND
  0
POLYLINE
  8
1
  6
CONTINUOUS
 62
3
 66
1
 40
5.0E-001
 41
5.0E-001
 70
0
  0
VERTEX
  8
1
 42
0.0
 10
1.0905038E+002
 20
1.0844106E+002
 70
0
  0
VERTEX
  8
1
 42
0.0
 10
1.1098498E+002
 20
1.0844106E+002
 70
0
  0
SEQEND
  0
POLYLINE
  8
1
  6
CONTINUOUS
 62
3
 66
1
 40
5.0E-001
 41
5.0E-001
 70
0
  0
VERTEX
  8
1
 42
0.0
 10
1.0905038E+002
 20
1.1754104E+002
 70
0
  0
VERTEX
  8
1
 42
0.0
 10
1.1098498E+002
 20
1.1754104E+002
 70
0
  0
SEQEND
  0
POLYLINE
  8
1
  6
CONTINUOUS
 62
3
 66
1
 40
5.0E-001
 41
5.0E-001
 70
0
  0
VERTEX
  8
1
 42
0.0
 10
1.0905038E+002
 20
1.2664109E+002
 70
0
  0
VERTEX
  8
1
 42
0.0
 10
1.1098498E+002
 20
1.2664109E+002
 70
0
  0
SEQEND
  0
POLYLINE
  8
1
  6
CONTINUOUS
 62
3
 66
1
 40
5.0E-001
 41
5.0E-001
 70
0
  0
VERTEX
  8
1
 42
0.0
 10
8.3650354E+001
 20
1.2664109E+002
 70
0
  0
VERTEX
  8
1
 42
0.0
 10
8.5215954E+001
 20
1.2664109E+002
 70
0
  0
SEQEND
  0
POLYLINE
  8
1
  6
CONTINUOUS
 62
3
 66
1
 40
5.0E-001
 41
5.0E-001
 70
0
  0
VERTEX
  8
1
 42
0.0
 10
8.3650354E+001
 20
1.1754104E+002
 70
0
  0
VERTEX
  8
1
 42
0.0
 10
8.5215954E+001
 20
1.1754104E+002
 70
0
  0
SEQEND
  0
POLYLINE
  8
1
  6
CONTINUOUS
 62
3
 66
1
 40
5.0E-001
 41
5.0E-001
 70
0
  0
VERTEX
  8
1
 42
0.0
 10
8.3650354E+001
 20
1.0844106E+002
 70
0
  0
VERTEX
  8
1
 42
0.0
 10
8.5215954E+001
 20
1.0844106E+002
 70
0
  0
SEQEND
  0
POLYLINE
  8
1
  6
CONTINUOUS
 62
3
 66
1
 40
5.0E-001
 41
5.0E-001
 70
0
  0
VERTEX
  8
1
 42
0.0
 10
8.3650354E+001
 20
9.9341042E+001
 70
0
  0
VERTEX
  8
1
 42
0.0
 10
8.5215954E+001
 20
9.9341042E+001
 70
0
  0
SEQEND
  0
ARC
  8
1
  6
PHANTOM
 62
4
 10
8.3715934E+001
 20
1.6937199E+002
 40
5.0E-001
 50
1.8E+002
 51
2.7E+002
  0
POLYLINE
  8
1
  6
HIDDEN
 62
3
 66
1
 40
5.0E-001
 41
5.0E-001
 70
0
  0
VERTEX
  8
1
 42
0.0
 10
1.1341598E+002
 20
2.0897199E+002
 70
0
  0
VERTEX
  8
1
 42
0.0
 10
1.0341598E+002
 20
2.0897199E+002
 70
0
  0
SEQEND
  0
POLYLINE
  8
1
  6
CONTINUOUS
 62
3
 66
1
 40
5.0E-001
 41
5.0E-001
 70
0
  0
VERTEX
  8
1
 42
0.0
 10
9.7715984E+001
 20
2.1627199E+002
 70
0
  0
VERTEX
  8
1
 42
0.0
 10
9.7715984E+001
 20
2.1839699E+002
 70
0
  0
SEQEND
  0
POLYLINE
  8
1
  6
CONTINUOUS
 62
3
 66
1
 40
5.0E-001
 41
5.0E-001
 70
0
  0
VERTEX
  8
1
 42
0.0
 10
9.8515984E+001
 20
2.1887199E+002
 70
0
  0
VERTEX
  8
1
 42
0.0
 10
1.1021598E+002
 20
2.1887199E+002
 70
0
  0
SEQEND
  0
POLYLINE
  8
1
  6
CONTINUOUS
 62
3
 66
1
 40
5.0E-001
 41
5.0E-001
 70
0
  0
VERTEX
  8
1
 42
0.0
 10
9.7715984E+001
 20
2.1887199E+002
 70
0
  0
VERTEX
  8
1
 42
0.0
 10
1.1491598E+002
 20
2.1887199E+002
 70
0
  0
SEQEND
  0
POLYLINE
  8
1
  6
CONTINUOUS
 62
3
 66
1
 40
5.0E-001
 41
5.0E-001
 70
0
  0
VERTEX
  8
1
 42
0.0
 10
9.4215924E+001
 20
8.4291062E+001
 70
0
  0
VERTEX
  8
1
 42
0.0
 10
9.7215984E+001
 20
8.4291062E+001
 70
0
  0
SEQEND
  0
POLYLINE
  8
1
  6
CONTINUOUS
 62
3
 66
1
 40
5.0E-001
 41
5.0E-001
 70
0
  0
VERTEX
  8
1
 42
0.0
 10
9.6715934E+001
 20
2.2489699E+002
 70
0
  0
VERTEX
  8
1
 42
0.0
 10
9.6715934E+001
 20
2.2547199E+002
 70
0
  0
SEQEND
  0
TEXT
  8
1
  6
CONTINUOUS
 62
4
 10
1.3479227E+002
 20
1.5032765E+002
 40
3.0
  1
Hutschiene 35 EN50022
 41
9.1702418E-001
  0
LINE
  8
1
  6
PHANTOM
 62
4
 10
1.1321598E+002
 20
1.7437199E+002
 11
1.1321598E+002
 21
1.7537199E+002
  0
ARC
  8
1
  6
PHANTOM
 62
4
 10
8.1415934E+001
 20
1.7357199E+002
 40
1.8
 50
0.0
 51
9.0E+001
  0
POLYLINE
  8
1
  6
CONTINUOUS
 62
3
 66
1
 40
5.0E-001
 41
5.0E-001
 70
0
  0
VERTEX
  8
1
 42
4.1421356E-001
 10
9.8465984E+001
 20
8.4291062E+001
 70
0
  0
VERTEX
  8
1
 42
0.0
 10
9.8965984E+001
 20
8.4791062E+001
 70
0
  0
SEQEND
  0
POLYLINE
  8
1
  6
CONTINUOUS
 62
3
 66
1
 40
5.0E-001
 41
5.0E-001
 70
0
  0
VERTEX
  8
1
 42
0.0
 10
9.2465924E+001
 20
8.7791082E+001
 70
0
  0
VERTEX
  8
1
 42
0.0
 10
9.2465924E+001
 20
8.4791062E+001
 70
0
  0
SEQEND
  0
DIMENSION
  8
1
  6
CONTINUOUS
 62
4
  2
*D1094
  3
DSTYLE1
 10
1.5977648E+002
 20
8.3041062E+001
 11
1.5677548E+002
 21
1.0330349E+002
 70
128
 13
7.5639194E+001
 23
1.2804109E+002
 14
1.2512998E+002
 24
8.3041062E+001
 40
1.25E-001
 50
9.0E+001
  0
LINE
  8
1
  6
PHANTOM
 62
4
 10
7.8215934E+001
 20
1.7537199E+002
 11
7.8215934E+001
 21
1.7437199E+002
  0
POLYLINE
  8
1
  6
HIDDEN
 62
3
 66
1
 40
5.0E-001
 41
5.0E-001
 70
0
  0
VERTEX
  8
1
 42
0.0
 10
1.0471598E+002
 20
2.0897199E+002
 70
0
  0
VERTEX
  8
1
 42
0.0
 10
1.0471598E+002
 20
2.1177199E+002
 70
0
  0
SEQEND
  0
POLYLINE
  8
1
  6
HIDDEN
 62
3
 66
1
 40
5.0E-001
 41
5.0E-001
 70
0
  0
VERTEX
  8
1
 42
0.0
 10
1.1211598E+002
 20
2.1177199E+002
 70
0
  0
VERTEX
  8
1
 42
0.0
 10
1.1211598E+002
 20
2.0897199E+002
 70
0
  0
SEQEND
  0
POLYLINE
  8
1
  6
HIDDEN
 62
3
 66
1
 40
5.0E-001
 41
5.0E-001
 70
0
  0
VERTEX
  8
1
 42
0.0
 10
1.1211598E+002
 20
2.1177199E+002
 70
0
  0
VERTEX
  8
1
 42
0.0
 10
1.0471598E+002
 20
2.1177199E+002
 70
0
  0
SEQEND
  0
POLYLINE
  8
1
  6
HIDDEN
 62
3
 66
1
 40
5.0E-001
 41
5.0E-001
 70
0
  0
VERTEX
  8
1
 42
0.0
 10
1.1211598E+002
 20
2.1017199E+002
 70
0
  0
VERTEX
  8
1
 42
0.0
 10
1.0471598E+002
 20
2.1017199E+002
 70
0
  0
SEQEND
  0
POLYLINE
  8
1
  6
HIDDEN
 62
3
 66
1
 40
5.0E-001
 41
5.0E-001
 70
0
  0
VERTEX
  8
1
 42
0.0
 10
1.1116598E+002
 20
2.1417199E+002
 70
0
  0
VERTEX
  8
1
 42
0.0
 10
1.0566598E+002
 20
2.1417199E+002
 70
0
  0
SEQEND
  0
POLYLINE
  8
1
  6
HIDDEN
 62
3
 66
1
 40
5.0E-001
 41
5.0E-001
 70
0
  0
VERTEX
  8
1
 42
0.0
 10
1.0566598E+002
 20
2.1417199E+002
 70
0
  0
VERTEX
  8
1
 42
0.0
 10
1.0566598E+002
 20
2.1177199E+002
 70
0
  0
SEQEND
  0
POLYLINE
  8
1
  6
CONTINUOUS
 62
3
 66
1
 40
5.0E-001
 41
5.0E-001
 70
0
  0
VERTEX
  8
1
 42
0.0
 10
9.7715984E+001
 20
2.1687199E+002
 70
0
  0
VERTEX
  8
1
 42
0.0
 10
1.1571598E+002
 20
2.1687199E+002
 70
0
  0
SEQEND
  0
POLYLINE
  8
1
  6
CONTINUOUS
 62
3
 66
1
 40
5.0E-001
 41
5.0E-001
 70
0
  0
VERTEX
  8
1
 42
0.0
 10
9.3715934E+001
 20
2.1627199E+002
 70
0
  0
VERTEX
  8
1
 42
0.0
 10
9.3715934E+001
 20
2.1839699E+002
 70
0
  0
SEQEND
  0
POLYLINE
  8
1
  6
CONTINUOUS
 62
3
 66
1
 40
5.0E-001
 41
5.0E-001
 70
0
  0
VERTEX
  8
1
 42
0.0
 10
9.6465934E+001
 20
2.1887199E+002
 70
0
  0
VERTEX
  8
1
 42
0.0
 10
1.1021598E+002
 20
2.1887199E+002
 70
0
  0
SEQEND
  0
POLYLINE
  8
1
  6
CONTINUOUS
 62
3
 66
1
 40
5.0E-001
 41
5.0E-001
 70
0
  0
VERTEX
  8
1
 42
0.0
 10
9.6465934E+001
 20
2.1637199E+002
 70
0
  0
VERTEX
  8
1
 42
0.0
 10
9.4965934E+001
 20
2.1637199E+002
 70
0
  0
SEQEND
  0
POLYLINE
  8
1
  6
CONTINUOUS
 62
3
 66
1
 40
5.0E-001
 41
5.0E-001
 70
0
  0
VERTEX
  8
1
 42
0.0
 10
9.7715984E+001
 20
2.1737199E+002
 70
0
  0
VERTEX
  8
1
 42
0.0
 10
9.8315984E+001
 20
2.1737199E+002
 70
0
  0
SEQEND
  0
POLYLINE
  8
1
  6
HIDDEN
 62
3
 66
1
 40
5.0E-001
 41
5.0E-001
 70
0
  0
VERTEX
  8
1
 42
0.0
 10
1.1341598E+002
 20
2.0797199E+002
 70
0
  0
VERTEX
  8
1
 42
0.0
 10
1.0341598E+002
 20
2.0797199E+002
 70
0
  0
SEQEND
  0
POLYLINE
  8
1
  6
CONTINUOUS
 62
3
 66
1
 40
5.0E-001
 41
5.0E-001
 70
0
  0
VERTEX
  8
1
 42
0.0
 10
9.7715984E+001
 20
2.1873099E+002
 70
0
  0
VERTEX
  8
1
 42
0.0
 10
9.7715984E+001
 20
2.1824699E+002
 70
0
  0
SEQEND
  0
TEXT
  8
1
  6
CONTINUOUS
 62
4
 10
5.2244682E+001
 20
1.1843743E+002
 40
2.8
  1
9,1
 41
8.0586135E-001
 50
9.0E+001
  0
DIMENSION
  8
1
  6
CONTINUOUS
 62
4
  1
     
  2
*D1110
  3
DSTYLE1
 10
5.3776484E+001
 20
1.1714104E+002
 11
5.0775484E+001
 21
1.2130349E+002
 70
128
 13
7.9895834E+001
 23
1.2624109E+002
 14
7.9895834E+001
 24
1.1714104E+002
 40
1.25E-001
 50
9.0E+001
  0
POLYLINE
  8
1
  6
CONTINUOUS
 62
3
 66
1
 40
5.0E-001
 41
5.0E-001
 70
0
  0
VERTEX
  8
1
 42
0.0
 10
9.4965934E+001
 20
2.1737199E+002
 70
0
  0
VERTEX
  8
1
 42
0.0
 10
9.6465934E+001
 20
2.1737199E+002
 70
0
  0
SEQEND
  0
POLYLINE
  8
1
  6
CONTINUOUS
 62
3
 66
1
 40
5.0E-001
 41
5.0E-001
 70
0
  0
VERTEX
  8
1
 42
0.0
 10
9.8465984E+001
 20
2.2489699E+002
 70
0
  0
VERTEX
  8
1
 42
0.0
 10
9.2965934E+001
 20
2.2489699E+002
 70
0
  0
SEQEND
  0
POLYLINE
  8
1
  6
CONTINUOUS
 62
3
 66
1
 40
5.0E-001
 41
5.0E-001
 70
0
  0
VERTEX
  8
1
 42
0.0
 10
9.7715984E+001
 20
2.1887199E+002
 70
0
  0
VERTEX
  8
1
 42
0.0
 10
9.7715984E+001
 20
2.1873099E+002
 70
0
  0
SEQEND
  0
POLYLINE
  8
1
  6
CONTINUOUS
 62
3
 66
1
 40
5.0E-001
 41
5.0E-001
 70
0
  0
VERTEX
  8
1
 42
0.0
 10
9.3715934E+001
 20
2.1887199E+002
 70
0
  0
VERTEX
  8
1
 42
0.0
 10
9.3715934E+001
 20
2.1776499E+002
 70
0
  0
SEQEND
  0
LINE
  8
1
  6
PHANTOM
 62
4
 10
1.0771598E+002
 20
1.6887199E+002
 11
8.3715934E+001
 21
1.6887199E+002
  0
LINE
  8
1
  6
PHANTOM
 62
4
 10
1.0741598E+002
 20
1.6787199E+002
 11
8.4015944E+001
 21
1.6787199E+002
  0
POLYLINE
  8
1
  6
CONTINUOUS
 62
3
 66
1
 40
5.0E-001
 41
5.0E-001
 70
0
  0
VERTEX
  8
1
 42
4.1421356E-001
 10
9.2965934E+001
 20
2.2489699E+002
 70
0
  0
VERTEX
  8
1
 42
0.0
 10
9.2465934E+001
 20
2.2439699E+002
 70
0
  0
SEQEND
  0
POLYLINE
  8
1
  6
CONTINUOUS
 62
3
 66
1
 40
5.0E-001
 41
5.0E-001
 70
0
  0
VERTEX
  8
1
 42
4.1421356E-001
 10
9.8965984E+001
 20
2.2439699E+002
 70
0
  0
VERTEX
  8
1
 42
0.0
 10
9.8465984E+001
 20
2.2489699E+002
 70
0
  0
SEQEND
  0
POLYLINE
  8
1
  6
HIDDEN
 62
3
 66
1
 40
5.0E-001
 41
5.0E-001
 70
0
  0
VERTEX
  8
1
 42
0.0
 10
8.8015934E+001
 20
2.0897199E+002
 70
0
  0
VERTEX
  8
1
 42
0.0
 10
7.8015934E+001
 20
2.0897199E+002
 70
0
  0
SEQEND
  0
POLYLINE
  8
1
  6
HIDDEN
 62
3
 66
1
 40
5.0E-001
 41
5.0E-001
 70
0
  0
VERTEX
  8
1
 42
0.0
 10
8.8015934E+001
 20
2.0797199E+002
 70
0
  0
VERTEX
  8
1
 42
0.0
 10
7.8015934E+001
 20
2.0797199E+002
 70
0
  0
SEQEND
  0
TEXT
  8
1
  6
CONTINUOUS
 62
4
 10
5.2244682E+001
 20
9.1338257E+001
 40
2.8
  1
9,1
 41
8.0586135E-001
 50
9.0E+001
  0
DIMENSION
  8
1
  6
CONTINUOUS
 62
4
  1
     
  2
*D1122
  3
DSTYLE1
 10
5.3776484E+001
 20
8.9841042E+001
 11
5.0775484E+001
 21
9.5601702E+001
 70
128
 13
7.9895834E+001
 23
9.8941052E+001
 14
7.9895834E+001
 24
8.9841042E+001
 40
1.25E-001
 50
9.0E+001
  0
POLYLINE
  8
1
  6
CONTINUOUS
 62
3
 66
1
 40
5.0E-001
 41
5.0E-001
 70
0
  0
VERTEX
  8
1
 42
4.1421356E-001
 10
9.2465924E+001
 20
8.4791062E+001
 70
0
  0
VERTEX
  8
1
 42
0.0
 10
9.2965924E+001
 20
8.4291062E+001
 70
0
  0
SEQEND
  0
POLYLINE
  8
1
  6
CONTINUOUS
 62
3
 66
1
 40
5.0E-001
 41
5.0E-001
 70
0
  0
VERTEX
  8
1
 42
0.0
 10
9.4965934E+001
 20
2.1637199E+002
 70
0
  0
VERTEX
  8
1
 42
0.0
 10
9.4965934E+001
 20
2.1887199E+002
 70
0
  0
SEQEND
  0
POLYLINE
  8
1
  6
CONTINUOUS
 62
3
 66
1
 40
5.0E-001
 41
5.0E-001
 70
0
  0
VERTEX
  8
1
 42
0.0
 10
9.6465934E+001
 20
2.1637199E+002
 70
0
  0
VERTEX
  8
1
 42
0.0
 10
9.6465934E+001
 20
2.1887199E+002
 70
0
  0
SEQEND
  0
POLYLINE
  8
1
  6
CONTINUOUS
 62
3
 66
1
 40
5.0E-001
 41
5.0E-001
 70
0
  0
VERTEX
  8
1
 42
0.0
 10
9.6215934E+001
 20
2.2489699E+002
 70
0
  0
VERTEX
  8
1
 42
0.0
 10
9.6215934E+001
 20
2.2547199E+002
 70
0
  0
SEQEND
  0
POLYLINE
  8
1
  6
CONTINUOUS
 62
3
 66
1
 40
5.0E-001
 41
5.0E-001
 70
0
  0
VERTEX
  8
1
 42
0.0
 10
9.5215934E+001
 20
2.2547199E+002
 70
0
  0
VERTEX
  8
1
 42
0.0
 10
9.5215934E+001
 20
2.2489699E+002
 70
0
  0
SEQEND
  0
LINE
  8
1
  6
CENTERLINE
 62
3
 10
1.0076598E+002
 20
2.4704469E+002
 11
1.0076598E+002
 21
2.3179349E+002
  0
LINE
  8
1
  6
CENTERLINE
 62
3
 10
9.0665944E+001
 20
2.3179349E+002
 11
9.0665944E+001
 21
2.4714709E+002
  0
POLYLINE
  8
1
  6
CONTINUOUS
 62
3
 66
1
 40
5.0E-001
 41
5.0E-001
 70
0
  0
VERTEX
  8
1
 42
0.0
 10
9.8965984E+001
 20
8.7791082E+001
 70
0
  0
VERTEX
  8
1
 42
0.0
 10
9.8965984E+001
 20
8.4791062E+001
 70
0
  0
SEQEND
  0
POLYLINE
  8
1
  6
HIDDEN
 62
3
 66
1
 40
5.0E-001
 41
5.0E-001
 70
0
  0
VERTEX
  8
1
 42
0.0
 10
1.1116598E+002
 20
2.1417199E+002
 70
0
  0
VERTEX
  8
1
 42
0.0
 10
1.1116598E+002
 20
2.1177199E+002
 70
0
  0
SEQEND
  0
POLYLINE
  8
1
  6
HIDDEN
 62
3
 66
1
 40
5.0E-001
 41
5.0E-001
 70
0
  0
VERTEX
  8
1
 42
0.0
 10
7.9315934E+001
 20
2.0897199E+002
 70
0
  0
VERTEX
  8
1
 42
0.0
 10
7.9315934E+001
 20
2.1177199E+002
 70
0
  0
SEQEND
  0
POLYLINE
  8
1
  6
HIDDEN
 62
3
 66
1
 40
5.0E-001
 41
5.0E-001
 70
0
  0
VERTEX
  8
1
 42
0.0
 10
8.6715924E+001
 20
2.1177199E+002
 70
0
  0
VERTEX
  8
1
 42
0.0
 10
8.6715924E+001
 20
2.0897199E+002
 70
0
  0
SEQEND
  0
POLYLINE
  8
1
  6
HIDDEN
 62
3
 66
1
 40
5.0E-001
 41
5.0E-001
 70
0
  0
VERTEX
  8
1
 42
0.0
 10
8.6715924E+001
 20
2.1177199E+002
 70
0
  0
VERTEX
  8
1
 42
0.0
 10
7.9315934E+001
 20
2.1177199E+002
 70
0
  0
SEQEND
  0
POLYLINE
  8
1
  6
HIDDEN
 62
3
 66
1
 40
5.0E-001
 41
5.0E-001
 70
0
  0
VERTEX
  8
1
 42
0.0
 10
8.6715924E+001
 20
2.1017199E+002
 70
0
  0
VERTEX
  8
1
 42
0.0
 10
7.9315934E+001
 20
2.1017199E+002
 70
0
  0
SEQEND
  0
POLYLINE
  8
1
  6
HIDDEN
 62
3
 66
1
 40
5.0E-001
 41
5.0E-001
 70
0
  0
VERTEX
  8
1
 42
0.0
 10
8.5765934E+001
 20
2.1417199E+002
 70
0
  0
VERTEX
  8
1
 42
0.0
 10
8.0265934E+001
 20
2.1417199E+002
 70
0
  0
SEQEND
  0
POLYLINE
  8
1
  6
HIDDEN
 62
3
 66
1
 40
5.0E-001
 41
5.0E-001
 70
0
  0
VERTEX
  8
1
 42
0.0
 10
8.0265934E+001
 20
2.1417199E+002
 70
0
  0
VERTEX
  8
1
 42
0.0
 10
8.0265934E+001
 20
2.1177199E+002
 70
0
  0
SEQEND
  0
POLYLINE
  8
1
  6
HIDDEN
 62
3
 66
1
 40
5.0E-001
 41
5.0E-001
 70
0
  0
VERTEX
  8
1
 42
0.0
 10
8.5765934E+001
 20
2.1417199E+002
 70
0
  0
VERTEX
  8
1
 42
0.0
 10
8.5765934E+001
 20
2.1177199E+002
 70
0
  0
SEQEND
  0
POLYLINE
  8
1
  6
HIDDEN
 62
3
 66
1
 40
5.0E-001
 41
5.0E-001
 70
0
  0
VERTEX
  8
1
 42
0.0
 10
1.0576598E+002
 20
2.3457199E+002
 70
0
  0
VERTEX
  8
1
 42
0.0
 10
9.6497954E+001
 20
2.3457199E+002
 70
0
  0
SEQEND
  0
POLYLINE
  8
1
  6
HIDDEN
 62
3
 66
1
 40
5.0E-001
 41
5.0E-001
 70
0
  0
VERTEX
  8
1
 42
0.0
 10
9.7065984E+001
 20
2.3457199E+002
 70
0
  0
VERTEX
  8
1
 42
0.0
 10
9.7065984E+001
 20
2.3737199E+002
 70
0
  0
SEQEND
  0
POLYLINE
  8
1
  6
HIDDEN
 62
3
 66
1
 40
5.0E-001
 41
5.0E-001
 70
0
  0
VERTEX
  8
1
 42
0.0
 10
1.0446598E+002
 20
2.3737199E+002
 70
0
  0
VERTEX
  8
1
 42
0.0
 10
1.0446598E+002
 20
2.3457199E+002
 70
0
  0
SEQEND
  0
POLYLINE
  8
1
  6
HIDDEN
 62
3
 66
1
 40
5.0E-001
 41
5.0E-001
 70
0
  0
VERTEX
  8
1
 42
0.0
 10
1.0446598E+002
 20
2.3737199E+002
 70
0
  0
VERTEX
  8
1
 42
0.0
 10
9.7065984E+001
 20
2.3737199E+002
 70
0
  0
SEQEND
  0
POLYLINE
  8
1
  6
HIDDEN
 62
3
 66
1
 40
5.0E-001
 41
5.0E-001
 70
0
  0
VERTEX
  8
1
 42
0.0
 10
1.0446598E+002
 20
2.3577199E+002
 70
0
  0
VERTEX
  8
1
 42
0.0
 10
9.7065984E+001
 20
2.3577199E+002
 70
0
  0
SEQEND
  0
POLYLINE
  8
1
  6
HIDDEN
 62
3
 66
1
 40
5.0E-001
 41
5.0E-001
 70
0
  0
VERTEX
  8
1
 42
0.0
 10
1.0351598E+002
 20
2.3977199E+002
 70
0
  0
VERTEX
  8
1
 42
0.0
 10
9.8015984E+001
 20
2.3977199E+002
 70
0
  0
SEQEND
  0
POLYLINE
  8
1
  6
HIDDEN
 62
3
 66
1
 40
5.0E-001
 41
5.0E-001
 70
0
  0
VERTEX
  8
1
 42
0.0
 10
9.8015984E+001
 20
2.3977199E+002
 70
0
  0
VERTEX
  8
1
 42
0.0
 10
9.8015984E+001
 20
2.3737199E+002
 70
0
  0
SEQEND
  0
POLYLINE
  8
1
  6
HIDDEN
 62
3
 66
1
 40
5.0E-001
 41
5.0E-001
 70
0
  0
VERTEX
  8
1
 42
0.0
 10
1.0576598E+002
 20
2.3357199E+002
 70
0
  0
VERTEX
  8
1
 42
0.0
 10
9.6433844E+001
 20
2.3357199E+002
 70
0
  0
SEQEND
  0
POLYLINE
  8
1
  6
HIDDEN
 62
3
 66
1
 40
5.0E-001
 41
5.0E-001
 70
0
  0
VERTEX
  8
1
 42
0.0
 10
1.0351598E+002
 20
2.3977199E+002
 70
0
  0
VERTEX
  8
1
 42
0.0
 10
1.0351598E+002
 20
2.3737199E+002
 70
0
  0
SEQEND
  0
POLYLINE
  8
1
  6
HIDDEN
 62
3
 66
1
 40
5.0E-001
 41
5.0E-001
 70
0
  0
VERTEX
  8
1
 42
0.0
 10
9.4964974E+001
 20
2.3457199E+002
 70
0
  0
VERTEX
  8
1
 42
0.0
 10
8.5665944E+001
 20
2.3457199E+002
 70
0
  0
SEQEND
  0
POLYLINE
  8
1
  6
HIDDEN
 62
3
 66
1
 40
5.0E-001
 41
5.0E-001
 70
0
  0
VERTEX
  8
1
 42
0.0
 10
8.6965944E+001
 20
2.3457199E+002
 70
0
  0
VERTEX
  8
1
 42
0.0
 10
8.6965944E+001
 20
2.3737199E+002
 70
0
  0
SEQEND
  0
POLYLINE
  8
1
  6
HIDDEN
 62
3
 66
1
 40
5.0E-001
 41
5.0E-001
 70
0
  0
VERTEX
  8
1
 42
0.0
 10
9.4365934E+001
 20
2.3737199E+002
 70
0
  0
VERTEX
  8
1
 42
0.0
 10
9.4365934E+001
 20
2.3457199E+002
 70
0
  0
SEQEND
  0
POLYLINE
  8
1
  6
HIDDEN
 62
3
 66
1
 40
5.0E-001
 41
5.0E-001
 70
0
  0
VERTEX
  8
1
 42
0.0
 10
9.4365934E+001
 20
2.3737199E+002
 70
0
  0
VERTEX
  8
1
 42
0.0
 10
8.6965944E+001
 20
2.3737199E+002
 70
0
  0
SEQEND
  0
POLYLINE
  8
1
  6
HIDDEN
 62
3
 66
1
 40
5.0E-001
 41
5.0E-001
 70
0
  0
VERTEX
  8
1
 42
0.0
 10
9.4365934E+001
 20
2.3577199E+002
 70
0
  0
VERTEX
  8
1
 42
0.0
 10
8.6965944E+001
 20
2.3577199E+002
 70
0
  0
SEQEND
  0
POLYLINE
  8
1
  6
HIDDEN
 62
3
 66
1
 40
5.0E-001
 41
5.0E-001
 70
0
  0
VERTEX
  8
1
 42
0.0
 10
9.3415934E+001
 20
2.3977199E+002
 70
0
  0
VERTEX
  8
1
 42
0.0
 10
8.7915944E+001
 20
2.3977199E+002
 70
0
  0
SEQEND
  0
POLYLINE
  8
1
  6
HIDDEN
 62
3
 66
1
 40
5.0E-001
 41
5.0E-001
 70
0
  0
VERTEX
  8
1
 42
0.0
 10
8.7915944E+001
 20
2.3977199E+002
 70
0
  0
VERTEX
  8
1
 42
0.0
 10
8.7915944E+001
 20
2.3737199E+002
 70
0
  0
SEQEND
  0
POLYLINE
  8
1
  6
HIDDEN
 62
3
 66
1
 40
5.0E-001
 41
5.0E-001
 70
0
  0
VERTEX
  8
1
 42
0.0
 10
9.4900854E+001
 20
2.3357199E+002
 70
0
  0
VERTEX
  8
1
 42
0.0
 10
8.5665944E+001
 20
2.3357199E+002
 70
0
  0
SEQEND
  0
POLYLINE
  8
1
  6
HIDDEN
 62
3
 66
1
 40
5.0E-001
 41
5.0E-001
 70
0
  0
VERTEX
  8
1
 42
0.0
 10
9.3415934E+001
 20
2.3977199E+002
 70
0
  0
VERTEX
  8
1
 42
0.0
 10
9.3415934E+001
 20
2.3737199E+002
 70
0
  0
SEQEND
  0
ARC
  8
1
  6
PHANTOM
 62
4
 10
8.4015944E+001
 20
1.6967199E+002
 40
1.8
 50
1.8E+002
 51
2.7E+002
  0
LINE
  8
1
  6
CENTERLINE
 62
1
 10
9.0665924E+001
 20
1.1116106E+002
 11
9.0665924E+001
 21
1.0492106E+002
  0
LINE
  8
1
  6
CENTERLINE
 62
1
 10
9.3785934E+001
 20
1.0804107E+002
 11
8.7545934E+001
 21
1.0804107E+002
  0
LINE
  8
1
  6
CENTERLINE
 62
1
 10
9.0665924E+001
 20
1.0206106E+002
 11
9.0665924E+001
 21
9.5821052E+001
  0
LINE
  8
1
  6
CENTERLINE
 62
1
 10
9.3785934E+001
 20
9.8941062E+001
 11
8.7545934E+001
 21
9.8941062E+001
  0
LINE
  8
1
  6
CENTERLINE
 62
1
 10
1.0076598E+002
 20
1.0206106E+002
 11
1.0076598E+002
 21
9.5821052E+001
  0
LINE
  8
1
  6
CENTERLINE
 62
1
 10
1.0388598E+002
 20
9.8941062E+001
 11
9.7645984E+001
 21
9.8941062E+001
  0
LINE
  8
1
  6
CENTERLINE
 62
3
 10
1.0076598E+002
 20
1.1116106E+002
 11
1.0076598E+002
 21
1.0492106E+002
  0
LINE
  8
1
  6
CENTERLINE
 62
3
 10
1.0388598E+002
 20
1.0804107E+002
 11
9.7645984E+001
 21
1.0804107E+002
  0
POLYLINE
  8
1
  6
HIDDEN
 62
3
 66
1
 40
5.0E-001
 41
5.0E-001
 70
0
  0
VERTEX
  8
1
 42
0.0
 10
9.5715944E+001
 20
1.2491105E+002
 70
0
  0
VERTEX
  8
1
 42
0.0
 10
9.5715944E+001
 20
1.1867106E+002
 70
0
  0
SEQEND
  0
LINE
  8
1
  6
CENTERLINE
 62
1
 10
9.8835984E+001
 20
1.2179105E+002
 11
9.2595954E+001
 21
1.2179105E+002
  0
POLYLINE
  8
1
  6
CONTINUOUS
 62
3
 66
1
 40
5.0E-001
 41
5.0E-001
 70
0
  0
VERTEX
  8
1
 42
0.0
 10
9.4715934E+001
 20
2.2489699E+002
 70
0
  0
VERTEX
  8
1
 42
0.0
 10
9.4715934E+001
 20
2.2547199E+002
 70
0
  0
SEQEND
  0
POLYLINE
  8
1
  6
CONTINUOUS
 62
3
 66
1
 40
5.0E-001
 41
5.0E-001
 70
0
  0
VERTEX
  8
1
 42
0.0
 10
8.3650354E+001
 20
9.0241042E+001
 70
0
  0
VERTEX
  8
1
 42
0.0
 10
8.5584984E+001
 20
9.0241042E+001
 70
0
  0
SEQEND
  0
TEXT
  8
1
  6
CONTINUOUS
 62
4
 10
1.2880948E+002
 20
1.054651E+001
 40
2.2
  1
B6..+CAF6
 41
8.0E-001
  0
TEXT
  8
1
  6
CONTINUOUS
 62
4
 10
7.9285308E+001
 20
6.789192
 40
2.8
  1
dimension drawing
 41
8.0E-001
  0
TEXT
  8
1
  6
CONTINUOUS
 62
4
 10
1.2196805E+002
 20
5.5500833E+001
 40
3.0
  1
Changes of dimensions reserved !
 41
8.0E-001
  0
TEXT
  8
1
  6
CONTINUOUS
 62
4
 10
2.6535972E+001
 20
5.5599632E+001
 40
3.0
  1
switching position indication
 41
8.0E-001
  0
LINE
  8
1
  6
CONTINUOUS
 62
4
 10
9.5335614E+001
 20
8.5712652E+001
 11
5.2003382E+001
 21
6.0920776E+001
  0
TEXT
  8
1
  6
CONTINUOUS
 62
4
 10
2.7520046E+001
 20
3.7023988E+001
 40
3.0
  1
Gewicht : ca. 200g
 41
8.0E-001
  0
TEXT
  8
1
  6
CONTINUOUS
 62
4
 10
2.7727654E+001
 20
4.1841473E+001
 40
3.0
  1
weight : ca. 200g
 41
8.0E-001
  0
TEXT
  8
1
  6
CONTINUOUS
 62
4
 10
1.3481586E+002
 20
1.5517131E+002
 40
3.0
  1
DIN rail 35 EN50022
 41
8.0E-001
  0
LINE
  8
1
  6
CONTINUOUS
 62
4
 10
1.0870435E+002
 20
1.7135547E+002
 11
1.3388194E+002
 21
1.5741255E+002
  0
TEXT
  8
1
  6
CONTINUOUS
 62
4
 10
1.217654E+002
 20
3.6096913E+001
 40
3.0
  1
Befestigungsaugen abbrechbar
 41
8.0E-001
  0
TEXT
  8
1
  6
CONTINUOUS
 62
4
 10
1.2180266E+002
 20
4.0551369E+001
 40
3.0
  1
attachment eyes breakable
 41
8.0E-001
  0
TEXT
  8
1
  6
CONTINUOUS
 62
4
 10
1.1504765E+002
 20
2.550829E+002
 40
3.0
  1
terminals :    1 ... 2,5mm  multiple-wire
 41
7.0E-001
  0
TEXT
  8
1
  6
CONTINUOUS
 62
4
 10
1.7036801E+002
 20
2.564711E+002
 40
2.0
  1
2
  0
TEXT
  8
1
  6
CONTINUOUS
 62
4
 10
1.15665E+002
 20
2.5011828E+002
 40
3.0
  1
Anschluesse :  1 ... 2,5mm  mehrdraehtig
 41
7.0E-001
  0
TEXT
  8
1
  6
CONTINUOUS
 62
4
 10
1.7057693E+002
 20
2.5166613E+002
 40
2.0
  1
2
  0
TEXT
  8
1
  6
CONTINUOUS
 62
4
 10
1.5135707E+002
 20
2.4122056E+002
 40
3.0
  1
... 4mm  single-wire
 41
7.0E-001
  0
TEXT
  8
1
  6
CONTINUOUS
 62
4
 10
1.6618979E+002
 20
2.4268294E+002
 40
2.0
  1
2
  0
TEXT
  8
1
  6
CONTINUOUS
 62
4
 10
1.5135707E+002
 20
2.3662451E+002
 40
3.0
  1
... 4mm  eindraehtig
 41
7.0E-001
  0
TEXT
  8
1
  6
CONTINUOUS
 62
4
 10
1.6618979E+002
 20
2.3808689E+002
 40
2.0
  1
2
  0
TEXT
  8
1
  6
CONTINUOUS
 62
4
 10
2.5729455E+001
 20
2.3496806E+001
 40
2.5
  1
 b
 41
7.6E-001
  0
TEXT
  8
1
  6
CONTINUOUS
 62
4
 10
3.2843975E+001
 20
2.3498686E+001
 40
2.2
  1
L12 185  2.8.04
 41
7.0E-001
  0
VIEWPORT
 67
1
  8
0
  6
CONTINUOUS
 62
3
100
AcDbViewport
 10
1.05E+002
 20
1.485E+002
 30
0.0
 40
2.97E+002
 41
2.97E+002
 68
1
 69
1
1001
ACAD
1000
MVIEW
1002
{
1070
16
1010
0.0
1020
0.0
1030
0.0
1010
0.0
1020
0.0
1030
1.0
1040
0.0
1040
2.97E+002
1040
4.2E+001
1040
1.485E+002
1040
5.0E+001
1040
0.0
1040
0.0
1070
0
1070
100
1070
1
1070
0
1070
0
1070
0
1070
0
1070
0
1040
0.0
1040
0.0
1040
0.0
1040
5.0E-001
1040
5.0E-001
1040
5.0E-001
1040
5.0E-001
1070
0
1002
{
1002
}
1002
}
  0
VIEWPORT
 67
1
  8
0
  6
CONTINUOUS
 62
3
100
AcDbViewport
 10
1.05E+002
 20
1.485E+002
 30
0.0
 40
2.1E+002
 41
2.97E+002
 68
2
 69
2
1001
ACAD
1000
MVIEW
1002
{
1070
16
1010
0.0
1020
0.0
1030
0.0
1010
0.0
1020
0.0
1030
1.0
1040
0.0
1040
2.97E+002
1040
1.05E+002
1040
1.485E+002
1040
5.0E+001
1040
0.0
1040
0.0
1070
0
1070
100
1070
1
1070
0
1070
0
1070
0
1070
0
1070
0
1040
0.0
1040
0.0
1040
0.0
1040
5.0E-001
1040
5.0E-001
1040
5.0E-001
1040
5.0E-001
1070
0
1002
{
1002
}
1002
}
  0
ENDSEC
  0
EOF
