  0
SECTION
  2
HEADER
  9
$ACADVER
  1
AC1009
999
I-DEAS 11 NX Not Encoded
  9
$EXTMIN
 10
0.0
 20
0.0
  9
$EXTMAX
 10
4.2E+002
 20
2.97E+002
  9
$TEXTSIZE
 40
1.25E-001
  9
$LTSCALE
 40
1.0
  9
$CLAYER
  8
1
  9
$CECOLOR
 62
1
  9
$DIMASZ
 40
1.25E-001
  9
$DIMEXO
 40
6.25E-002
  9
$DIMDLI
 40
2.5E-001
  9
$DIMEXE
 40
1.25E-001
  9
$DIMTP
 40
5.0E-003
  9
$DIMTM
 40
-5.0E-003
  9
$DIMTXT
 40
3.0
  9
$DIMLIM
 70
0
  9
$DIMTIH
 70
1
  9
$DIMTOH
 70
1
  9
$DIMSE1
 70
0
  9
$DIMSE2
 70
0
  9
$DIMTAD
 70
0
  9
$DIMASO
 70
1
  9
$DIMALT
 70
0
  9
$DIMALTD
 70
0
  9
$DIMTOFL
 70
1
  9
$DIMTIX
 70
0
  9
$DIMSAH
 70
0
  9
$DIMTFAC
 40
1.0
  9
$DIMGAP
 40
6.25E-002
  9
$LUNITS
 70
2
  9
$LUPREC
 70
3
  9
$FILLETRAD
 40
1.0E+001
  9
$AUNITS
 70
0
  9
$AUPREC
 70
1
  9
$CHAMFERA
 40
6.0
  9
$CHAMFERB
 40
6.0
  9
$ANGBASE
 50
0.0
  9
$ANGDIR
 70
0
  9
$PEXTMIN
 10
0.0
 20
0.0
 30
0.0
  9
$PEXTMAX
 10
4.2E+002
 20
2.97E+002
 30
0.0
  9
$PLIMMIN
 10
0.0
 20
0.0
  9
$PLIMMAX
 10
4.2E+002
 20
2.97E+002
  9
$PDMODE
 70
2
  9
$PDSIZE
 40
-1.0E-002
  9
$SPLINETYPE
 70
6
  9
$TILEMODE
 70
1
  0
ENDSEC
  0
SECTION
  2
TABLES
  0
TABLE
  2
VPORT
 70
2
  0
VPORT
  2
*Active
 70
0
 10
0.0
 20
0.0
 11
4.2E+002
 21
2.97E+002
 12
2.1E+002
 22
1.485E+002
 13
0.0
 23
0.0
 14
1.0
 24
1.0
 15
0.0
 25
0.0
 16
0.0
 26
0.0
 36
1.0
 17
0.0
 27
0.0
 37
0.0
 40
2.97E+002
 41
1.4141414
 42
5.0E+001
 43
0.0
 44
0.0
 50
0.0
 51
0.0
 71
0
 72
100
 73
1
 74
3
 75
0
 76
0
 77
0
 78
0
  0
ENDTAB
  0
TABLE
  2
LTYPE
 70
7
  0
LTYPE
  2
HIDDENNEW0
  3
_ 
 70
64
 72
65
 73
3
 40
4.5
 49
1.5
 49
-1.5
 49
1.5
  0
LTYPE
  2
HIDDENNEW1
  3
_ 
 70
64
 72
65
 73
3
 40
4.5
 49
1.5
 49
-1.5
 49
1.5
  0
LTYPE
  2
HIDDEN
  3
_ 
 70
64
 72
65
 73
3
 40
4.5
 49
1.5
 49
-1.5
 49
1.5
  0
LTYPE
  2
CENTERLINE
  3
_ 
 70
64
 72
65
 73
5
 40
3.0E+001
 49
1.2E+001
 49
-1.5
 49
3.0
 49
-1.5
 49
1.2E+001
  0
LTYPE
  2
PHANTOM
  3
_ 
 70
64
 72
65
 73
7
 40
2.95E+001
 49
9.5
 49
-1.5
 49
3.0
 49
-1.5
 49
3.0
 49
-1.5
 49
9.5
  0
LTYPE
  2
SHORT_DASH
  3
_ 
 70
64
 72
65
 73
3
 40
3.0
 49
7.5E-001
 49
-1.5
 49
7.5E-001
  0
LTYPE
  2
LONG_DASH
  3
_ 
 70
64
 72
65
 73
3
 40
9.0
 49
2.25
 49
-4.5
 49
2.25
  0
ENDTAB
  0
TABLE
  2
LAYER
 70
258
  0
LAYER
  2
1
 70
0
 62
7
  6
CONTINUOUS
  0
LAYER
  2
2
 70
0
 62
7
  6
CONTINUOUS
  0
LAYER
  2
3
 70
0
 62
7
  6
CONTINUOUS
  0
LAYER
  2
4
 70
0
 62
7
  6
CONTINUOUS
  0
LAYER
  2
5
 70
0
 62
7
  6
CONTINUOUS
  0
LAYER
  2
6
 70
0
 62
7
  6
CONTINUOUS
  0
LAYER
  2
7
 70
0
 62
7
  6
CONTINUOUS
  0
LAYER
  2
8
 70
0
 62
7
  6
CONTINUOUS
  0
LAYER
  2
9
 70
0
 62
7
  6
CONTINUOUS
  0
LAYER
  2
10
 70
0
 62
7
  6
CONTINUOUS
  0
LAYER
  2
11
 70
0
 62
7
  6
CONTINUOUS
  0
LAYER
  2
12
 70
0
 62
7
  6
CONTINUOUS
  0
LAYER
  2
13
 70
0
 62
7
  6
CONTINUOUS
  0
LAYER
  2
14
 70
0
 62
7
  6
CONTINUOUS
  0
LAYER
  2
15
 70
0
 62
7
  6
CONTINUOUS
  0
LAYER
  2
16
 70
0
 62
7
  6
CONTINUOUS
  0
LAYER
  2
17
 70
0
 62
7
  6
CONTINUOUS
  0
LAYER
  2
18
 70
0
 62
7
  6
CONTINUOUS
  0
LAYER
  2
19
 70
0
 62
7
  6
CONTINUOUS
  0
LAYER
  2
20
 70
0
 62
7
  6
CONTINUOUS
  0
LAYER
  2
21
 70
0
 62
7
  6
CONTINUOUS
  0
LAYER
  2
22
 70
0
 62
7
  6
CONTINUOUS
  0
LAYER
  2
23
 70
0
 62
7
  6
CONTINUOUS
  0
LAYER
  2
24
 70
0
 62
7
  6
CONTINUOUS
  0
LAYER
  2
25
 70
0
 62
7
  6
CONTINUOUS
  0
LAYER
  2
26
 70
0
 62
7
  6
CONTINUOUS
  0
LAYER
  2
27
 70
0
 62
7
  6
CONTINUOUS
  0
LAYER
  2
28
 70
0
 62
7
  6
CONTINUOUS
  0
LAYER
  2
29
 70
0
 62
7
  6
CONTINUOUS
  0
LAYER
  2
30
 70
0
 62
7
  6
CONTINUOUS
  0
LAYER
  2
31
 70
0
 62
7
  6
CONTINUOUS
  0
LAYER
  2
32
 70
0
 62
7
  6
CONTINUOUS
  0
LAYER
  2
33
 70
0
 62
7
  6
CONTINUOUS
  0
LAYER
  2
34
 70
0
 62
7
  6
CONTINUOUS
  0
LAYER
  2
35
 70
0
 62
7
  6
CONTINUOUS
  0
LAYER
  2
36
 70
0
 62
7
  6
CONTINUOUS
  0
LAYER
  2
37
 70
0
 62
7
  6
CONTINUOUS
  0
LAYER
  2
38
 70
0
 62
7
  6
CONTINUOUS
  0
LAYER
  2
39
 70
0
 62
7
  6
CONTINUOUS
  0
LAYER
  2
40
 70
0
 62
7
  6
CONTINUOUS
  0
LAYER
  2
41
 70
0
 62
7
  6
CONTINUOUS
  0
LAYER
  2
42
 70
0
 62
7
  6
CONTINUOUS
  0
LAYER
  2
43
 70
0
 62
7
  6
CONTINUOUS
  0
LAYER
  2
44
 70
0
 62
7
  6
CONTINUOUS
  0
LAYER
  2
45
 70
0
 62
7
  6
CONTINUOUS
  0
LAYER
  2
46
 70
0
 62
7
  6
CONTINUOUS
  0
LAYER
  2
47
 70
0
 62
7
  6
CONTINUOUS
  0
LAYER
  2
48
 70
0
 62
7
  6
CONTINUOUS
  0
LAYER
  2
49
 70
0
 62
7
  6
CONTINUOUS
  0
LAYER
  2
50
 70
0
 62
7
  6
CONTINUOUS
  0
LAYER
  2
51
 70
0
 62
7
  6
CONTINUOUS
  0
LAYER
  2
52
 70
0
 62
7
  6
CONTINUOUS
  0
LAYER
  2
53
 70
0
 62
7
  6
CONTINUOUS
  0
LAYER
  2
54
 70
0
 62
7
  6
CONTINUOUS
  0
LAYER
  2
55
 70
0
 62
7
  6
CONTINUOUS
  0
LAYER
  2
56
 70
0
 62
7
  6
CONTINUOUS
  0
LAYER
  2
57
 70
0
 62
7
  6
CONTINUOUS
  0
LAYER
  2
58
 70
0
 62
7
  6
CONTINUOUS
  0
LAYER
  2
59
 70
0
 62
7
  6
CONTINUOUS
  0
LAYER
  2
60
 70
0
 62
7
  6
CONTINUOUS
  0
LAYER
  2
61
 70
0
 62
7
  6
CONTINUOUS
  0
LAYER
  2
62
 70
0
 62
7
  6
CONTINUOUS
  0
LAYER
  2
63
 70
0
 62
7
  6
CONTINUOUS
  0
LAYER
  2
64
 70
0
 62
7
  6
CONTINUOUS
  0
LAYER
  2
65
 70
0
 62
7
  6
CONTINUOUS
  0
LAYER
  2
66
 70
0
 62
7
  6
CONTINUOUS
  0
LAYER
  2
67
 70
0
 62
7
  6
CONTINUOUS
  0
LAYER
  2
68
 70
0
 62
7
  6
CONTINUOUS
  0
LAYER
  2
69
 70
0
 62
7
  6
CONTINUOUS
  0
LAYER
  2
70
 70
0
 62
7
  6
CONTINUOUS
  0
LAYER
  2
71
 70
0
 62
7
  6
CONTINUOUS
  0
LAYER
  2
72
 70
0
 62
7
  6
CONTINUOUS
  0
LAYER
  2
73
 70
0
 62
7
  6
CONTINUOUS
  0
LAYER
  2
74
 70
0
 62
7
  6
CONTINUOUS
  0
LAYER
  2
75
 70
0
 62
7
  6
CONTINUOUS
  0
LAYER
  2
76
 70
0
 62
7
  6
CONTINUOUS
  0
LAYER
  2
77
 70
0
 62
7
  6
CONTINUOUS
  0
LAYER
  2
78
 70
0
 62
7
  6
CONTINUOUS
  0
LAYER
  2
79
 70
0
 62
7
  6
CONTINUOUS
  0
LAYER
  2
80
 70
0
 62
7
  6
CONTINUOUS
  0
LAYER
  2
81
 70
0
 62
7
  6
CONTINUOUS
  0
LAYER
  2
82
 70
0
 62
7
  6
CONTINUOUS
  0
LAYER
  2
83
 70
0
 62
7
  6
CONTINUOUS
  0
LAYER
  2
84
 70
0
 62
7
  6
CONTINUOUS
  0
LAYER
  2
85
 70
0
 62
7
  6
CONTINUOUS
  0
LAYER
  2
86
 70
0
 62
7
  6
CONTINUOUS
  0
LAYER
  2
87
 70
0
 62
7
  6
CONTINUOUS
  0
LAYER
  2
88
 70
0
 62
7
  6
CONTINUOUS
  0
LAYER
  2
89
 70
0
 62
7
  6
CONTINUOUS
  0
LAYER
  2
90
 70
0
 62
7
  6
CONTINUOUS
  0
LAYER
  2
91
 70
0
 62
7
  6
CONTINUOUS
  0
LAYER
  2
92
 70
0
 62
7
  6
CONTINUOUS
  0
LAYER
  2
93
 70
0
 62
7
  6
CONTINUOUS
  0
LAYER
  2
94
 70
0
 62
7
  6
CONTINUOUS
  0
LAYER
  2
95
 70
0
 62
7
  6
CONTINUOUS
  0
LAYER
  2
96
 70
0
 62
7
  6
CONTINUOUS
  0
LAYER
  2
97
 70
0
 62
7
  6
CONTINUOUS
  0
LAYER
  2
98
 70
0
 62
7
  6
CONTINUOUS
  0
LAYER
  2
99
 70
0
 62
7
  6
CONTINUOUS
  0
LAYER
  2
100
 70
0
 62
7
  6
CONTINUOUS
  0
LAYER
  2
101
 70
0
 62
7
  6
CONTINUOUS
  0
LAYER
  2
102
 70
0
 62
7
  6
CONTINUOUS
  0
LAYER
  2
103
 70
0
 62
7
  6
CONTINUOUS
  0
LAYER
  2
104
 70
0
 62
7
  6
CONTINUOUS
  0
LAYER
  2
105
 70
0
 62
7
  6
CONTINUOUS
  0
LAYER
  2
106
 70
0
 62
7
  6
CONTINUOUS
  0
LAYER
  2
107
 70
0
 62
7
  6
CONTINUOUS
  0
LAYER
  2
108
 70
0
 62
7
  6
CONTINUOUS
  0
LAYER
  2
109
 70
0
 62
7
  6
CONTINUOUS
  0
LAYER
  2
110
 70
0
 62
7
  6
CONTINUOUS
  0
LAYER
  2
111
 70
0
 62
7
  6
CONTINUOUS
  0
LAYER
  2
112
 70
0
 62
7
  6
CONTINUOUS
  0
LAYER
  2
113
 70
0
 62
7
  6
CONTINUOUS
  0
LAYER
  2
114
 70
0
 62
7
  6
CONTINUOUS
  0
LAYER
  2
115
 70
0
 62
7
  6
CONTINUOUS
  0
LAYER
  2
116
 70
0
 62
7
  6
CONTINUOUS
  0
LAYER
  2
117
 70
0
 62
7
  6
CONTINUOUS
  0
LAYER
  2
118
 70
0
 62
7
  6
CONTINUOUS
  0
LAYER
  2
119
 70
0
 62
7
  6
CONTINUOUS
  0
LAYER
  2
120
 70
0
 62
7
  6
CONTINUOUS
  0
LAYER
  2
121
 70
0
 62
7
  6
CONTINUOUS
  0
LAYER
  2
122
 70
0
 62
7
  6
CONTINUOUS
  0
LAYER
  2
123
 70
0
 62
7
  6
CONTINUOUS
  0
LAYER
  2
124
 70
0
 62
7
  6
CONTINUOUS
  0
LAYER
  2
125
 70
0
 62
7
  6
CONTINUOUS
  0
LAYER
  2
126
 70
0
 62
7
  6
CONTINUOUS
  0
LAYER
  2
127
 70
0
 62
7
  6
CONTINUOUS
  0
LAYER
  2
128
 70
0
 62
7
  6
CONTINUOUS
  0
LAYER
  2
129
 70
0
 62
7
  6
CONTINUOUS
  0
LAYER
  2
130
 70
0
 62
7
  6
CONTINUOUS
  0
LAYER
  2
131
 70
0
 62
7
  6
CONTINUOUS
  0
LAYER
  2
132
 70
0
 62
7
  6
CONTINUOUS
  0
LAYER
  2
133
 70
0
 62
7
  6
CONTINUOUS
  0
LAYER
  2
134
 70
0
 62
7
  6
CONTINUOUS
  0
LAYER
  2
135
 70
0
 62
7
  6
CONTINUOUS
  0
LAYER
  2
136
 70
0
 62
7
  6
CONTINUOUS
  0
LAYER
  2
137
 70
0
 62
7
  6
CONTINUOUS
  0
LAYER
  2
138
 70
0
 62
7
  6
CONTINUOUS
  0
LAYER
  2
139
 70
0
 62
7
  6
CONTINUOUS
  0
LAYER
  2
140
 70
0
 62
7
  6
CONTINUOUS
  0
LAYER
  2
141
 70
0
 62
7
  6
CONTINUOUS
  0
LAYER
  2
142
 70
0
 62
7
  6
CONTINUOUS
  0
LAYER
  2
143
 70
0
 62
7
  6
CONTINUOUS
  0
LAYER
  2
144
 70
0
 62
7
  6
CONTINUOUS
  0
LAYER
  2
145
 70
0
 62
7
  6
CONTINUOUS
  0
LAYER
  2
146
 70
0
 62
7
  6
CONTINUOUS
  0
LAYER
  2
147
 70
0
 62
7
  6
CONTINUOUS
  0
LAYER
  2
148
 70
0
 62
7
  6
CONTINUOUS
  0
LAYER
  2
149
 70
0
 62
7
  6
CONTINUOUS
  0
LAYER
  2
150
 70
0
 62
7
  6
CONTINUOUS
  0
LAYER
  2
151
 70
0
 62
7
  6
CONTINUOUS
  0
LAYER
  2
152
 70
0
 62
7
  6
CONTINUOUS
  0
LAYER
  2
153
 70
0
 62
7
  6
CONTINUOUS
  0
LAYER
  2
154
 70
0
 62
7
  6
CONTINUOUS
  0
LAYER
  2
155
 70
0
 62
7
  6
CONTINUOUS
  0
LAYER
  2
156
 70
0
 62
7
  6
CONTINUOUS
  0
LAYER
  2
157
 70
0
 62
7
  6
CONTINUOUS
  0
LAYER
  2
158
 70
0
 62
7
  6
CONTINUOUS
  0
LAYER
  2
159
 70
0
 62
7
  6
CONTINUOUS
  0
LAYER
  2
160
 70
0
 62
7
  6
CONTINUOUS
  0
LAYER
  2
161
 70
0
 62
7
  6
CONTINUOUS
  0
LAYER
  2
162
 70
0
 62
7
  6
CONTINUOUS
  0
LAYER
  2
163
 70
0
 62
7
  6
CONTINUOUS
  0
LAYER
  2
164
 70
0
 62
7
  6
CONTINUOUS
  0
LAYER
  2
165
 70
0
 62
7
  6
CONTINUOUS
  0
LAYER
  2
166
 70
0
 62
7
  6
CONTINUOUS
  0
LAYER
  2
167
 70
0
 62
7
  6
CONTINUOUS
  0
LAYER
  2
168
 70
0
 62
7
  6
CONTINUOUS
  0
LAYER
  2
169
 70
0
 62
7
  6
CONTINUOUS
  0
LAYER
  2
170
 70
0
 62
7
  6
CONTINUOUS
  0
LAYER
  2
171
 70
0
 62
7
  6
CONTINUOUS
  0
LAYER
  2
172
 70
0
 62
7
  6
CONTINUOUS
  0
LAYER
  2
173
 70
0
 62
7
  6
CONTINUOUS
  0
LAYER
  2
174
 70
0
 62
7
  6
CONTINUOUS
  0
LAYER
  2
175
 70
0
 62
7
  6
CONTINUOUS
  0
LAYER
  2
176
 70
0
 62
7
  6
CONTINUOUS
  0
LAYER
  2
177
 70
0
 62
7
  6
CONTINUOUS
  0
LAYER
  2
178
 70
0
 62
7
  6
CONTINUOUS
  0
LAYER
  2
179
 70
0
 62
7
  6
CONTINUOUS
  0
LAYER
  2
180
 70
0
 62
7
  6
CONTINUOUS
  0
LAYER
  2
181
 70
0
 62
7
  6
CONTINUOUS
  0
LAYER
  2
182
 70
0
 62
7
  6
CONTINUOUS
  0
LAYER
  2
183
 70
0
 62
7
  6
CONTINUOUS
  0
LAYER
  2
184
 70
0
 62
7
  6
CONTINUOUS
  0
LAYER
  2
185
 70
0
 62
7
  6
CONTINUOUS
  0
LAYER
  2
186
 70
0
 62
7
  6
CONTINUOUS
  0
LAYER
  2
187
 70
0
 62
7
  6
CONTINUOUS
  0
LAYER
  2
188
 70
0
 62
7
  6
CONTINUOUS
  0
LAYER
  2
189
 70
0
 62
7
  6
CONTINUOUS
  0
LAYER
  2
190
 70
0
 62
7
  6
CONTINUOUS
  0
LAYER
  2
191
 70
0
 62
7
  6
CONTINUOUS
  0
LAYER
  2
192
 70
0
 62
7
  6
CONTINUOUS
  0
LAYER
  2
193
 70
0
 62
7
  6
CONTINUOUS
  0
LAYER
  2
194
 70
0
 62
7
  6
CONTINUOUS
  0
LAYER
  2
195
 70
0
 62
7
  6
CONTINUOUS
  0
LAYER
  2
196
 70
0
 62
7
  6
CONTINUOUS
  0
LAYER
  2
197
 70
0
 62
7
  6
CONTINUOUS
  0
LAYER
  2
198
 70
0
 62
7
  6
CONTINUOUS
  0
LAYER
  2
199
 70
0
 62
7
  6
CONTINUOUS
  0
LAYER
  2
200
 70
0
 62
7
  6
CONTINUOUS
  0
LAYER
  2
201
 70
0
 62
7
  6
CONTINUOUS
  0
LAYER
  2
202
 70
0
 62
7
  6
CONTINUOUS
  0
LAYER
  2
203
 70
0
 62
7
  6
CONTINUOUS
  0
LAYER
  2
204
 70
0
 62
7
  6
CONTINUOUS
  0
LAYER
  2
205
 70
0
 62
7
  6
CONTINUOUS
  0
LAYER
  2
206
 70
0
 62
7
  6
CONTINUOUS
  0
LAYER
  2
207
 70
0
 62
7
  6
CONTINUOUS
  0
LAYER
  2
208
 70
0
 62
7
  6
CONTINUOUS
  0
LAYER
  2
209
 70
0
 62
7
  6
CONTINUOUS
  0
LAYER
  2
210
 70
0
 62
7
  6
CONTINUOUS
  0
LAYER
  2
211
 70
0
 62
7
  6
CONTINUOUS
  0
LAYER
  2
212
 70
0
 62
7
  6
CONTINUOUS
  0
LAYER
  2
213
 70
0
 62
7
  6
CONTINUOUS
  0
LAYER
  2
214
 70
0
 62
7
  6
CONTINUOUS
  0
LAYER
  2
215
 70
0
 62
7
  6
CONTINUOUS
  0
LAYER
  2
216
 70
0
 62
7
  6
CONTINUOUS
  0
LAYER
  2
217
 70
0
 62
7
  6
CONTINUOUS
  0
LAYER
  2
218
 70
0
 62
7
  6
CONTINUOUS
  0
LAYER
  2
219
 70
0
 62
7
  6
CONTINUOUS
  0
LAYER
  2
220
 70
0
 62
7
  6
CONTINUOUS
  0
LAYER
  2
221
 70
0
 62
7
  6
CONTINUOUS
  0
LAYER
  2
222
 70
0
 62
7
  6
CONTINUOUS
  0
LAYER
  2
223
 70
0
 62
7
  6
CONTINUOUS
  0
LAYER
  2
224
 70
0
 62
7
  6
CONTINUOUS
  0
LAYER
  2
225
 70
0
 62
7
  6
CONTINUOUS
  0
LAYER
  2
226
 70
0
 62
7
  6
CONTINUOUS
  0
LAYER
  2
227
 70
0
 62
7
  6
CONTINUOUS
  0
LAYER
  2
228
 70
0
 62
7
  6
CONTINUOUS
  0
LAYER
  2
229
 70
0
 62
7
  6
CONTINUOUS
  0
LAYER
  2
230
 70
0
 62
7
  6
CONTINUOUS
  0
LAYER
  2
231
 70
0
 62
7
  6
CONTINUOUS
  0
LAYER
  2
232
 70
0
 62
7
  6
CONTINUOUS
  0
LAYER
  2
233
 70
0
 62
7
  6
CONTINUOUS
  0
LAYER
  2
234
 70
0
 62
7
  6
CONTINUOUS
  0
LAYER
  2
235
 70
0
 62
7
  6
CONTINUOUS
  0
LAYER
  2
236
 70
0
 62
7
  6
CONTINUOUS
  0
LAYER
  2
237
 70
0
 62
7
  6
CONTINUOUS
  0
LAYER
  2
238
 70
0
 62
7
  6
CONTINUOUS
  0
LAYER
  2
239
 70
0
 62
7
  6
CONTINUOUS
  0
LAYER
  2
240
 70
0
 62
7
  6
CONTINUOUS
  0
LAYER
  2
241
 70
0
 62
7
  6
CONTINUOUS
  0
LAYER
  2
242
 70
0
 62
7
  6
CONTINUOUS
  0
LAYER
  2
243
 70
0
 62
7
  6
CONTINUOUS
  0
LAYER
  2
244
 70
0
 62
7
  6
CONTINUOUS
  0
LAYER
  2
245
 70
0
 62
7
  6
CONTINUOUS
  0
LAYER
  2
246
 70
0
 62
7
  6
CONTINUOUS
  0
LAYER
  2
247
 70
0
 62
7
  6
CONTINUOUS
  0
LAYER
  2
248
 70
0
 62
7
  6
CONTINUOUS
  0
LAYER
  2
249
 70
0
 62
7
  6
CONTINUOUS
  0
LAYER
  2
250
 70
0
 62
7
  6
CONTINUOUS
  0
LAYER
  2
251
 70
0
 62
7
  6
CONTINUOUS
  0
LAYER
  2
252
 70
0
 62
7
  6
CONTINUOUS
  0
LAYER
  2
253
 70
0
 62
7
  6
CONTINUOUS
  0
LAYER
  2
254
 70
0
 62
7
  6
CONTINUOUS
  0
LAYER
  2
Drafting_Hidden_Entities
 70
1
 62
7
  6
CONTINUOUS
  0
ENDTAB
  0
TABLE
  2
STYLE
 70
1
  0
STYLE
  2
STANDARD
 70
64
 40
0.0
 41
1.0
 50
0.0
 71
0
 42
1.0
  3
monotxt.shx
  4

  0
ENDTAB
  0
TABLE
  2
VIEW
 70
0
  0
ENDTAB
  0
TABLE
  2
DIMSTYLE
 70
2
  0
DIMSTYLE
  2
DSTYLE1
 70
0
  3

  4

  5

  6

  7

 40
1.0
 41
3.0
 42
0.0
 43
3.8E-001
 44
1.0
 45
1.0E-002
 46
0.0
 47
1.0
 48
1.0
 71
0
 72
0
 73
0
 74
0
 75
0
 76
0
 77
1
 78
11
140
3.0
141
9.0E-002
142
0.0
143
3.9370079E-002
144
1.0
145
0.0
146
1.0
147
1.5
170
0
171
2
172
0
173
0
174
0
175
0
176
0
177
0
178
0
  0
DIMSTYLE
  2
DSTYLE2
 70
0
  3

  4

  5

  6

  7

 40
1.0
 41
3.0
 42
0.0
 43
3.8E-001
 44
1.0
 45
1.0E-002
 46
0.0
 47
1.0
 48
1.0
 71
0
 72
0
 73
0
 74
0
 75
1
 76
0
 77
1
 78
11
140
3.0
141
9.0E-002
142
0.0
143
3.9370079E-002
144
1.0
145
0.0
146
1.0
147
1.5
170
0
171
2
172
0
173
0
174
0
175
0
176
0
177
0
178
0
  0
ENDTAB
  0
ENDSEC
  0
SECTION
  2
BLOCKS
  0
BLOCK
  2
_AH12
  3
_AH
 10
0.0
 20
0.0
 70
64
  0
LINE
  8
0
  6
CONTINUOUS
 62
0
 10
0.0
 20
0.0
 11
1.0
 21
0.0
  0
LINE
  8
0
  6
CONTINUOUS
 62
0
 10
0.0
 20
0.0
 11
-1.0
 21
0.0
  0
ENDBLK
  0
BLOCK
  2
_AH13
  3
_AH
 10
0.0
 20
0.0
 70
64
  0
SOLID
  8
0
  6
CONTINUOUS
 62
0
 10
0.0
 20
0.0
 11
-1.0
 21
1.66667E-001
 12
-1.0
 22
-1.66667E-001
 13
0.0
 23
0.0
  0
ENDBLK
  0
BLOCK
  2
_AH14
  3
_AH
 10
0.0
 20
0.0
 70
64
  0
ENDBLK
  0
BLOCK
  2
_AH15
  3
_AH
 10
0.0
 20
0.0
 70
64
  0
CIRCLE
  8
0
  6
CONTINUOUS
 62
0
 10
0.0
 20
0.0
 40
1.66667E-001
  0
LINE
  8
0
  6
CONTINUOUS
 62
0
 10
0.0
 20
0.0
 11
-1.0
 21
0.0
  0
ENDBLK
  0
BLOCK
  2
_AH16
  3
_AH
 10
0.0
 20
0.0
 70
64
  0
POLYLINE
  8
0
  6
CONTINUOUS
 62
0
 66
1
 40
1.66667E-001
 41
1.66667E-001
 70
0
  0
VERTEX
  8
0
 42
1.0
 10
8.3335E-002
 20
0.0
 70
0
  0
VERTEX
  8
0
 42
1.0
 10
-8.3335E-002
 20
0.0
 70
0
  0
VERTEX
  8
0
 42
0.0
 10
8.3335E-002
 20
0.0
 70
0
  0
SEQEND
  0
LINE
  8
0
  6
CONTINUOUS
 62
0
 10
0.0
 20
0.0
 11
-1.0
 21
0.0
  0
ENDBLK
  0
BLOCK
  2
_AH17
  3
_AH
 10
0.0
 20
0.0
 70
64
  0
LINE
  8
0
  6
CONTINUOUS
 62
0
 10
-1.66667E-001
 20
-1.66667E-001
 11
1.66667E-001
 21
-1.66667E-001
  0
LINE
  8
0
  6
CONTINUOUS
 62
0
 10
1.66667E-001
 20
-1.66667E-001
 11
1.66667E-001
 21
1.66667E-001
  0
LINE
  8
0
  6
CONTINUOUS
 62
0
 10
1.66667E-001
 20
1.66667E-001
 11
-1.66667E-001
 21
1.66667E-001
  0
LINE
  8
0
  6
CONTINUOUS
 62
0
 10
-1.66667E-001
 20
1.66667E-001
 11
-1.66667E-001
 21
-1.66667E-001
  0
LINE
  8
0
  6
CONTINUOUS
 62
0
 10
0.0
 20
0.0
 11
-1.0
 21
0.0
  0
ENDBLK
  0
BLOCK
  2
_AH18
  3
_AH
 10
0.0
 20
0.0
 70
64
  0
SOLID
  8
0
  6
CONTINUOUS
 62
0
 10
-1.66667E-001
 20
-1.66667E-001
 11
1.66667E-001
 21
-1.66667E-001
 12
-1.66667E-001
 22
1.66667E-001
 13
1.66667E-001
 23
1.66667E-001
  0
LINE
  8
0
  6
CONTINUOUS
 62
0
 10
0.0
 20
0.0
 11
-1.0
 21
0.0
  0
ENDBLK
  0
BLOCK
  2
_AH19
  3
_AH
 10
0.0
 20
0.0
 70
64
  0
LINE
  8
0
  6
CONTINUOUS
 62
0
 10
-5.0E-001
 20
-5.0E-001
 11
5.0E-001
 21
5.0E-001
  0
LINE
  8
0
  6
CONTINUOUS
 62
0
 10
0.0
 20
0.0
 11
-1.0
 21
0.0
  0
ENDBLK
  0
BLOCK
  2
_AH20
  3
_AH
 10
0.0
 20
0.0
 70
64
  0
POLYLINE
  8
0
  6
CONTINUOUS
 62
0
 66
1
 40
5.0E-001
 41
5.0E-001
 70
0
  0
VERTEX
  8
0
 42
4.1421356E-001
 10
-1.66667E-001
 20
-1.66667E-001
 70
0
  0
VERTEX
  8
0
 42
0.0
 10
0.0
 20
0.0
 70
0
  0
SEQEND
  0
POLYLINE
  8
0
  6
CONTINUOUS
 62
0
 66
1
 40
5.0E-001
 41
5.0E-001
 70
0
  0
VERTEX
  8
0
 42
4.1421356E-001
 10
1.66667E-001
 20
1.66667E-001
 70
0
  0
VERTEX
  8
0
 42
0.0
 10
0.0
 20
0.0
 70
0
  0
SEQEND
  0
LINE
  8
0
  6
CONTINUOUS
 62
0
 10
0.0
 20
0.0
 11
-1.0
 21
0.0
  0
ENDBLK
  0
BLOCK
  2
_AH21
  3
_AH
 10
0.0
 20
0.0
 70
64
  0
LINE
  8
0
  6
CONTINUOUS
 62
0
 10
0.0
 20
0.0
 11
-1.0
 21
-1.66667E-001
  0
LINE
  8
0
  6
CONTINUOUS
 62
0
 10
-1.0
 20
-1.66667E-001
 11
-1.0
 21
1.66667E-001
  0
LINE
  8
0
  6
CONTINUOUS
 62
0
 10
-1.0
 20
1.66667E-001
 11
0.0
 21
0.0
  0
ENDBLK
  0
BLOCK
  2
XHXH1NEW02NEW00NEW00
 10
0.0
 20
0.0
 70
0
  0
POLYLINE
  8
254
  6
CONTINUOUS
 62
6
 66
1
 40
1.0E-003
 41
1.0E-003
 70
0
  0
VERTEX
  8
254
 42
0.0
 10
-2.2647095E-001
 20
-2.2647285E-001
 70
0
  0
VERTEX
  8
254
 42
0.0
 10
2.2647095E-001
 20
2.2647285E-001
 70
0
  0
SEQEND
  0
POLYLINE
  8
254
  6
CONTINUOUS
 62
6
 66
1
 40
1.0E-003
 41
1.0E-003
 70
0
  0
VERTEX
  8
254
 42
0.0
 10
-3.9656067E-001
 20
-6.7941666E-001
 70
0
  0
VERTEX
  8
254
 42
0.0
 10
4.2364502E-001
 20
1.4080048E-001
 70
0
  0
SEQEND
  0
POLYLINE
  8
254
  6
CONTINUOUS
 62
6
 66
1
 40
1.0E-003
 41
1.0E-003
 70
0
  0
VERTEX
  8
254
 42
0.0
 10
-5.6666565E-001
 20
-1.1323624
 70
0
  0
VERTEX
  8
254
 42
0.0
 10
4.2364502E-001
 20
-1.4204407E-001
 70
0
  0
SEQEND
  0
POLYLINE
  8
254
  6
CONTINUOUS
 62
6
 66
1
 40
1.0E-003
 41
1.0E-003
 70
0
  0
VERTEX
  8
254
 42
0.0
 10
-7.3677063E-001
 20
-1.5853081
 70
0
  0
VERTEX
  8
254
 42
0.0
 10
4.2364502E-001
 20
-4.248867E-001
 70
0
  0
SEQEND
  0
POLYLINE
  8
254
  6
CONTINUOUS
 62
6
 66
1
 40
1.0E-003
 41
1.0E-003
 70
0
  0
VERTEX
  8
254
 42
0.0
 10
8.1364441E-001
 20
-3.4885406E-002
 70
0
  0
VERTEX
  8
254
 42
0.0
 10
1.0749969
 20
2.2647285E-001
 70
0
  0
SEQEND
  0
POLYLINE
  8
254
  6
CONTINUOUS
 62
6
 66
1
 40
1.0E-003
 41
1.0E-003
 70
0
  0
VERTEX
  8
254
 42
0.0
 10
-6.9714355E-001
 20
-1.8285255
 70
0
  0
VERTEX
  8
254
 42
0.0
 10
4.2364502E-001
 20
-7.0773125E-001
 70
0
  0
SEQEND
  0
POLYLINE
  8
254
  6
CONTINUOUS
 62
6
 66
1
 40
1.0E-003
 41
1.0E-003
 70
0
  0
VERTEX
  8
254
 42
0.0
 10
8.1364441E-001
 20
-3.1772995E-001
 70
0
  0
VERTEX
  8
254
 42
0.0
 10
1.3111725
 20
1.7979813E-001
 70
0
  0
SEQEND
  0
POLYLINE
  8
254
  6
CONTINUOUS
 62
6
 66
1
 40
1.0E-003
 41
1.0E-003
 70
0
  0
VERTEX
  8
254
 42
0.0
 10
-8.928833E-001
 20
-2.3071117
 70
0
  0
VERTEX
  8
254
 42
0.0
 10
-8.0430603E-001
 20
-2.2185249
 70
0
  0
SEQEND
  0
POLYLINE
  8
254
  6
CONTINUOUS
 62
6
 66
1
 40
1.0E-003
 41
1.0E-003
 70
0
  0
VERTEX
  8
254
 42
0.0
 10
-4.1430664E-001
 20
-1.8285255
 70
0
  0
VERTEX
  8
254
 42
0.0
 10
4.2364502E-001
 20
-9.9057388E-001
 70
0
  0
SEQEND
  0
POLYLINE
  8
254
  6
CONTINUOUS
 62
6
 66
1
 40
1.0E-003
 41
1.0E-003
 70
0
  0
VERTEX
  8
254
 42
0.0
 10
8.1364441E-001
 20
-6.0057259E-001
 70
0
  0
VERTEX
  8
254
 42
0.0
 10
1.3883972
 20
-2.58255E-002
 70
0
  0
SEQEND
  0
POLYLINE
  8
254
  6
CONTINUOUS
 62
6
 66
1
 40
1.0E-003
 41
1.0E-003
 70
0
  0
VERTEX
  8
254
 42
0.0
 10
-1.0629883
 20
-2.7600574
 70
0
  0
VERTEX
  8
254
 42
0.0
 10
-5.2145386E-001
 20
-2.2185249
 70
0
  0
SEQEND
  0
POLYLINE
  8
254
  6
CONTINUOUS
 62
6
 66
1
 40
1.0E-003
 41
1.0E-003
 70
0
  0
VERTEX
  8
254
 42
0.0
 10
-1.3145447E-001
 20
-1.8285255
 70
0
  0
VERTEX
  8
254
 42
0.0
 10
4.2364502E-001
 20
-1.2734165
 70
0
  0
SEQEND
  0
POLYLINE
  8
254
  6
CONTINUOUS
 62
6
 66
1
 40
1.0E-003
 41
1.0E-003
 70
0
  0
VERTEX
  8
254
 42
0.0
 10
8.1364441E-001
 20
-8.8341522E-001
 70
0
  0
VERTEX
  8
254
 42
0.0
 10
1.4656067
 20
-2.3144722E-001
 70
0
  0
SEQEND
  0
POLYLINE
  8
254
  6
CONTINUOUS
 62
6
 66
1
 40
1.0E-003
 41
1.0E-003
 70
0
  0
VERTEX
  8
254
 42
0.0
 10
-1.2330933
 20
-3.2130032
 70
0
  0
VERTEX
  8
254
 42
0.0
 10
-2.3861694E-001
 20
-2.2185249
 70
0
  0
SEQEND
  0
POLYLINE
  8
254
  6
CONTINUOUS
 62
6
 66
1
 40
1.0E-003
 41
1.0E-003
 70
0
  0
VERTEX
  8
254
 42
0.0
 10
1.5138245E-001
 20
-1.8285255
 70
0
  0
VERTEX
  8
254
 42
0.0
 10
4.2364502E-001
 20
-1.5562611
 70
0
  0
SEQEND
  0
POLYLINE
  8
254
  6
CONTINUOUS
 62
6
 66
1
 40
1.0E-003
 41
1.0E-003
 70
0
  0
VERTEX
  8
254
 42
0.0
 10
8.1364441E-001
 20
-1.1662598
 70
0
  0
VERTEX
  8
254
 42
0.0
 10
1.5428314
 20
-4.3707085E-001
 70
0
  0
SEQEND
  0
POLYLINE
  8
254
  6
CONTINUOUS
 62
6
 66
1
 40
1.0E-003
 41
1.0E-003
 70
0
  0
VERTEX
  8
254
 42
0.0
 10
-1.4031982
 20
-3.665947
 70
0
  0
VERTEX
  8
254
 42
0.0
 10
4.4219971E-002
 20
-2.2185249
 70
0
  0
SEQEND
  0
POLYLINE
  8
254
  6
CONTINUOUS
 62
6
 66
1
 40
1.0E-003
 41
1.0E-003
 70
0
  0
VERTEX
  8
254
 42
0.0
 10
8.1364441E-001
 20
-1.4491024
 70
0
  0
VERTEX
  8
254
 42
0.0
 10
1.6200562
 20
-6.4269257E-001
 70
0
  0
SEQEND
  0
POLYLINE
  8
254
  6
CONTINUOUS
 62
6
 66
1
 40
1.0E-003
 41
1.0E-003
 70
0
  0
VERTEX
  8
254
 42
0.0
 10
-1.573288
 20
-4.1188927
 70
0
  0
VERTEX
  8
254
 42
0.0
 10
3.2707214E-001
 20
-2.2185249
 70
0
  0
SEQEND
  0
POLYLINE
  8
254
  6
CONTINUOUS
 62
6
 66
1
 40
1.0E-003
 41
1.0E-003
 70
0
  0
VERTEX
  8
254
 42
0.0
 10
8.1364441E-001
 20
-1.731945
 70
0
  0
VERTEX
  8
254
 42
0.0
 10
1.6972656
 20
-8.4831619E-001
 70
0
  0
SEQEND
  0
POLYLINE
  8
254
  6
CONTINUOUS
 62
6
 66
1
 40
1.0E-003
 41
1.0E-003
 70
0
  0
VERTEX
  8
254
 42
0.0
 10
-1.4450836
 20
-4.2735233
 70
0
  0
VERTEX
  8
254
 42
0.0
 10
4.2364502E-001
 20
-2.4047909
 70
0
  0
SEQEND
  0
POLYLINE
  8
254
  6
CONTINUOUS
 62
6
 66
1
 40
1.0E-003
 41
1.0E-003
 70
0
  0
VERTEX
  8
254
 42
0.0
 10
9.9990845E-001
 20
-1.8285255
 70
0
  0
VERTEX
  8
254
 42
0.0
 10
1.7744904
 20
-1.0539379
 70
0
  0
SEQEND
  0
POLYLINE
  8
254
  6
CONTINUOUS
 62
6
 66
1
 40
1.0E-003
 41
1.0E-003
 70
0
  0
VERTEX
  8
254
 42
0.0
 10
-1.1622314
 20
-4.2735233
 70
0
  0
VERTEX
  8
254
 42
0.0
 10
4.2364502E-001
 20
-2.6876335
 70
0
  0
SEQEND
  0
POLYLINE
  8
254
  6
CONTINUOUS
 62
6
 66
1
 40
1.0E-003
 41
1.0E-003
 70
0
  0
VERTEX
  8
254
 42
0.0
 10
8.1364441E-001
 20
-2.2976322
 70
0
  0
VERTEX
  8
254
 42
0.0
 10
8.9274597E-001
 20
-2.2185249
 70
0
  0
SEQEND
  0
POLYLINE
  8
254
  6
CONTINUOUS
 62
6
 66
1
 40
1.0E-003
 41
1.0E-003
 70
0
  0
VERTEX
  8
254
 42
0.0
 10
1.2827454
 20
-1.8285255
 70
0
  0
VERTEX
  8
254
 42
0.0
 10
1.8517151
 20
-1.2595596
 70
0
  0
SEQEND
  0
POLYLINE
  8
254
  6
CONTINUOUS
 62
6
 66
1
 40
1.0E-003
 41
1.0E-003
 70
0
  0
VERTEX
  8
254
 42
0.0
 10
3.1836395
 20
7.2372437E-002
 70
0
  0
VERTEX
  8
254
 42
0.0
 10
3.337738
 20
2.2647285E-001
 70
0
  0
SEQEND
  0
POLYLINE
  8
254
  6
CONTINUOUS
 62
6
 66
1
 40
1.0E-003
 41
1.0E-003
 70
0
  0
VERTEX
  8
254
 42
0.0
 10
-8.7939453E-001
 20
-4.2735233
 70
0
  0
VERTEX
  8
254
 42
0.0
 10
-3.0549622E-001
 20
-3.6996193
 70
0
  0
SEQEND
  0
POLYLINE
  8
254
  6
CONTINUOUS
 62
6
 66
1
 40
1.0E-003
 41
1.0E-003
 70
0
  0
VERTEX
  8
254
 42
0.0
 10
2.0599365E-002
 20
-3.3735256
 70
0
  0
VERTEX
  8
254
 42
0.0
 10
4.2364502E-001
 20
-2.9704762
 70
0
  0
SEQEND
  0
POLYLINE
  8
254
  6
CONTINUOUS
 62
6
 66
1
 40
1.0E-003
 41
1.0E-003
 70
0
  0
VERTEX
  8
254
 42
0.0
 10
8.1364441E-001
 20
-2.5804749
 70
0
  0
VERTEX
  8
254
 42
0.0
 10
1.1755981
 20
-2.2185249
 70
0
  0
SEQEND
  0
POLYLINE
  8
254
  6
CONTINUOUS
 62
6
 66
1
 40
1.0E-003
 41
1.0E-003
 70
0
  0
VERTEX
  8
254
 42
0.0
 10
1.5655975
 20
-1.8285255
 70
0
  0
VERTEX
  8
254
 42
0.0
 10
1.9289398
 20
-1.4651833
 70
0
  0
SEQEND
  0
POLYLINE
  8
254
  6
CONTINUOUS
 62
6
 66
1
 40
1.0E-003
 41
1.0E-003
 70
0
  0
VERTEX
  8
254
 42
0.0
 10
3.1836395
 20
-2.104702E-001
 70
0
  0
VERTEX
  8
254
 42
0.0
 10
3.620575
 20
2.2647285E-001
 70
0
  0
SEQEND
  0
POLYLINE
  8
254
  6
CONTINUOUS
 62
6
 66
1
 40
1.0E-003
 41
1.0E-003
 70
0
  0
VERTEX
  8
254
 42
0.0
 10
-5.9655762E-001
 20
-4.2735233
 70
0
  0
VERTEX
  8
254
 42
0.0
 10
-4.5779419E-001
 20
-4.1347656
 70
0
  0
SEQEND
  0
POLYLINE
  8
254
  6
CONTINUOUS
 62
6
 66
1
 40
1.0E-003
 41
1.0E-003
 70
0
  0
VERTEX
  8
254
 42
0.0
 10
3.0343628E-001
 20
-3.3735256
 70
0
  0
VERTEX
  8
254
 42
0.0
 10
4.2364502E-001
 20
-3.2533207
 70
0
  0
SEQEND
  0
POLYLINE
  8
254
  6
CONTINUOUS
 62
6
 66
1
 40
1.0E-003
 41
1.0E-003
 70
0
  0
VERTEX
  8
254
 42
0.0
 10
8.1364441E-001
 20
-2.8633194
 70
0
  0
VERTEX
  8
254
 42
0.0
 10
1.4584351
 20
-2.2185249
 70
0
  0
SEQEND
  0
POLYLINE
  8
254
  6
CONTINUOUS
 62
6
 66
1
 40
1.0E-003
 41
1.0E-003
 70
0
  0
VERTEX
  8
254
 42
0.0
 10
1.8484344
 20
-1.8285255
 70
0
  0
VERTEX
  8
254
 42
0.0
 10
2.0061493
 20
-1.670805
 70
0
  0
SEQEND
  0
POLYLINE
  8
254
  6
CONTINUOUS
 62
6
 66
1
 40
1.0E-003
 41
1.0E-003
 70
0
  0
VERTEX
  8
254
 42
0.0
 10
3.1836395
 20
-4.9331474E-001
 70
0
  0
VERTEX
  8
254
 42
0.0
 10
3.9034271
 20
2.2647285E-001
 70
0
  0
SEQEND
  0
POLYLINE
  8
254
  6
CONTINUOUS
 62
6
 66
1
 40
1.0E-003
 41
1.0E-003
 70
0
  0
VERTEX
  8
254
 42
0.0
 10
8.1364441E-001
 20
-3.146162
 70
0
  0
VERTEX
  8
254
 42
0.0
 10
1.741272
 20
-2.2185249
 70
0
  0
SEQEND
  0
POLYLINE
  8
254
  6
CONTINUOUS
 62
6
 66
1
 40
1.0E-003
 41
1.0E-003
 70
0
  0
VERTEX
  8
254
 42
0.0
 10
3.1836395
 20
-7.7615738E-001
 70
0
  0
VERTEX
  8
254
 42
0.0
 10
4.186264
 20
2.2647285E-001
 70
0
  0
SEQEND
  0
POLYLINE
  8
254
  6
CONTINUOUS
 62
6
 66
1
 40
1.0E-003
 41
1.0E-003
 70
0
  0
VERTEX
  8
254
 42
0.0
 10
8.6912537E-001
 20
-3.3735256
 70
0
  0
VERTEX
  8
254
 42
0.0
 10
2.0241241
 20
-2.2185249
 70
0
  0
SEQEND
  0
POLYLINE
  8
254
  6
CONTINUOUS
 62
6
 66
1
 40
1.0E-003
 41
1.0E-003
 70
0
  0
VERTEX
  8
254
 42
0.0
 10
3.1836395
 20
-1.059
 70
0
  0
VERTEX
  8
254
 42
0.0
 10
4.3386536
 20
9.6017838E-002
 70
0
  0
SEQEND
  0
POLYLINE
  8
254
  6
CONTINUOUS
 62
6
 66
1
 40
1.0E-003
 41
1.0E-003
 70
0
  0
VERTEX
  8
254
 42
0.0
 10
1.1519623
 20
-3.3735256
 70
0
  0
VERTEX
  8
254
 42
0.0
 10
2.1542511
 20
-2.3712425
 70
0
  0
SEQEND
  0
POLYLINE
  8
254
  6
CONTINUOUS
 62
6
 66
1
 40
1.0E-003
 41
1.0E-003
 70
0
  0
VERTEX
  8
254
 42
0.0
 10
3.1836395
 20
-1.3418446
 70
0
  0
VERTEX
  8
254
 42
0.0
 10
4.3386536
 20
-1.868248E-001
 70
0
  0
SEQEND
  0
POLYLINE
  8
254
  6
CONTINUOUS
 62
6
 66
1
 40
1.0E-003
 41
1.0E-003
 70
0
  0
VERTEX
  8
254
 42
0.0
 10
4.7286377
 20
2.0316124E-001
 70
0
  0
VERTEX
  8
254
 42
0.0
 10
4.7519531
 20
2.2647285E-001
 70
0
  0
SEQEND
  0
POLYLINE
  8
254
  6
CONTINUOUS
 62
6
 66
1
 40
1.0E-003
 41
1.0E-003
 70
0
  0
VERTEX
  8
254
 42
0.0
 10
1.4302368
 20
-3.3780994
 70
0
  0
VERTEX
  8
254
 42
0.0
 10
2.2314606
 20
-2.5768642
 70
0
  0
SEQEND
  0
POLYLINE
  8
254
  6
CONTINUOUS
 62
6
 66
1
 40
1.0E-003
 41
1.0E-003
 70
0
  0
VERTEX
  8
254
 42
0.0
 10
3.1836395
 20
-1.6246872
 70
0
  0
VERTEX
  8
254
 42
0.0
 10
4.3386536
 20
-4.6966743E-001
 70
0
  0
SEQEND
  0
POLYLINE
  8
254
  6
CONTINUOUS
 62
6
 66
1
 40
1.0E-003
 41
1.0E-003
 70
0
  0
VERTEX
  8
254
 42
0.0
 10
4.7286377
 20
-7.9683304E-002
 70
0
  0
VERTEX
  8
254
 42
0.0
 10
5.0330811
 20
2.2476578E-001
 70
0
  0
SEQEND
  0
POLYLINE
  8
254
  6
CONTINUOUS
 62
6
 66
1
 40
1.0E-003
 41
1.0E-003
 70
0
  0
VERTEX
  8
254
 42
0.0
 10
1.5035706
 20
-3.5876122
 70
0
  0
VERTEX
  8
254
 42
0.0
 10
2.3086853
 20
-2.7824879
 70
0
  0
SEQEND
  0
POLYLINE
  8
254
  6
CONTINUOUS
 62
6
 66
1
 40
1.0E-003
 41
1.0E-003
 70
0
  0
VERTEX
  8
254
 42
0.0
 10
3.2626495
 20
-1.8285255
 70
0
  0
VERTEX
  8
254
 42
0.0
 10
4.3386536
 20
-7.5251198E-001
 70
0
  0
SEQEND
  0
POLYLINE
  8
254
  6
CONTINUOUS
 62
6
 66
1
 40
1.0E-003
 41
1.0E-003
 70
0
  0
VERTEX
  8
254
 42
0.0
 10
4.7286377
 20
-3.6252594E-001
 70
0
  0
VERTEX
  8
254
 42
0.0
 10
5.2719421
 20
1.8078232E-001
 70
0
  0
SEQEND
  0
POLYLINE
  8
254
  6
CONTINUOUS
 62
6
 66
1
 40
1.0E-003
 41
1.0E-003
 70
0
  0
VERTEX
  8
254
 42
0.0
 10
1.576889
 20
-3.7971249
 70
0
  0
VERTEX
  8
254
 42
0.0
 10
2.38591
 20
-2.9881096
 70
0
  0
SEQEND
  0
POLYLINE
  8
254
  6
CONTINUOUS
 62
6
 66
1
 40
1.0E-003
 41
1.0E-003
 70
0
  0
VERTEX
  8
254
 42
0.0
 10
3.5454865
 20
-1.8285255
 70
0
  0
VERTEX
  8
254
 42
0.0
 10
4.3386536
 20
-1.0353546
 70
0
  0
SEQEND
  0
POLYLINE
  8
254
  6
CONTINUOUS
 62
6
 66
1
 40
1.0E-003
 41
1.0E-003
 70
0
  0
VERTEX
  8
254
 42
0.0
 10
4.7286377
 20
-6.4536858E-001
 70
0
  0
VERTEX
  8
254
 42
0.0
 10
5.4707031
 20
9.6696854E-002
 70
0
  0
SEQEND
  0
POLYLINE
  8
254
  6
CONTINUOUS
 62
6
 66
1
 40
1.0E-003
 41
1.0E-003
 70
0
  0
VERTEX
  8
254
 42
0.0
 10
1.6502228
 20
-4.0066376
 70
0
  0
VERTEX
  8
254
 42
0.0
 10
2.4631348
 20
-3.1937332
 70
0
  0
SEQEND
  0
POLYLINE
  8
254
  6
CONTINUOUS
 62
6
 66
1
 40
1.0E-003
 41
1.0E-003
 70
0
  0
VERTEX
  8
254
 42
0.0
 10
3.1836395
 20
-2.473217
 70
0
  0
VERTEX
  8
254
 42
0.0
 10
3.438324
 20
-2.2185249
 70
0
  0
SEQEND
  0
POLYLINE
  8
254
  6
CONTINUOUS
 62
6
 66
1
 40
1.0E-003
 41
1.0E-003
 70
0
  0
VERTEX
  8
254
 42
0.0
 10
3.8283234
 20
-1.8285255
 70
0
  0
VERTEX
  8
254
 42
0.0
 10
4.3386536
 20
-1.3181992
 70
0
  0
SEQEND
  0
POLYLINE
  8
254
  6
CONTINUOUS
 62
6
 66
1
 40
1.0E-003
 41
1.0E-003
 70
0
  0
VERTEX
  8
254
 42
0.0
 10
4.7286377
 20
-9.2821312E-001
 70
0
  0
VERTEX
  8
254
 42
0.0
 10
5.6378021
 20
-1.9039154E-002
 70
0
  0
SEQEND
  0
POLYLINE
  8
254
  6
CONTINUOUS
 62
6
 66
1
 40
1.0E-003
 41
1.0E-003
 70
0
  0
VERTEX
  8
254
 42
0.0
 10
1.7235565
 20
-4.2161503
 70
0
  0
VERTEX
  8
254
 42
0.0
 10
2.5403442
 20
-3.3993549
 70
0
  0
SEQEND
  0
POLYLINE
  8
254
  6
CONTINUOUS
 62
6
 66
1
 40
1.0E-003
 41
1.0E-003
 70
0
  0
VERTEX
  8
254
 42
0.0
 10
3.1836395
 20
-2.7560596
 70
0
  0
VERTEX
  8
254
 42
0.0
 10
3.7211761
 20
-2.2185249
 70
0
  0
SEQEND
  0
POLYLINE
  8
254
  6
CONTINUOUS
 62
6
 66
1
 40
1.0E-003
 41
1.0E-003
 70
0
  0
VERTEX
  8
254
 42
0.0
 10
4.1111755
 20
-1.8285255
 70
0
  0
VERTEX
  8
254
 42
0.0
 10
4.3386536
 20
-1.6010418
 70
0
  0
SEQEND
  0
POLYLINE
  8
254
  6
CONTINUOUS
 62
6
 66
1
 40
1.0E-003
 41
1.0E-003
 70
0
  0
VERTEX
  8
254
 42
0.0
 10
4.7286377
 20
-1.2110558
 70
0
  0
VERTEX
  8
254
 42
0.0
 10
5.7763824
 20
-1.633091E-001
 70
0
  0
SEQEND
  0
POLYLINE
  8
254
  6
CONTINUOUS
 62
6
 66
1
 40
1.0E-003
 41
1.0E-003
 70
0
  0
VERTEX
  8
254
 42
0.0
 10
1.9490204
 20
-4.2735233
 70
0
  0
VERTEX
  8
254
 42
0.0
 10
2.617569
 20
-3.6049767
 70
0
  0
SEQEND
  0
POLYLINE
  8
254
  6
CONTINUOUS
 62
6
 66
1
 40
1.0E-003
 41
1.0E-003
 70
0
  0
VERTEX
  8
254
 42
0.0
 10
3.1836395
 20
-3.0389042
 70
0
  0
VERTEX
  8
254
 42
0.0
 10
4.0040131
 20
-2.2185249
 70
0
  0
SEQEND
  0
POLYLINE
  8
254
  6
CONTINUOUS
 62
6
 66
1
 40
1.0E-003
 41
1.0E-003
 70
0
  0
VERTEX
  8
254
 42
0.0
 10
4.7286377
 20
-1.4938984
 70
0
  0
VERTEX
  8
254
 42
0.0
 10
5.885849
 20
-3.3667946E-001
 70
0
  0
SEQEND
  0
POLYLINE
  8
254
  6
CONTINUOUS
 62
6
 66
1
 40
1.0E-003
 41
1.0E-003
 70
0
  0
VERTEX
  8
254
 42
0.0
 10
2.2318726
 20
-4.2735233
 70
0
  0
VERTEX
  8
254
 42
0.0
 10
2.6947937
 20
-3.8106003
 70
0
  0
SEQEND
  0
POLYLINE
  8
254
  6
CONTINUOUS
 62
6
 66
1
 40
1.0E-003
 41
1.0E-003
 70
0
  0
VERTEX
  8
254
 42
0.0
 10
3.1836395
 20
-3.3217468
 70
0
  0
VERTEX
  8
254
 42
0.0
 10
4.2868652
 20
-2.2185249
 70
0
  0
SEQEND
  0
POLYLINE
  8
254
  6
CONTINUOUS
 62
6
 66
1
 40
1.0E-003
 41
1.0E-003
 70
0
  0
VERTEX
  8
254
 42
0.0
 10
4.7286377
 20
-1.7767429
 70
0
  0
VERTEX
  8
254
 42
0.0
 10
5.9616241
 20
-5.4375839E-001
 70
0
  0
SEQEND
  0
POLYLINE
  8
254
  6
CONTINUOUS
 62
6
 66
1
 40
1.0E-003
 41
1.0E-003
 70
0
  0
VERTEX
  8
254
 42
0.0
 10
6.693634
 20
1.8826294E-001
 70
0
  0
VERTEX
  8
254
 42
0.0
 10
6.731842
 20
2.2647285E-001
 70
0
  0
SEQEND
  0
POLYLINE
  8
254
  6
CONTINUOUS
 62
6
 66
1
 40
1.0E-003
 41
1.0E-003
 70
0
  0
VERTEX
  8
254
 42
0.0
 10
2.5147095
 20
-4.2735233
 70
0
  0
VERTEX
  8
254
 42
0.0
 10
2.7720032
 20
-4.016222
 70
0
  0
SEQEND
  0
POLYLINE
  8
254
  6
CONTINUOUS
 62
6
 66
1
 40
1.0E-003
 41
1.0E-003
 70
0
  0
VERTEX
  8
254
 42
0.0
 10
3.1836395
 20
-3.6045914
 70
0
  0
VERTEX
  8
254
 42
0.0
 10
4.3386536
 20
-2.4495716
 70
0
  0
SEQEND
  0
POLYLINE
  8
254
  6
CONTINUOUS
 62
6
 66
1
 40
1.0E-003
 41
1.0E-003
 70
0
  0
VERTEX
  8
254
 42
0.0
 10
4.9597015
 20
-1.8285255
 70
0
  0
VERTEX
  8
254
 42
0.0
 10
5.9921417
 20
-7.9607391E-001
 70
0
  0
SEQEND
  0
POLYLINE
  8
254
  6
CONTINUOUS
 62
6
 66
1
 40
1.0E-003
 41
1.0E-003
 70
0
  0
VERTEX
  8
254
 42
0.0
 10
6.693634
 20
-9.4581604E-002
 70
0
  0
VERTEX
  8
254
 42
0.0
 10
7.0146942
 20
2.2647285E-001
 70
0
  0
SEQEND
  0
POLYLINE
  8
254
  6
CONTINUOUS
 62
6
 66
1
 40
1.0E-003
 41
1.0E-003
 70
0
  0
VERTEX
  8
254
 42
0.0
 10
2.7975464
 20
-4.2735233
 70
0
  0
VERTEX
  8
254
 42
0.0
 10
2.8492279
 20
-4.2218456
 70
0
  0
SEQEND
  0
POLYLINE
  8
254
  6
CONTINUOUS
 62
6
 66
1
 40
1.0E-003
 41
1.0E-003
 70
0
  0
VERTEX
  8
254
 42
0.0
 10
3.1836395
 20
-3.887434
 70
0
  0
VERTEX
  8
254
 42
0.0
 10
4.3386536
 20
-2.7324142
 70
0
  0
SEQEND
  0
POLYLINE
  8
254
  6
CONTINUOUS
 62
6
 66
1
 40
1.0E-003
 41
1.0E-003
 70
0
  0
VERTEX
  8
254
 42
0.0
 10
4.7286377
 20
-2.3424282
 70
0
  0
VERTEX
  8
254
 42
0.0
 10
4.8525391
 20
-2.2185249
 70
0
  0
SEQEND
  0
POLYLINE
  8
254
  6
CONTINUOUS
 62
6
 66
1
 40
1.0E-003
 41
1.0E-003
 70
0
  0
VERTEX
  8
254
 42
0.0
 10
5.2425385
 20
-1.8285255
 70
0
  0
VERTEX
  8
254
 42
0.0
 10
5.9243927
 20
-1.1466713
 70
0
  0
SEQEND
  0
POLYLINE
  8
254
  6
CONTINUOUS
 62
6
 66
1
 40
1.0E-003
 41
1.0E-003
 70
0
  0
VERTEX
  8
254
 42
0.0
 10
6.693634
 20
-3.7742424E-001
 70
0
  0
VERTEX
  8
254
 42
0.0
 10
7.2975311
 20
2.2647285E-001
 70
0
  0
SEQEND
  0
POLYLINE
  8
254
  6
CONTINUOUS
 62
6
 66
1
 40
1.0E-003
 41
1.0E-003
 70
0
  0
VERTEX
  8
254
 42
0.0
 10
3.1836395
 20
-4.1702766
 70
0
  0
VERTEX
  8
254
 42
0.0
 10
4.3386536
 20
-3.0152588
 70
0
  0
SEQEND
  0
POLYLINE
  8
254
  6
CONTINUOUS
 62
6
 66
1
 40
1.0E-003
 41
1.0E-003
 70
0
  0
VERTEX
  8
254
 42
0.0
 10
4.7286377
 20
-2.6252728
 70
0
  0
VERTEX
  8
254
 42
0.0
 10
5.1353912
 20
-2.2185249
 70
0
  0
SEQEND
  0
POLYLINE
  8
254
  6
CONTINUOUS
 62
6
 66
1
 40
1.0E-003
 41
1.0E-003
 70
0
  0
VERTEX
  8
254
 42
0.0
 10
5.5253754
 20
-1.8285255
 70
0
  0
VERTEX
  8
254
 42
0.0
 10
5.618103
 20
-1.7358074
 70
0
  0
SEQEND
  0
POLYLINE
  8
254
  6
CONTINUOUS
 62
6
 66
1
 40
1.0E-003
 41
1.0E-003
 70
0
  0
VERTEX
  8
254
 42
0.0
 10
6.693634
 20
-6.6026688E-001
 70
0
  0
VERTEX
  8
254
 42
0.0
 10
7.580368
 20
2.2647285E-001
 70
0
  0
SEQEND
  0
POLYLINE
  8
254
  6
CONTINUOUS
 62
6
 66
1
 40
1.0E-003
 41
1.0E-003
 70
0
  0
VERTEX
  8
254
 42
0.0
 10
3.3632355
 20
-4.2735233
 70
0
  0
VERTEX
  8
254
 42
0.0
 10
4.3386536
 20
-3.2981014
 70
0
  0
SEQEND
  0
POLYLINE
  8
254
  6
CONTINUOUS
 62
6
 66
1
 40
1.0E-003
 41
1.0E-003
 70
0
  0
VERTEX
  8
254
 42
0.0
 10
4.7286377
 20
-2.9081154
 70
0
  0
VERTEX
  8
254
 42
0.0
 10
5.4182281
 20
-2.2185249
 70
0
  0
SEQEND
  0
POLYLINE
  8
254
  6
CONTINUOUS
 62
6
 66
1
 40
1.0E-003
 41
1.0E-003
 70
0
  0
VERTEX
  8
254
 42
0.0
 10
6.693634
 20
-9.4311142E-001
 70
0
  0
VERTEX
  8
254
 42
0.0
 10
7.8486481
 20
2.1190834E-001
 70
0
  0
SEQEND
  0
POLYLINE
  8
254
  6
CONTINUOUS
 62
6
 66
1
 40
1.0E-003
 41
1.0E-003
 70
0
  0
VERTEX
  8
254
 42
0.0
 10
3.6460724
 20
-4.2735233
 70
0
  0
VERTEX
  8
254
 42
0.0
 10
4.3386536
 20
-3.5809441
 70
0
  0
SEQEND
  0
POLYLINE
  8
254
  6
CONTINUOUS
 62
6
 66
1
 40
1.0E-003
 41
1.0E-003
 70
0
  0
VERTEX
  8
254
 42
0.0
 10
4.7286377
 20
-3.1909599
 70
0
  0
VERTEX
  8
254
 42
0.0
 10
5.7010651
 20
-2.2185249
 70
0
  0
SEQEND
  0
POLYLINE
  8
254
  6
CONTINUOUS
 62
6
 66
1
 40
1.0E-003
 41
1.0E-003
 70
0
  0
VERTEX
  8
254
 42
0.0
 10
6.693634
 20
-1.2259541
 70
0
  0
VERTEX
  8
254
 42
0.0
 10
7.8486481
 20
-7.0936203E-002
 70
0
  0
SEQEND
  0
POLYLINE
  8
254
  6
CONTINUOUS
 62
6
 66
1
 40
1.0E-003
 41
1.0E-003
 70
0
  0
VERTEX
  8
254
 42
0.0
 10
3.9289246
 20
-4.2735233
 70
0
  0
VERTEX
  8
254
 42
0.0
 10
4.3386536
 20
-3.8637886
 70
0
  0
SEQEND
  0
POLYLINE
  8
254
  6
CONTINUOUS
 62
6
 66
1
 40
1.0E-003
 41
1.0E-003
 70
0
  0
VERTEX
  8
254
 42
0.0
 10
4.7286377
 20
-3.4738026
 70
0
  0
VERTEX
  8
254
 42
0.0
 10
5.9839172
 20
-2.2185249
 70
0
  0
SEQEND
  0
POLYLINE
  8
254
  6
CONTINUOUS
 62
6
 66
1
 40
1.0E-003
 41
1.0E-003
 70
0
  0
VERTEX
  8
254
 42
0.0
 10
6.693634
 20
-1.5087986
 70
0
  0
VERTEX
  8
254
 42
0.0
 10
7.8486481
 20
-3.5377884E-001
 70
0
  0
SEQEND
  0
POLYLINE
  8
254
  6
CONTINUOUS
 62
6
 66
1
 40
1.0E-003
 41
1.0E-003
 70
0
  0
VERTEX
  8
254
 42
0.0
 10
8.2386322
 20
3.6207199E-002
 70
0
  0
VERTEX
  8
254
 42
0.0
 10
8.428894
 20
2.2647285E-001
 70
0
  0
SEQEND
  0
POLYLINE
  8
254
  6
CONTINUOUS
 62
6
 66
1
 40
1.0E-003
 41
1.0E-003
 70
0
  0
VERTEX
  8
254
 42
0.0
 10
4.2117615
 20
-4.2735233
 70
0
  0
VERTEX
  8
254
 42
0.0
 10
4.3386536
 20
-4.1466312
 70
0
  0
SEQEND
  0
POLYLINE
  8
254
  6
CONTINUOUS
 62
6
 66
1
 40
1.0E-003
 41
1.0E-003
 70
0
  0
VERTEX
  8
254
 42
0.0
 10
4.7286377
 20
-3.7566452
 70
0
  0
VERTEX
  8
254
 42
0.0
 10
6.181076
 20
-2.3042011
 70
0
  0
SEQEND
  0
POLYLINE
  8
254
  6
CONTINUOUS
 62
6
 66
1
 40
1.0E-003
 41
1.0E-003
 70
0
  0
VERTEX
  8
254
 42
0.0
 10
6.693634
 20
-1.7916412
 70
0
  0
VERTEX
  8
254
 42
0.0
 10
7.8486481
 20
-6.3662148E-001
 70
0
  0
SEQEND
  0
POLYLINE
  8
254
  6
CONTINUOUS
 62
6
 66
1
 40
1.0E-003
 41
1.0E-003
 70
0
  0
VERTEX
  8
254
 42
0.0
 10
8.2386322
 20
-2.4663544E-001
 70
0
  0
VERTEX
  8
254
 42
0.0
 10
8.6889954
 20
2.0372772E-001
 70
0
  0
SEQEND
  0
POLYLINE
  8
254
  6
CONTINUOUS
 62
6
 66
1
 40
1.0E-003
 41
1.0E-003
 70
0
  0
VERTEX
  8
254
 42
0.0
 10
4.7286377
 20
-4.0394897
 70
0
  0
VERTEX
  8
254
 42
0.0
 10
6.2656097
 20
-2.5025082
 70
0
  0
SEQEND
  0
POLYLINE
  8
254
  6
CONTINUOUS
 62
6
 66
1
 40
1.0E-003
 41
1.0E-003
 70
0
  0
VERTEX
  8
254
 42
0.0
 10
6.9395905
 20
-1.8285255
 70
0
  0
VERTEX
  8
254
 42
0.0
 10
7.8486481
 20
-9.1946602E-001
 70
0
  0
SEQEND
  0
POLYLINE
  8
254
  6
CONTINUOUS
 62
6
 66
1
 40
1.0E-003
 41
1.0E-003
 70
0
  0
VERTEX
  8
254
 42
0.0
 10
8.2386322
 20
-5.2947998E-001
 70
0
  0
VERTEX
  8
254
 42
0.0
 10
8.9050598
 20
1.3694763E-001
 70
0
  0
SEQEND
  0
POLYLINE
  8
254
  6
CONTINUOUS
 62
6
 66
1
 40
1.0E-003
 41
1.0E-003
 70
0
  0
VERTEX
  8
254
 42
0.0
 10
4.7774506
 20
-4.2735233
 70
0
  0
VERTEX
  8
254
 42
0.0
 10
6.3190155
 20
-2.7319412
 70
0
  0
SEQEND
  0
POLYLINE
  8
254
  6
CONTINUOUS
 62
6
 66
1
 40
1.0E-003
 41
1.0E-003
 70
0
  0
VERTEX
  8
254
 42
0.0
 10
6.693634
 20
-2.3573284
 70
0
  0
VERTEX
  8
254
 42
0.0
 10
6.8324432
 20
-2.2185249
 70
0
  0
SEQEND
  0
POLYLINE
  8
254
  6
CONTINUOUS
 62
6
 66
1
 40
1.0E-003
 41
1.0E-003
 70
0
  0
VERTEX
  8
254
 42
0.0
 10
7.2224274
 20
-1.8285255
 70
0
  0
VERTEX
  8
254
 42
0.0
 10
7.8486481
 20
-1.2023087
 70
0
  0
SEQEND
  0
POLYLINE
  8
254
  6
CONTINUOUS
 62
6
 66
1
 40
1.0E-003
 41
1.0E-003
 70
0
  0
VERTEX
  8
254
 42
0.0
 10
8.2386322
 20
-8.1232262E-001
 70
0
  0
VERTEX
  8
254
 42
0.0
 10
9.0850067
 20
3.4049988E-002
 70
0
  0
SEQEND
  0
POLYLINE
  8
254
  6
CONTINUOUS
 62
6
 66
1
 40
1.0E-003
 41
1.0E-003
 70
0
  0
VERTEX
  8
254
 42
0.0
 10
5.0675201
 20
-4.2662849
 70
0
  0
VERTEX
  8
254
 42
0.0
 10
6.3274994
 20
-3.0063057
 70
0
  0
SEQEND
  0
POLYLINE
  8
254
  6
CONTINUOUS
 62
6
 66
1
 40
1.0E-003
 41
1.0E-003
 70
0
  0
VERTEX
  8
254
 42
0.0
 10
6.693634
 20
-2.6401711
 70
0
  0
VERTEX
  8
254
 42
0.0
 10
7.1152802
 20
-2.2185249
 70
0
  0
SEQEND
  0
POLYLINE
  8
254
  6
CONTINUOUS
 62
6
 66
1
 40
1.0E-003
 41
1.0E-003
 70
0
  0
VERTEX
  8
254
 42
0.0
 10
7.5052795
 20
-1.8285255
 70
0
  0
VERTEX
  8
254
 42
0.0
 10
7.8486481
 20
-1.4851513
 70
0
  0
SEQEND
  0
POLYLINE
  8
254
  6
CONTINUOUS
 62
6
 66
1
 40
1.0E-003
 41
1.0E-003
 70
0
  0
VERTEX
  8
254
 42
0.0
 10
8.2386322
 20
-1.0951672
 70
0
  0
VERTEX
  8
254
 42
0.0
 10
9.2350922
 20
-9.869957E-002
 70
0
  0
SEQEND
  0
POLYLINE
  8
254
  6
CONTINUOUS
 62
6
 66
1
 40
1.0E-003
 41
1.0E-003
 70
0
  0
VERTEX
  8
254
 42
0.0
 10
5.416275
 20
-4.2003727
 70
0
  0
VERTEX
  8
254
 42
0.0
 10
6.2580872
 20
-3.3585587
 70
0
  0
SEQEND
  0
POLYLINE
  8
254
  6
CONTINUOUS
 62
6
 66
1
 40
1.0E-003
 41
1.0E-003
 70
0
  0
VERTEX
  8
254
 42
0.0
 10
6.693634
 20
-2.9230137
 70
0
  0
VERTEX
  8
254
 42
0.0
 10
7.3981171
 20
-2.2185249
 70
0
  0
SEQEND
  0
POLYLINE
  8
254
  6
CONTINUOUS
 62
6
 66
1
 40
1.0E-003
 41
1.0E-003
 70
0
  0
VERTEX
  8
254
 42
0.0
 10
7.7881165
 20
-1.8285255
 70
0
  0
VERTEX
  8
254
 42
0.0
 10
7.8486481
 20
-1.7679958
 70
0
  0
SEQEND
  0
POLYLINE
  8
254
  6
CONTINUOUS
 62
6
 66
1
 40
1.0E-003
 41
1.0E-003
 70
0
  0
VERTEX
  8
254
 42
0.0
 10
8.2386322
 20
-1.3780098
 70
0
  0
VERTEX
  8
254
 42
0.0
 10
9.3569641
 20
-2.5967217E-001
 70
0
  0
SEQEND
  0
POLYLINE
  8
254
  6
CONTINUOUS
 62
6
 66
1
 40
1.0E-003
 41
1.0E-003
 70
0
  0
VERTEX
  8
254
 42
0.0
 10
6.693634
 20
-3.2058582
 70
0
  0
VERTEX
  8
254
 42
0.0
 10
7.6809692
 20
-2.2185249
 70
0
  0
SEQEND
  0
POLYLINE
  8
254
  6
CONTINUOUS
 62
6
 66
1
 40
1.0E-003
 41
1.0E-003
 70
0
  0
VERTEX
  8
254
 42
0.0
 10
8.2386322
 20
-1.6608524
 70
0
  0
VERTEX
  8
254
 42
0.0
 10
9.4486694
 20
-4.5081711E-001
 70
0
  0
SEQEND
  0
POLYLINE
  8
254
  6
CONTINUOUS
 62
6
 66
1
 40
1.0E-003
 41
1.0E-003
 70
0
  0
VERTEX
  8
254
 42
0.0
 10
6.693634
 20
-3.4887009
 70
0
  0
VERTEX
  8
254
 42
0.0
 10
7.8486481
 20
-2.3336811
 70
0
  0
SEQEND
  0
POLYLINE
  8
254
  6
CONTINUOUS
 62
6
 66
1
 40
1.0E-003
 41
1.0E-003
 70
0
  0
VERTEX
  8
254
 42
0.0
 10
8.3538055
 20
-1.8285255
 70
0
  0
VERTEX
  8
254
 42
0.0
 10
9.4981384
 20
-6.8418121E-001
 70
0
  0
SEQEND
  0
POLYLINE
  8
254
  6
CONTINUOUS
 62
6
 66
1
 40
1.0E-003
 41
1.0E-003
 70
0
  0
VERTEX
  8
254
 42
0.0
 10
6.693634
 20
-3.7715435
 70
0
  0
VERTEX
  8
254
 42
0.0
 10
7.8486481
 20
-2.6165256
 70
0
  0
SEQEND
  0
POLYLINE
  8
254
  6
CONTINUOUS
 62
6
 66
1
 40
1.0E-003
 41
1.0E-003
 70
0
  0
VERTEX
  8
254
 42
0.0
 10
8.2386322
 20
-2.2265396
 70
0
  0
VERTEX
  8
254
 42
0.0
 10
8.2466431
 20
-2.2185249
 70
0
  0
SEQEND
  0
POLYLINE
  8
254
  6
CONTINUOUS
 62
6
 66
1
 40
1.0E-003
 41
1.0E-003
 70
0
  0
VERTEX
  8
254
 42
0.0
 10
8.6366425
 20
-1.8285255
 70
0
  0
VERTEX
  8
254
 42
0.0
 10
9.4822998
 20
-9.8287392E-001
 70
0
  0
SEQEND
  0
POLYLINE
  8
254
  6
CONTINUOUS
 62
6
 66
1
 40
1.0E-003
 41
1.0E-003
 70
0
  0
VERTEX
  8
254
 42
0.0
 10
6.693634
 20
-4.054388
 70
0
  0
VERTEX
  8
254
 42
0.0
 10
7.8486481
 20
-2.8993683
 70
0
  0
SEQEND
  0
POLYLINE
  8
254
  6
CONTINUOUS
 62
6
 66
1
 40
1.0E-003
 41
1.0E-003
 70
0
  0
VERTEX
  8
254
 42
0.0
 10
8.2386322
 20
-2.5093822
 70
0
  0
VERTEX
  8
254
 42
0.0
 10
8.5294952
 20
-2.2185249
 70
0
  0
SEQEND
  0
POLYLINE
  8
254
  6
CONTINUOUS
 62
6
 66
1
 40
1.0E-003
 41
1.0E-003
 70
0
  0
VERTEX
  8
254
 42
0.0
 10
8.9194946
 20
-1.8285255
 70
0
  0
VERTEX
  8
254
 42
0.0
 10
9.0524445
 20
-1.6955605
 70
0
  0
SEQEND
  0
POLYLINE
  8
254
  6
CONTINUOUS
 62
6
 66
1
 40
1.0E-003
 41
1.0E-003
 70
0
  0
VERTEX
  8
254
 42
0.0
 10
6.7573395
 20
-4.2735233
 70
0
  0
VERTEX
  8
254
 42
0.0
 10
7.8486481
 20
-3.1822128
 70
0
  0
SEQEND
  0
POLYLINE
  8
254
  6
CONTINUOUS
 62
6
 66
1
 40
1.0E-003
 41
1.0E-003
 70
0
  0
VERTEX
  8
254
 42
0.0
 10
8.2386322
 20
-2.7922268
 70
0
  0
VERTEX
  8
254
 42
0.0
 10
8.8123322
 20
-2.2185249
 70
0
  0
SEQEND
  0
POLYLINE
  8
254
  6
CONTINUOUS
 62
6
 66
1
 40
1.0E-003
 41
1.0E-003
 70
0
  0
VERTEX
  8
254
 42
0.0
 10
9.2023315
 20
-1.8285255
 70
0
  0
VERTEX
  8
254
 42
0.0
 10
9.2325897
 20
-1.7982578
 70
0
  0
SEQEND
  0
POLYLINE
  8
254
  6
CONTINUOUS
 62
6
 66
1
 40
1.0E-003
 41
1.0E-003
 70
0
  0
VERTEX
  8
254
 42
0.0
 10
7.0401917
 20
-4.2735233
 70
0
  0
VERTEX
  8
254
 42
0.0
 10
7.8486481
 20
-3.4650555
 70
0
  0
SEQEND
  0
POLYLINE
  8
254
  6
CONTINUOUS
 62
6
 66
1
 40
1.0E-003
 41
1.0E-003
 70
0
  0
VERTEX
  8
254
 42
0.0
 10
8.2386322
 20
-3.0750694
 70
0
  0
VERTEX
  8
254
 42
0.0
 10
9.0951691
 20
-2.2185249
 70
0
  0
SEQEND
  0
POLYLINE
  8
254
  6
CONTINUOUS
 62
6
 66
1
 40
1.0E-003
 41
1.0E-003
 70
0
  0
VERTEX
  8
254
 42
0.0
 10
7.3230286
 20
-4.2735233
 70
0
  0
VERTEX
  8
254
 42
0.0
 10
7.8486481
 20
-3.7478981
 70
0
  0
SEQEND
  0
POLYLINE
  8
254
  6
CONTINUOUS
 62
6
 66
1
 40
1.0E-003
 41
1.0E-003
 70
0
  0
VERTEX
  8
254
 42
0.0
 10
8.2386322
 20
-3.3579121
 70
0
  0
VERTEX
  8
254
 42
0.0
 10
9.3780212
 20
-2.2185249
 70
0
  0
SEQEND
  0
POLYLINE
  8
254
  6
CONTINUOUS
 62
6
 66
1
 40
1.0E-003
 41
1.0E-003
 70
0
  0
VERTEX
  8
254
 42
0.0
 10
7.6058655
 20
-4.2735233
 70
0
  0
VERTEX
  8
254
 42
0.0
 10
7.8486481
 20
-4.0307426
 70
0
  0
SEQEND
  0
POLYLINE
  8
254
  6
CONTINUOUS
 62
6
 66
1
 40
1.0E-003
 41
1.0E-003
 70
0
  0
VERTEX
  8
254
 42
0.0
 10
8.2386322
 20
-3.6407566
 70
0
  0
VERTEX
  8
254
 42
0.0
 10
9.6507568
 20
-2.228632
 70
0
  0
SEQEND
  0
POLYLINE
  8
254
  6
CONTINUOUS
 62
6
 66
1
 40
1.0E-003
 41
1.0E-003
 70
0
  0
VERTEX
  8
254
 42
0.0
 10
8.2386322
 20
-3.9235992
 70
0
  0
VERTEX
  8
254
 42
0.0
 10
9.7415924
 20
-2.4206371
 70
0
  0
SEQEND
  0
POLYLINE
  8
254
  6
CONTINUOUS
 62
6
 66
1
 40
1.0E-003
 41
1.0E-003
 70
0
  0
VERTEX
  8
254
 42
0.0
 10
8.2386322
 20
-4.2064419
 70
0
  0
VERTEX
  8
254
 42
0.0
 10
9.8081055
 20
-2.6369629
 70
0
  0
SEQEND
  0
POLYLINE
  8
254
  6
CONTINUOUS
 62
6
 66
1
 40
1.0E-003
 41
1.0E-003
 70
0
  0
VERTEX
  8
254
 42
0.0
 10
8.4543915
 20
-4.2735233
 70
0
  0
VERTEX
  8
254
 42
0.0
 10
9.8392181
 20
-2.8886967
 70
0
  0
SEQEND
  0
POLYLINE
  8
254
  6
CONTINUOUS
 62
6
 66
1
 40
1.0E-003
 41
1.0E-003
 70
0
  0
VERTEX
  8
254
 42
0.0
 10
8.7687836
 20
-4.2419796
 70
0
  0
VERTEX
  8
254
 42
0.0
 10
9.8147125
 20
-3.196043
 70
0
  0
SEQEND
  0
POLYLINE
  8
254
  6
CONTINUOUS
 62
6
 66
1
 40
1.0E-003
 41
1.0E-003
 70
0
  0
VERTEX
  8
254
 42
0.0
 10
9.275238
 20
-4.0183601
 70
0
  0
VERTEX
  8
254
 42
0.0
 10
9.5876312
 20
-3.7059689
 70
0
  0
SEQEND
  0
ENDBLK
  0
BLOCK
  2
RAHMENA4
 10
0.0
 20
0.0
 70
0
  0
POLYLINE
  8
251
  6
CONTINUOUS
 62
6
 66
1
 40
7.0E-001
 41
7.0E-001
 70
0
  0
VERTEX
  8
251
 42
0.0
 10
1.9000008E+001
 20
2.9150003E+002
 70
0
  0
VERTEX
  8
251
 42
0.0
 10
1.9000008E+001
 20
5.5
 70
0
  0
SEQEND
  0
POLYLINE
  8
251
  6
CONTINUOUS
 62
6
 66
1
 40
7.0E-001
 41
7.0E-001
 70
0
  0
VERTEX
  8
251
 42
0.0
 10
2.05E+002
 20
5.5
 70
0
  0
VERTEX
  8
251
 42
0.0
 10
1.9000008E+001
 20
5.5
 70
0
  0
SEQEND
  0
POLYLINE
  8
251
  6
CONTINUOUS
 62
6
 66
1
 40
7.0E-001
 41
7.0E-001
 70
0
  0
VERTEX
  8
251
 42
0.0
 10
5.0
 20
5.5
 70
0
  0
VERTEX
  8
251
 42
0.0
 10
5.0
 20
1.045E+002
 70
0
  0
SEQEND
  0
POLYLINE
  8
251
  6
CONTINUOUS
 62
6
 66
1
 40
7.0E-001
 41
7.0E-001
 70
0
  0
VERTEX
  8
251
 42
0.0
 10
5.0
 20
1.045E+002
 70
0
  0
VERTEX
  8
251
 42
0.0
 10
1.9000008E+001
 20
1.045E+002
 70
0
  0
SEQEND
  0
POLYLINE
  8
254
  6
CONTINUOUS
 62
6
 66
1
 40
1.0E-003
 41
1.0E-003
 70
0
  0
VERTEX
  8
254
 42
0.0
 10
1.9000008E+001
 20
1.335E+002
 70
0
  0
VERTEX
  8
254
 42
0.0
 10
1.4500008E+001
 20
1.335E+002
 70
0
  0
SEQEND
  0
POLYLINE
  8
254
  6
CONTINUOUS
 62
6
 66
1
 40
1.0E-003
 41
1.0E-003
 70
0
  0
VERTEX
  8
254
 42
0.0
 10
1.9000008E+001
 20
1.435E+002
 70
0
  0
VERTEX
  8
254
 42
0.0
 10
1.4500008E+001
 20
1.435E+002
 70
0
  0
SEQEND
  0
POLYLINE
  8
254
  6
CONTINUOUS
 62
6
 66
1
 40
1.0E-003
 41
1.0E-003
 70
0
  0
VERTEX
  8
254
 42
0.0
 10
1.9000008E+001
 20
1.5350002E+002
 70
0
  0
VERTEX
  8
254
 42
0.0
 10
1.4500008E+001
 20
1.5350002E+002
 70
0
  0
SEQEND
  0
POLYLINE
  8
254
  6
CONTINUOUS
 62
6
 66
1
 40
1.0E-003
 41
1.0E-003
 70
0
  0
VERTEX
  8
254
 42
0.0
 10
1.9000008E+001
 20
1.6350002E+002
 70
0
  0
VERTEX
  8
254
 42
0.0
 10
1.4500008E+001
 20
1.6350002E+002
 70
0
  0
SEQEND
  0
POLYLINE
  8
254
  6
CONTINUOUS
 62
6
 66
1
 40
1.0E-003
 41
1.0E-003
 70
0
  0
VERTEX
  8
254
 42
0.0
 10
1.9000008E+001
 20
1.7350002E+002
 70
0
  0
VERTEX
  8
254
 42
0.0
 10
1.4500008E+001
 20
1.7350002E+002
 70
0
  0
SEQEND
  0
POLYLINE
  8
254
  6
CONTINUOUS
 62
6
 66
1
 40
1.0E-003
 41
1.0E-003
 70
0
  0
VERTEX
  8
254
 42
0.0
 10
1.9000008E+001
 20
1.285E+002
 70
0
  0
VERTEX
  8
254
 42
0.0
 10
1.7000008E+001
 20
1.285E+002
 70
0
  0
SEQEND
  0
POLYLINE
  8
254
  6
CONTINUOUS
 62
6
 66
1
 40
1.0E-003
 41
1.0E-003
 70
0
  0
VERTEX
  8
254
 42
0.0
 10
1.9000008E+001
 20
1.385E+002
 70
0
  0
VERTEX
  8
254
 42
0.0
 10
1.7000008E+001
 20
1.385E+002
 70
0
  0
SEQEND
  0
POLYLINE
  8
252
  6
CONTINUOUS
 62
6
 66
1
 40
1.0E-003
 41
1.0E-003
 70
0
  0
VERTEX
  8
252
 42
0.0
 10
1.9000008E+001
 20
1.4850002E+002
 70
0
  0
VERTEX
  8
252
 42
0.0
 10
1.2345772E+001
 20
1.4850002E+002
 70
0
  0
SEQEND
  0
POLYLINE
  8
254
  6
CONTINUOUS
 62
6
 66
1
 40
1.0E-003
 41
1.0E-003
 70
0
  0
VERTEX
  8
254
 42
0.0
 10
1.9000008E+001
 20
1.5850002E+002
 70
0
  0
VERTEX
  8
254
 42
0.0
 10
1.7000008E+001
 20
1.5850002E+002
 70
0
  0
SEQEND
  0
POLYLINE
  8
254
  6
CONTINUOUS
 62
6
 66
1
 40
1.0E-003
 41
1.0E-003
 70
0
  0
VERTEX
  8
254
 42
0.0
 10
1.9000008E+001
 20
1.6850002E+002
 70
0
  0
VERTEX
  8
254
 42
0.0
 10
1.7000008E+001
 20
1.6850002E+002
 70
0
  0
SEQEND
  0
POLYLINE
  8
254
  6
CONTINUOUS
 62
6
 66
1
 40
1.0E-003
 41
1.0E-003
 70
0
  0
VERTEX
  8
254
 42
0.0
 10
1.7568611E+001
 20
1.235E+002
 70
0
  0
VERTEX
  8
254
 42
0.0
 10
1.9000008E+001
 20
1.235E+002
 70
0
  0
SEQEND
  0
POLYLINE
  8
254
  6
CONTINUOUS
 62
6
 66
1
 40
1.0E-003
 41
1.0E-003
 70
0
  0
VERTEX
  8
254
 42
0.0
 10
1.9000008E+001
 20
1.235E+002
 70
0
  0
VERTEX
  8
254
 42
0.0
 10
1.5000008E+001
 20
1.235E+002
 70
0
  0
SEQEND
  0
POLYLINE
  8
254
  6
CONTINUOUS
 62
6
 66
1
 40
1.0E-003
 41
1.0E-003
 70
0
  0
VERTEX
  8
254
 42
0.0
 10
1.9000008E+001
 20
1.235E+002
 70
0
  0
VERTEX
  8
254
 42
0.0
 10
1.4500008E+001
 20
1.235E+002
 70
0
  0
SEQEND
  0
POLYLINE
  8
254
  6
CONTINUOUS
 62
3
 66
1
 40
1.0E-003
 41
1.0E-003
 70
0
  0
VERTEX
  8
254
 42
0.0
 10
1.6487923E+001
 20
2.0867195E+002
 70
0
  0
VERTEX
  8
254
 42
0.0
 10
1.3487923E+001
 20
2.0867195E+002
 70
0
  0
SEQEND
  0
POLYLINE
  8
254
  6
CONTINUOUS
 62
3
 66
1
 40
1.0E-003
 41
1.0E-003
 70
0
  0
VERTEX
  8
254
 42
0.0
 10
1.3487923E+001
 20
2.2806367E+002
 70
0
  0
VERTEX
  8
254
 42
0.0
 10
1.6487923E+001
 20
2.2806367E+002
 70
0
  0
SEQEND
  0
POLYLINE
  8
254
  6
CONTINUOUS
 62
3
 66
1
 40
1.0E-003
 41
1.0E-003
 70
0
  0
VERTEX
  8
254
 42
0.0
 10
1.3487923E+001
 20
2.3106367E+002
 70
0
  0
VERTEX
  8
254
 42
0.0
 10
1.6487923E+001
 20
2.3106367E+002
 70
0
  0
SEQEND
  0
POLYLINE
  8
254
  6
CONTINUOUS
 62
3
 66
1
 40
1.0E-003
 41
1.0E-003
 70
0
  0
VERTEX
  8
254
 42
0.0
 10
1.6487923E+001
 20
2.1167192E+002
 70
0
  0
VERTEX
  8
254
 42
0.0
 10
1.3487923E+001
 20
2.1167192E+002
 70
0
  0
SEQEND
  0
POLYLINE
  8
254
  6
CONTINUOUS
 62
3
 66
1
 40
1.0E-003
 41
1.0E-003
 70
0
  0
VERTEX
  8
254
 42
0.0
 10
1.3487923E+001
 20
2.2806367E+002
 70
0
  0
VERTEX
  8
254
 42
0.0
 10
1.3487923E+001
 20
2.3106367E+002
 70
0
  0
SEQEND
  0
POLYLINE
  8
254
  6
CONTINUOUS
 62
3
 66
1
 40
1.0E-003
 41
1.0E-003
 70
0
  0
VERTEX
  8
254
 42
0.0
 10
1.3487923E+001
 20
2.0867195E+002
 70
0
  0
VERTEX
  8
254
 42
0.0
 10
1.3487923E+001
 20
2.1167192E+002
 70
0
  0
SEQEND
  0
POLYLINE
  8
254
  6
CONTINUOUS
 62
3
 66
1
 40
1.0E-003
 41
1.0E-003
 70
0
  0
VERTEX
  8
254
 42
0.0
 10
1.6487923E+001
 20
2.2806367E+002
 70
0
  0
VERTEX
  8
254
 42
0.0
 10
1.6487923E+001
 20
2.3106367E+002
 70
0
  0
SEQEND
  0
POLYLINE
  8
254
  6
CONTINUOUS
 62
4
 66
1
 40
1.0E-003
 41
1.0E-003
 70
0
  0
VERTEX
  8
254
 42
0.0
 10
2.1E+002
 20
0.0
 70
0
  0
VERTEX
  8
254
 42
0.0
 10
2.1E+002
 20
2.9700003E+002
 70
0
  0
SEQEND
  0
POLYLINE
  8
251
  6
CONTINUOUS
 62
6
 66
1
 40
7.0E-001
 41
7.0E-001
 70
0
  0
VERTEX
  8
251
 42
0.0
 10
2.05E+002
 20
2.9150003E+002
 70
0
  0
VERTEX
  8
251
 42
0.0
 10
2.05E+002
 20
5.5
 70
0
  0
SEQEND
  0
POLYLINE
  8
251
  6
CONTINUOUS
 62
6
 66
1
 40
7.0E-001
 41
7.0E-001
 70
0
  0
VERTEX
  8
251
 42
0.0
 10
1.9000008E+001
 20
2.9150003E+002
 70
0
  0
VERTEX
  8
251
 42
0.0
 10
2.05E+002
 20
2.9150003E+002
 70
0
  0
SEQEND
  0
LINE
  8
254
  6
CONTINUOUS
 62
6
 10
3.0000008E+001
 20
2.6550003E+002
 11
2.05E+002
 21
2.6550003E+002
  0
POLYLINE
  8
252
  6
CONTINUOUS
 62
6
 66
1
 40
7.0E-001
 41
7.0E-001
 70
0
  0
VERTEX
  8
252
 42
0.0
 10
2.05E+002
 20
2.7800003E+002
 70
0
  0
VERTEX
  8
252
 42
0.0
 10
3.0000008E+001
 20
2.7800003E+002
 70
0
  0
SEQEND
  0
POLYLINE
  8
251
  6
CONTINUOUS
 62
6
 66
1
 40
7.0E-001
 41
7.0E-001
 70
0
  0
VERTEX
  8
251
 42
0.0
 10
3.0000008E+001
 20
2.9150003E+002
 70
0
  0
VERTEX
  8
251
 42
0.0
 10
3.0000008E+001
 20
2.6550003E+002
 70
0
  0
SEQEND
  0
POLYLINE
  8
252
  6
CONTINUOUS
 62
6
 66
1
 40
5.0E-001
 41
5.0E-001
 70
0
  0
VERTEX
  8
252
 42
0.0
 10
3.7000008E+001
 20
2.9150003E+002
 70
0
  0
VERTEX
  8
252
 42
0.0
 10
3.7000008E+001
 20
2.6550003E+002
 70
0
  0
SEQEND
  0
LINE
  8
252
  6
CONTINUOUS
 62
6
 10
4.2000008E+001
 20
2.9150003E+002
 11
4.2000008E+001
 21
2.6550003E+002
  0
POLYLINE
  8
251
  6
CONTINUOUS
 62
6
 66
1
 40
7.0E-001
 41
7.0E-001
 70
0
  0
VERTEX
  8
251
 42
0.0
 10
5.4000008E+001
 20
2.9150003E+002
 70
0
  0
VERTEX
  8
251
 42
0.0
 10
5.4000008E+001
 20
2.6550003E+002
 70
0
  0
SEQEND
  0
POLYLINE
  8
252
  6
CONTINUOUS
 62
6
 66
1
 40
5.0E-001
 41
5.0E-001
 70
0
  0
VERTEX
  8
252
 42
0.0
 10
1.2000001E+002
 20
2.9150003E+002
 70
0
  0
VERTEX
  8
252
 42
0.0
 10
1.2000001E+002
 20
2.6550003E+002
 70
0
  0
SEQEND
  0
POLYLINE
  8
252
  6
CONTINUOUS
 62
6
 66
1
 40
5.0E-001
 41
5.0E-001
 70
0
  0
VERTEX
  8
252
 42
0.0
 10
1.61E+002
 20
2.9150003E+002
 70
0
  0
VERTEX
  8
252
 42
0.0
 10
1.61E+002
 20
2.6550003E+002
 70
0
  0
SEQEND
  0
POLYLINE
  8
252
  6
CONTINUOUS
 62
6
 66
1
 40
5.0E-001
 41
5.0E-001
 70
0
  0
VERTEX
  8
252
 42
0.0
 10
1.66E+002
 20
2.9150003E+002
 70
0
  0
VERTEX
  8
252
 42
0.0
 10
1.66E+002
 20
2.6550003E+002
 70
0
  0
SEQEND
  0
POLYLINE
  8
252
  6
CONTINUOUS
 62
6
 66
1
 40
5.0E-001
 41
5.0E-001
 70
0
  0
VERTEX
  8
252
 42
0.0
 10
1.76E+002
 20
2.9150003E+002
 70
0
  0
VERTEX
  8
252
 42
0.0
 10
1.76E+002
 20
2.6550003E+002
 70
0
  0
SEQEND
  0
POLYLINE
  8
252
  6
CONTINUOUS
 62
6
 66
1
 40
5.0E-001
 41
5.0E-001
 70
0
  0
VERTEX
  8
252
 42
0.0
 10
1.92E+002
 20
2.9150003E+002
 70
0
  0
VERTEX
  8
252
 42
0.0
 10
1.92E+002
 20
2.6550003E+002
 70
0
  0
SEQEND
  0
LINE
  8
254
  6
CONTINUOUS
 62
6
 10
3.0000008E+001
 20
2.7175003E+002
 11
2.05E+002
 21
2.7175003E+002
  0
POLYLINE
  8
252
  6
CONTINUOUS
 62
6
 66
1
 40
5.0E-001
 41
5.0E-001
 70
0
  0
VERTEX
  8
252
 42
0.0
 10
1.66E+002
 20
2.8475003E+002
 70
0
  0
VERTEX
  8
252
 42
0.0
 10
1.92E+002
 20
2.8475003E+002
 70
0
  0
SEQEND
  0
POLYLINE
  8
254
  6
CONTINUOUS
 62
4
 66
1
 40
1.0E-003
 41
1.0E-003
 70
0
  0
VERTEX
  8
254
 42
0.0
 10
0.0
 20
2.9700003E+002
 70
0
  0
VERTEX
  8
254
 42
0.0
 10
2.1E+002
 20
2.9700003E+002
 70
0
  0
SEQEND
  0
POLYLINE
  8
254
  6
CONTINUOUS
 62
6
 66
1
 40
1.0E-003
 41
1.0E-003
 70
0
  0
VERTEX
  8
254
 42
0.0
 10
2.05E+002
 20
2.5925003E+002
 70
0
  0
VERTEX
  8
254
 42
0.0
 10
2.0E+002
 20
2.5925003E+002
 70
0
  0
SEQEND
  0
POLYLINE
  8
254
  6
CONTINUOUS
 62
6
 66
1
 40
1.0E-003
 41
1.0E-003
 70
0
  0
VERTEX
  8
254
 42
0.0
 10
2.05E+002
 20
2.53E+002
 70
0
  0
VERTEX
  8
254
 42
0.0
 10
2.0E+002
 20
2.53E+002
 70
0
  0
SEQEND
  0
POLYLINE
  8
254
  6
CONTINUOUS
 62
6
 66
1
 40
1.0E-003
 41
1.0E-003
 70
0
  0
VERTEX
  8
254
 42
0.0
 10
2.05E+002
 20
2.4674998E+002
 70
0
  0
VERTEX
  8
254
 42
0.0
 10
2.0E+002
 20
2.4674998E+002
 70
0
  0
SEQEND
  0
POLYLINE
  8
254
  6
CONTINUOUS
 62
6
 66
1
 40
1.0E-003
 41
1.0E-003
 70
0
  0
VERTEX
  8
254
 42
0.0
 10
2.05E+002
 20
2.4049998E+002
 70
0
  0
VERTEX
  8
254
 42
0.0
 10
2.0E+002
 20
2.4049998E+002
 70
0
  0
SEQEND
  0
POLYLINE
  8
254
  6
CONTINUOUS
 62
6
 66
1
 40
1.0E-003
 41
1.0E-003
 70
0
  0
VERTEX
  8
254
 42
0.0
 10
2.05E+002
 20
2.3424998E+002
 70
0
  0
VERTEX
  8
254
 42
0.0
 10
2.0E+002
 20
2.3424998E+002
 70
0
  0
SEQEND
  0
POLYLINE
  8
254
  6
CONTINUOUS
 62
6
 66
1
 40
1.0E-003
 41
1.0E-003
 70
0
  0
VERTEX
  8
254
 42
0.0
 10
2.05E+002
 20
2.2800002E+002
 70
0
  0
VERTEX
  8
254
 42
0.0
 10
2.0E+002
 20
2.2800002E+002
 70
0
  0
SEQEND
  0
POLYLINE
  8
254
  6
CONTINUOUS
 62
6
 66
1
 40
1.0E-003
 41
1.0E-003
 70
0
  0
VERTEX
  8
254
 42
0.0
 10
2.05E+002
 20
2.2175002E+002
 70
0
  0
VERTEX
  8
254
 42
0.0
 10
2.0E+002
 20
2.2175002E+002
 70
0
  0
SEQEND
  0
POLYLINE
  8
254
  6
CONTINUOUS
 62
6
 66
1
 40
1.0E-003
 41
1.0E-003
 70
0
  0
VERTEX
  8
254
 42
0.0
 10
2.05E+002
 20
2.1550002E+002
 70
0
  0
VERTEX
  8
254
 42
0.0
 10
2.0E+002
 20
2.1550002E+002
 70
0
  0
SEQEND
  0
POLYLINE
  8
254
  6
CONTINUOUS
 62
6
 66
1
 40
1.0E-003
 41
1.0E-003
 70
0
  0
VERTEX
  8
254
 42
0.0
 10
2.05E+002
 20
2.9150003E+002
 70
0
  0
VERTEX
  8
254
 42
0.0
 10
2.075E+002
 20
2.9150003E+002
 70
0
  0
SEQEND
  0
POLYLINE
  8
254
  6
CONTINUOUS
 62
6
 66
1
 40
1.0E-003
 41
1.0E-003
 70
0
  0
VERTEX
  8
254
 42
0.0
 10
2.05E+002
 20
2.3175002E+002
 70
0
  0
VERTEX
  8
254
 42
0.0
 10
2.075E+002
 20
2.3175002E+002
 70
0
  0
SEQEND
  0
POLYLINE
  8
254
  6
CONTINUOUS
 62
6
 66
1
 40
1.0E-003
 41
1.0E-003
 70
0
  0
VERTEX
  8
254
 42
0.0
 10
2.05E+002
 20
1.7200002E+002
 70
0
  0
VERTEX
  8
254
 42
0.0
 10
2.075E+002
 20
1.7200002E+002
 70
0
  0
SEQEND
  0
POLYLINE
  8
254
  6
CONTINUOUS
 62
6
 66
1
 40
1.0E-003
 41
1.0E-003
 70
0
  0
VERTEX
  8
254
 42
0.0
 10
2.05E+002
 20
1.1225E+002
 70
0
  0
VERTEX
  8
254
 42
0.0
 10
2.075E+002
 20
1.1225E+002
 70
0
  0
SEQEND
  0
POLYLINE
  8
254
  6
CONTINUOUS
 62
6
 66
1
 40
1.0E-003
 41
1.0E-003
 70
0
  0
VERTEX
  8
254
 42
0.0
 10
2.05E+002
 20
2.9150003E+002
 70
0
  0
VERTEX
  8
254
 42
0.0
 10
2.05E+002
 20
2.9400003E+002
 70
0
  0
SEQEND
  0
POLYLINE
  8
254
  6
CONTINUOUS
 62
6
 66
1
 40
1.0E-003
 41
1.0E-003
 70
0
  0
VERTEX
  8
254
 42
0.0
 10
1.585E+002
 20
2.9150003E+002
 70
0
  0
VERTEX
  8
254
 42
0.0
 10
1.585E+002
 20
2.9400003E+002
 70
0
  0
SEQEND
  0
POLYLINE
  8
254
  6
CONTINUOUS
 62
6
 66
1
 40
1.0E-003
 41
1.0E-003
 70
0
  0
VERTEX
  8
254
 42
0.0
 10
1.1200001E+002
 20
2.9150003E+002
 70
0
  0
VERTEX
  8
254
 42
0.0
 10
1.1200001E+002
 20
2.9400003E+002
 70
0
  0
SEQEND
  0
POLYLINE
  8
254
  6
CONTINUOUS
 62
6
 66
1
 40
1.0E-003
 41
1.0E-003
 70
0
  0
VERTEX
  8
254
 42
0.0
 10
1.9000008E+001
 20
2.9150003E+002
 70
0
  0
VERTEX
  8
254
 42
0.0
 10
1.9000008E+001
 20
2.9400003E+002
 70
0
  0
SEQEND
  0
POLYLINE
  8
254
  6
CONTINUOUS
 62
6
 66
1
 40
1.0E-003
 41
1.0E-003
 70
0
  0
VERTEX
  8
254
 42
0.0
 10
6.5500008E+001
 20
2.9150003E+002
 70
0
  0
VERTEX
  8
254
 42
0.0
 10
6.5500008E+001
 20
2.9400003E+002
 70
0
  0
SEQEND
  0
POLYLINE
  8
251
  6
CONTINUOUS
 62
6
 66
1
 40
7.0E-001
 41
7.0E-001
 70
0
  0
VERTEX
  8
251
 42
0.0
 10
1.0650001E+002
 20
5.5
 70
0
  0
VERTEX
  8
251
 42
0.0
 10
1.0650001E+002
 20
1.5
 70
0
  0
SEQEND
  0
POLYLINE
  8
251
  6
CONTINUOUS
 62
6
 66
1
 40
7.0E-001
 41
7.0E-001
 70
0
  0
VERTEX
  8
251
 42
0.0
 10
1.0350001E+002
 20
5.5
 70
0
  0
VERTEX
  8
251
 42
0.0
 10
1.0350001E+002
 20
1.5
 70
0
  0
SEQEND
  0
POLYLINE
  8
251
  6
CONTINUOUS
 62
6
 66
1
 40
7.0E-001
 41
7.0E-001
 70
0
  0
VERTEX
  8
251
 42
0.0
 10
1.0650001E+002
 20
2.9150003E+002
 70
0
  0
VERTEX
  8
251
 42
0.0
 10
1.0650001E+002
 20
2.9550003E+002
 70
0
  0
SEQEND
  0
POLYLINE
  8
251
  6
CONTINUOUS
 62
6
 66
1
 40
7.0E-001
 41
7.0E-001
 70
0
  0
VERTEX
  8
251
 42
0.0
 10
1.0350001E+002
 20
2.9150003E+002
 70
0
  0
VERTEX
  8
251
 42
0.0
 10
1.0350001E+002
 20
2.9550003E+002
 70
0
  0
SEQEND
  0
POLYLINE
  8
254
  6
CONTINUOUS
 62
6
 66
1
 40
1.0E-003
 41
1.0E-003
 70
0
  0
VERTEX
  8
254
 42
0.0
 10
2.05E+002
 20
5.25E+001
 70
0
  0
VERTEX
  8
254
 42
0.0
 10
2.075E+002
 20
5.25E+001
 70
0
  0
SEQEND
  0
POLYLINE
  8
251
  6
CONTINUOUS
 62
6
 66
1
 40
7.0E-001
 41
7.0E-001
 70
0
  0
VERTEX
  8
251
 42
0.0
 10
1.9000008E+001
 20
5.5
 70
0
  0
VERTEX
  8
251
 42
0.0
 10
5.0
 20
5.5
 70
0
  0
SEQEND
  0
POLYLINE
  8
254
  6
CONTINUOUS
 62
4
 66
1
 40
1.0E-003
 41
1.0E-003
 70
0
  0
VERTEX
  8
254
 42
0.0
 10
0.0
 20
0.0
 70
0
  0
VERTEX
  8
254
 42
0.0
 10
2.1E+002
 20
0.0
 70
0
  0
SEQEND
  0
POLYLINE
  8
254
  6
CONTINUOUS
 62
3
 66
1
 40
1.0E-003
 41
1.0E-003
 70
0
  0
VERTEX
  8
254
 42
0.0
 10
1.6487923E+001
 20
2.1167192E+002
 70
0
  0
VERTEX
  8
254
 42
0.0
 10
1.6487923E+001
 20
2.0867195E+002
 70
0
  0
SEQEND
  0
POLYLINE
  8
254
  6
CONTINUOUS
 62
3
 66
1
 40
1.0E-003
 41
1.0E-003
 70
0
  0
VERTEX
  8
254
 42
0.0
 10
1.6487923E+001
 20
2.1167192E+002
 70
0
  0
VERTEX
  8
254
 42
0.0
 10
1.6487923E+001
 20
2.0867195E+002
 70
0
  0
SEQEND
  0
TEXT
  8
254
  6
CONTINUOUS
 62
3
 10
2.065E+002
 20
2.6162503E+002
 40
2.0
  1
A
  0
TEXT
  8
254
  6
CONTINUOUS
 62
3
 10
2.065E+002
 20
2.0187502E+002
 40
2.0
  1
B
  0
TEXT
  8
254
  6
CONTINUOUS
 62
3
 10
2.065E+002
 20
1.42125E+002
 40
2.0
  1
C
  0
TEXT
  8
254
  6
CONTINUOUS
 62
3
 10
2.065E+002
 20
8.2375E+001
 40
2.0
  1
D
  0
TEXT
  8
254
  6
CONTINUOUS
 62
3
 10
1.6509621E+001
 20
2.1872429E+002
 40
2.0
  1
"grob"
 41
6.5E-001
 50
9.0000003E+001
  0
TEXT
  8
254
  6
CONTINUOUS
 62
3
 10
1.6487923E+001
 20
1.9736339E+002
 40
2.0
  1
"mittel"
 41
6.5E-001
 50
9.0000003E+001
  0
TEXT
  8
254
  6
CONTINUOUS
 62
3
 10
5.8622437
 20
1.9528923E+002
 40
2.0
  1
Allgemeintoleranzen nach
 41
8.0E-001
 50
9.0000003E+001
  0
TEXT
  8
254
  6
CONTINUOUS
 62
3
 10
5.8622437
 20
1.2295421E+002
 40
2.0
  1
Rauheits-Symbole nach GZN 020007
 41
8.0E-001
 50
9.0000003E+001
  0
TEXT
  8
254
  6
CONTINUOUS
 62
3
 10
9.8622437
 20
1.2295421E+002
 40
2.0
  1
    entsprechend DIN ISO 1302
 41
8.0E-001
 50
9.0000003E+001
  0
TEXT
  8
254
  6
CONTINUOUS
 62
6
 10
1.306617E+001
 20
1.2349451E+002
 40
2.0
  1
0
 41
5.25E-001
 50
9.0000003E+001
  0
TEXT
  8
254
  6
CONTINUOUS
 62
6
 10
1.306617E+001
 20
1.7212105E+002
 40
2.0
  1
50
 41
6.75E-001
 50
9.0000003E+001
  0
POLYLINE
  8
254
  6
CONTINUOUS
 62
4
 66
1
 40
1.0E-003
 41
1.0E-003
 70
0
  0
VERTEX
  8
254
 42
0.0
 10
0.0
 20
2.9700003E+002
 70
0
  0
VERTEX
  8
254
 42
0.0
 10
0.0
 20
0.0
 70
0
  0
SEQEND
  0
POLYLINE
  8
254
  6
CONTINUOUS
 62
4
 66
1
 40
1.0E-003
 41
1.0E-003
 70
0
  0
VERTEX
  8
254
 42
0.0
 10
0.0
 20
0.0
 70
0
  0
VERTEX
  8
254
 42
0.0
 10
0.0
 20
2.9700003E+002
 70
0
  0
SEQEND
  0
TEXT
  8
254
  6
CONTINUOUS
 62
3
 10
1.7001917E+002
 20
2.8040002E+002
 40
2.0
  1
I
 41
3.17E-001
  0
TEXT
  8
254
  6
CONTINUOUS
 62
3
 10
4.2250008E+001
 20
2.9300003E+002
 40
2.0
  1
1
  0
TEXT
  8
254
  6
CONTINUOUS
 62
3
 10
8.8750008E+001
 20
2.9300003E+002
 40
2.0
  1
2
  0
TEXT
  8
254
  6
CONTINUOUS
 62
3
 10
1.3525E+002
 20
2.9300003E+002
 40
2.0
  1
3
  0
TEXT
  8
254
  6
CONTINUOUS
 62
3
 10
1.8175E+002
 20
2.9300003E+002
 40
2.0
  1
4
  0
TEXT
  8
254
  6
CONTINUOUS
 62
3
 10
3.0841621E+001
 20
2.8556284E+002
 40
2.0
  1
Ein-
 41
7.925E-001
  0
TEXT
  8
254
  6
CONTINUOUS
 62
3
 10
3.0841621E+001
 20
2.8256284E+002
 40
2.0
  1
heit
 41
7.925E-001
  0
TEXT
  8
254
  6
CONTINUOUS
 62
3
 10
3.8324684E+001
 20
2.8350003E+002
 40
2.0
  1
ZC
 41
7.925E-001
  0
TEXT
  8
254
  6
CONTINUOUS
 62
3
 10
1.6235593E+002
 20
2.8350003E+002
 40
2.0
  1
EC
 41
7.925E-001
  0
TEXT
  8
254
  6
CONTINUOUS
 62
3
 10
1.6759302E+002
 20
2.8716838E+002
 40
2.0
  1
Aend.
 41
8.0E-001
  0
TEXT
  8
254
  6
CONTINUOUS
 62
3
 10
1.7796625E+002
 20
2.8715002E+002
 40
2.0
  1
Masse/E
 41
7.925E-001
  0
TEXT
  8
254
  6
CONTINUOUS
 62
3
 10
1.2262052E+002
 20
2.8350003E+002
 40
2.0
  1
Ident-Nummer
 41
7.925E-001
  0
TEXT
  8
254
  6
CONTINUOUS
 62
3
 10
5.6489449E+001
 20
2.8350003E+002
 40
2.0
  1
Text
 41
7.925E-001
  0
TEXT
  8
254
  6
CONTINUOUS
 62
3
 10
4.343354E+001
 20
2.8350003E+002
 40
2.0
  1
Pos.-Nr.
 41
6.0E-001
  0
TEXT
  8
254
  6
CONTINUOUS
 62
3
 10
1.8364273E+002
 20
2.8040002E+002
 40
2.0
  1
II
 41
7.5E-001
  0
TEXT
  8
254
  6
CONTINUOUS
 62
3
 10
1.9726633E+002
 20
2.8350003E+002
 40
2.0
  1
III
 41
7.5E-001
  0
TEXT
  8
254
  6
CONTINUOUS
 62
3
 10
8.58746
 20
8.773347
 40
1.7
  1
Fuer diese Unterlage behalten wir uns alle Rechte, auch fuer den Fall der Patent-
 41
6.8E-001
 50
9.0000003E+001
  0
TEXT
  8
254
  6
CONTINUOUS
 62
3
 10
1.1408791E+001
 20
8.3925096
 40
1.7
  1
erteilung und der Eintragung eines anderen gewerblichen Schutzrechtes, vor.
 41
6.8E-001
 50
9.0000003E+001
  0
TEXT
  8
254
  6
CONTINUOUS
 62
3
 10
1.4298791E+001
 20
8.3925096
 40
1.7
  1
Missbraeuchliche Verwendung, wie insbesondere Vervielfaeltigung und Weitergabe an
 41
6.8E-001
 50
9.0000003E+001
  0
TEXT
  8
254
  6
CONTINUOUS
 62
3
 10
1.7188792E+001
 20
8.3925096
 40
1.7
  1
Dritte ist nicht gestattet: sie kann zivil- und strafrechtlich geahndet werden.
 41
6.8E-001
 50
9.0000003E+001
  0
TEXT
  8
254
  6
CONTINUOUS
 62
3
 10
1.0199852E+001
 20
2.0239064E+002
 40
2.0
  1
ISO 2768
 41
8.0E-001
 50
9.0000003E+001
  0
POLYLINE
  8
251
  6
CONTINUOUS
 62
6
 66
1
 40
7.0E-001
 41
7.0E-001
 70
0
  0
VERTEX
  8
251
 42
0.0
 10
1.8999985E+001
 20
3.1E+001
 70
0
  0
VERTEX
  8
251
 42
0.0
 10
2.05E+002
 20
3.1E+001
 70
0
  0
SEQEND
  0
POLYLINE
  8
251
  6
CONTINUOUS
 62
6
 66
1
 40
7.0E-001
 41
7.0E-001
 70
0
  0
VERTEX
  8
251
 42
0.0
 10
1.8999985E+001
 20
1.4E+001
 70
0
  0
VERTEX
  8
251
 42
0.0
 10
5.85E+001
 20
1.4E+001
 70
0
  0
SEQEND
  0
LINE
  8
251
  6
CONTINUOUS
 62
6
 10
2.4499985E+001
 20
3.1E+001
 11
2.4499985E+001
 21
1.4E+001
  0
TEXT
  8
254
  6
CONTINUOUS
 62
3
 10
2.2718704E+001
 20
1.9207314E+001
 40
2.0
  1
Aend.
 41
5.0E-001
 50
9.0000003E+001
  0
LINE
  8
254
  6
CONTINUOUS
 62
6
 10
2.4499985E+001
 20
2.675E+001
 11
5.85E+001
 21
2.675E+001
  0
POLYLINE
  8
251
  6
CONTINUOUS
 62
6
 66
1
 40
5.0E-001
 41
5.0E-001
 70
0
  0
VERTEX
  8
251
 42
0.0
 10
1.465E+002
 20
2.675E+001
 70
0
  0
VERTEX
  8
251
 42
0.0
 10
2.05E+002
 20
2.675E+001
 70
0
  0
SEQEND
  0
POLYLINE
  8
251
  6
CONTINUOUS
 62
1
 66
1
 40
1.0E-003
 41
1.0E-003
 70
0
  0
VERTEX
  8
251
 42
0.0
 10
1.75E+002
 20
3.1E+001
 70
0
  0
VERTEX
  8
251
 42
0.0
 10
1.75E+002
 20
2.25E+001
 70
0
  0
SEQEND
  0
POLYLINE
  8
251
  6
CONTINUOUS
 62
6
 66
1
 40
7.0E-001
 41
7.0E-001
 70
0
  0
VERTEX
  8
251
 42
0.0
 10
1.465E+002
 20
3.1E+001
 70
0
  0
VERTEX
  8
251
 42
0.0
 10
1.465E+002
 20
5.5
 70
0
  0
SEQEND
  0
POLYLINE
  8
251
  6
CONTINUOUS
 62
6
 66
1
 40
7.0E-001
 41
7.0E-001
 70
0
  0
VERTEX
  8
251
 42
0.0
 10
1.35E+002
 20
3.0795013E+001
 70
0
  0
VERTEX
  8
251
 42
0.0
 10
1.35E+002
 20
1.4E+001
 70
0
  0
SEQEND
  0
POLYLINE
  8
251
  6
CONTINUOUS
 62
6
 66
1
 40
7.0E-001
 41
7.0E-001
 70
0
  0
VERTEX
  8
251
 42
0.0
 10
9.75E+001
 20
3.1E+001
 70
0
  0
VERTEX
  8
251
 42
0.0
 10
9.75E+001
 20
1.4E+001
 70
0
  0
SEQEND
  0
POLYLINE
  8
251
  6
CONTINUOUS
 62
6
 66
1
 40
7.0E-001
 41
7.0E-001
 70
0
  0
VERTEX
  8
251
 42
0.0
 10
5.85E+001
 20
3.1E+001
 70
0
  0
VERTEX
  8
251
 42
0.0
 10
5.85E+001
 20
1.4E+001
 70
0
  0
SEQEND
  0
POLYLINE
  8
251
  6
CONTINUOUS
 62
6
 66
1
 40
5.0E-001
 41
5.0E-001
 70
0
  0
VERTEX
  8
251
 42
0.0
 10
5.85E+001
 20
2.25E+001
 70
0
  0
VERTEX
  8
251
 42
0.0
 10
1.35E+002
 20
2.25E+001
 70
0
  0
SEQEND
  0
POLYLINE
  8
251
  6
CONTINUOUS
 62
6
 66
1
 40
5.0E-001
 41
5.0E-001
 70
0
  0
VERTEX
  8
251
 42
0.0
 10
5.85E+001
 20
1.825E+001
 70
0
  0
VERTEX
  8
251
 42
0.0
 10
1.35E+002
 20
1.825E+001
 70
0
  0
SEQEND
  0
POLYLINE
  8
251
  6
CONTINUOUS
 62
6
 66
1
 40
7.0E-001
 41
7.0E-001
 70
0
  0
VERTEX
  8
251
 42
0.0
 10
5.85E+001
 20
1.4E+001
 70
0
  0
VERTEX
  8
251
 42
0.0
 10
2.05E+002
 20
1.4E+001
 70
0
  0
SEQEND
  0
POLYLINE
  8
251
  6
CONTINUOUS
 62
6
 66
1
 40
7.0E-001
 41
7.0E-001
 70
0
  0
VERTEX
  8
251
 42
0.0
 10
1.35E+002
 20
2.25E+001
 70
0
  0
VERTEX
  8
251
 42
0.0
 10
2.05E+002
 20
2.25E+001
 70
0
  0
SEQEND
  0
POLYLINE
  8
251
  6
CONTINUOUS
 62
6
 66
1
 40
7.0E-001
 41
7.0E-001
 70
0
  0
VERTEX
  8
251
 42
0.0
 10
1.58E+002
 20
2.25E+001
 70
0
  0
VERTEX
  8
251
 42
0.0
 10
1.58E+002
 20
1.4E+001
 70
0
  0
SEQEND
  0
POLYLINE
  8
251
  6
CONTINUOUS
 62
110
 66
1
 40
7.0E-001
 41
7.0E-001
 70
0
  0
VERTEX
  8
251
 42
0.0
 10
1.68E+002
 20
2.25E+001
 70
0
  0
VERTEX
  8
251
 42
0.0
 10
1.68E+002
 20
1.4E+001
 70
0
  0
SEQEND
  0
POLYLINE
  8
251
  6
CONTINUOUS
 62
110
 66
1
 40
7.0E-001
 41
7.0E-001
 70
0
  0
VERTEX
  8
251
 42
0.0
 10
1.795E+002
 20
2.25E+001
 70
0
  0
VERTEX
  8
251
 42
0.0
 10
1.795E+002
 20
1.4E+001
 70
0
  0
SEQEND
  0
POLYLINE
  8
251
  6
CONTINUOUS
 62
110
 66
1
 40
7.0E-001
 41
7.0E-001
 70
0
  0
VERTEX
  8
251
 42
0.0
 10
1.915E+002
 20
2.25E+001
 70
0
  0
VERTEX
  8
251
 42
0.0
 10
1.915E+002
 20
1.4E+001
 70
0
  0
SEQEND
  0
LINE
  8
254
  6
HIDDEN
 62
6
 10
1.465E+002
 20
7.0
 11
2.05E+002
 21
7.0
  0
LINE
  8
254
  6
CONTINUOUS
 62
6
 10
2.4499985E+001
 20
2.25E+001
 11
5.85E+001
 21
2.25E+001
  0
LINE
  8
254
  6
CONTINUOUS
 62
6
 10
2.4499985E+001
 20
1.825E+001
 11
5.85E+001
 21
1.825E+001
  0
POLYLINE
  8
251
  6
CONTINUOUS
 62
6
 66
1
 40
5.0E-001
 41
5.0E-001
 70
0
  0
VERTEX
  8
251
 42
0.0
 10
5.85E+001
 20
2.675E+001
 70
0
  0
VERTEX
  8
251
 42
0.0
 10
1.35E+002
 20
2.675E+001
 70
0
  0
SEQEND
  0
POLYLINE
  8
251
  6
CONTINUOUS
 62
6
 66
1
 40
7.0E-001
 41
7.0E-001
 70
0
  0
VERTEX
  8
251
 42
0.0
 10
3.3999985E+001
 20
1.4E+001
 70
0
  0
VERTEX
  8
251
 42
0.0
 10
3.3999985E+001
 20
5.5
 70
0
  0
SEQEND
  0
POLYLINE
  8
254
  6
HIDDEN
 62
3
 66
1
 40
1.0E-003
 41
1.0E-003
 70
0
  0
VERTEX
  8
254
 42
0.0
 10
1.5225E+002
 20
1.825E+001
 70
0
  0
VERTEX
  8
254
 42
0.0
 10
1.5225E+002
 20
1.4E+001
 70
0
  0
SEQEND
  0
POLYLINE
  8
254
  6
HIDDEN
 62
3
 66
1
 40
1.0E-003
 41
1.0E-003
 70
0
  0
VERTEX
  8
254
 42
0.0
 10
1.63E+002
 20
1.825E+001
 70
0
  0
VERTEX
  8
254
 42
0.0
 10
1.63E+002
 20
1.4E+001
 70
0
  0
SEQEND
  0
POLYLINE
  8
254
  6
CONTINUOUS
 62
3
 66
1
 40
1.0E-003
 41
1.0E-003
 70
0
  0
VERTEX
  8
254
 42
0.0
 10
1.7079001E+002
 20
2.7410446E+001
 70
0
  0
VERTEX
  8
254
 42
0.0
 10
1.7079001E+002
 20
3.0034676E+001
 70
0
  0
SEQEND
  0
POLYLINE
  8
254
  6
CONTINUOUS
 62
3
 66
1
 40
1.0E-003
 41
1.0E-003
 70
0
  0
VERTEX
  8
254
 42
0.0
 10
1.7079001E+002
 20
3.0034676E+001
 70
0
  0
VERTEX
  8
254
 42
0.0
 10
1.7397659E+002
 20
3.0034676E+001
 70
0
  0
SEQEND
  0
POLYLINE
  8
254
  6
CONTINUOUS
 62
3
 66
1
 40
1.0E-003
 41
1.0E-003
 70
0
  0
VERTEX
  8
254
 42
0.0
 10
1.7397659E+002
 20
3.0034676E+001
 70
0
  0
VERTEX
  8
254
 42
0.0
 10
1.7397659E+002
 20
2.7410446E+001
 70
0
  0
SEQEND
  0
POLYLINE
  8
254
  6
CONTINUOUS
 62
3
 66
1
 40
1.0E-003
 41
1.0E-003
 70
0
  0
VERTEX
  8
254
 42
0.0
 10
1.7397659E+002
 20
2.7410446E+001
 70
0
  0
VERTEX
  8
254
 42
0.0
 10
1.7079001E+002
 20
2.7410446E+001
 70
0
  0
SEQEND
  0
POLYLINE
  8
254
  6
CONTINUOUS
 62
3
 66
1
 40
1.0E-003
 41
1.0E-003
 70
0
  0
VERTEX
  8
254
 42
0.0
 10
2.0079001E+002
 20
2.7410446E+001
 70
0
  0
VERTEX
  8
254
 42
0.0
 10
2.0079001E+002
 20
3.0034676E+001
 70
0
  0
SEQEND
  0
POLYLINE
  8
254
  6
CONTINUOUS
 62
3
 66
1
 40
1.0E-003
 41
1.0E-003
 70
0
  0
VERTEX
  8
254
 42
0.0
 10
2.0079001E+002
 20
3.0034676E+001
 70
0
  0
VERTEX
  8
254
 42
0.0
 10
2.0397659E+002
 20
3.0034676E+001
 70
0
  0
SEQEND
  0
POLYLINE
  8
254
  6
CONTINUOUS
 62
3
 66
1
 40
1.0E-003
 41
1.0E-003
 70
0
  0
VERTEX
  8
254
 42
0.0
 10
2.0397659E+002
 20
3.0034676E+001
 70
0
  0
VERTEX
  8
254
 42
0.0
 10
2.0397659E+002
 20
2.7410446E+001
 70
0
  0
SEQEND
  0
POLYLINE
  8
254
  6
CONTINUOUS
 62
3
 66
1
 40
1.0E-003
 41
1.0E-003
 70
0
  0
VERTEX
  8
254
 42
0.0
 10
2.0397659E+002
 20
2.7410446E+001
 70
0
  0
VERTEX
  8
254
 42
0.0
 10
2.0079001E+002
 20
2.7410446E+001
 70
0
  0
SEQEND
  0
POLYLINE
  8
254
  6
CONTINUOUS
 62
3
 66
1
 40
1.0E-003
 41
1.0E-003
 70
0
  0
VERTEX
  8
254
 42
0.0
 10
1.7079001E+002
 20
2.3160446E+001
 70
0
  0
VERTEX
  8
254
 42
0.0
 10
1.7079001E+002
 20
2.5784676E+001
 70
0
  0
SEQEND
  0
POLYLINE
  8
254
  6
CONTINUOUS
 62
3
 66
1
 40
1.0E-003
 41
1.0E-003
 70
0
  0
VERTEX
  8
254
 42
0.0
 10
1.7079001E+002
 20
2.5784676E+001
 70
0
  0
VERTEX
  8
254
 42
0.0
 10
1.7397659E+002
 20
2.5784676E+001
 70
0
  0
SEQEND
  0
POLYLINE
  8
254
  6
CONTINUOUS
 62
3
 66
1
 40
1.0E-003
 41
1.0E-003
 70
0
  0
VERTEX
  8
254
 42
0.0
 10
1.7397659E+002
 20
2.5784676E+001
 70
0
  0
VERTEX
  8
254
 42
0.0
 10
1.7397659E+002
 20
2.3160446E+001
 70
0
  0
SEQEND
  0
POLYLINE
  8
254
  6
CONTINUOUS
 62
3
 66
1
 40
1.0E-003
 41
1.0E-003
 70
0
  0
VERTEX
  8
254
 42
0.0
 10
1.7397659E+002
 20
2.3160446E+001
 70
0
  0
VERTEX
  8
254
 42
0.0
 10
1.7079001E+002
 20
2.3160446E+001
 70
0
  0
SEQEND
  0
LINE
  8
254
  6
CONTINUOUS
 62
6
 10
3.1499985E+001
 20
3.1E+001
 11
3.1499985E+001
 21
1.4E+001
  0
POLYLINE
  8
254
  6
CONTINUOUS
 62
3
 66
1
 40
1.0E-003
 41
1.0E-003
 70
0
  0
VERTEX
  8
254
 42
0.0
 10
1.3877496E+002
 20
2.025E+001
 70
0
  0
VERTEX
  8
254
 42
0.0
 10
1.3877496E+002
 20
1.625E+001
 70
0
  0
SEQEND
  0
POLYLINE
  8
254
  6
CONTINUOUS
 62
3
 66
1
 40
1.0E-003
 41
1.0E-003
 70
0
  0
VERTEX
  8
254
 42
0.0
 10
1.3601489E+002
 20
1.925E+001
 70
0
  0
VERTEX
  8
254
 42
0.0
 10
1.3601489E+002
 20
1.725E+001
 70
0
  0
SEQEND
  0
POLYLINE
  8
254
  6
CONTINUOUS
 62
3
 66
1
 40
1.0E-003
 41
1.0E-003
 70
0
  0
VERTEX
  8
254
 42
0.0
 10
1.3601489E+002
 20
1.925E+001
 70
0
  0
VERTEX
  8
254
 42
0.0
 10
1.3877496E+002
 20
2.025E+001
 70
0
  0
SEQEND
  0
POLYLINE
  8
254
  6
CONTINUOUS
 62
3
 66
1
 40
1.0E-003
 41
1.0E-003
 70
0
  0
VERTEX
  8
254
 42
0.0
 10
1.3601489E+002
 20
1.725E+001
 70
0
  0
VERTEX
  8
254
 42
0.0
 10
1.3877496E+002
 20
1.625E+001
 70
0
  0
SEQEND
  0
POLYLINE
  8
254
  6
HIDDEN
 62
3
 66
1
 40
1.0E-003
 41
1.0E-003
 70
0
  0
VERTEX
  8
254
 42
0.0
 10
1.4252081E+002
 20
2.0649994E+001
 70
0
  0
VERTEX
  8
254
 42
0.0
 10
1.4252081E+002
 20
1.5849998E+001
 70
0
  0
SEQEND
  0
POLYLINE
  8
254
  6
HIDDEN
 62
3
 66
1
 40
1.0E-003
 41
1.0E-003
 70
0
  0
VERTEX
  8
254
 42
0.0
 10
1.4492081E+002
 20
1.825E+001
 70
0
  0
VERTEX
  8
254
 42
0.0
 10
1.3581775E+002
 20
1.825E+001
 70
0
  0
SEQEND
  0
TEXT
  8
254
  6
CONTINUOUS
 62
3
 10
5.9224213E+001
 20
2.3520981E+001
 40
2.0
  1
Ersatz fuer:
 41
6.0E-001
  0
TEXT
  8
254
  6
CONTINUOUS
 62
3
 10
5.9224213E+001
 20
1.9296745E+001
 40
2.0
  1
Ers. durch:
 41
6.5308091E-001
  0
TEXT
  8
254
  6
CONTINUOUS
 62
3
 10
5.9096191E+001
 20
1.4944511E+001
 40
2.0
  1
Zust. Stelle:
 41
6.3073385E-001
  0
TEXT
  8
254
  6
CONTINUOUS
 62
3
 10
9.8266327E+001
 20
2.7745209E+001
 40
2.0
  1
Ausgest.:
 41
6.0E-001
  0
TEXT
  8
254
  6
CONTINUOUS
 62
3
 10
9.8138336E+001
 20
2.3648987E+001
 40
2.0
  1
Geprueft:
 41
6.0E-001
  0
TEXT
  8
254
  6
CONTINUOUS
 62
3
 10
9.8138336E+001
 20
1.9424751E+001
 40
2.0
  1
Normgepr.:
 41
6.0E-001
  0
TEXT
  8
254
  6
CONTINUOUS
 62
3
 10
9.8138336E+001
 20
1.5072517E+001
 40
2.0
  1
Freigeg.:
 41
6.0E-001
  0
TEXT
  8
254
  6
CONTINUOUS
 62
3
 10
3.4718704E+001
 20
1.0957314E+001
 40
2.0
  1
Titel:
 41
5.9703E-001
  0
TEXT
  8
254
  6
CONTINUOUS
 62
3
 10
1.3619501E+002
 20
2.7965616E+001
 40
2.0
  1
Massstab
 41
6.0E-001
  0
TEXT
  8
254
  6
CONTINUOUS
 62
3
 10
1.7571872E+002
 20
2.7957314E+001
 40
2.0
  1
Sep.SL anderer Nr.
 41
6.0E-001
  0
TEXT
  8
254
  6
CONTINUOUS
 62
3
 10
1.4721872E+002
 20
1.9457314E+001
 40
2.0
  1
Dok.-Art
 41
6.0E-001
  0
TEXT
  8
254
  6
CONTINUOUS
 62
3
 10
1.5971872E+002
 20
1.9457314E+001
 40
2.0
  1
Format
 41
6.0E-001
  0
TEXT
  8
254
  6
CONTINUOUS
 62
3
 10
1.6971872E+002
 20
1.9457314E+001
 40
2.0
  1
Sprache
 41
6.0E-001
  0
TEXT
  8
254
  6
CONTINUOUS
 62
3
 10
1.8171872E+002
 20
1.9457314E+001
 40
2.0
  1
Bl. Nr.
 41
6.0E-001
  0
TEXT
  8
254
  6
CONTINUOUS
 62
3
 10
1.9221872E+002
 20
1.9457314E+001
 40
2.0
  1
Anz. Bl.
 41
6.0E-001
  0
TEXT
  8
254
  6
CONTINUOUS
 62
3
 10
1.4721872E+002
 20
2.7957314E+001
 40
2.0
  1
Sep.SL gleicher Nr.
 41
6.0E-001
  0
TEXT
  8
254
  6
CONTINUOUS
 62
3
 10
1.472323E+002
 20
2.3457428E+001
 40
2.0
  1
O
 41
6.3E-001
  0
TEXT
  8
254
  6
CONTINUOUS
 62
3
 10
1.486723E+002
 20
2.3457428E+001
 40
2.0
  1
hne sep. Stckl.:
 41
6.3727875E-001
  0
TEXT
  8
254
  6
CONTINUOUS
 62
6
 10
1.7570981E+002
 20
2.3817909E+001
 40
2.0
  1
 
 41
8.1E-001
  0
TEXT
  8
254
  6
CONTINUOUS
 62
3
 10
1.7603071E+002
 20
2.3683216E+001
 40
2.0
  1
Uebern. Stelle:
 41
6.0127615E-001
  0
TEXT
  8
253
  6
CONTINUOUS
 62
3
 10
1.595E+002
 20
1.5E+001
 40
2.5
  1
A
  0
TEXT
  8
253
  6
CONTINUOUS
 62
3
 10
1.645E+002
 20
1.5E+001
 40
2.5
  1
4
  0
TEXT
  8
253
  6
CONTINUOUS
 62
3
 10
1.7312595E+002
 20
1.5027565E+001
 40
2.5
  1
D
  0
TEXT
  8
253
  6
CONTINUOUS
 62
3
 10
1.8441553E+002
 20
1.5027565E+001
 40
2.5
  1
1
  0
TEXT
  8
253
  6
CONTINUOUS
 62
3
 10
1.9647238E+002
 20
1.5027565E+001
 40
2.5
  1
1
  0
TEXT
  8
254
  6
CONTINUOUS
 62
3
 10
5.9352203E+001
 20
2.7617203E+001
 40
2.0
  1
E
 41
6.3E-001
  0
TEXT
  8
254
  6
CONTINUOUS
 62
3
 10
6.0612213E+001
 20
2.7617203E+001
 40
2.0
  1
ntst. aus:
 41
6.09444E-001
  0
POLYLINE
  8
253
  6
CONTINUOUS
 62
3
 66
1
 40
1.0E-003
 41
1.0E-003
 70
0
  0
VERTEX
  8
253
 42
0.0
 10
2.0301865E+001
 20
7.3082472
 70
0
  0
VERTEX
  8
253
 42
0.0
 10
2.1426865E+001
 20
7.3082472
 70
0
  0
SEQEND
  0
POLYLINE
  8
253
  6
CONTINUOUS
 62
3
 66
1
 40
1.0E-003
 41
1.0E-003
 70
0
  0
VERTEX
  8
253
 42
0.0
 10
2.1426865E+001
 20
7.3082472
 70
0
  0
VERTEX
  8
253
 42
0.0
 10
2.1741867E+001
 20
8.2082449
 70
0
  0
SEQEND
  0
POLYLINE
  8
253
  6
CONTINUOUS
 62
3
 66
1
 40
1.0E-003
 41
1.0E-003
 70
0
  0
VERTEX
  8
253
 42
0.0
 10
2.1741867E+001
 20
8.2082449
 70
0
  0
VERTEX
  8
253
 42
0.0
 10
2.2356873E+001
 20
8.2082449
 70
0
  0
SEQEND
  0
POLYLINE
  8
253
  6
CONTINUOUS
 62
3
 66
1
 40
1.0E-003
 41
1.0E-003
 70
0
  0
VERTEX
  8
253
 42
0.0
 10
2.2356873E+001
 20
8.2082449
 70
0
  0
VERTEX
  8
253
 42
0.0
 10
2.2356873E+001
 20
9.3632456
 70
0
  0
SEQEND
  0
POLYLINE
  8
253
  6
CONTINUOUS
 62
3
 66
1
 40
1.0E-003
 41
1.0E-003
 70
0
  0
VERTEX
  8
253
 42
0.0
 10
2.2356873E+001
 20
9.3632456
 70
0
  0
VERTEX
  8
253
 42
0.0
 10
2.1073608E+001
 20
9.3632456
 70
0
  0
SEQEND
  0
POLYLINE
  8
253
  6
CONTINUOUS
 62
3
 66
1
 40
1.0E-003
 41
1.0E-003
 70
0
  0
VERTEX
  8
253
 42
0.0
 10
2.1073608E+001
 20
9.3632456
 70
0
  0
VERTEX
  8
253
 42
0.0
 10
2.0301865E+001
 20
7.3082472
 70
0
  0
SEQEND
  0
POLYLINE
  8
253
  6
CONTINUOUS
 62
3
 66
1
 40
1.0E-003
 41
1.0E-003
 70
0
  0
VERTEX
  8
253
 42
0.0
 10
2.4801865E+001
 20
7.3082472
 70
0
  0
VERTEX
  8
253
 42
0.0
 10
2.3676865E+001
 20
7.3082472
 70
0
  0
SEQEND
  0
POLYLINE
  8
253
  6
CONTINUOUS
 62
3
 66
1
 40
1.0E-003
 41
1.0E-003
 70
0
  0
VERTEX
  8
253
 42
0.0
 10
2.3676865E+001
 20
7.3082472
 70
0
  0
VERTEX
  8
253
 42
0.0
 10
2.3361862E+001
 20
8.2082449
 70
0
  0
SEQEND
  0
POLYLINE
  8
253
  6
CONTINUOUS
 62
3
 66
1
 40
1.0E-003
 41
1.0E-003
 70
0
  0
VERTEX
  8
253
 42
0.0
 10
2.3361862E+001
 20
8.2082449
 70
0
  0
VERTEX
  8
253
 42
0.0
 10
2.2746872E+001
 20
8.2082449
 70
0
  0
SEQEND
  0
POLYLINE
  8
253
  6
CONTINUOUS
 62
3
 66
1
 40
1.0E-003
 41
1.0E-003
 70
0
  0
VERTEX
  8
253
 42
0.0
 10
2.2746872E+001
 20
8.2082449
 70
0
  0
VERTEX
  8
253
 42
0.0
 10
2.2746872E+001
 20
9.3632456
 70
0
  0
SEQEND
  0
POLYLINE
  8
253
  6
CONTINUOUS
 62
3
 66
1
 40
1.0E-003
 41
1.0E-003
 70
0
  0
VERTEX
  8
253
 42
0.0
 10
2.2746872E+001
 20
9.3632456
 70
0
  0
VERTEX
  8
253
 42
0.0
 10
2.4030121E+001
 20
9.3632456
 70
0
  0
SEQEND
  0
POLYLINE
  8
253
  6
CONTINUOUS
 62
3
 66
1
 40
1.0E-003
 41
1.0E-003
 70
0
  0
VERTEX
  8
253
 42
0.0
 10
2.4030121E+001
 20
9.3632456
 70
0
  0
VERTEX
  8
253
 42
0.0
 10
2.4801865E+001
 20
7.3082472
 70
0
  0
SEQEND
  0
POLYLINE
  8
253
  6
CONTINUOUS
 62
3
 66
1
 40
1.0E-003
 41
1.0E-003
 70
0
  0
VERTEX
  8
253
 42
0.0
 10
2.2356873E+001
 20
9.753245
 70
0
  0
VERTEX
  8
253
 42
0.0
 10
2.1105118E+001
 20
9.753245
 70
0
  0
SEQEND
  0
POLYLINE
  8
253
  6
CONTINUOUS
 62
3
 66
1
 40
1.0E-003
 41
1.0E-003
 70
0
  0
VERTEX
  8
253
 42
0.0
 10
2.2356873E+001
 20
1.1808243E+001
 70
0
  0
VERTEX
  8
253
 42
0.0
 10
2.2356873E+001
 20
9.753245
 70
0
  0
SEQEND
  0
POLYLINE
  8
253
  6
CONTINUOUS
 62
3
 66
1
 40
1.0E-003
 41
1.0E-003
 70
0
  0
VERTEX
  8
253
 42
0.0
 10
2.2356873E+001
 20
1.1808243E+001
 70
0
  0
VERTEX
  8
253
 42
0.0
 10
2.1876862E+001
 20
1.1808243E+001
 70
0
  0
SEQEND
  0
POLYLINE
  8
253
  6
CONTINUOUS
 62
3
 66
1
 40
1.0E-003
 41
1.0E-003
 70
0
  0
VERTEX
  8
253
 42
0.0
 10
2.1876862E+001
 20
1.1808243E+001
 70
0
  0
VERTEX
  8
253
 42
0.0
 10
2.1105118E+001
 20
9.753245
 70
0
  0
SEQEND
  0
POLYLINE
  8
253
  6
CONTINUOUS
 62
3
 66
1
 40
1.0E-003
 41
1.0E-003
 70
0
  0
VERTEX
  8
253
 42
0.0
 10
2.2746872E+001
 20
9.753245
 70
0
  0
VERTEX
  8
253
 42
0.0
 10
2.3998611E+001
 20
9.753245
 70
0
  0
SEQEND
  0
POLYLINE
  8
253
  6
CONTINUOUS
 62
3
 66
1
 40
1.0E-003
 41
1.0E-003
 70
0
  0
VERTEX
  8
253
 42
0.0
 10
2.2746872E+001
 20
1.1808243E+001
 70
0
  0
VERTEX
  8
253
 42
0.0
 10
2.2746872E+001
 20
9.753245
 70
0
  0
SEQEND
  0
POLYLINE
  8
253
  6
CONTINUOUS
 62
3
 66
1
 40
1.0E-003
 41
1.0E-003
 70
0
  0
VERTEX
  8
253
 42
0.0
 10
2.2746872E+001
 20
1.1808243E+001
 70
0
  0
VERTEX
  8
253
 42
0.0
 10
2.3226868E+001
 20
1.1808243E+001
 70
0
  0
SEQEND
  0
POLYLINE
  8
253
  6
CONTINUOUS
 62
3
 66
1
 40
1.0E-003
 41
1.0E-003
 70
0
  0
VERTEX
  8
253
 42
0.0
 10
2.3226868E+001
 20
1.1808243E+001
 70
0
  0
VERTEX
  8
253
 42
0.0
 10
2.3998611E+001
 20
9.753245
 70
0
  0
SEQEND
  0
POLYLINE
  8
253
  6
CONTINUOUS
 62
3
 66
1
 40
1.0E-003
 41
1.0E-003
 70
0
  0
VERTEX
  8
253
 42
0.0
 10
2.5116867E+001
 20
9.3632456
 70
0
  0
VERTEX
  8
253
 42
0.0
 10
2.5116867E+001
 20
7.3082472
 70
0
  0
SEQEND
  0
POLYLINE
  8
253
  6
CONTINUOUS
 62
3
 66
1
 40
1.0E-003
 41
1.0E-003
 70
0
  0
VERTEX
  8
253
 42
0.0
 10
2.5116867E+001
 20
7.3082472
 70
0
  0
VERTEX
  8
253
 42
0.0
 10
2.6271881E+001
 20
7.3082472
 70
0
  0
SEQEND
  0
POLYLINE
  8
253
  6
CONTINUOUS
 62
3
 66
1
 40
1.0E-003
 41
1.0E-003
 70
0
  0
VERTEX
  8
253
 42
0.0
 10
2.6271881E+001
 20
9.3632456
 70
0
  0
VERTEX
  8
253
 42
0.0
 10
2.6271881E+001
 20
7.3082472
 70
0
  0
SEQEND
  0
POLYLINE
  8
253
  6
CONTINUOUS
 62
3
 66
1
 40
1.0E-003
 41
1.0E-003
 70
0
  0
VERTEX
  8
253
 42
0.0
 10
2.5116867E+001
 20
9.3632456
 70
0
  0
VERTEX
  8
253
 42
0.0
 10
2.6271881E+001
 20
9.3632456
 70
0
  0
SEQEND
  0
POLYLINE
  8
253
  6
CONTINUOUS
 62
3
 66
1
 40
1.0E-003
 41
1.0E-003
 70
0
  0
VERTEX
  8
253
 42
0.0
 10
2.5116867E+001
 20
9.753245
 70
0
  0
VERTEX
  8
253
 42
0.0
 10
2.6271881E+001
 20
9.753245
 70
0
  0
SEQEND
  0
POLYLINE
  8
253
  6
CONTINUOUS
 62
3
 66
1
 40
1.0E-003
 41
1.0E-003
 70
0
  0
VERTEX
  8
253
 42
0.0
 10
2.5116867E+001
 20
1.1808243E+001
 70
0
  0
VERTEX
  8
253
 42
0.0
 10
2.5116867E+001
 20
9.753245
 70
0
  0
SEQEND
  0
POLYLINE
  8
253
  6
CONTINUOUS
 62
3
 66
1
 40
1.0E-003
 41
1.0E-003
 70
0
  0
VERTEX
  8
253
 42
0.0
 10
2.5116867E+001
 20
1.1808243E+001
 70
0
  0
VERTEX
  8
253
 42
0.0
 10
2.6271881E+001
 20
1.1808243E+001
 70
0
  0
SEQEND
  0
POLYLINE
  8
253
  6
CONTINUOUS
 62
3
 66
1
 40
1.0E-003
 41
1.0E-003
 70
0
  0
VERTEX
  8
253
 42
0.0
 10
2.6271881E+001
 20
1.1808243E+001
 70
0
  0
VERTEX
  8
253
 42
0.0
 10
2.6271881E+001
 20
9.753245
 70
0
  0
SEQEND
  0
POLYLINE
  8
253
  6
CONTINUOUS
 62
3
 66
1
 40
1.0E-003
 41
1.0E-003
 70
0
  0
VERTEX
  8
253
 42
0.0
 10
2.6661865E+001
 20
9.3632456
 70
0
  0
VERTEX
  8
253
 42
0.0
 10
2.6661865E+001
 20
7.3082472
 70
0
  0
SEQEND
  0
POLYLINE
  8
253
  6
CONTINUOUS
 62
3
 66
1
 40
1.0E-003
 41
1.0E-003
 70
0
  0
VERTEX
  8
253
 42
0.0
 10
2.6661865E+001
 20
7.3082472
 70
0
  0
VERTEX
  8
253
 42
0.0
 10
2.691687E+001
 20
7.3082472
 70
0
  0
SEQEND
  0
POLYLINE
  8
253
  6
CONTINUOUS
 62
3
 66
1
 40
1.0E-003
 41
1.0E-003
 70
0
  0
VERTEX
  8
253
 42
0.0
 10
2.6661865E+001
 20
9.3632456
 70
0
  0
VERTEX
  8
253
 42
0.0
 10
2.8068161E+001
 20
9.3632456
 70
0
  0
SEQEND
  0
POLYLINE
  8
253
  6
CONTINUOUS
 62
3
 66
1
 40
1.0E-003
 41
1.0E-003
 70
0
  0
VERTEX
  8
253
 42
0.0
 10
2.6661865E+001
 20
1.1808243E+001
 70
0
  0
VERTEX
  8
253
 42
0.0
 10
2.6661865E+001
 20
9.753245
 70
0
  0
SEQEND
  0
POLYLINE
  8
253
  6
CONTINUOUS
 62
3
 66
1
 40
1.0E-003
 41
1.0E-003
 70
0
  0
VERTEX
  8
253
 42
0.0
 10
2.6661865E+001
 20
9.753245
 70
0
  0
VERTEX
  8
253
 42
0.0
 10
2.7706482E+001
 20
9.753245
 70
0
  0
SEQEND
  0
POLYLINE
  8
253
  6
CONTINUOUS
 62
3
 66
1
 40
1.0E-003
 41
1.0E-003
 70
0
  0
VERTEX
  8
253
 42
0.0
 10
2.6661865E+001
 20
1.1808243E+001
 70
0
  0
VERTEX
  8
253
 42
0.0
 10
2.691687E+001
 20
1.1808243E+001
 70
0
  0
SEQEND
  0
POLYLINE
  8
253
  6
CONTINUOUS
 62
3
 66
1
 40
1.0E-003
 41
1.0E-003
 70
0
  0
VERTEX
  8
253
 42
0.0
 10
2.8626862E+001
 20
9.3632456
 70
0
  0
VERTEX
  8
253
 42
0.0
 10
2.8626862E+001
 20
7.3082472
 70
0
  0
SEQEND
  0
POLYLINE
  8
253
  6
CONTINUOUS
 62
3
 66
1
 40
1.0E-003
 41
1.0E-003
 70
0
  0
VERTEX
  8
253
 42
0.0
 10
2.8626862E+001
 20
7.3082472
 70
0
  0
VERTEX
  8
253
 42
0.0
 10
2.9781876E+001
 20
7.3082472
 70
0
  0
SEQEND
  0
POLYLINE
  8
253
  6
CONTINUOUS
 62
3
 66
1
 40
1.0E-003
 41
1.0E-003
 70
0
  0
VERTEX
  8
253
 42
0.0
 10
2.9781876E+001
 20
9.3632456
 70
0
  0
VERTEX
  8
253
 42
0.0
 10
2.9781876E+001
 20
7.3082472
 70
0
  0
SEQEND
  0
POLYLINE
  8
253
  6
CONTINUOUS
 62
3
 66
1
 40
1.0E-003
 41
1.0E-003
 70
0
  0
VERTEX
  8
253
 42
0.0
 10
2.8626862E+001
 20
9.3632456
 70
0
  0
VERTEX
  8
253
 42
0.0
 10
2.9781876E+001
 20
9.3632456
 70
0
  0
SEQEND
  0
POLYLINE
  8
253
  6
CONTINUOUS
 62
3
 66
1
 40
1.0E-003
 41
1.0E-003
 70
0
  0
VERTEX
  8
253
 42
0.0
 10
2.8626862E+001
 20
1.1808243E+001
 70
0
  0
VERTEX
  8
253
 42
0.0
 10
2.8626862E+001
 20
9.753245
 70
0
  0
SEQEND
  0
POLYLINE
  8
253
  6
CONTINUOUS
 62
3
 66
1
 40
1.0E-003
 41
1.0E-003
 70
0
  0
VERTEX
  8
253
 42
0.0
 10
2.8626862E+001
 20
9.753245
 70
0
  0
VERTEX
  8
253
 42
0.0
 10
2.9781876E+001
 20
9.753245
 70
0
  0
SEQEND
  0
POLYLINE
  8
253
  6
CONTINUOUS
 62
3
 66
1
 40
1.0E-003
 41
1.0E-003
 70
0
  0
VERTEX
  8
253
 42
0.0
 10
2.9781876E+001
 20
1.1808243E+001
 70
0
  0
VERTEX
  8
253
 42
0.0
 10
2.9781876E+001
 20
9.753245
 70
0
  0
SEQEND
  0
POLYLINE
  8
253
  6
CONTINUOUS
 62
3
 66
1
 40
1.0E-003
 41
1.0E-003
 70
0
  0
VERTEX
  8
253
 42
0.0
 10
2.8626862E+001
 20
1.1808243E+001
 70
0
  0
VERTEX
  8
253
 42
0.0
 10
2.9781876E+001
 20
1.1808243E+001
 70
0
  0
SEQEND
  0
POLYLINE
  8
253
  6
CONTINUOUS
 62
3
 66
1
 40
1.0E-003
 41
1.0E-003
 70
0
  0
VERTEX
  8
253
 42
0.0
 10
3.017186E+001
 20
9.3632456
 70
0
  0
VERTEX
  8
253
 42
0.0
 10
3.017186E+001
 20
7.3082472
 70
0
  0
SEQEND
  0
POLYLINE
  8
253
  6
CONTINUOUS
 62
3
 66
1
 40
1.0E-003
 41
1.0E-003
 70
0
  0
VERTEX
  8
253
 42
0.0
 10
3.017186E+001
 20
7.3082472
 70
0
  0
VERTEX
  8
253
 42
0.0
 10
3.0426865E+001
 20
7.3082472
 70
0
  0
SEQEND
  0
POLYLINE
  8
253
  6
CONTINUOUS
 62
3
 66
1
 40
1.0E-003
 41
1.0E-003
 70
0
  0
VERTEX
  8
253
 42
0.0
 10
3.017186E+001
 20
9.3632456
 70
0
  0
VERTEX
  8
253
 42
0.0
 10
3.1578156E+001
 20
9.3632456
 70
0
  0
SEQEND
  0
POLYLINE
  8
253
  6
CONTINUOUS
 62
3
 66
1
 40
1.0E-003
 41
1.0E-003
 70
0
  0
VERTEX
  8
253
 42
0.0
 10
3.017186E+001
 20
1.1808243E+001
 70
0
  0
VERTEX
  8
253
 42
0.0
 10
3.017186E+001
 20
9.753245
 70
0
  0
SEQEND
  0
POLYLINE
  8
253
  6
CONTINUOUS
 62
3
 66
1
 40
1.0E-003
 41
1.0E-003
 70
0
  0
VERTEX
  8
253
 42
0.0
 10
3.017186E+001
 20
9.753245
 70
0
  0
VERTEX
  8
253
 42
0.0
 10
3.1216476E+001
 20
9.753245
 70
0
  0
SEQEND
  0
POLYLINE
  8
253
  6
CONTINUOUS
 62
3
 66
1
 40
1.0E-003
 41
1.0E-003
 70
0
  0
VERTEX
  8
253
 42
0.0
 10
3.017186E+001
 20
1.1808243E+001
 70
0
  0
VERTEX
  8
253
 42
0.0
 10
3.0426865E+001
 20
1.1808243E+001
 70
0
  0
SEQEND
  0
INSERT
  2
XHXH1NEW02NEW00NEW00
  8
254
 10
2.1933228E+001
 20
1.1581771E+001
  0
POLYLINE
  8
254
  6
CONTINUOUS
 62
3
 66
1
 40
1.0E-003
 41
1.0E-003
 70
0
  0
VERTEX
  8
254
 42
1.0
 10
1.4452078E+002
 20
1.825E+001
 70
0
  0
VERTEX
  8
254
 42
1.0
 10
1.4052078E+002
 20
1.825E+001
 70
0
  0
VERTEX
  8
254
 42
0.0
 10
1.4452078E+002
 20
1.825E+001
 70
0
  0
SEQEND
  0
POLYLINE
  8
254
  6
CONTINUOUS
 62
3
 66
1
 40
1.0E-003
 41
1.0E-003
 70
0
  0
VERTEX
  8
254
 42
1.0
 10
1.4352078E+002
 20
1.825E+001
 70
0
  0
VERTEX
  8
254
 42
1.0
 10
1.4152078E+002
 20
1.825E+001
 70
0
  0
VERTEX
  8
254
 42
0.0
 10
1.4352078E+002
 20
1.825E+001
 70
0
  0
SEQEND
  0
POLYLINE
  8
253
  6
CONTINUOUS
 62
3
 66
1
 40
1.0E-003
 41
1.0E-003
 70
0
  0
VERTEX
  8
253
 42
5.8600137E-001
 10
2.691687E+001
 20
7.3082456
 70
0
  0
VERTEX
  8
253
 42
0.0
 10
2.8068163E+001
 20
9.3632459
 70
0
  0
SEQEND
  0
POLYLINE
  8
253
  6
CONTINUOUS
 62
3
 66
1
 40
1.0E-003
 41
1.0E-003
 70
0
  0
VERTEX
  8
253
 42
6.2051509E-002
 10
2.7706476E+001
 20
9.7532445
 70
0
  0
VERTEX
  8
253
 42
0.0
 10
2.7413674E+001
 20
9.9135089
 70
0
  0
SEQEND
  0
POLYLINE
  8
253
  6
CONTINUOUS
 62
3
 66
1
 40
1.0E-003
 41
1.0E-003
 70
0
  0
VERTEX
  8
253
 42
7.7160142E-001
 10
2.7413674E+001
 20
9.9135095
 70
0
  0
VERTEX
  8
253
 42
0.0
 10
2.691687E+001
 20
1.1808246E+001
 70
0
  0
SEQEND
  0
POLYLINE
  8
253
  6
CONTINUOUS
 62
3
 66
1
 40
1.0E-003
 41
1.0E-003
 70
0
  0
VERTEX
  8
253
 42
5.8600137E-001
 10
3.0426865E+001
 20
7.3082456
 70
0
  0
VERTEX
  8
253
 42
0.0
 10
3.1578157E+001
 20
9.3632459
 70
0
  0
SEQEND
  0
POLYLINE
  8
253
  6
CONTINUOUS
 62
3
 66
1
 40
1.0E-003
 41
1.0E-003
 70
0
  0
VERTEX
  8
253
 42
6.2051509E-002
 10
3.1216471E+001
 20
9.7532445
 70
0
  0
VERTEX
  8
253
 42
0.0
 10
3.0923669E+001
 20
9.9135089
 70
0
  0
SEQEND
  0
POLYLINE
  8
253
  6
CONTINUOUS
 62
3
 66
1
 40
1.0E-003
 41
1.0E-003
 70
0
  0
VERTEX
  8
253
 42
7.7160142E-001
 10
3.0923669E+001
 20
9.9135095
 70
0
  0
VERTEX
  8
253
 42
0.0
 10
3.0426865E+001
 20
1.1808246E+001
 70
0
  0
SEQEND
  0
POINT
  8
Drafting_Hidden_Entities
  6
CONTINUOUS
 62
1
 10
0.0
 20
0.0
  0
ENDBLK
  0
BLOCK
  2
XHXH1NEW02NEW01
 10
0.0
 20
0.0
 70
0
  0
POLYLINE
  8
254
  6
CONTINUOUS
 62
6
 66
1
 40
1.0E-003
 41
1.0E-003
 70
0
  0
VERTEX
  8
254
 42
0.0
 10
-2.2647095E-001
 20
-2.2647285E-001
 70
0
  0
VERTEX
  8
254
 42
0.0
 10
2.2647095E-001
 20
2.2647285E-001
 70
0
  0
SEQEND
  0
POLYLINE
  8
254
  6
CONTINUOUS
 62
6
 66
1
 40
1.0E-003
 41
1.0E-003
 70
0
  0
VERTEX
  8
254
 42
0.0
 10
-3.9656067E-001
 20
-6.7941666E-001
 70
0
  0
VERTEX
  8
254
 42
0.0
 10
4.2364502E-001
 20
1.4080048E-001
 70
0
  0
SEQEND
  0
POLYLINE
  8
254
  6
CONTINUOUS
 62
6
 66
1
 40
1.0E-003
 41
1.0E-003
 70
0
  0
VERTEX
  8
254
 42
0.0
 10
-5.6666565E-001
 20
-1.1323624
 70
0
  0
VERTEX
  8
254
 42
0.0
 10
4.2364502E-001
 20
-1.4204407E-001
 70
0
  0
SEQEND
  0
POLYLINE
  8
254
  6
CONTINUOUS
 62
6
 66
1
 40
1.0E-003
 41
1.0E-003
 70
0
  0
VERTEX
  8
254
 42
0.0
 10
-7.3677063E-001
 20
-1.5853081
 70
0
  0
VERTEX
  8
254
 42
0.0
 10
4.2364502E-001
 20
-4.248867E-001
 70
0
  0
SEQEND
  0
POLYLINE
  8
254
  6
CONTINUOUS
 62
6
 66
1
 40
1.0E-003
 41
1.0E-003
 70
0
  0
VERTEX
  8
254
 42
0.0
 10
8.1364441E-001
 20
-3.4885406E-002
 70
0
  0
VERTEX
  8
254
 42
0.0
 10
1.0749969
 20
2.2647285E-001
 70
0
  0
SEQEND
  0
POLYLINE
  8
254
  6
CONTINUOUS
 62
6
 66
1
 40
1.0E-003
 41
1.0E-003
 70
0
  0
VERTEX
  8
254
 42
0.0
 10
-6.9714355E-001
 20
-1.8285255
 70
0
  0
VERTEX
  8
254
 42
0.0
 10
4.2364502E-001
 20
-7.0773125E-001
 70
0
  0
SEQEND
  0
POLYLINE
  8
254
  6
CONTINUOUS
 62
6
 66
1
 40
1.0E-003
 41
1.0E-003
 70
0
  0
VERTEX
  8
254
 42
0.0
 10
8.1364441E-001
 20
-3.1772995E-001
 70
0
  0
VERTEX
  8
254
 42
0.0
 10
1.3111725
 20
1.7979813E-001
 70
0
  0
SEQEND
  0
POLYLINE
  8
254
  6
CONTINUOUS
 62
6
 66
1
 40
1.0E-003
 41
1.0E-003
 70
0
  0
VERTEX
  8
254
 42
0.0
 10
-8.928833E-001
 20
-2.3071117
 70
0
  0
VERTEX
  8
254
 42
0.0
 10
-8.0430603E-001
 20
-2.2185249
 70
0
  0
SEQEND
  0
POLYLINE
  8
254
  6
CONTINUOUS
 62
6
 66
1
 40
1.0E-003
 41
1.0E-003
 70
0
  0
VERTEX
  8
254
 42
0.0
 10
-4.1430664E-001
 20
-1.8285255
 70
0
  0
VERTEX
  8
254
 42
0.0
 10
4.2364502E-001
 20
-9.9057388E-001
 70
0
  0
SEQEND
  0
POLYLINE
  8
254
  6
CONTINUOUS
 62
6
 66
1
 40
1.0E-003
 41
1.0E-003
 70
0
  0
VERTEX
  8
254
 42
0.0
 10
8.1364441E-001
 20
-6.0057259E-001
 70
0
  0
VERTEX
  8
254
 42
0.0
 10
1.3883972
 20
-2.58255E-002
 70
0
  0
SEQEND
  0
POLYLINE
  8
254
  6
CONTINUOUS
 62
6
 66
1
 40
1.0E-003
 41
1.0E-003
 70
0
  0
VERTEX
  8
254
 42
0.0
 10
-1.0629883
 20
-2.7600574
 70
0
  0
VERTEX
  8
254
 42
0.0
 10
-5.2145386E-001
 20
-2.2185249
 70
0
  0
SEQEND
  0
POLYLINE
  8
254
  6
CONTINUOUS
 62
6
 66
1
 40
1.0E-003
 41
1.0E-003
 70
0
  0
VERTEX
  8
254
 42
0.0
 10
-1.3145447E-001
 20
-1.8285255
 70
0
  0
VERTEX
  8
254
 42
0.0
 10
4.2364502E-001
 20
-1.2734165
 70
0
  0
SEQEND
  0
POLYLINE
  8
254
  6
CONTINUOUS
 62
6
 66
1
 40
1.0E-003
 41
1.0E-003
 70
0
  0
VERTEX
  8
254
 42
0.0
 10
8.1364441E-001
 20
-8.8341522E-001
 70
0
  0
VERTEX
  8
254
 42
0.0
 10
1.4656067
 20
-2.3144722E-001
 70
0
  0
SEQEND
  0
POLYLINE
  8
254
  6
CONTINUOUS
 62
6
 66
1
 40
1.0E-003
 41
1.0E-003
 70
0
  0
VERTEX
  8
254
 42
0.0
 10
-1.2330933
 20
-3.2130032
 70
0
  0
VERTEX
  8
254
 42
0.0
 10
-2.3861694E-001
 20
-2.2185249
 70
0
  0
SEQEND
  0
POLYLINE
  8
254
  6
CONTINUOUS
 62
6
 66
1
 40
1.0E-003
 41
1.0E-003
 70
0
  0
VERTEX
  8
254
 42
0.0
 10
1.5138245E-001
 20
-1.8285255
 70
0
  0
VERTEX
  8
254
 42
0.0
 10
4.2364502E-001
 20
-1.5562611
 70
0
  0
SEQEND
  0
POLYLINE
  8
254
  6
CONTINUOUS
 62
6
 66
1
 40
1.0E-003
 41
1.0E-003
 70
0
  0
VERTEX
  8
254
 42
0.0
 10
8.1364441E-001
 20
-1.1662598
 70
0
  0
VERTEX
  8
254
 42
0.0
 10
1.5428314
 20
-4.3707085E-001
 70
0
  0
SEQEND
  0
POLYLINE
  8
254
  6
CONTINUOUS
 62
6
 66
1
 40
1.0E-003
 41
1.0E-003
 70
0
  0
VERTEX
  8
254
 42
0.0
 10
-1.4031982
 20
-3.665947
 70
0
  0
VERTEX
  8
254
 42
0.0
 10
4.4219971E-002
 20
-2.2185249
 70
0
  0
SEQEND
  0
POLYLINE
  8
254
  6
CONTINUOUS
 62
6
 66
1
 40
1.0E-003
 41
1.0E-003
 70
0
  0
VERTEX
  8
254
 42
0.0
 10
8.1364441E-001
 20
-1.4491024
 70
0
  0
VERTEX
  8
254
 42
0.0
 10
1.6200562
 20
-6.4269257E-001
 70
0
  0
SEQEND
  0
POLYLINE
  8
254
  6
CONTINUOUS
 62
6
 66
1
 40
1.0E-003
 41
1.0E-003
 70
0
  0
VERTEX
  8
254
 42
0.0
 10
-1.573288
 20
-4.1188927
 70
0
  0
VERTEX
  8
254
 42
0.0
 10
3.2707214E-001
 20
-2.2185249
 70
0
  0
SEQEND
  0
POLYLINE
  8
254
  6
CONTINUOUS
 62
6
 66
1
 40
1.0E-003
 41
1.0E-003
 70
0
  0
VERTEX
  8
254
 42
0.0
 10
8.1364441E-001
 20
-1.731945
 70
0
  0
VERTEX
  8
254
 42
0.0
 10
1.6972656
 20
-8.4831619E-001
 70
0
  0
SEQEND
  0
POLYLINE
  8
254
  6
CONTINUOUS
 62
6
 66
1
 40
1.0E-003
 41
1.0E-003
 70
0
  0
VERTEX
  8
254
 42
0.0
 10
-1.4450836
 20
-4.2735233
 70
0
  0
VERTEX
  8
254
 42
0.0
 10
4.2364502E-001
 20
-2.4047909
 70
0
  0
SEQEND
  0
POLYLINE
  8
254
  6
CONTINUOUS
 62
6
 66
1
 40
1.0E-003
 41
1.0E-003
 70
0
  0
VERTEX
  8
254
 42
0.0
 10
9.9990845E-001
 20
-1.8285255
 70
0
  0
VERTEX
  8
254
 42
0.0
 10
1.7744904
 20
-1.0539379
 70
0
  0
SEQEND
  0
POLYLINE
  8
254
  6
CONTINUOUS
 62
6
 66
1
 40
1.0E-003
 41
1.0E-003
 70
0
  0
VERTEX
  8
254
 42
0.0
 10
-1.1622314
 20
-4.2735233
 70
0
  0
VERTEX
  8
254
 42
0.0
 10
4.2364502E-001
 20
-2.6876335
 70
0
  0
SEQEND
  0
POLYLINE
  8
254
  6
CONTINUOUS
 62
6
 66
1
 40
1.0E-003
 41
1.0E-003
 70
0
  0
VERTEX
  8
254
 42
0.0
 10
8.1364441E-001
 20
-2.2976322
 70
0
  0
VERTEX
  8
254
 42
0.0
 10
8.9274597E-001
 20
-2.2185249
 70
0
  0
SEQEND
  0
POLYLINE
  8
254
  6
CONTINUOUS
 62
6
 66
1
 40
1.0E-003
 41
1.0E-003
 70
0
  0
VERTEX
  8
254
 42
0.0
 10
1.2827454
 20
-1.8285255
 70
0
  0
VERTEX
  8
254
 42
0.0
 10
1.8517151
 20
-1.2595596
 70
0
  0
SEQEND
  0
POLYLINE
  8
254
  6
CONTINUOUS
 62
6
 66
1
 40
1.0E-003
 41
1.0E-003
 70
0
  0
VERTEX
  8
254
 42
0.0
 10
3.1836395
 20
7.2372437E-002
 70
0
  0
VERTEX
  8
254
 42
0.0
 10
3.337738
 20
2.2647285E-001
 70
0
  0
SEQEND
  0
POLYLINE
  8
254
  6
CONTINUOUS
 62
6
 66
1
 40
1.0E-003
 41
1.0E-003
 70
0
  0
VERTEX
  8
254
 42
0.0
 10
-8.7939453E-001
 20
-4.2735233
 70
0
  0
VERTEX
  8
254
 42
0.0
 10
-3.0549622E-001
 20
-3.6996193
 70
0
  0
SEQEND
  0
POLYLINE
  8
254
  6
CONTINUOUS
 62
6
 66
1
 40
1.0E-003
 41
1.0E-003
 70
0
  0
VERTEX
  8
254
 42
0.0
 10
2.0599365E-002
 20
-3.3735256
 70
0
  0
VERTEX
  8
254
 42
0.0
 10
4.2364502E-001
 20
-2.9704762
 70
0
  0
SEQEND
  0
POLYLINE
  8
254
  6
CONTINUOUS
 62
6
 66
1
 40
1.0E-003
 41
1.0E-003
 70
0
  0
VERTEX
  8
254
 42
0.0
 10
8.1364441E-001
 20
-2.5804749
 70
0
  0
VERTEX
  8
254
 42
0.0
 10
1.1755981
 20
-2.2185249
 70
0
  0
SEQEND
  0
POLYLINE
  8
254
  6
CONTINUOUS
 62
6
 66
1
 40
1.0E-003
 41
1.0E-003
 70
0
  0
VERTEX
  8
254
 42
0.0
 10
1.5655975
 20
-1.8285255
 70
0
  0
VERTEX
  8
254
 42
0.0
 10
1.9289398
 20
-1.4651833
 70
0
  0
SEQEND
  0
POLYLINE
  8
254
  6
CONTINUOUS
 62
6
 66
1
 40
1.0E-003
 41
1.0E-003
 70
0
  0
VERTEX
  8
254
 42
0.0
 10
3.1836395
 20
-2.104702E-001
 70
0
  0
VERTEX
  8
254
 42
0.0
 10
3.620575
 20
2.2647285E-001
 70
0
  0
SEQEND
  0
POLYLINE
  8
254
  6
CONTINUOUS
 62
6
 66
1
 40
1.0E-003
 41
1.0E-003
 70
0
  0
VERTEX
  8
254
 42
0.0
 10
-5.9655762E-001
 20
-4.2735233
 70
0
  0
VERTEX
  8
254
 42
0.0
 10
-4.5779419E-001
 20
-4.1347656
 70
0
  0
SEQEND
  0
POLYLINE
  8
254
  6
CONTINUOUS
 62
6
 66
1
 40
1.0E-003
 41
1.0E-003
 70
0
  0
VERTEX
  8
254
 42
0.0
 10
3.0343628E-001
 20
-3.3735256
 70
0
  0
VERTEX
  8
254
 42
0.0
 10
4.2364502E-001
 20
-3.2533207
 70
0
  0
SEQEND
  0
POLYLINE
  8
254
  6
CONTINUOUS
 62
6
 66
1
 40
1.0E-003
 41
1.0E-003
 70
0
  0
VERTEX
  8
254
 42
0.0
 10
8.1364441E-001
 20
-2.8633194
 70
0
  0
VERTEX
  8
254
 42
0.0
 10
1.4584351
 20
-2.2185249
 70
0
  0
SEQEND
  0
POLYLINE
  8
254
  6
CONTINUOUS
 62
6
 66
1
 40
1.0E-003
 41
1.0E-003
 70
0
  0
VERTEX
  8
254
 42
0.0
 10
1.8484344
 20
-1.8285255
 70
0
  0
VERTEX
  8
254
 42
0.0
 10
2.0061493
 20
-1.670805
 70
0
  0
SEQEND
  0
POLYLINE
  8
254
  6
CONTINUOUS
 62
6
 66
1
 40
1.0E-003
 41
1.0E-003
 70
0
  0
VERTEX
  8
254
 42
0.0
 10
3.1836395
 20
-4.9331474E-001
 70
0
  0
VERTEX
  8
254
 42
0.0
 10
3.9034271
 20
2.2647285E-001
 70
0
  0
SEQEND
  0
POLYLINE
  8
254
  6
CONTINUOUS
 62
6
 66
1
 40
1.0E-003
 41
1.0E-003
 70
0
  0
VERTEX
  8
254
 42
0.0
 10
8.1364441E-001
 20
-3.146162
 70
0
  0
VERTEX
  8
254
 42
0.0
 10
1.741272
 20
-2.2185249
 70
0
  0
SEQEND
  0
POLYLINE
  8
254
  6
CONTINUOUS
 62
6
 66
1
 40
1.0E-003
 41
1.0E-003
 70
0
  0
VERTEX
  8
254
 42
0.0
 10
3.1836395
 20
-7.7615738E-001
 70
0
  0
VERTEX
  8
254
 42
0.0
 10
4.186264
 20
2.2647285E-001
 70
0
  0
SEQEND
  0
POLYLINE
  8
254
  6
CONTINUOUS
 62
6
 66
1
 40
1.0E-003
 41
1.0E-003
 70
0
  0
VERTEX
  8
254
 42
0.0
 10
8.6912537E-001
 20
-3.3735256
 70
0
  0
VERTEX
  8
254
 42
0.0
 10
2.0241241
 20
-2.2185249
 70
0
  0
SEQEND
  0
POLYLINE
  8
254
  6
CONTINUOUS
 62
6
 66
1
 40
1.0E-003
 41
1.0E-003
 70
0
  0
VERTEX
  8
254
 42
0.0
 10
3.1836395
 20
-1.059
 70
0
  0
VERTEX
  8
254
 42
0.0
 10
4.3386536
 20
9.6017838E-002
 70
0
  0
SEQEND
  0
POLYLINE
  8
254
  6
CONTINUOUS
 62
6
 66
1
 40
1.0E-003
 41
1.0E-003
 70
0
  0
VERTEX
  8
254
 42
0.0
 10
1.1519623
 20
-3.3735256
 70
0
  0
VERTEX
  8
254
 42
0.0
 10
2.1542511
 20
-2.3712425
 70
0
  0
SEQEND
  0
POLYLINE
  8
254
  6
CONTINUOUS
 62
6
 66
1
 40
1.0E-003
 41
1.0E-003
 70
0
  0
VERTEX
  8
254
 42
0.0
 10
3.1836395
 20
-1.3418446
 70
0
  0
VERTEX
  8
254
 42
0.0
 10
4.3386536
 20
-1.868248E-001
 70
0
  0
SEQEND
  0
POLYLINE
  8
254
  6
CONTINUOUS
 62
6
 66
1
 40
1.0E-003
 41
1.0E-003
 70
0
  0
VERTEX
  8
254
 42
0.0
 10
4.7286377
 20
2.0316124E-001
 70
0
  0
VERTEX
  8
254
 42
0.0
 10
4.7519531
 20
2.2647285E-001
 70
0
  0
SEQEND
  0
POLYLINE
  8
254
  6
CONTINUOUS
 62
6
 66
1
 40
1.0E-003
 41
1.0E-003
 70
0
  0
VERTEX
  8
254
 42
0.0
 10
1.4302368
 20
-3.3780994
 70
0
  0
VERTEX
  8
254
 42
0.0
 10
2.2314606
 20
-2.5768642
 70
0
  0
SEQEND
  0
POLYLINE
  8
254
  6
CONTINUOUS
 62
6
 66
1
 40
1.0E-003
 41
1.0E-003
 70
0
  0
VERTEX
  8
254
 42
0.0
 10
3.1836395
 20
-1.6246872
 70
0
  0
VERTEX
  8
254
 42
0.0
 10
4.3386536
 20
-4.6966743E-001
 70
0
  0
SEQEND
  0
POLYLINE
  8
254
  6
CONTINUOUS
 62
6
 66
1
 40
1.0E-003
 41
1.0E-003
 70
0
  0
VERTEX
  8
254
 42
0.0
 10
4.7286377
 20
-7.9683304E-002
 70
0
  0
VERTEX
  8
254
 42
0.0
 10
5.0330811
 20
2.2476578E-001
 70
0
  0
SEQEND
  0
POLYLINE
  8
254
  6
CONTINUOUS
 62
6
 66
1
 40
1.0E-003
 41
1.0E-003
 70
0
  0
VERTEX
  8
254
 42
0.0
 10
1.5035706
 20
-3.5876122
 70
0
  0
VERTEX
  8
254
 42
0.0
 10
2.3086853
 20
-2.7824879
 70
0
  0
SEQEND
  0
POLYLINE
  8
254
  6
CONTINUOUS
 62
6
 66
1
 40
1.0E-003
 41
1.0E-003
 70
0
  0
VERTEX
  8
254
 42
0.0
 10
3.2626495
 20
-1.8285255
 70
0
  0
VERTEX
  8
254
 42
0.0
 10
4.3386536
 20
-7.5251198E-001
 70
0
  0
SEQEND
  0
POLYLINE
  8
254
  6
CONTINUOUS
 62
6
 66
1
 40
1.0E-003
 41
1.0E-003
 70
0
  0
VERTEX
  8
254
 42
0.0
 10
4.7286377
 20
-3.6252594E-001
 70
0
  0
VERTEX
  8
254
 42
0.0
 10
5.2719421
 20
1.8078232E-001
 70
0
  0
SEQEND
  0
POLYLINE
  8
254
  6
CONTINUOUS
 62
6
 66
1
 40
1.0E-003
 41
1.0E-003
 70
0
  0
VERTEX
  8
254
 42
0.0
 10
1.576889
 20
-3.7971249
 70
0
  0
VERTEX
  8
254
 42
0.0
 10
2.38591
 20
-2.9881096
 70
0
  0
SEQEND
  0
POLYLINE
  8
254
  6
CONTINUOUS
 62
6
 66
1
 40
1.0E-003
 41
1.0E-003
 70
0
  0
VERTEX
  8
254
 42
0.0
 10
3.5454865
 20
-1.8285255
 70
0
  0
VERTEX
  8
254
 42
0.0
 10
4.3386536
 20
-1.0353546
 70
0
  0
SEQEND
  0
POLYLINE
  8
254
  6
CONTINUOUS
 62
6
 66
1
 40
1.0E-003
 41
1.0E-003
 70
0
  0
VERTEX
  8
254
 42
0.0
 10
4.7286377
 20
-6.4536858E-001
 70
0
  0
VERTEX
  8
254
 42
0.0
 10
5.4707031
 20
9.6696854E-002
 70
0
  0
SEQEND
  0
POLYLINE
  8
254
  6
CONTINUOUS
 62
6
 66
1
 40
1.0E-003
 41
1.0E-003
 70
0
  0
VERTEX
  8
254
 42
0.0
 10
1.6502228
 20
-4.0066376
 70
0
  0
VERTEX
  8
254
 42
0.0
 10
2.4631348
 20
-3.1937332
 70
0
  0
SEQEND
  0
POLYLINE
  8
254
  6
CONTINUOUS
 62
6
 66
1
 40
1.0E-003
 41
1.0E-003
 70
0
  0
VERTEX
  8
254
 42
0.0
 10
3.1836395
 20
-2.473217
 70
0
  0
VERTEX
  8
254
 42
0.0
 10
3.438324
 20
-2.2185249
 70
0
  0
SEQEND
  0
POLYLINE
  8
254
  6
CONTINUOUS
 62
6
 66
1
 40
1.0E-003
 41
1.0E-003
 70
0
  0
VERTEX
  8
254
 42
0.0
 10
3.8283234
 20
-1.8285255
 70
0
  0
VERTEX
  8
254
 42
0.0
 10
4.3386536
 20
-1.3181992
 70
0
  0
SEQEND
  0
POLYLINE
  8
254
  6
CONTINUOUS
 62
6
 66
1
 40
1.0E-003
 41
1.0E-003
 70
0
  0
VERTEX
  8
254
 42
0.0
 10
4.7286377
 20
-9.2821312E-001
 70
0
  0
VERTEX
  8
254
 42
0.0
 10
5.6378021
 20
-1.9039154E-002
 70
0
  0
SEQEND
  0
POLYLINE
  8
254
  6
CONTINUOUS
 62
6
 66
1
 40
1.0E-003
 41
1.0E-003
 70
0
  0
VERTEX
  8
254
 42
0.0
 10
1.7235565
 20
-4.2161503
 70
0
  0
VERTEX
  8
254
 42
0.0
 10
2.5403442
 20
-3.3993549
 70
0
  0
SEQEND
  0
POLYLINE
  8
254
  6
CONTINUOUS
 62
6
 66
1
 40
1.0E-003
 41
1.0E-003
 70
0
  0
VERTEX
  8
254
 42
0.0
 10
3.1836395
 20
-2.7560596
 70
0
  0
VERTEX
  8
254
 42
0.0
 10
3.7211761
 20
-2.2185249
 70
0
  0
SEQEND
  0
POLYLINE
  8
254
  6
CONTINUOUS
 62
6
 66
1
 40
1.0E-003
 41
1.0E-003
 70
0
  0
VERTEX
  8
254
 42
0.0
 10
4.1111755
 20
-1.8285255
 70
0
  0
VERTEX
  8
254
 42
0.0
 10
4.3386536
 20
-1.6010418
 70
0
  0
SEQEND
  0
POLYLINE
  8
254
  6
CONTINUOUS
 62
6
 66
1
 40
1.0E-003
 41
1.0E-003
 70
0
  0
VERTEX
  8
254
 42
0.0
 10
4.7286377
 20
-1.2110558
 70
0
  0
VERTEX
  8
254
 42
0.0
 10
5.7763824
 20
-1.633091E-001
 70
0
  0
SEQEND
  0
POLYLINE
  8
254
  6
CONTINUOUS
 62
6
 66
1
 40
1.0E-003
 41
1.0E-003
 70
0
  0
VERTEX
  8
254
 42
0.0
 10
1.9490204
 20
-4.2735233
 70
0
  0
VERTEX
  8
254
 42
0.0
 10
2.617569
 20
-3.6049767
 70
0
  0
SEQEND
  0
POLYLINE
  8
254
  6
CONTINUOUS
 62
6
 66
1
 40
1.0E-003
 41
1.0E-003
 70
0
  0
VERTEX
  8
254
 42
0.0
 10
3.1836395
 20
-3.0389042
 70
0
  0
VERTEX
  8
254
 42
0.0
 10
4.0040131
 20
-2.2185249
 70
0
  0
SEQEND
  0
POLYLINE
  8
254
  6
CONTINUOUS
 62
6
 66
1
 40
1.0E-003
 41
1.0E-003
 70
0
  0
VERTEX
  8
254
 42
0.0
 10
4.7286377
 20
-1.4938984
 70
0
  0
VERTEX
  8
254
 42
0.0
 10
5.885849
 20
-3.3667946E-001
 70
0
  0
SEQEND
  0
POLYLINE
  8
254
  6
CONTINUOUS
 62
6
 66
1
 40
1.0E-003
 41
1.0E-003
 70
0
  0
VERTEX
  8
254
 42
0.0
 10
2.2318726
 20
-4.2735233
 70
0
  0
VERTEX
  8
254
 42
0.0
 10
2.6947937
 20
-3.8106003
 70
0
  0
SEQEND
  0
POLYLINE
  8
254
  6
CONTINUOUS
 62
6
 66
1
 40
1.0E-003
 41
1.0E-003
 70
0
  0
VERTEX
  8
254
 42
0.0
 10
3.1836395
 20
-3.3217468
 70
0
  0
VERTEX
  8
254
 42
0.0
 10
4.2868652
 20
-2.2185249
 70
0
  0
SEQEND
  0
POLYLINE
  8
254
  6
CONTINUOUS
 62
6
 66
1
 40
1.0E-003
 41
1.0E-003
 70
0
  0
VERTEX
  8
254
 42
0.0
 10
4.7286377
 20
-1.7767429
 70
0
  0
VERTEX
  8
254
 42
0.0
 10
5.9616241
 20
-5.4375839E-001
 70
0
  0
SEQEND
  0
POLYLINE
  8
254
  6
CONTINUOUS
 62
6
 66
1
 40
1.0E-003
 41
1.0E-003
 70
0
  0
VERTEX
  8
254
 42
0.0
 10
6.693634
 20
1.8826294E-001
 70
0
  0
VERTEX
  8
254
 42
0.0
 10
6.731842
 20
2.2647285E-001
 70
0
  0
SEQEND
  0
POLYLINE
  8
254
  6
CONTINUOUS
 62
6
 66
1
 40
1.0E-003
 41
1.0E-003
 70
0
  0
VERTEX
  8
254
 42
0.0
 10
2.5147095
 20
-4.2735233
 70
0
  0
VERTEX
  8
254
 42
0.0
 10
2.7720032
 20
-4.016222
 70
0
  0
SEQEND
  0
POLYLINE
  8
254
  6
CONTINUOUS
 62
6
 66
1
 40
1.0E-003
 41
1.0E-003
 70
0
  0
VERTEX
  8
254
 42
0.0
 10
3.1836395
 20
-3.6045914
 70
0
  0
VERTEX
  8
254
 42
0.0
 10
4.3386536
 20
-2.4495716
 70
0
  0
SEQEND
  0
POLYLINE
  8
254
  6
CONTINUOUS
 62
6
 66
1
 40
1.0E-003
 41
1.0E-003
 70
0
  0
VERTEX
  8
254
 42
0.0
 10
4.9597015
 20
-1.8285255
 70
0
  0
VERTEX
  8
254
 42
0.0
 10
5.9921417
 20
-7.9607391E-001
 70
0
  0
SEQEND
  0
POLYLINE
  8
254
  6
CONTINUOUS
 62
6
 66
1
 40
1.0E-003
 41
1.0E-003
 70
0
  0
VERTEX
  8
254
 42
0.0
 10
6.693634
 20
-9.4581604E-002
 70
0
  0
VERTEX
  8
254
 42
0.0
 10
7.0146942
 20
2.2647285E-001
 70
0
  0
SEQEND
  0
POLYLINE
  8
254
  6
CONTINUOUS
 62
6
 66
1
 40
1.0E-003
 41
1.0E-003
 70
0
  0
VERTEX
  8
254
 42
0.0
 10
2.7975464
 20
-4.2735233
 70
0
  0
VERTEX
  8
254
 42
0.0
 10
2.8492279
 20
-4.2218456
 70
0
  0
SEQEND
  0
POLYLINE
  8
254
  6
CONTINUOUS
 62
6
 66
1
 40
1.0E-003
 41
1.0E-003
 70
0
  0
VERTEX
  8
254
 42
0.0
 10
3.1836395
 20
-3.887434
 70
0
  0
VERTEX
  8
254
 42
0.0
 10
4.3386536
 20
-2.7324142
 70
0
  0
SEQEND
  0
POLYLINE
  8
254
  6
CONTINUOUS
 62
6
 66
1
 40
1.0E-003
 41
1.0E-003
 70
0
  0
VERTEX
  8
254
 42
0.0
 10
4.7286377
 20
-2.3424282
 70
0
  0
VERTEX
  8
254
 42
0.0
 10
4.8525391
 20
-2.2185249
 70
0
  0
SEQEND
  0
POLYLINE
  8
254
  6
CONTINUOUS
 62
6
 66
1
 40
1.0E-003
 41
1.0E-003
 70
0
  0
VERTEX
  8
254
 42
0.0
 10
5.2425385
 20
-1.8285255
 70
0
  0
VERTEX
  8
254
 42
0.0
 10
5.9243927
 20
-1.1466713
 70
0
  0
SEQEND
  0
POLYLINE
  8
254
  6
CONTINUOUS
 62
6
 66
1
 40
1.0E-003
 41
1.0E-003
 70
0
  0
VERTEX
  8
254
 42
0.0
 10
6.693634
 20
-3.7742424E-001
 70
0
  0
VERTEX
  8
254
 42
0.0
 10
7.2975311
 20
2.2647285E-001
 70
0
  0
SEQEND
  0
POLYLINE
  8
254
  6
CONTINUOUS
 62
6
 66
1
 40
1.0E-003
 41
1.0E-003
 70
0
  0
VERTEX
  8
254
 42
0.0
 10
3.1836395
 20
-4.1702766
 70
0
  0
VERTEX
  8
254
 42
0.0
 10
4.3386536
 20
-3.0152588
 70
0
  0
SEQEND
  0
POLYLINE
  8
254
  6
CONTINUOUS
 62
6
 66
1
 40
1.0E-003
 41
1.0E-003
 70
0
  0
VERTEX
  8
254
 42
0.0
 10
4.7286377
 20
-2.6252728
 70
0
  0
VERTEX
  8
254
 42
0.0
 10
5.1353912
 20
-2.2185249
 70
0
  0
SEQEND
  0
POLYLINE
  8
254
  6
CONTINUOUS
 62
6
 66
1
 40
1.0E-003
 41
1.0E-003
 70
0
  0
VERTEX
  8
254
 42
0.0
 10
5.5253754
 20
-1.8285255
 70
0
  0
VERTEX
  8
254
 42
0.0
 10
5.618103
 20
-1.7358074
 70
0
  0
SEQEND
  0
POLYLINE
  8
254
  6
CONTINUOUS
 62
6
 66
1
 40
1.0E-003
 41
1.0E-003
 70
0
  0
VERTEX
  8
254
 42
0.0
 10
6.693634
 20
-6.6026688E-001
 70
0
  0
VERTEX
  8
254
 42
0.0
 10
7.580368
 20
2.2647285E-001
 70
0
  0
SEQEND
  0
POLYLINE
  8
254
  6
CONTINUOUS
 62
6
 66
1
 40
1.0E-003
 41
1.0E-003
 70
0
  0
VERTEX
  8
254
 42
0.0
 10
3.3632355
 20
-4.2735233
 70
0
  0
VERTEX
  8
254
 42
0.0
 10
4.3386536
 20
-3.2981014
 70
0
  0
SEQEND
  0
POLYLINE
  8
254
  6
CONTINUOUS
 62
6
 66
1
 40
1.0E-003
 41
1.0E-003
 70
0
  0
VERTEX
  8
254
 42
0.0
 10
4.7286377
 20
-2.9081154
 70
0
  0
VERTEX
  8
254
 42
0.0
 10
5.4182281
 20
-2.2185249
 70
0
  0
SEQEND
  0
POLYLINE
  8
254
  6
CONTINUOUS
 62
6
 66
1
 40
1.0E-003
 41
1.0E-003
 70
0
  0
VERTEX
  8
254
 42
0.0
 10
6.693634
 20
-9.4311142E-001
 70
0
  0
VERTEX
  8
254
 42
0.0
 10
7.8486481
 20
2.1190834E-001
 70
0
  0
SEQEND
  0
POLYLINE
  8
254
  6
CONTINUOUS
 62
6
 66
1
 40
1.0E-003
 41
1.0E-003
 70
0
  0
VERTEX
  8
254
 42
0.0
 10
3.6460724
 20
-4.2735233
 70
0
  0
VERTEX
  8
254
 42
0.0
 10
4.3386536
 20
-3.5809441
 70
0
  0
SEQEND
  0
POLYLINE
  8
254
  6
CONTINUOUS
 62
6
 66
1
 40
1.0E-003
 41
1.0E-003
 70
0
  0
VERTEX
  8
254
 42
0.0
 10
4.7286377
 20
-3.1909599
 70
0
  0
VERTEX
  8
254
 42
0.0
 10
5.7010651
 20
-2.2185249
 70
0
  0
SEQEND
  0
POLYLINE
  8
254
  6
CONTINUOUS
 62
6
 66
1
 40
1.0E-003
 41
1.0E-003
 70
0
  0
VERTEX
  8
254
 42
0.0
 10
6.693634
 20
-1.2259541
 70
0
  0
VERTEX
  8
254
 42
0.0
 10
7.8486481
 20
-7.0936203E-002
 70
0
  0
SEQEND
  0
POLYLINE
  8
254
  6
CONTINUOUS
 62
6
 66
1
 40
1.0E-003
 41
1.0E-003
 70
0
  0
VERTEX
  8
254
 42
0.0
 10
3.9289246
 20
-4.2735233
 70
0
  0
VERTEX
  8
254
 42
0.0
 10
4.3386536
 20
-3.8637886
 70
0
  0
SEQEND
  0
POLYLINE
  8
254
  6
CONTINUOUS
 62
6
 66
1
 40
1.0E-003
 41
1.0E-003
 70
0
  0
VERTEX
  8
254
 42
0.0
 10
4.7286377
 20
-3.4738026
 70
0
  0
VERTEX
  8
254
 42
0.0
 10
5.9839172
 20
-2.2185249
 70
0
  0
SEQEND
  0
POLYLINE
  8
254
  6
CONTINUOUS
 62
6
 66
1
 40
1.0E-003
 41
1.0E-003
 70
0
  0
VERTEX
  8
254
 42
0.0
 10
6.693634
 20
-1.5087986
 70
0
  0
VERTEX
  8
254
 42
0.0
 10
7.8486481
 20
-3.5377884E-001
 70
0
  0
SEQEND
  0
POLYLINE
  8
254
  6
CONTINUOUS
 62
6
 66
1
 40
1.0E-003
 41
1.0E-003
 70
0
  0
VERTEX
  8
254
 42
0.0
 10
8.2386322
 20
3.6207199E-002
 70
0
  0
VERTEX
  8
254
 42
0.0
 10
8.428894
 20
2.2647285E-001
 70
0
  0
SEQEND
  0
POLYLINE
  8
254
  6
CONTINUOUS
 62
6
 66
1
 40
1.0E-003
 41
1.0E-003
 70
0
  0
VERTEX
  8
254
 42
0.0
 10
4.2117615
 20
-4.2735233
 70
0
  0
VERTEX
  8
254
 42
0.0
 10
4.3386536
 20
-4.1466312
 70
0
  0
SEQEND
  0
POLYLINE
  8
254
  6
CONTINUOUS
 62
6
 66
1
 40
1.0E-003
 41
1.0E-003
 70
0
  0
VERTEX
  8
254
 42
0.0
 10
4.7286377
 20
-3.7566452
 70
0
  0
VERTEX
  8
254
 42
0.0
 10
6.181076
 20
-2.3042011
 70
0
  0
SEQEND
  0
POLYLINE
  8
254
  6
CONTINUOUS
 62
6
 66
1
 40
1.0E-003
 41
1.0E-003
 70
0
  0
VERTEX
  8
254
 42
0.0
 10
6.693634
 20
-1.7916412
 70
0
  0
VERTEX
  8
254
 42
0.0
 10
7.8486481
 20
-6.3662148E-001
 70
0
  0
SEQEND
  0
POLYLINE
  8
254
  6
CONTINUOUS
 62
6
 66
1
 40
1.0E-003
 41
1.0E-003
 70
0
  0
VERTEX
  8
254
 42
0.0
 10
8.2386322
 20
-2.4663544E-001
 70
0
  0
VERTEX
  8
254
 42
0.0
 10
8.6889954
 20
2.0372772E-001
 70
0
  0
SEQEND
  0
POLYLINE
  8
254
  6
CONTINUOUS
 62
6
 66
1
 40
1.0E-003
 41
1.0E-003
 70
0
  0
VERTEX
  8
254
 42
0.0
 10
4.7286377
 20
-4.0394897
 70
0
  0
VERTEX
  8
254
 42
0.0
 10
6.2656097
 20
-2.5025082
 70
0
  0
SEQEND
  0
POLYLINE
  8
254
  6
CONTINUOUS
 62
6
 66
1
 40
1.0E-003
 41
1.0E-003
 70
0
  0
VERTEX
  8
254
 42
0.0
 10
6.9395905
 20
-1.8285255
 70
0
  0
VERTEX
  8
254
 42
0.0
 10
7.8486481
 20
-9.1946602E-001
 70
0
  0
SEQEND
  0
POLYLINE
  8
254
  6
CONTINUOUS
 62
6
 66
1
 40
1.0E-003
 41
1.0E-003
 70
0
  0
VERTEX
  8
254
 42
0.0
 10
8.2386322
 20
-5.2947998E-001
 70
0
  0
VERTEX
  8
254
 42
0.0
 10
8.9050598
 20
1.3694763E-001
 70
0
  0
SEQEND
  0
POLYLINE
  8
254
  6
CONTINUOUS
 62
6
 66
1
 40
1.0E-003
 41
1.0E-003
 70
0
  0
VERTEX
  8
254
 42
0.0
 10
4.7774506
 20
-4.2735233
 70
0
  0
VERTEX
  8
254
 42
0.0
 10
6.3190155
 20
-2.7319412
 70
0
  0
SEQEND
  0
POLYLINE
  8
254
  6
CONTINUOUS
 62
6
 66
1
 40
1.0E-003
 41
1.0E-003
 70
0
  0
VERTEX
  8
254
 42
0.0
 10
6.693634
 20
-2.3573284
 70
0
  0
VERTEX
  8
254
 42
0.0
 10
6.8324432
 20
-2.2185249
 70
0
  0
SEQEND
  0
POLYLINE
  8
254
  6
CONTINUOUS
 62
6
 66
1
 40
1.0E-003
 41
1.0E-003
 70
0
  0
VERTEX
  8
254
 42
0.0
 10
7.2224274
 20
-1.8285255
 70
0
  0
VERTEX
  8
254
 42
0.0
 10
7.8486481
 20
-1.2023087
 70
0
  0
SEQEND
  0
POLYLINE
  8
254
  6
CONTINUOUS
 62
6
 66
1
 40
1.0E-003
 41
1.0E-003
 70
0
  0
VERTEX
  8
254
 42
0.0
 10
8.2386322
 20
-8.1232262E-001
 70
0
  0
VERTEX
  8
254
 42
0.0
 10
9.0850067
 20
3.4049988E-002
 70
0
  0
SEQEND
  0
POLYLINE
  8
254
  6
CONTINUOUS
 62
6
 66
1
 40
1.0E-003
 41
1.0E-003
 70
0
  0
VERTEX
  8
254
 42
0.0
 10
5.0675201
 20
-4.2662849
 70
0
  0
VERTEX
  8
254
 42
0.0
 10
6.3274994
 20
-3.0063057
 70
0
  0
SEQEND
  0
POLYLINE
  8
254
  6
CONTINUOUS
 62
6
 66
1
 40
1.0E-003
 41
1.0E-003
 70
0
  0
VERTEX
  8
254
 42
0.0
 10
6.693634
 20
-2.6401711
 70
0
  0
VERTEX
  8
254
 42
0.0
 10
7.1152802
 20
-2.2185249
 70
0
  0
SEQEND
  0
POLYLINE
  8
254
  6
CONTINUOUS
 62
6
 66
1
 40
1.0E-003
 41
1.0E-003
 70
0
  0
VERTEX
  8
254
 42
0.0
 10
7.5052795
 20
-1.8285255
 70
0
  0
VERTEX
  8
254
 42
0.0
 10
7.8486481
 20
-1.4851513
 70
0
  0
SEQEND
  0
POLYLINE
  8
254
  6
CONTINUOUS
 62
6
 66
1
 40
1.0E-003
 41
1.0E-003
 70
0
  0
VERTEX
  8
254
 42
0.0
 10
8.2386322
 20
-1.0951672
 70
0
  0
VERTEX
  8
254
 42
0.0
 10
9.2350922
 20
-9.869957E-002
 70
0
  0
SEQEND
  0
POLYLINE
  8
254
  6
CONTINUOUS
 62
6
 66
1
 40
1.0E-003
 41
1.0E-003
 70
0
  0
VERTEX
  8
254
 42
0.0
 10
5.416275
 20
-4.2003727
 70
0
  0
VERTEX
  8
254
 42
0.0
 10
6.2580872
 20
-3.3585587
 70
0
  0
SEQEND
  0
POLYLINE
  8
254
  6
CONTINUOUS
 62
6
 66
1
 40
1.0E-003
 41
1.0E-003
 70
0
  0
VERTEX
  8
254
 42
0.0
 10
6.693634
 20
-2.9230137
 70
0
  0
VERTEX
  8
254
 42
0.0
 10
7.3981171
 20
-2.2185249
 70
0
  0
SEQEND
  0
POLYLINE
  8
254
  6
CONTINUOUS
 62
6
 66
1
 40
1.0E-003
 41
1.0E-003
 70
0
  0
VERTEX
  8
254
 42
0.0
 10
7.7881165
 20
-1.8285255
 70
0
  0
VERTEX
  8
254
 42
0.0
 10
7.8486481
 20
-1.7679958
 70
0
  0
SEQEND
  0
POLYLINE
  8
254
  6
CONTINUOUS
 62
6
 66
1
 40
1.0E-003
 41
1.0E-003
 70
0
  0
VERTEX
  8
254
 42
0.0
 10
8.2386322
 20
-1.3780098
 70
0
  0
VERTEX
  8
254
 42
0.0
 10
9.3569641
 20
-2.5967217E-001
 70
0
  0
SEQEND
  0
POLYLINE
  8
254
  6
CONTINUOUS
 62
6
 66
1
 40
1.0E-003
 41
1.0E-003
 70
0
  0
VERTEX
  8
254
 42
0.0
 10
6.693634
 20
-3.2058582
 70
0
  0
VERTEX
  8
254
 42
0.0
 10
7.6809692
 20
-2.2185249
 70
0
  0
SEQEND
  0
POLYLINE
  8
254
  6
CONTINUOUS
 62
6
 66
1
 40
1.0E-003
 41
1.0E-003
 70
0
  0
VERTEX
  8
254
 42
0.0
 10
8.2386322
 20
-1.6608524
 70
0
  0
VERTEX
  8
254
 42
0.0
 10
9.4486694
 20
-4.5081711E-001
 70
0
  0
SEQEND
  0
POLYLINE
  8
254
  6
CONTINUOUS
 62
6
 66
1
 40
1.0E-003
 41
1.0E-003
 70
0
  0
VERTEX
  8
254
 42
0.0
 10
6.693634
 20
-3.4887009
 70
0
  0
VERTEX
  8
254
 42
0.0
 10
7.8486481
 20
-2.3336811
 70
0
  0
SEQEND
  0
POLYLINE
  8
254
  6
CONTINUOUS
 62
6
 66
1
 40
1.0E-003
 41
1.0E-003
 70
0
  0
VERTEX
  8
254
 42
0.0
 10
8.3538055
 20
-1.8285255
 70
0
  0
VERTEX
  8
254
 42
0.0
 10
9.4981384
 20
-6.8418121E-001
 70
0
  0
SEQEND
  0
POLYLINE
  8
254
  6
CONTINUOUS
 62
6
 66
1
 40
1.0E-003
 41
1.0E-003
 70
0
  0
VERTEX
  8
254
 42
0.0
 10
6.693634
 20
-3.7715435
 70
0
  0
VERTEX
  8
254
 42
0.0
 10
7.8486481
 20
-2.6165256
 70
0
  0
SEQEND
  0
POLYLINE
  8
254
  6
CONTINUOUS
 62
6
 66
1
 40
1.0E-003
 41
1.0E-003
 70
0
  0
VERTEX
  8
254
 42
0.0
 10
8.2386322
 20
-2.2265396
 70
0
  0
VERTEX
  8
254
 42
0.0
 10
8.2466431
 20
-2.2185249
 70
0
  0
SEQEND
  0
POLYLINE
  8
254
  6
CONTINUOUS
 62
6
 66
1
 40
1.0E-003
 41
1.0E-003
 70
0
  0
VERTEX
  8
254
 42
0.0
 10
8.6366425
 20
-1.8285255
 70
0
  0
VERTEX
  8
254
 42
0.0
 10
9.4822998
 20
-9.8287392E-001
 70
0
  0
SEQEND
  0
POLYLINE
  8
254
  6
CONTINUOUS
 62
6
 66
1
 40
1.0E-003
 41
1.0E-003
 70
0
  0
VERTEX
  8
254
 42
0.0
 10
6.693634
 20
-4.054388
 70
0
  0
VERTEX
  8
254
 42
0.0
 10
7.8486481
 20
-2.8993683
 70
0
  0
SEQEND
  0
POLYLINE
  8
254
  6
CONTINUOUS
 62
6
 66
1
 40
1.0E-003
 41
1.0E-003
 70
0
  0
VERTEX
  8
254
 42
0.0
 10
8.2386322
 20
-2.5093822
 70
0
  0
VERTEX
  8
254
 42
0.0
 10
8.5294952
 20
-2.2185249
 70
0
  0
SEQEND
  0
POLYLINE
  8
254
  6
CONTINUOUS
 62
6
 66
1
 40
1.0E-003
 41
1.0E-003
 70
0
  0
VERTEX
  8
254
 42
0.0
 10
8.9194946
 20
-1.8285255
 70
0
  0
VERTEX
  8
254
 42
0.0
 10
9.0524445
 20
-1.6955605
 70
0
  0
SEQEND
  0
POLYLINE
  8
254
  6
CONTINUOUS
 62
6
 66
1
 40
1.0E-003
 41
1.0E-003
 70
0
  0
VERTEX
  8
254
 42
0.0
 10
6.7573395
 20
-4.2735233
 70
0
  0
VERTEX
  8
254
 42
0.0
 10
7.8486481
 20
-3.1822128
 70
0
  0
SEQEND
  0
POLYLINE
  8
254
  6
CONTINUOUS
 62
6
 66
1
 40
1.0E-003
 41
1.0E-003
 70
0
  0
VERTEX
  8
254
 42
0.0
 10
8.2386322
 20
-2.7922268
 70
0
  0
VERTEX
  8
254
 42
0.0
 10
8.8123322
 20
-2.2185249
 70
0
  0
SEQEND
  0
POLYLINE
  8
254
  6
CONTINUOUS
 62
6
 66
1
 40
1.0E-003
 41
1.0E-003
 70
0
  0
VERTEX
  8
254
 42
0.0
 10
9.2023315
 20
-1.8285255
 70
0
  0
VERTEX
  8
254
 42
0.0
 10
9.2325897
 20
-1.7982578
 70
0
  0
SEQEND
  0
POLYLINE
  8
254
  6
CONTINUOUS
 62
6
 66
1
 40
1.0E-003
 41
1.0E-003
 70
0
  0
VERTEX
  8
254
 42
0.0
 10
7.0401917
 20
-4.2735233
 70
0
  0
VERTEX
  8
254
 42
0.0
 10
7.8486481
 20
-3.4650555
 70
0
  0
SEQEND
  0
POLYLINE
  8
254
  6
CONTINUOUS
 62
6
 66
1
 40
1.0E-003
 41
1.0E-003
 70
0
  0
VERTEX
  8
254
 42
0.0
 10
8.2386322
 20
-3.0750694
 70
0
  0
VERTEX
  8
254
 42
0.0
 10
9.0951691
 20
-2.2185249
 70
0
  0
SEQEND
  0
POLYLINE
  8
254
  6
CONTINUOUS
 62
6
 66
1
 40
1.0E-003
 41
1.0E-003
 70
0
  0
VERTEX
  8
254
 42
0.0
 10
7.3230286
 20
-4.2735233
 70
0
  0
VERTEX
  8
254
 42
0.0
 10
7.8486481
 20
-3.7478981
 70
0
  0
SEQEND
  0
POLYLINE
  8
254
  6
CONTINUOUS
 62
6
 66
1
 40
1.0E-003
 41
1.0E-003
 70
0
  0
VERTEX
  8
254
 42
0.0
 10
8.2386322
 20
-3.3579121
 70
0
  0
VERTEX
  8
254
 42
0.0
 10
9.3780212
 20
-2.2185249
 70
0
  0
SEQEND
  0
POLYLINE
  8
254
  6
CONTINUOUS
 62
6
 66
1
 40
1.0E-003
 41
1.0E-003
 70
0
  0
VERTEX
  8
254
 42
0.0
 10
7.6058655
 20
-4.2735233
 70
0
  0
VERTEX
  8
254
 42
0.0
 10
7.8486481
 20
-4.0307426
 70
0
  0
SEQEND
  0
POLYLINE
  8
254
  6
CONTINUOUS
 62
6
 66
1
 40
1.0E-003
 41
1.0E-003
 70
0
  0
VERTEX
  8
254
 42
0.0
 10
8.2386322
 20
-3.6407566
 70
0
  0
VERTEX
  8
254
 42
0.0
 10
9.6507568
 20
-2.228632
 70
0
  0
SEQEND
  0
POLYLINE
  8
254
  6
CONTINUOUS
 62
6
 66
1
 40
1.0E-003
 41
1.0E-003
 70
0
  0
VERTEX
  8
254
 42
0.0
 10
8.2386322
 20
-3.9235992
 70
0
  0
VERTEX
  8
254
 42
0.0
 10
9.7415924
 20
-2.4206371
 70
0
  0
SEQEND
  0
POLYLINE
  8
254
  6
CONTINUOUS
 62
6
 66
1
 40
1.0E-003
 41
1.0E-003
 70
0
  0
VERTEX
  8
254
 42
0.0
 10
8.2386322
 20
-4.2064419
 70
0
  0
VERTEX
  8
254
 42
0.0
 10
9.8081055
 20
-2.6369629
 70
0
  0
SEQEND
  0
POLYLINE
  8
254
  6
CONTINUOUS
 62
6
 66
1
 40
1.0E-003
 41
1.0E-003
 70
0
  0
VERTEX
  8
254
 42
0.0
 10
8.4543915
 20
-4.2735233
 70
0
  0
VERTEX
  8
254
 42
0.0
 10
9.8392181
 20
-2.8886967
 70
0
  0
SEQEND
  0
POLYLINE
  8
254
  6
CONTINUOUS
 62
6
 66
1
 40
1.0E-003
 41
1.0E-003
 70
0
  0
VERTEX
  8
254
 42
0.0
 10
8.7687836
 20
-4.2419796
 70
0
  0
VERTEX
  8
254
 42
0.0
 10
9.8147125
 20
-3.196043
 70
0
  0
SEQEND
  0
POLYLINE
  8
254
  6
CONTINUOUS
 62
6
 66
1
 40
1.0E-003
 41
1.0E-003
 70
0
  0
VERTEX
  8
254
 42
0.0
 10
9.275238
 20
-4.0183601
 70
0
  0
VERTEX
  8
254
 42
0.0
 10
9.5876312
 20
-3.7059689
 70
0
  0
SEQEND
  0
ENDBLK
  0
BLOCK
  2
RAHMEN_A3
 10
0.0
 20
0.0
 70
0
  0
POLYLINE
  8
254
  6
CONTINUOUS
 62
6
 66
1
 40
1.0E-003
 41
1.0E-003
 70
0
  0
VERTEX
  8
254
 42
0.0
 10
4.1999943E+002
 20
0.0
 70
0
  0
VERTEX
  8
254
 42
0.0
 10
4.1999943E+002
 20
2.97E+002
 70
0
  0
SEQEND
  0
POLYLINE
  8
251
  6
CONTINUOUS
 62
6
 66
1
 40
7.0E-001
 41
7.0E-001
 70
0
  0
VERTEX
  8
251
 42
0.0
 10
1.4999395E+001
 20
1.0000004E+001
 70
0
  0
VERTEX
  8
251
 42
0.0
 10
4.0999943E+002
 20
1.0000004E+001
 70
0
  0
SEQEND
  0
POLYLINE
  8
251
  6
CONTINUOUS
 62
6
 66
1
 40
7.0E-001
 41
7.0E-001
 70
0
  0
VERTEX
  8
251
 42
0.0
 10
1.4999395E+001
 20
1.0000004E+001
 70
0
  0
VERTEX
  8
251
 42
0.0
 10
1.4999395E+001
 20
2.87E+002
 70
0
  0
SEQEND
  0
POLYLINE
  8
251
  6
CONTINUOUS
 62
6
 66
1
 40
7.0E-001
 41
7.0E-001
 70
0
  0
VERTEX
  8
251
 42
0.0
 10
4.0999943E+002
 20
1.0000004E+001
 70
0
  0
VERTEX
  8
251
 42
0.0
 10
4.0999943E+002
 20
2.87E+002
 70
0
  0
SEQEND
  0
POLYLINE
  8
251
  6
CONTINUOUS
 62
6
 66
1
 40
7.0E-001
 41
7.0E-001
 70
0
  0
VERTEX
  8
251
 42
0.0
 10
1.4999395E+001
 20
2.87E+002
 70
0
  0
VERTEX
  8
251
 42
0.0
 10
4.0999943E+002
 20
2.87E+002
 70
0
  0
SEQEND
  0
POLYLINE
  8
251
  6
CONTINUOUS
 62
6
 66
1
 40
7.0E-001
 41
7.0E-001
 70
0
  0
VERTEX
  8
251
 42
0.0
 10
1.4999395E+001
 20
2.4000004E+001
 70
0
  0
VERTEX
  8
251
 42
0.0
 10
1.139994E+002
 20
2.4000004E+001
 70
0
  0
SEQEND
  0
POLYLINE
  8
251
  6
CONTINUOUS
 62
6
 66
1
 40
7.0E-001
 41
7.0E-001
 70
0
  0
VERTEX
  8
251
 42
0.0
 10
1.139994E+002
 20
2.4000004E+001
 70
0
  0
VERTEX
  8
251
 42
0.0
 10
1.139994E+002
 20
1.0000004E+001
 70
0
  0
SEQEND
  0
POLYLINE
  8
254
  6
CONTINUOUS
 62
6
 66
1
 40
1.0E-003
 41
1.0E-003
 70
0
  0
VERTEX
  8
254
 42
0.0
 10
4.0999943E+002
 20
1.0000004E+001
 70
0
  0
VERTEX
  8
254
 42
0.0
 10
4.1299943E+002
 20
1.0000004E+001
 70
0
  0
SEQEND
  0
POLYLINE
  8
254
  6
CONTINUOUS
 62
6
 66
1
 40
1.0E-003
 41
1.0E-003
 70
0
  0
VERTEX
  8
254
 42
0.0
 10
4.0999943E+002
 20
5.6000004E+001
 70
0
  0
VERTEX
  8
254
 42
0.0
 10
4.1299943E+002
 20
5.6000004E+001
 70
0
  0
SEQEND
  0
POLYLINE
  8
254
  6
CONTINUOUS
 62
6
 66
1
 40
1.0E-003
 41
1.0E-003
 70
0
  0
VERTEX
  8
254
 42
0.0
 10
4.0999943E+002
 20
1.02E+002
 70
0
  0
VERTEX
  8
254
 42
0.0
 10
4.1299943E+002
 20
1.02E+002
 70
0
  0
SEQEND
  0
POLYLINE
  8
254
  6
CONTINUOUS
 62
6
 66
1
 40
1.0E-003
 41
1.0E-003
 70
0
  0
VERTEX
  8
254
 42
0.0
 10
4.0999943E+002
 20
1.48E+002
 70
0
  0
VERTEX
  8
254
 42
0.0
 10
4.1299943E+002
 20
1.48E+002
 70
0
  0
SEQEND
  0
POLYLINE
  8
254
  6
CONTINUOUS
 62
6
 66
1
 40
1.0E-003
 41
1.0E-003
 70
0
  0
VERTEX
  8
254
 42
0.0
 10
4.0999943E+002
 20
1.94E+002
 70
0
  0
VERTEX
  8
254
 42
0.0
 10
4.1299943E+002
 20
1.94E+002
 70
0
  0
SEQEND
  0
POLYLINE
  8
254
  6
CONTINUOUS
 62
6
 66
1
 40
1.0E-003
 41
1.0E-003
 70
0
  0
VERTEX
  8
254
 42
0.0
 10
4.0999943E+002
 20
2.4E+002
 70
0
  0
VERTEX
  8
254
 42
0.0
 10
4.1299943E+002
 20
2.4E+002
 70
0
  0
SEQEND
  0
POLYLINE
  8
254
  6
CONTINUOUS
 62
6
 66
1
 40
1.0E-003
 41
1.0E-003
 70
0
  0
VERTEX
  8
254
 42
0.0
 10
4.0999943E+002
 20
2.87E+002
 70
0
  0
VERTEX
  8
254
 42
0.0
 10
4.1299943E+002
 20
2.87E+002
 70
0
  0
SEQEND
  0
POLYLINE
  8
254
  6
CONTINUOUS
 62
6
 66
1
 40
1.0E-003
 41
1.0E-003
 70
0
  0
VERTEX
  8
254
 42
0.0
 10
4.0999943E+002
 20
9.999958
 70
0
  0
VERTEX
  8
254
 42
0.0
 10
4.0999943E+002
 20
6.999958
 70
0
  0
SEQEND
  0
POLYLINE
  8
254
  6
CONTINUOUS
 62
6
 66
1
 40
1.0E-003
 41
1.0E-003
 70
0
  0
VERTEX
  8
254
 42
0.0
 10
3.5999943E+002
 20
9.999958
 70
0
  0
VERTEX
  8
254
 42
0.0
 10
3.5999943E+002
 20
6.999958
 70
0
  0
SEQEND
  0
POLYLINE
  8
254
  6
CONTINUOUS
 62
6
 66
1
 40
1.0E-003
 41
1.0E-003
 70
0
  0
VERTEX
  8
254
 42
0.0
 10
3.0999943E+002
 20
9.999958
 70
0
  0
VERTEX
  8
254
 42
0.0
 10
3.0999943E+002
 20
6.999958
 70
0
  0
SEQEND
  0
POLYLINE
  8
254
  6
CONTINUOUS
 62
6
 66
1
 40
1.0E-003
 41
1.0E-003
 70
0
  0
VERTEX
  8
254
 42
0.0
 10
2.5999943E+002
 20
9.999958
 70
0
  0
VERTEX
  8
254
 42
0.0
 10
2.5999943E+002
 20
6.999958
 70
0
  0
SEQEND
  0
POLYLINE
  8
253
  6
CONTINUOUS
 62
6
 66
1
 40
1.0E-003
 41
1.0E-003
 70
0
  0
VERTEX
  8
253
 42
0.0
 10
2.0999941E+002
 20
9.999958
 70
0
  0
VERTEX
  8
253
 42
0.0
 10
2.0999941E+002
 20
5.999958
 70
0
  0
SEQEND
  0
POLYLINE
  8
253
  6
CONTINUOUS
 62
2
 66
1
 40
1.0E-003
 41
1.0E-003
 70
0
  0
VERTEX
  8
253
 42
0.0
 10
1.599994E+002
 20
9.999958
 70
0
  0
VERTEX
  8
253
 42
0.0
 10
1.599994E+002
 20
5.999958
 70
0
  0
SEQEND
  0
POLYLINE
  8
252
  6
CONTINUOUS
 62
6
 66
1
 40
1.0E-003
 41
1.0E-003
 70
0
  0
VERTEX
  8
252
 42
0.0
 10
1.099994E+002
 20
9.999958
 70
0
  0
VERTEX
  8
252
 42
0.0
 10
1.099994E+002
 20
6.999958
 70
0
  0
SEQEND
  0
POLYLINE
  8
254
  6
CONTINUOUS
 62
6
 66
1
 40
1.0E-003
 41
1.0E-003
 70
0
  0
VERTEX
  8
254
 42
0.0
 10
1.4999395E+001
 20
1.0000004E+001
 70
0
  0
VERTEX
  8
254
 42
0.0
 10
1.1999395E+001
 20
1.0000004E+001
 70
0
  0
SEQEND
  0
POLYLINE
  8
254
  6
CONTINUOUS
 62
6
 66
1
 40
1.0E-003
 41
1.0E-003
 70
0
  0
VERTEX
  8
254
 42
0.0
 10
1.4999395E+001
 20
5.6000004E+001
 70
0
  0
VERTEX
  8
254
 42
0.0
 10
1.1999395E+001
 20
5.6000004E+001
 70
0
  0
SEQEND
  0
POLYLINE
  8
254
  6
CONTINUOUS
 62
6
 66
1
 40
1.0E-003
 41
1.0E-003
 70
0
  0
VERTEX
  8
254
 42
0.0
 10
1.4999395E+001
 20
1.02E+002
 70
0
  0
VERTEX
  8
254
 42
0.0
 10
1.1999395E+001
 20
1.02E+002
 70
0
  0
SEQEND
  0
POLYLINE
  8
254
  6
CONTINUOUS
 62
6
 66
1
 40
1.0E-003
 41
1.0E-003
 70
0
  0
VERTEX
  8
254
 42
0.0
 10
1.4999395E+001
 20
1.48E+002
 70
0
  0
VERTEX
  8
254
 42
0.0
 10
1.1999395E+001
 20
1.48E+002
 70
0
  0
SEQEND
  0
POLYLINE
  8
254
  6
CONTINUOUS
 62
6
 66
1
 40
1.0E-003
 41
1.0E-003
 70
0
  0
VERTEX
  8
254
 42
0.0
 10
1.4999395E+001
 20
1.94E+002
 70
0
  0
VERTEX
  8
254
 42
0.0
 10
1.1999395E+001
 20
1.94E+002
 70
0
  0
SEQEND
  0
POLYLINE
  8
254
  6
CONTINUOUS
 62
6
 66
1
 40
1.0E-003
 41
1.0E-003
 70
0
  0
VERTEX
  8
254
 42
0.0
 10
1.4999395E+001
 20
2.4E+002
 70
0
  0
VERTEX
  8
254
 42
0.0
 10
1.1999395E+001
 20
2.4E+002
 70
0
  0
SEQEND
  0
POLYLINE
  8
253
  6
CONTINUOUS
 62
6
 66
1
 40
1.0E-003
 41
1.0E-003
 70
0
  0
VERTEX
  8
253
 42
0.0
 10
5.9999395E+001
 20
9.999958
 70
0
  0
VERTEX
  8
253
 42
0.0
 10
5.9999395E+001
 20
5.999958
 70
0
  0
SEQEND
  0
POLYLINE
  8
254
  6
CONTINUOUS
 62
6
 66
1
 40
1.0E-003
 41
1.0E-003
 70
0
  0
VERTEX
  8
254
 42
0.0
 10
1.4999395E+001
 20
2.87E+002
 70
0
  0
VERTEX
  8
254
 42
0.0
 10
1.1999395E+001
 20
2.87E+002
 70
0
  0
SEQEND
  0
POLYLINE
  8
254
  6
CONTINUOUS
 62
6
 66
1
 40
1.0E-003
 41
1.0E-003
 70
0
  0
VERTEX
  8
254
 42
0.0
 10
1.4999395E+001
 20
2.87E+002
 70
0
  0
VERTEX
  8
254
 42
0.0
 10
1.4999395E+001
 20
2.9E+002
 70
0
  0
SEQEND
  0
POLYLINE
  8
254
  6
CONTINUOUS
 62
6
 66
1
 40
1.0E-003
 41
1.0E-003
 70
0
  0
VERTEX
  8
254
 42
0.0
 10
5.9999395E+001
 20
2.87E+002
 70
0
  0
VERTEX
  8
254
 42
0.0
 10
5.9999395E+001
 20
2.9E+002
 70
0
  0
SEQEND
  0
POLYLINE
  8
254
  6
CONTINUOUS
 62
6
 66
1
 40
1.0E-003
 41
1.0E-003
 70
0
  0
VERTEX
  8
254
 42
0.0
 10
1.099994E+002
 20
2.87E+002
 70
0
  0
VERTEX
  8
254
 42
0.0
 10
1.099994E+002
 20
2.9E+002
 70
0
  0
SEQEND
  0
POLYLINE
  8
254
  6
CONTINUOUS
 62
6
 66
1
 40
1.0E-003
 41
1.0E-003
 70
0
  0
VERTEX
  8
254
 42
0.0
 10
2.0999941E+002
 20
2.87E+002
 70
0
  0
VERTEX
  8
254
 42
0.0
 10
2.0999941E+002
 20
2.9E+002
 70
0
  0
SEQEND
  0
POLYLINE
  8
254
  6
CONTINUOUS
 62
6
 66
1
 40
1.0E-003
 41
1.0E-003
 70
0
  0
VERTEX
  8
254
 42
0.0
 10
2.5999943E+002
 20
2.87E+002
 70
0
  0
VERTEX
  8
254
 42
0.0
 10
2.5999943E+002
 20
2.9E+002
 70
0
  0
SEQEND
  0
POLYLINE
  8
254
  6
CONTINUOUS
 62
6
 66
1
 40
1.0E-003
 41
1.0E-003
 70
0
  0
VERTEX
  8
254
 42
0.0
 10
3.0999943E+002
 20
2.87E+002
 70
0
  0
VERTEX
  8
254
 42
0.0
 10
3.0999943E+002
 20
2.9E+002
 70
0
  0
SEQEND
  0
POLYLINE
  8
254
  6
CONTINUOUS
 62
6
 66
1
 40
1.0E-003
 41
1.0E-003
 70
0
  0
VERTEX
  8
254
 42
0.0
 10
3.5999943E+002
 20
2.87E+002
 70
0
  0
VERTEX
  8
254
 42
0.0
 10
3.5999943E+002
 20
2.9E+002
 70
0
  0
SEQEND
  0
POLYLINE
  8
254
  6
CONTINUOUS
 62
6
 66
1
 40
1.0E-003
 41
1.0E-003
 70
0
  0
VERTEX
  8
254
 42
0.0
 10
4.0999943E+002
 20
2.87E+002
 70
0
  0
VERTEX
  8
254
 42
0.0
 10
4.0999943E+002
 20
2.9E+002
 70
0
  0
SEQEND
  0
POLYLINE
  8
254
  6
CONTINUOUS
 62
6
 66
1
 40
1.0E-003
 41
1.0E-003
 70
0
  0
VERTEX
  8
254
 42
0.0
 10
1.599994E+002
 20
2.87E+002
 70
0
  0
VERTEX
  8
254
 42
0.0
 10
1.599994E+002
 20
2.9E+002
 70
0
  0
SEQEND
  0
POLYLINE
  8
254
  6
CONTINUOUS
 62
6
 66
1
 40
1.0E-003
 41
1.0E-003
 70
0
  0
VERTEX
  8
254
 42
0.0
 10
1.7962629E+001
 20
2.8704526E+002
 70
0
  0
VERTEX
  8
254
 42
0.0
 10
1.9185049E+001
 20
2.8916254E+002
 70
0
  0
SEQEND
  0
POLYLINE
  8
254
  6
CONTINUOUS
 62
6
 66
1
 40
1.0E-003
 41
1.0E-003
 70
0
  0
VERTEX
  8
254
 42
0.0
 10
2.0407469E+001
 20
2.8704526E+002
 70
0
  0
VERTEX
  8
254
 42
0.0
 10
1.9185049E+001
 20
2.8916254E+002
 70
0
  0
SEQEND
  0
POLYLINE
  8
251
  6
CONTINUOUS
 62
6
 66
1
 40
7.0E-001
 41
7.0E-001
 70
0
  0
VERTEX
  8
251
 42
0.0
 10
2.0899941E+002
 20
2.87E+002
 70
0
  0
VERTEX
  8
251
 42
0.0
 10
2.0899941E+002
 20
2.97E+002
 70
0
  0
SEQEND
  0
POLYLINE
  8
251
  6
CONTINUOUS
 62
6
 66
1
 40
7.0E-001
 41
7.0E-001
 70
0
  0
VERTEX
  8
251
 42
0.0
 10
2.1099941E+002
 20
2.87E+002
 70
0
  0
VERTEX
  8
251
 42
0.0
 10
2.1099941E+002
 20
2.97E+002
 70
0
  0
SEQEND
  0
POLYLINE
  8
254
  6
CONTINUOUS
 62
6
 66
1
 40
1.0E-003
 41
1.0E-003
 70
0
  0
VERTEX
  8
254
 42
0.0
 10
2.2849941E+002
 20
2.87E+002
 70
0
  0
VERTEX
  8
254
 42
0.0
 10
2.2974941E+002
 20
2.8916507E+002
 70
0
  0
SEQEND
  0
POLYLINE
  8
254
  6
CONTINUOUS
 62
6
 66
1
 40
1.0E-003
 41
1.0E-003
 70
0
  0
VERTEX
  8
254
 42
0.0
 10
2.3099941E+002
 20
2.87E+002
 70
0
  0
VERTEX
  8
254
 42
0.0
 10
2.2974941E+002
 20
2.8916507E+002
 70
0
  0
SEQEND
  0
POLYLINE
  8
254
  6
CONTINUOUS
 62
6
 66
1
 40
1.0E-003
 41
1.0E-003
 70
0
  0
VERTEX
  8
254
 42
0.0
 10
2.2849941E+002
 20
1.0000004E+001
 70
0
  0
VERTEX
  8
254
 42
0.0
 10
2.2974941E+002
 20
7.834919
 70
0
  0
SEQEND
  0
POLYLINE
  8
254
  6
CONTINUOUS
 62
6
 66
1
 40
1.0E-003
 41
1.0E-003
 70
0
  0
VERTEX
  8
254
 42
0.0
 10
2.3099941E+002
 20
9.999958
 70
0
  0
VERTEX
  8
254
 42
0.0
 10
2.2974941E+002
 20
7.834919
 70
0
  0
SEQEND
  0
POLYLINE
  8
251
  6
CONTINUOUS
 62
6
 66
1
 40
7.0E-001
 41
7.0E-001
 70
0
  0
VERTEX
  8
251
 42
0.0
 10
2.1099941E+002
 20
1.0000004E+001
 70
0
  0
VERTEX
  8
251
 42
0.0
 10
2.1099941E+002
 20
0.0
 70
0
  0
SEQEND
  0
POLYLINE
  8
251
  6
CONTINUOUS
 62
6
 66
1
 40
7.0E-001
 41
7.0E-001
 70
0
  0
VERTEX
  8
251
 42
0.0
 10
2.0899941E+002
 20
1.0000004E+001
 70
0
  0
VERTEX
  8
251
 42
0.0
 10
2.0899941E+002
 20
0.0
 70
0
  0
SEQEND
  0
POLYLINE
  8
253
  6
CONTINUOUS
 62
6
 66
1
 40
1.0E-003
 41
1.0E-003
 70
0
  0
VERTEX
  8
253
 42
0.0
 10
1.9999941E+002
 20
9.999958
 70
0
  0
VERTEX
  8
253
 42
0.0
 10
1.9999941E+002
 20
5.999958
 70
0
  0
SEQEND
  0
POLYLINE
  8
253
  6
CONTINUOUS
 62
6
 66
1
 40
1.0E-003
 41
1.0E-003
 70
0
  0
VERTEX
  8
253
 42
0.0
 10
1.8999941E+002
 20
1.0000004E+001
 70
0
  0
VERTEX
  8
253
 42
0.0
 10
1.8999941E+002
 20
6.0000038
 70
0
  0
SEQEND
  0
POLYLINE
  8
253
  6
CONTINUOUS
 62
6
 66
1
 40
1.0E-003
 41
1.0E-003
 70
0
  0
VERTEX
  8
253
 42
0.0
 10
1.799994E+002
 20
9.999958
 70
0
  0
VERTEX
  8
253
 42
0.0
 10
1.799994E+002
 20
5.999958
 70
0
  0
SEQEND
  0
POLYLINE
  8
253
  6
CONTINUOUS
 62
6
 66
1
 40
1.0E-003
 41
1.0E-003
 70
0
  0
VERTEX
  8
253
 42
0.0
 10
1.699994E+002
 20
9.999958
 70
0
  0
VERTEX
  8
253
 42
0.0
 10
1.699994E+002
 20
5.999958
 70
0
  0
SEQEND
  0
POLYLINE
  8
253
  6
CONTINUOUS
 62
6
 66
1
 40
1.0E-003
 41
1.0E-003
 70
0
  0
VERTEX
  8
253
 42
0.0
 10
1.599994E+002
 20
9.999958
 70
0
  0
VERTEX
  8
253
 42
0.0
 10
1.599994E+002
 20
6.999958
 70
0
  0
SEQEND
  0
POLYLINE
  8
253
  6
CONTINUOUS
 62
6
 66
1
 40
1.0E-003
 41
1.0E-003
 70
0
  0
VERTEX
  8
253
 42
0.0
 10
1.499994E+002
 20
9.999958
 70
0
  0
VERTEX
  8
253
 42
0.0
 10
1.499994E+002
 20
5.999958
 70
0
  0
SEQEND
  0
POLYLINE
  8
253
  6
CONTINUOUS
 62
6
 66
1
 40
1.0E-003
 41
1.0E-003
 70
0
  0
VERTEX
  8
253
 42
0.0
 10
1.399994E+002
 20
9.999958
 70
0
  0
VERTEX
  8
253
 42
0.0
 10
1.399994E+002
 20
5.999958
 70
0
  0
SEQEND
  0
POLYLINE
  8
253
  6
CONTINUOUS
 62
6
 66
1
 40
1.0E-003
 41
1.0E-003
 70
0
  0
VERTEX
  8
253
 42
0.0
 10
1.299994E+002
 20
9.999958
 70
0
  0
VERTEX
  8
253
 42
0.0
 10
1.299994E+002
 20
5.999958
 70
0
  0
SEQEND
  0
POLYLINE
  8
253
  6
CONTINUOUS
 62
6
 66
1
 40
1.0E-003
 41
1.0E-003
 70
0
  0
VERTEX
  8
253
 42
0.0
 10
1.199994E+002
 20
9.999958
 70
0
  0
VERTEX
  8
253
 42
0.0
 10
1.199994E+002
 20
5.999958
 70
0
  0
SEQEND
  0
POLYLINE
  8
253
  6
CONTINUOUS
 62
6
 66
1
 40
1.0E-003
 41
1.0E-003
 70
0
  0
VERTEX
  8
253
 42
0.0
 10
1.099994E+002
 20
9.999958
 70
0
  0
VERTEX
  8
253
 42
0.0
 10
1.099994E+002
 20
5.999958
 70
0
  0
SEQEND
  0
POLYLINE
  8
253
  6
CONTINUOUS
 62
6
 66
1
 40
1.0E-003
 41
1.0E-003
 70
0
  0
VERTEX
  8
253
 42
0.0
 10
9.9999395E+001
 20
9.999958
 70
0
  0
VERTEX
  8
253
 42
0.0
 10
9.9999395E+001
 20
5.999958
 70
0
  0
SEQEND
  0
POLYLINE
  8
253
  6
CONTINUOUS
 62
6
 66
1
 40
1.0E-003
 41
1.0E-003
 70
0
  0
VERTEX
  8
253
 42
0.0
 10
8.9999395E+001
 20
9.999958
 70
0
  0
VERTEX
  8
253
 42
0.0
 10
8.9999395E+001
 20
5.999958
 70
0
  0
SEQEND
  0
POLYLINE
  8
253
  6
CONTINUOUS
 62
6
 66
1
 40
1.0E-003
 41
1.0E-003
 70
0
  0
VERTEX
  8
253
 42
0.0
 10
7.9999395E+001
 20
9.999958
 70
0
  0
VERTEX
  8
253
 42
0.0
 10
7.9999395E+001
 20
5.999958
 70
0
  0
SEQEND
  0
POLYLINE
  8
253
  6
CONTINUOUS
 62
6
 66
1
 40
1.0E-003
 41
1.0E-003
 70
0
  0
VERTEX
  8
253
 42
0.0
 10
6.9999395E+001
 20
1.0000004E+001
 70
0
  0
VERTEX
  8
253
 42
0.0
 10
6.9999395E+001
 20
6.0000038
 70
0
  0
SEQEND
  0
POLYLINE
  8
253
  6
CONTINUOUS
 62
6
 66
1
 40
1.0E-003
 41
1.0E-003
 70
0
  0
VERTEX
  8
253
 42
0.0
 10
5.9999395E+001
 20
9.999958
 70
0
  0
VERTEX
  8
253
 42
0.0
 10
5.9999395E+001
 20
6.999958
 70
0
  0
SEQEND
  0
POLYLINE
  8
254
  6
CONTINUOUS
 62
6
 66
1
 40
1.0E-003
 41
1.0E-003
 70
0
  0
VERTEX
  8
254
 42
0.0
 10
2.0499941E+002
 20
1.0000004E+001
 70
0
  0
VERTEX
  8
254
 42
0.0
 10
2.0499941E+002
 20
8.0000038
 70
0
  0
SEQEND
  0
POLYLINE
  8
254
  6
CONTINUOUS
 62
6
 66
1
 40
1.0E-003
 41
1.0E-003
 70
0
  0
VERTEX
  8
254
 42
0.0
 10
1.9499941E+002
 20
1.0000004E+001
 70
0
  0
VERTEX
  8
254
 42
0.0
 10
1.9499941E+002
 20
8.0000038
 70
0
  0
SEQEND
  0
POLYLINE
  8
254
  6
CONTINUOUS
 62
6
 66
1
 40
1.0E-003
 41
1.0E-003
 70
0
  0
VERTEX
  8
254
 42
0.0
 10
1.849994E+002
 20
1.0000004E+001
 70
0
  0
VERTEX
  8
254
 42
0.0
 10
1.849994E+002
 20
8.0000038
 70
0
  0
SEQEND
  0
POLYLINE
  8
254
  6
CONTINUOUS
 62
6
 66
1
 40
1.0E-003
 41
1.0E-003
 70
0
  0
VERTEX
  8
254
 42
0.0
 10
1.749994E+002
 20
1.0000004E+001
 70
0
  0
VERTEX
  8
254
 42
0.0
 10
1.749994E+002
 20
8.0000038
 70
0
  0
SEQEND
  0
POLYLINE
  8
254
  6
CONTINUOUS
 62
6
 66
1
 40
1.0E-003
 41
1.0E-003
 70
0
  0
VERTEX
  8
254
 42
0.0
 10
1.649994E+002
 20
1.0000004E+001
 70
0
  0
VERTEX
  8
254
 42
0.0
 10
1.649994E+002
 20
8.0000038
 70
0
  0
SEQEND
  0
POLYLINE
  8
254
  6
CONTINUOUS
 62
6
 66
1
 40
1.0E-003
 41
1.0E-003
 70
0
  0
VERTEX
  8
254
 42
0.0
 10
1.549994E+002
 20
1.0000004E+001
 70
0
  0
VERTEX
  8
254
 42
0.0
 10
1.549994E+002
 20
8.0000038
 70
0
  0
SEQEND
  0
POLYLINE
  8
254
  6
CONTINUOUS
 62
6
 66
1
 40
1.0E-003
 41
1.0E-003
 70
0
  0
VERTEX
  8
254
 42
0.0
 10
1.449994E+002
 20
1.0000004E+001
 70
0
  0
VERTEX
  8
254
 42
0.0
 10
1.449994E+002
 20
8.0000038
 70
0
  0
SEQEND
  0
POLYLINE
  8
254
  6
CONTINUOUS
 62
6
 66
1
 40
1.0E-003
 41
1.0E-003
 70
0
  0
VERTEX
  8
254
 42
0.0
 10
1.349994E+002
 20
1.0000004E+001
 70
0
  0
VERTEX
  8
254
 42
0.0
 10
1.349994E+002
 20
8.0000038
 70
0
  0
SEQEND
  0
POLYLINE
  8
254
  6
CONTINUOUS
 62
6
 66
1
 40
1.0E-003
 41
1.0E-003
 70
0
  0
VERTEX
  8
254
 42
0.0
 10
1.249994E+002
 20
1.0000004E+001
 70
0
  0
VERTEX
  8
254
 42
0.0
 10
1.249994E+002
 20
8.0000038
 70
0
  0
SEQEND
  0
POLYLINE
  8
254
  6
CONTINUOUS
 62
6
 66
1
 40
1.0E-003
 41
1.0E-003
 70
0
  0
VERTEX
  8
254
 42
0.0
 10
1.149994E+002
 20
1.0000004E+001
 70
0
  0
VERTEX
  8
254
 42
0.0
 10
1.149994E+002
 20
8.0000038
 70
0
  0
SEQEND
  0
POLYLINE
  8
254
  6
CONTINUOUS
 62
6
 66
1
 40
1.0E-003
 41
1.0E-003
 70
0
  0
VERTEX
  8
254
 42
0.0
 10
1.049994E+002
 20
1.0000004E+001
 70
0
  0
VERTEX
  8
254
 42
0.0
 10
1.049994E+002
 20
8.0000038
 70
0
  0
SEQEND
  0
POLYLINE
  8
254
  6
CONTINUOUS
 62
6
 66
1
 40
1.0E-003
 41
1.0E-003
 70
0
  0
VERTEX
  8
254
 42
0.0
 10
9.4999395E+001
 20
1.0000004E+001
 70
0
  0
VERTEX
  8
254
 42
0.0
 10
9.4999395E+001
 20
8.0000038
 70
0
  0
SEQEND
  0
POLYLINE
  8
254
  6
CONTINUOUS
 62
6
 66
1
 40
1.0E-003
 41
1.0E-003
 70
0
  0
VERTEX
  8
254
 42
0.0
 10
8.4999395E+001
 20
1.0000004E+001
 70
0
  0
VERTEX
  8
254
 42
0.0
 10
8.4999395E+001
 20
8.0000038
 70
0
  0
SEQEND
  0
POLYLINE
  8
254
  6
CONTINUOUS
 62
6
 66
1
 40
1.0E-003
 41
1.0E-003
 70
0
  0
VERTEX
  8
254
 42
0.0
 10
7.4999395E+001
 20
1.0000004E+001
 70
0
  0
VERTEX
  8
254
 42
0.0
 10
7.4999395E+001
 20
8.0000038
 70
0
  0
SEQEND
  0
POLYLINE
  8
254
  6
CONTINUOUS
 62
6
 66
1
 40
1.0E-003
 41
1.0E-003
 70
0
  0
VERTEX
  8
254
 42
0.0
 10
6.4999395E+001
 20
1.0000004E+001
 70
0
  0
VERTEX
  8
254
 42
0.0
 10
6.4999395E+001
 20
8.0000038
 70
0
  0
SEQEND
  0
POLYLINE
  8
254
  6
CONTINUOUS
 62
6
 66
1
 40
1.0E-003
 41
1.0E-003
 70
0
  0
VERTEX
  8
254
 42
0.0
 10
1.8499395E+001
 20
1.0000004E+001
 70
0
  0
VERTEX
  8
254
 42
0.0
 10
1.9749395E+001
 20
7.8349342
 70
0
  0
SEQEND
  0
POLYLINE
  8
254
  6
CONTINUOUS
 62
6
 66
1
 40
1.0E-003
 41
1.0E-003
 70
0
  0
VERTEX
  8
254
 42
0.0
 10
2.0999395E+001
 20
1.0000004E+001
 70
0
  0
VERTEX
  8
254
 42
0.0
 10
1.9749395E+001
 20
7.8349342
 70
0
  0
SEQEND
  0
POLYLINE
  8
251
  6
CONTINUOUS
 62
6
 66
1
 40
7.0E-001
 41
7.0E-001
 70
0
  0
VERTEX
  8
251
 42
0.0
 10
2.1799941E+002
 20
3.5500004E+001
 70
0
  0
VERTEX
  8
251
 42
0.0
 10
2.1799941E+002
 20
1.0000004E+001
 70
0
  0
SEQEND
  0
POLYLINE
  8
251
  6
CONTINUOUS
 62
6
 66
1
 40
7.0E-001
 41
7.0E-001
 70
0
  0
VERTEX
  8
251
 42
0.0
 10
2.1799941E+002
 20
3.5500004E+001
 70
0
  0
VERTEX
  8
251
 42
0.0
 10
4.0999943E+002
 20
3.5500004E+001
 70
0
  0
SEQEND
  0
POLYLINE
  8
251
  6
CONTINUOUS
 62
6
 66
1
 40
5.0E-001
 41
5.0E-001
 70
0
  0
VERTEX
  8
251
 42
0.0
 10
3.5149943E+002
 20
3.1250004E+001
 70
0
  0
VERTEX
  8
251
 42
0.0
 10
4.0999943E+002
 20
3.1250004E+001
 70
0
  0
SEQEND
  0
POLYLINE
  8
251
  6
CONTINUOUS
 62
1
 66
1
 40
1.0E-003
 41
1.0E-003
 70
0
  0
VERTEX
  8
251
 42
0.0
 10
3.7999943E+002
 20
3.5500004E+001
 70
0
  0
VERTEX
  8
251
 42
0.0
 10
3.7999943E+002
 20
2.7000004E+001
 70
0
  0
SEQEND
  0
POLYLINE
  8
251
  6
CONTINUOUS
 62
6
 66
1
 40
7.0E-001
 41
7.0E-001
 70
0
  0
VERTEX
  8
251
 42
0.0
 10
3.5149943E+002
 20
3.5500004E+001
 70
0
  0
VERTEX
  8
251
 42
0.0
 10
3.5149943E+002
 20
1.0000004E+001
 70
0
  0
SEQEND
  0
POLYLINE
  8
251
  6
CONTINUOUS
 62
6
 66
1
 40
7.0E-001
 41
7.0E-001
 70
0
  0
VERTEX
  8
251
 42
0.0
 10
3.3999943E+002
 20
3.5295017E+001
 70
0
  0
VERTEX
  8
251
 42
0.0
 10
3.3999943E+002
 20
1.8500004E+001
 70
0
  0
SEQEND
  0
POLYLINE
  8
251
  6
CONTINUOUS
 62
6
 66
1
 40
7.0E-001
 41
7.0E-001
 70
0
  0
VERTEX
  8
251
 42
0.0
 10
3.0249943E+002
 20
3.5500004E+001
 70
0
  0
VERTEX
  8
251
 42
0.0
 10
3.0249943E+002
 20
1.8500004E+001
 70
0
  0
SEQEND
  0
POLYLINE
  8
251
  6
CONTINUOUS
 62
6
 66
1
 40
7.0E-001
 41
7.0E-001
 70
0
  0
VERTEX
  8
251
 42
0.0
 10
2.6349943E+002
 20
3.5500004E+001
 70
0
  0
VERTEX
  8
251
 42
0.0
 10
2.6349943E+002
 20
1.8500004E+001
 70
0
  0
SEQEND
  0
LINE
  8
251
  6
CONTINUOUS
 62
6
 10
2.2349941E+002
 20
3.5500004E+001
 11
2.2349941E+002
 21
1.8500004E+001
  0
POLYLINE
  8
251
  6
CONTINUOUS
 62
6
 66
1
 40
5.0E-001
 41
5.0E-001
 70
0
  0
VERTEX
  8
251
 42
0.0
 10
2.6349943E+002
 20
2.7000004E+001
 70
0
  0
VERTEX
  8
251
 42
0.0
 10
3.3999943E+002
 20
2.7000004E+001
 70
0
  0
SEQEND
  0
POLYLINE
  8
251
  6
CONTINUOUS
 62
6
 66
1
 40
5.0E-001
 41
5.0E-001
 70
0
  0
VERTEX
  8
251
 42
0.0
 10
2.6349943E+002
 20
2.2750004E+001
 70
0
  0
VERTEX
  8
251
 42
0.0
 10
3.3999943E+002
 20
2.2750004E+001
 70
0
  0
SEQEND
  0
POLYLINE
  8
251
  6
CONTINUOUS
 62
6
 66
1
 40
7.0E-001
 41
7.0E-001
 70
0
  0
VERTEX
  8
251
 42
0.0
 10
2.6349943E+002
 20
1.8500004E+001
 70
0
  0
VERTEX
  8
251
 42
0.0
 10
4.0999943E+002
 20
1.8500004E+001
 70
0
  0
SEQEND
  0
POLYLINE
  8
251
  6
CONTINUOUS
 62
6
 66
1
 40
7.0E-001
 41
7.0E-001
 70
0
  0
VERTEX
  8
251
 42
0.0
 10
3.3999943E+002
 20
2.7000004E+001
 70
0
  0
VERTEX
  8
251
 42
0.0
 10
4.0999943E+002
 20
2.7000004E+001
 70
0
  0
SEQEND
  0
POLYLINE
  8
251
  6
CONTINUOUS
 62
6
 66
1
 40
7.0E-001
 41
7.0E-001
 70
0
  0
VERTEX
  8
251
 42
0.0
 10
3.6299943E+002
 20
2.7000004E+001
 70
0
  0
VERTEX
  8
251
 42
0.0
 10
3.6299943E+002
 20
1.8500004E+001
 70
0
  0
SEQEND
  0
POLYLINE
  8
251
  6
CONTINUOUS
 62
110
 66
1
 40
7.0E-001
 41
7.0E-001
 70
0
  0
VERTEX
  8
251
 42
0.0
 10
3.7299943E+002
 20
2.7000004E+001
 70
0
  0
VERTEX
  8
251
 42
0.0
 10
3.7299943E+002
 20
1.8500004E+001
 70
0
  0
SEQEND
  0
POLYLINE
  8
251
  6
CONTINUOUS
 62
110
 66
1
 40
7.0E-001
 41
7.0E-001
 70
0
  0
VERTEX
  8
251
 42
0.0
 10
3.8449943E+002
 20
2.7000004E+001
 70
0
  0
VERTEX
  8
251
 42
0.0
 10
3.8449943E+002
 20
1.8500004E+001
 70
0
  0
SEQEND
  0
POLYLINE
  8
251
  6
CONTINUOUS
 62
110
 66
1
 40
7.0E-001
 41
7.0E-001
 70
0
  0
VERTEX
  8
251
 42
0.0
 10
3.9649943E+002
 20
2.7000004E+001
 70
0
  0
VERTEX
  8
251
 42
0.0
 10
3.9649943E+002
 20
1.8500004E+001
 70
0
  0
SEQEND
  0
LINE
  8
254
  6
HIDDEN
 62
6
 10
3.5149943E+002
 20
1.1500004E+001
 11
4.0999943E+002
 21
1.1500004E+001
  0
LINE
  8
254
  6
CONTINUOUS
 62
6
 10
2.2349941E+002
 20
2.7000004E+001
 11
2.6349943E+002
 21
2.7000004E+001
  0
LINE
  8
254
  6
CONTINUOUS
 62
6
 10
2.2349941E+002
 20
2.2750004E+001
 11
2.6349943E+002
 21
2.2750004E+001
  0
POLYLINE
  8
251
  6
CONTINUOUS
 62
6
 66
1
 40
7.0E-001
 41
7.0E-001
 70
0
  0
VERTEX
  8
251
 42
0.0
 10
2.1799941E+002
 20
1.8500004E+001
 70
0
  0
VERTEX
  8
251
 42
0.0
 10
2.6349943E+002
 20
1.8500004E+001
 70
0
  0
SEQEND
  0
LINE
  8
254
  6
CONTINUOUS
 62
6
 10
2.2349941E+002
 20
3.1250004E+001
 11
2.6349943E+002
 21
3.1250004E+001
  0
POLYLINE
  8
251
  6
CONTINUOUS
 62
6
 66
1
 40
5.0E-001
 41
5.0E-001
 70
0
  0
VERTEX
  8
251
 42
0.0
 10
2.6349943E+002
 20
3.1250004E+001
 70
0
  0
VERTEX
  8
251
 42
0.0
 10
3.3999943E+002
 20
3.1250004E+001
 70
0
  0
SEQEND
  0
POLYLINE
  8
251
  6
CONTINUOUS
 62
6
 66
1
 40
7.0E-001
 41
7.0E-001
 70
0
  0
VERTEX
  8
251
 42
0.0
 10
2.3299941E+002
 20
1.8500004E+001
 70
0
  0
VERTEX
  8
251
 42
0.0
 10
2.3299941E+002
 20
1.0000004E+001
 70
0
  0
SEQEND
  0
POLYLINE
  8
254
  6
HIDDEN
 62
3
 66
1
 40
1.0E-003
 41
1.0E-003
 70
0
  0
VERTEX
  8
254
 42
0.0
 10
3.5724943E+002
 20
2.2750004E+001
 70
0
  0
VERTEX
  8
254
 42
0.0
 10
3.5724943E+002
 20
1.8500004E+001
 70
0
  0
SEQEND
  0
POLYLINE
  8
254
  6
HIDDEN
 62
3
 66
1
 40
1.0E-003
 41
1.0E-003
 70
0
  0
VERTEX
  8
254
 42
0.0
 10
3.6799943E+002
 20
2.2750004E+001
 70
0
  0
VERTEX
  8
254
 42
0.0
 10
3.6799943E+002
 20
1.8500004E+001
 70
0
  0
SEQEND
  0
POLYLINE
  8
254
  6
CONTINUOUS
 62
3
 66
1
 40
1.0E-003
 41
1.0E-003
 70
0
  0
VERTEX
  8
254
 42
0.0
 10
3.7578943E+002
 20
3.191045E+001
 70
0
  0
VERTEX
  8
254
 42
0.0
 10
3.7578943E+002
 20
3.4534679E+001
 70
0
  0
SEQEND
  0
POLYLINE
  8
254
  6
CONTINUOUS
 62
3
 66
1
 40
1.0E-003
 41
1.0E-003
 70
0
  0
VERTEX
  8
254
 42
0.0
 10
3.7578943E+002
 20
3.4534679E+001
 70
0
  0
VERTEX
  8
254
 42
0.0
 10
3.7897602E+002
 20
3.4534679E+001
 70
0
  0
SEQEND
  0
POLYLINE
  8
254
  6
CONTINUOUS
 62
3
 66
1
 40
1.0E-003
 41
1.0E-003
 70
0
  0
VERTEX
  8
254
 42
0.0
 10
3.7897602E+002
 20
3.4534679E+001
 70
0
  0
VERTEX
  8
254
 42
0.0
 10
3.7897602E+002
 20
3.191045E+001
 70
0
  0
SEQEND
  0
POLYLINE
  8
254
  6
CONTINUOUS
 62
3
 66
1
 40
1.0E-003
 41
1.0E-003
 70
0
  0
VERTEX
  8
254
 42
0.0
 10
3.7897602E+002
 20
3.191045E+001
 70
0
  0
VERTEX
  8
254
 42
0.0
 10
3.7578943E+002
 20
3.191045E+001
 70
0
  0
SEQEND
  0
POLYLINE
  8
254
  6
CONTINUOUS
 62
3
 66
1
 40
1.0E-003
 41
1.0E-003
 70
0
  0
VERTEX
  8
254
 42
0.0
 10
4.0578943E+002
 20
3.191045E+001
 70
0
  0
VERTEX
  8
254
 42
0.0
 10
4.0578943E+002
 20
3.4534679E+001
 70
0
  0
SEQEND
  0
POLYLINE
  8
254
  6
CONTINUOUS
 62
3
 66
1
 40
1.0E-003
 41
1.0E-003
 70
0
  0
VERTEX
  8
254
 42
0.0
 10
4.0578943E+002
 20
3.4534679E+001
 70
0
  0
VERTEX
  8
254
 42
0.0
 10
4.0897602E+002
 20
3.4534679E+001
 70
0
  0
SEQEND
  0
POLYLINE
  8
254
  6
CONTINUOUS
 62
3
 66
1
 40
1.0E-003
 41
1.0E-003
 70
0
  0
VERTEX
  8
254
 42
0.0
 10
4.0897602E+002
 20
3.4534679E+001
 70
0
  0
VERTEX
  8
254
 42
0.0
 10
4.0897602E+002
 20
3.191045E+001
 70
0
  0
SEQEND
  0
POLYLINE
  8
254
  6
CONTINUOUS
 62
3
 66
1
 40
1.0E-003
 41
1.0E-003
 70
0
  0
VERTEX
  8
254
 42
0.0
 10
4.0897602E+002
 20
3.191045E+001
 70
0
  0
VERTEX
  8
254
 42
0.0
 10
4.0578943E+002
 20
3.191045E+001
 70
0
  0
SEQEND
  0
POLYLINE
  8
254
  6
CONTINUOUS
 62
3
 66
1
 40
1.0E-003
 41
1.0E-003
 70
0
  0
VERTEX
  8
254
 42
0.0
 10
3.7578943E+002
 20
2.766045E+001
 70
0
  0
VERTEX
  8
254
 42
0.0
 10
3.7578943E+002
 20
3.0284679E+001
 70
0
  0
SEQEND
  0
POLYLINE
  8
254
  6
CONTINUOUS
 62
3
 66
1
 40
1.0E-003
 41
1.0E-003
 70
0
  0
VERTEX
  8
254
 42
0.0
 10
3.7578943E+002
 20
3.0284679E+001
 70
0
  0
VERTEX
  8
254
 42
0.0
 10
3.7897602E+002
 20
3.0284679E+001
 70
0
  0
SEQEND
  0
POLYLINE
  8
254
  6
CONTINUOUS
 62
3
 66
1
 40
1.0E-003
 41
1.0E-003
 70
0
  0
VERTEX
  8
254
 42
0.0
 10
3.7897602E+002
 20
3.0284679E+001
 70
0
  0
VERTEX
  8
254
 42
0.0
 10
3.7897602E+002
 20
2.766045E+001
 70
0
  0
SEQEND
  0
POLYLINE
  8
254
  6
CONTINUOUS
 62
3
 66
1
 40
1.0E-003
 41
1.0E-003
 70
0
  0
VERTEX
  8
254
 42
0.0
 10
3.7897602E+002
 20
2.766045E+001
 70
0
  0
VERTEX
  8
254
 42
0.0
 10
3.7578943E+002
 20
2.766045E+001
 70
0
  0
SEQEND
  0
LINE
  8
254
  6
CONTINUOUS
 62
6
 10
2.3049941E+002
 20
3.5500004E+001
 11
2.3049941E+002
 21
1.8500004E+001
  0
POLYLINE
  8
254
  6
CONTINUOUS
 62
3
 66
1
 40
1.0E-003
 41
1.0E-003
 70
0
  0
VERTEX
  8
254
 42
0.0
 10
3.4377439E+002
 20
2.4750004E+001
 70
0
  0
VERTEX
  8
254
 42
0.0
 10
3.4377439E+002
 20
2.0750004E+001
 70
0
  0
SEQEND
  0
POLYLINE
  8
254
  6
CONTINUOUS
 62
3
 66
1
 40
1.0E-003
 41
1.0E-003
 70
0
  0
VERTEX
  8
254
 42
0.0
 10
3.4101432E+002
 20
2.3750004E+001
 70
0
  0
VERTEX
  8
254
 42
0.0
 10
3.4101432E+002
 20
2.1750004E+001
 70
0
  0
SEQEND
  0
POLYLINE
  8
254
  6
CONTINUOUS
 62
3
 66
1
 40
1.0E-003
 41
1.0E-003
 70
0
  0
VERTEX
  8
254
 42
0.0
 10
3.4101432E+002
 20
2.3750004E+001
 70
0
  0
VERTEX
  8
254
 42
0.0
 10
3.4377439E+002
 20
2.4750004E+001
 70
0
  0
SEQEND
  0
POLYLINE
  8
254
  6
CONTINUOUS
 62
3
 66
1
 40
1.0E-003
 41
1.0E-003
 70
0
  0
VERTEX
  8
254
 42
0.0
 10
3.4101432E+002
 20
2.1750004E+001
 70
0
  0
VERTEX
  8
254
 42
0.0
 10
3.4377439E+002
 20
2.0750004E+001
 70
0
  0
SEQEND
  0
POLYLINE
  8
254
  6
HIDDEN
 62
3
 66
1
 40
1.0E-003
 41
1.0E-003
 70
0
  0
VERTEX
  8
254
 42
0.0
 10
3.4752024E+002
 20
2.5149998E+001
 70
0
  0
VERTEX
  8
254
 42
0.0
 10
3.4752024E+002
 20
2.0350002E+001
 70
0
  0
SEQEND
  0
POLYLINE
  8
254
  6
HIDDEN
 62
3
 66
1
 40
1.0E-003
 41
1.0E-003
 70
0
  0
VERTEX
  8
254
 42
0.0
 10
3.4992023E+002
 20
2.2750004E+001
 70
0
  0
VERTEX
  8
254
 42
0.0
 10
3.4081718E+002
 20
2.2750004E+001
 70
0
  0
SEQEND
  0
POLYLINE
  8
251
  6
CONTINUOUS
 62
110
 66
1
 40
7.0E-001
 41
7.0E-001
 70
0
  0
VERTEX
  8
251
 42
0.0
 10
4.0999943E+002
 20
2.81E+002
 70
0
  0
VERTEX
  8
251
 42
0.0
 10
2.4299941E+002
 20
2.81E+002
 70
0
  0
SEQEND
  0
POLYLINE
  8
251
  6
CONTINUOUS
 62
110
 66
1
 40
7.0E-001
 41
7.0E-001
 70
0
  0
VERTEX
  8
251
 42
0.0
 10
2.4299941E+002
 20
2.87E+002
 70
0
  0
VERTEX
  8
251
 42
0.0
 10
2.4299941E+002
 20
2.685E+002
 70
0
  0
SEQEND
  0
POLYLINE
  8
251
  6
CONTINUOUS
 62
110
 66
1
 40
5.0E-001
 41
5.0E-001
 70
0
  0
VERTEX
  8
251
 42
0.0
 10
2.6199943E+002
 20
2.87E+002
 70
0
  0
VERTEX
  8
251
 42
0.0
 10
2.6199943E+002
 20
2.685E+002
 70
0
  0
SEQEND
  0
POLYLINE
  8
251
  6
CONTINUOUS
 62
110
 66
1
 40
7.0E-001
 41
7.0E-001
 70
0
  0
VERTEX
  8
251
 42
0.0
 10
2.8099943E+002
 20
2.87E+002
 70
0
  0
VERTEX
  8
251
 42
0.0
 10
2.8099943E+002
 20
2.685E+002
 70
0
  0
SEQEND
  0
POLYLINE
  8
251
  6
CONTINUOUS
 62
110
 66
1
 40
7.0E-001
 41
7.0E-001
 70
0
  0
VERTEX
  8
251
 42
0.0
 10
2.6799943E+002
 20
2.87E+002
 70
0
  0
VERTEX
  8
251
 42
0.0
 10
2.6799943E+002
 20
2.685E+002
 70
0
  0
SEQEND
  0
POLYLINE
  8
251
  6
CONTINUOUS
 62
110
 66
1
 40
5.0E-001
 41
5.0E-001
 70
0
  0
VERTEX
  8
251
 42
0.0
 10
3.4799943E+002
 20
2.87E+002
 70
0
  0
VERTEX
  8
251
 42
0.0
 10
3.4799943E+002
 20
2.685E+002
 70
0
  0
SEQEND
  0
POLYLINE
  8
251
  6
CONTINUOUS
 62
110
 66
1
 40
7.0E-001
 41
7.0E-001
 70
0
  0
VERTEX
  8
251
 42
0.0
 10
3.9099943E+002
 20
2.87E+002
 70
0
  0
VERTEX
  8
251
 42
0.0
 10
3.9099943E+002
 20
2.685E+002
 70
0
  0
SEQEND
  0
POLYLINE
  8
251
  6
CONTINUOUS
 62
110
 66
1
 40
5.0E-001
 41
5.0E-001
 70
0
  0
VERTEX
  8
251
 42
0.0
 10
3.9699943E+002
 20
2.87E+002
 70
0
  0
VERTEX
  8
251
 42
0.0
 10
3.9699943E+002
 20
2.685E+002
 70
0
  0
SEQEND
  0
LINE
  8
254
  6
CONTINUOUS
 62
3
 10
2.4299941E+002
 20
2.75E+002
 11
2.8099943E+002
 21
2.75E+002
  0
LINE
  8
254
  6
CONTINUOUS
 62
3
 10
2.8099943E+002
 20
2.75E+002
 11
4.0999943E+002
 21
2.75E+002
  0
LINE
  8
254
  6
CONTINUOUS
 62
3
 10
2.4299941E+002
 20
2.685E+002
 11
4.0999943E+002
 21
2.685E+002
  0
LINE
  8
254
  6
CONTINUOUS
 62
3
 10
2.7099943E+002
 20
2.87E+002
 11
2.7099943E+002
 21
2.685E+002
  0
TEXT
  8
254
  6
CONTINUOUS
 62
6
 10
2.6879941E+002
 20
2.8299988E+002
 40
2.0
  1
C
 41
7.0E-001
  0
TEXT
  8
254
  6
CONTINUOUS
 62
6
 10
2.6399943E+002
 20
2.83E+002
 40
2.0
  1
E
 41
6.3315E-001
  0
TEXT
  8
254
  6
CONTINUOUS
 62
6
 10
9.9993955
 20
3.3000004E+001
 40
2.0
  1
F
  0
TEXT
  8
254
  6
CONTINUOUS
 62
6
 10
9.9993955
 20
7.9E+001
 40
2.0
  1
E
  0
TEXT
  8
254
  6
CONTINUOUS
 62
6
 10
9.9993955
 20
1.25E+002
 40
2.0
  1
D
  0
TEXT
  8
254
  6
CONTINUOUS
 62
6
 10
9.9993955
 20
1.71E+002
 40
2.0
  1
C
  0
TEXT
  8
254
  6
CONTINUOUS
 62
6
 10
9.9993955
 20
2.17E+002
 40
2.0
  1
B
  0
TEXT
  8
254
  6
CONTINUOUS
 62
6
 10
9.9993955
 20
2.63E+002
 40
2.0
  1
A
  0
TEXT
  8
254
  6
CONTINUOUS
 62
6
 10
2.0223434E+002
 20
2.2379646
 40
2.0
  1
150
 41
9.999E-001
  0
TEXT
  8
254
  6
CONTINUOUS
 62
6
 10
1.5855067E+002
 20
2.2379646
 40
2.0
  1
100
 41
9.999E-001
  0
TEXT
  8
254
  6
CONTINUOUS
 62
6
 10
1.0937534E+002
 20
2.4875832
 40
2.0
  1
50
 41
9.999E-001
  0
TEXT
  8
254
  6
CONTINUOUS
 62
6
 10
5.9700773E+001
 20
2.2379646
 40
2.0
  1
0
 41
7.777E-001
  0
TEXT
  8
254
  6
CONTINUOUS
 62
6
 10
3.3499943E+002
 20
7.0000038
 40
2.0
  1
7
  0
TEXT
  8
254
  6
CONTINUOUS
 62
6
 10
2.8499943E+002
 20
7.0000038
 40
2.0
  1
6
  0
TEXT
  8
254
  6
CONTINUOUS
 62
6
 10
2.3499941E+002
 20
7.0000038
 40
2.0
  1
5
  0
TEXT
  8
254
  6
CONTINUOUS
 62
6
 10
4.1299943E+002
 20
3.3000004E+001
 40
2.0
  1
F
  0
TEXT
  8
254
  6
CONTINUOUS
 62
6
 10
4.1299943E+002
 20
7.9E+001
 40
2.0
  1
E
  0
TEXT
  8
254
  6
CONTINUOUS
 62
6
 10
4.1299943E+002
 20
1.25E+002
 40
2.0
  1
D
  0
TEXT
  8
254
  6
CONTINUOUS
 62
6
 10
4.1299943E+002
 20
1.71E+002
 40
2.0
  1
C
  0
TEXT
  8
254
  6
CONTINUOUS
 62
6
 10
4.1299943E+002
 20
2.17E+002
 40
2.0
  1
B
  0
TEXT
  8
254
  6
CONTINUOUS
 62
6
 10
4.1299943E+002
 20
2.63E+002
 40
2.0
  1
A
  0
TEXT
  8
254
  6
CONTINUOUS
 62
6
 10
3.8499943E+002
 20
2.9E+002
 40
2.0
  1
8
  0
TEXT
  8
254
  6
CONTINUOUS
 62
6
 10
3.3499943E+002
 20
2.9E+002
 40
2.0
  1
7
  0
TEXT
  8
254
  6
CONTINUOUS
 62
6
 10
2.8499943E+002
 20
2.9E+002
 40
2.0
  1
6
  0
TEXT
  8
254
  6
CONTINUOUS
 62
6
 10
2.3499941E+002
 20
2.9E+002
 40
2.0
  1
5
  0
TEXT
  8
254
  6
CONTINUOUS
 62
6
 10
1.849994E+002
 20
2.9E+002
 40
2.0
  1
4
  0
TEXT
  8
254
  6
CONTINUOUS
 62
6
 10
1.349994E+002
 20
2.9E+002
 40
2.0
  1
3
  0
TEXT
  8
254
  6
CONTINUOUS
 62
6
 10
8.4999395E+001
 20
2.9E+002
 40
2.0
  1
2
  0
TEXT
  8
254
  6
CONTINUOUS
 62
6
 10
3.4999395E+001
 20
2.9E+002
 40
2.0
  1
1
  0
TEXT
  8
254
  6
CONTINUOUS
 62
6
 10
1.8029086E+001
 20
2.0705137E+001
 40
1.7
  1
Fuer diese Unterlage behalten wir uns alle Rechte, auch fuer den Fall der Patent-
 41
6.8E-001
  0
TEXT
  8
254
  6
CONTINUOUS
 62
6
 10
1.7960379E+001
 20
1.7838603E+001
 40
1.7
  1
erteilung und der Eintragung eines anderen gewerblichen Schutzrechtes, vor.
 41
6.8E-001
  0
TEXT
  8
254
  6
CONTINUOUS
 62
6
 10
1.7960379E+001
 20
1.4948604E+001
 40
1.7
  1
Missbraeuchliche Verwendung, wie insbesondere Vervielfaeltigung und Weitergabe an
 41
6.8E-001
  0
TEXT
  8
254
  6
CONTINUOUS
 62
6
 10
1.7960379E+001
 20
1.2058605E+001
 40
1.7
  1
Dritte ist nicht gestattet: sie kann zivil- und strafrechtlich geahndet werden.
 41
6.8E-001
  0
TEXT
  8
254
  6
CONTINUOUS
 62
6
 10
2.8399943E+002
 20
2.83E+002
 40
2.0
  1
Text
 41
8.2505E-001
  0
TEXT
  8
254
  6
CONTINUOUS
 62
6
 10
3.4999943E+002
 20
2.83E+002
 40
2.0
  1
Ident-Nr.
 41
7.585E-001
  0
TEXT
  8
254
  6
CONTINUOUS
 62
6
 10
2.7339945E+002
 20
2.8299988E+002
 40
2.0
  1
Pos.
 41
6.6255E-001
  0
TEXT
  8
254
  6
CONTINUOUS
 62
6
 10
3.9799943E+002
 20
2.83E+002
 40
2.0
  1
Masse/E
 41
8.2837143E-001
  0
TEXT
  8
254
  6
CONTINUOUS
 62
6
 10
3.9249943E+002
 20
2.8299988E+002
 40
2.0
  1
EC
 41
9.5E-001
  0
TEXT
  8
254
  6
CONTINUOUS
 62
3
 10
2.6422364E+002
 20
2.8020985E+001
 40
2.0
  1
Ersatz fuer:
 41
6.0E-001
  0
TEXT
  8
254
  6
CONTINUOUS
 62
3
 10
2.6422364E+002
 20
2.3796749E+001
 40
2.0
  1
Ers. durch:
 41
6.5308091E-001
  0
TEXT
  8
254
  6
CONTINUOUS
 62
3
 10
2.6409562E+002
 20
1.9444515E+001
 40
2.0
  1
Zust. Stelle:
 41
6.3073385E-001
  0
TEXT
  8
254
  6
CONTINUOUS
 62
3
 10
3.0326575E+002
 20
3.2245213E+001
 40
2.0
  1
Ausgest.:
 41
6.0E-001
  0
TEXT
  8
254
  6
CONTINUOUS
 62
3
 10
3.0313776E+002
 20
2.8148991E+001
 40
2.0
  1
Geprueft:
 41
6.0E-001
  0
TEXT
  8
254
  6
CONTINUOUS
 62
3
 10
3.0313776E+002
 20
2.3924755E+001
 40
2.0
  1
Normgepr.:
 41
6.0E-001
  0
TEXT
  8
254
  6
CONTINUOUS
 62
3
 10
3.0313776E+002
 20
1.9572521E+001
 40
2.0
  1
Freigeg.:
 41
6.0E-001
  0
TEXT
  8
254
  6
CONTINUOUS
 62
3
 10
2.2171813E+002
 20
2.3707317E+001
 40
2.0
  1
Aend.
 41
5.0E-001
 50
9.0000003E+001
  0
TEXT
  8
254
  6
CONTINUOUS
 62
3
 10
2.3371813E+002
 20
1.5457317E+001
 40
2.0
  1
Titel:
 41
5.9703E-001
  0
TEXT
  8
254
  6
CONTINUOUS
 62
3
 10
3.4119444E+002
 20
3.246562E+001
 40
2.0
  1
Massstab
 41
6.0E-001
  0
TEXT
  8
254
  6
CONTINUOUS
 62
3
 10
3.8071815E+002
 20
3.2457317E+001
 40
2.0
  1
Sep.SL anderer Nr.
 41
6.0E-001
  0
TEXT
  8
254
  6
CONTINUOUS
 62
3
 10
3.5221815E+002
 20
2.3957317E+001
 40
2.0
  1
Dok.-Art
 41
6.0E-001
  0
TEXT
  8
254
  6
CONTINUOUS
 62
3
 10
3.6471815E+002
 20
2.3957317E+001
 40
2.0
  1
Format
 41
6.0E-001
  0
TEXT
  8
254
  6
CONTINUOUS
 62
3
 10
3.7471815E+002
 20
2.3957317E+001
 40
2.0
  1
Sprache
 41
6.0E-001
  0
TEXT
  8
254
  6
CONTINUOUS
 62
3
 10
3.8671815E+002
 20
2.3957317E+001
 40
2.0
  1
Bl. Nr.
 41
6.0E-001
  0
TEXT
  8
254
  6
CONTINUOUS
 62
3
 10
3.9721815E+002
 20
2.3957317E+001
 40
2.0
  1
Anz. Bl.
 41
6.0E-001
  0
TEXT
  8
254
  6
CONTINUOUS
 62
3
 10
3.5221815E+002
 20
3.2457317E+001
 40
2.0
  1
Sep.SL gleicher Nr.
 41
6.0E-001
  0
TEXT
  8
254
  6
CONTINUOUS
 62
3
 10
3.5223173E+002
 20
2.7957432E+001
 40
2.0
  1
O
 41
6.3E-001
  0
TEXT
  8
254
  6
CONTINUOUS
 62
3
 10
3.5367173E+002
 20
2.7957432E+001
 40
2.0
  1
hne sep. Stckl.:
 41
6.3727875E-001
  0
TEXT
  8
254
  6
CONTINUOUS
 62
6
 10
3.8070923E+002
 20
2.8317913E+001
 40
2.0
  1
 
 41
8.1E-001
  0
TEXT
  8
254
  6
CONTINUOUS
 62
3
 10
3.8093903E+002
 20
2.817715E+001
 40
2.0
  1
Uebern. Stelle:
 41
6.0127615E-001
  0
TEXT
  8
253
  6
CONTINUOUS
 62
3
 10
3.6449943E+002
 20
1.9500004E+001
 40
2.5
  1
A
  0
TEXT
  8
253
  6
CONTINUOUS
 62
3
 10
3.6949943E+002
 20
1.9500004E+001
 40
2.5
  1
3
  0
TEXT
  8
253
  6
CONTINUOUS
 62
3
 10
3.7812537E+002
 20
1.9527569E+001
 40
2.5
  1
D
  0
TEXT
  8
253
  6
CONTINUOUS
 62
3
 10
3.8941495E+002
 20
1.9527569E+001
 40
2.5
  1
1
  0
TEXT
  8
253
  6
CONTINUOUS
 62
3
 10
4.0147181E+002
 20
1.9527569E+001
 40
2.5
  1
1
  0
TEXT
  8
254
  6
CONTINUOUS
 62
3
 10
2.6435163E+002
 20
3.2117207E+001
 40
2.0
  1
E
 41
6.3E-001
  0
TEXT
  8
254
  6
CONTINUOUS
 62
3
 10
2.6561164E+002
 20
3.2117207E+001
 40
2.0
  1
ntst. aus:
 41
6.09444E-001
  0
POLYLINE
  8
253
  6
CONTINUOUS
 62
3
 66
1
 40
1.0E-003
 41
1.0E-003
 70
0
  0
VERTEX
  8
253
 42
0.0
 10
2.1930129E+002
 20
1.1808251E+001
 70
0
  0
VERTEX
  8
253
 42
0.0
 10
2.2042629E+002
 20
1.1808251E+001
 70
0
  0
SEQEND
  0
POLYLINE
  8
253
  6
CONTINUOUS
 62
3
 66
1
 40
1.0E-003
 41
1.0E-003
 70
0
  0
VERTEX
  8
253
 42
0.0
 10
2.2042629E+002
 20
1.1808251E+001
 70
0
  0
VERTEX
  8
253
 42
0.0
 10
2.2074129E+002
 20
1.2708249E+001
 70
0
  0
SEQEND
  0
POLYLINE
  8
253
  6
CONTINUOUS
 62
3
 66
1
 40
1.0E-003
 41
1.0E-003
 70
0
  0
VERTEX
  8
253
 42
0.0
 10
2.2074129E+002
 20
1.2708249E+001
 70
0
  0
VERTEX
  8
253
 42
0.0
 10
2.213563E+002
 20
1.2708249E+001
 70
0
  0
SEQEND
  0
POLYLINE
  8
253
  6
CONTINUOUS
 62
3
 66
1
 40
1.0E-003
 41
1.0E-003
 70
0
  0
VERTEX
  8
253
 42
0.0
 10
2.213563E+002
 20
1.2708249E+001
 70
0
  0
VERTEX
  8
253
 42
0.0
 10
2.213563E+002
 20
1.3863249E+001
 70
0
  0
SEQEND
  0
POLYLINE
  8
253
  6
CONTINUOUS
 62
3
 66
1
 40
1.0E-003
 41
1.0E-003
 70
0
  0
VERTEX
  8
253
 42
0.0
 10
2.213563E+002
 20
1.3863249E+001
 70
0
  0
VERTEX
  8
253
 42
0.0
 10
2.2007303E+002
 20
1.3863249E+001
 70
0
  0
SEQEND
  0
POLYLINE
  8
253
  6
CONTINUOUS
 62
3
 66
1
 40
1.0E-003
 41
1.0E-003
 70
0
  0
VERTEX
  8
253
 42
0.0
 10
2.2007303E+002
 20
1.3863249E+001
 70
0
  0
VERTEX
  8
253
 42
0.0
 10
2.1930129E+002
 20
1.1808251E+001
 70
0
  0
SEQEND
  0
POLYLINE
  8
253
  6
CONTINUOUS
 62
3
 66
1
 40
1.0E-003
 41
1.0E-003
 70
0
  0
VERTEX
  8
253
 42
0.0
 10
2.2380129E+002
 20
1.1808251E+001
 70
0
  0
VERTEX
  8
253
 42
0.0
 10
2.2267629E+002
 20
1.1808251E+001
 70
0
  0
SEQEND
  0
POLYLINE
  8
253
  6
CONTINUOUS
 62
3
 66
1
 40
1.0E-003
 41
1.0E-003
 70
0
  0
VERTEX
  8
253
 42
0.0
 10
2.2267629E+002
 20
1.1808251E+001
 70
0
  0
VERTEX
  8
253
 42
0.0
 10
2.2236129E+002
 20
1.2708249E+001
 70
0
  0
SEQEND
  0
POLYLINE
  8
253
  6
CONTINUOUS
 62
3
 66
1
 40
1.0E-003
 41
1.0E-003
 70
0
  0
VERTEX
  8
253
 42
0.0
 10
2.2236129E+002
 20
1.2708249E+001
 70
0
  0
VERTEX
  8
253
 42
0.0
 10
2.217463E+002
 20
1.2708249E+001
 70
0
  0
SEQEND
  0
POLYLINE
  8
253
  6
CONTINUOUS
 62
3
 66
1
 40
1.0E-003
 41
1.0E-003
 70
0
  0
VERTEX
  8
253
 42
0.0
 10
2.217463E+002
 20
1.2708249E+001
 70
0
  0
VERTEX
  8
253
 42
0.0
 10
2.217463E+002
 20
1.3863249E+001
 70
0
  0
SEQEND
  0
POLYLINE
  8
253
  6
CONTINUOUS
 62
3
 66
1
 40
1.0E-003
 41
1.0E-003
 70
0
  0
VERTEX
  8
253
 42
0.0
 10
2.217463E+002
 20
1.3863249E+001
 70
0
  0
VERTEX
  8
253
 42
0.0
 10
2.2302955E+002
 20
1.3863249E+001
 70
0
  0
SEQEND
  0
POLYLINE
  8
253
  6
CONTINUOUS
 62
3
 66
1
 40
1.0E-003
 41
1.0E-003
 70
0
  0
VERTEX
  8
253
 42
0.0
 10
2.2302955E+002
 20
1.3863249E+001
 70
0
  0
VERTEX
  8
253
 42
0.0
 10
2.2380129E+002
 20
1.1808251E+001
 70
0
  0
SEQEND
  0
POLYLINE
  8
253
  6
CONTINUOUS
 62
3
 66
1
 40
1.0E-003
 41
1.0E-003
 70
0
  0
VERTEX
  8
253
 42
0.0
 10
2.213563E+002
 20
1.4253249E+001
 70
0
  0
VERTEX
  8
253
 42
0.0
 10
2.2010454E+002
 20
1.4253249E+001
 70
0
  0
SEQEND
  0
POLYLINE
  8
253
  6
CONTINUOUS
 62
3
 66
1
 40
1.0E-003
 41
1.0E-003
 70
0
  0
VERTEX
  8
253
 42
0.0
 10
2.213563E+002
 20
1.6308247E+001
 70
0
  0
VERTEX
  8
253
 42
0.0
 10
2.213563E+002
 20
1.4253249E+001
 70
0
  0
SEQEND
  0
POLYLINE
  8
253
  6
CONTINUOUS
 62
3
 66
1
 40
1.0E-003
 41
1.0E-003
 70
0
  0
VERTEX
  8
253
 42
0.0
 10
2.213563E+002
 20
1.6308247E+001
 70
0
  0
VERTEX
  8
253
 42
0.0
 10
2.2087629E+002
 20
1.6308247E+001
 70
0
  0
SEQEND
  0
POLYLINE
  8
253
  6
CONTINUOUS
 62
3
 66
1
 40
1.0E-003
 41
1.0E-003
 70
0
  0
VERTEX
  8
253
 42
0.0
 10
2.2087629E+002
 20
1.6308247E+001
 70
0
  0
VERTEX
  8
253
 42
0.0
 10
2.2010454E+002
 20
1.4253249E+001
 70
0
  0
SEQEND
  0
POLYLINE
  8
253
  6
CONTINUOUS
 62
3
 66
1
 40
1.0E-003
 41
1.0E-003
 70
0
  0
VERTEX
  8
253
 42
0.0
 10
2.217463E+002
 20
1.4253249E+001
 70
0
  0
VERTEX
  8
253
 42
0.0
 10
2.2299804E+002
 20
1.4253249E+001
 70
0
  0
SEQEND
  0
POLYLINE
  8
253
  6
CONTINUOUS
 62
3
 66
1
 40
1.0E-003
 41
1.0E-003
 70
0
  0
VERTEX
  8
253
 42
0.0
 10
2.217463E+002
 20
1.6308247E+001
 70
0
  0
VERTEX
  8
253
 42
0.0
 10
2.217463E+002
 20
1.4253249E+001
 70
0
  0
SEQEND
  0
POLYLINE
  8
253
  6
CONTINUOUS
 62
3
 66
1
 40
1.0E-003
 41
1.0E-003
 70
0
  0
VERTEX
  8
253
 42
0.0
 10
2.217463E+002
 20
1.6308247E+001
 70
0
  0
VERTEX
  8
253
 42
0.0
 10
2.2222629E+002
 20
1.6308247E+001
 70
0
  0
SEQEND
  0
POLYLINE
  8
253
  6
CONTINUOUS
 62
3
 66
1
 40
1.0E-003
 41
1.0E-003
 70
0
  0
VERTEX
  8
253
 42
0.0
 10
2.2222629E+002
 20
1.6308247E+001
 70
0
  0
VERTEX
  8
253
 42
0.0
 10
2.2299804E+002
 20
1.4253249E+001
 70
0
  0
SEQEND
  0
POLYLINE
  8
253
  6
CONTINUOUS
 62
3
 66
1
 40
1.0E-003
 41
1.0E-003
 70
0
  0
VERTEX
  8
253
 42
0.0
 10
2.2411629E+002
 20
1.3863249E+001
 70
0
  0
VERTEX
  8
253
 42
0.0
 10
2.2411629E+002
 20
1.1808251E+001
 70
0
  0
SEQEND
  0
POLYLINE
  8
253
  6
CONTINUOUS
 62
3
 66
1
 40
1.0E-003
 41
1.0E-003
 70
0
  0
VERTEX
  8
253
 42
0.0
 10
2.2411629E+002
 20
1.1808251E+001
 70
0
  0
VERTEX
  8
253
 42
0.0
 10
2.2527131E+002
 20
1.1808251E+001
 70
0
  0
SEQEND
  0
POLYLINE
  8
253
  6
CONTINUOUS
 62
3
 66
1
 40
1.0E-003
 41
1.0E-003
 70
0
  0
VERTEX
  8
253
 42
0.0
 10
2.2527131E+002
 20
1.3863249E+001
 70
0
  0
VERTEX
  8
253
 42
0.0
 10
2.2527131E+002
 20
1.1808251E+001
 70
0
  0
SEQEND
  0
POLYLINE
  8
253
  6
CONTINUOUS
 62
3
 66
1
 40
1.0E-003
 41
1.0E-003
 70
0
  0
VERTEX
  8
253
 42
0.0
 10
2.2411629E+002
 20
1.3863249E+001
 70
0
  0
VERTEX
  8
253
 42
0.0
 10
2.2527131E+002
 20
1.3863249E+001
 70
0
  0
SEQEND
  0
POLYLINE
  8
253
  6
CONTINUOUS
 62
3
 66
1
 40
1.0E-003
 41
1.0E-003
 70
0
  0
VERTEX
  8
253
 42
0.0
 10
2.2411629E+002
 20
1.4253249E+001
 70
0
  0
VERTEX
  8
253
 42
0.0
 10
2.2527131E+002
 20
1.4253249E+001
 70
0
  0
SEQEND
  0
POLYLINE
  8
253
  6
CONTINUOUS
 62
3
 66
1
 40
1.0E-003
 41
1.0E-003
 70
0
  0
VERTEX
  8
253
 42
0.0
 10
2.2411629E+002
 20
1.6308247E+001
 70
0
  0
VERTEX
  8
253
 42
0.0
 10
2.2411629E+002
 20
1.4253249E+001
 70
0
  0
SEQEND
  0
POLYLINE
  8
253
  6
CONTINUOUS
 62
3
 66
1
 40
1.0E-003
 41
1.0E-003
 70
0
  0
VERTEX
  8
253
 42
0.0
 10
2.2411629E+002
 20
1.6308247E+001
 70
0
  0
VERTEX
  8
253
 42
0.0
 10
2.2527131E+002
 20
1.6308247E+001
 70
0
  0
SEQEND
  0
POLYLINE
  8
253
  6
CONTINUOUS
 62
3
 66
1
 40
1.0E-003
 41
1.0E-003
 70
0
  0
VERTEX
  8
253
 42
0.0
 10
2.2527131E+002
 20
1.6308247E+001
 70
0
  0
VERTEX
  8
253
 42
0.0
 10
2.2527131E+002
 20
1.4253249E+001
 70
0
  0
SEQEND
  0
POLYLINE
  8
253
  6
CONTINUOUS
 62
3
 66
1
 40
1.0E-003
 41
1.0E-003
 70
0
  0
VERTEX
  8
253
 42
0.0
 10
2.2566129E+002
 20
1.3863249E+001
 70
0
  0
VERTEX
  8
253
 42
0.0
 10
2.2566129E+002
 20
1.1808251E+001
 70
0
  0
SEQEND
  0
POLYLINE
  8
253
  6
CONTINUOUS
 62
3
 66
1
 40
1.0E-003
 41
1.0E-003
 70
0
  0
VERTEX
  8
253
 42
0.0
 10
2.2566129E+002
 20
1.1808251E+001
 70
0
  0
VERTEX
  8
253
 42
0.0
 10
2.259163E+002
 20
1.1808251E+001
 70
0
  0
SEQEND
  0
POLYLINE
  8
253
  6
CONTINUOUS
 62
3
 66
1
 40
1.0E-003
 41
1.0E-003
 70
0
  0
VERTEX
  8
253
 42
0.0
 10
2.2566129E+002
 20
1.3863249E+001
 70
0
  0
VERTEX
  8
253
 42
0.0
 10
2.2706759E+002
 20
1.3863249E+001
 70
0
  0
SEQEND
  0
POLYLINE
  8
253
  6
CONTINUOUS
 62
3
 66
1
 40
1.0E-003
 41
1.0E-003
 70
0
  0
VERTEX
  8
253
 42
0.0
 10
2.2566129E+002
 20
1.6308247E+001
 70
0
  0
VERTEX
  8
253
 42
0.0
 10
2.2566129E+002
 20
1.4253249E+001
 70
0
  0
SEQEND
  0
POLYLINE
  8
253
  6
CONTINUOUS
 62
3
 66
1
 40
1.0E-003
 41
1.0E-003
 70
0
  0
VERTEX
  8
253
 42
0.0
 10
2.2566129E+002
 20
1.4253249E+001
 70
0
  0
VERTEX
  8
253
 42
0.0
 10
2.2670591E+002
 20
1.4253249E+001
 70
0
  0
SEQEND
  0
POLYLINE
  8
253
  6
CONTINUOUS
 62
3
 66
1
 40
1.0E-003
 41
1.0E-003
 70
0
  0
VERTEX
  8
253
 42
0.0
 10
2.2566129E+002
 20
1.6308247E+001
 70
0
  0
VERTEX
  8
253
 42
0.0
 10
2.259163E+002
 20
1.6308247E+001
 70
0
  0
SEQEND
  0
POLYLINE
  8
253
  6
CONTINUOUS
 62
3
 66
1
 40
1.0E-003
 41
1.0E-003
 70
0
  0
VERTEX
  8
253
 42
0.0
 10
2.2762629E+002
 20
1.3863249E+001
 70
0
  0
VERTEX
  8
253
 42
0.0
 10
2.2762629E+002
 20
1.1808251E+001
 70
0
  0
SEQEND
  0
POLYLINE
  8
253
  6
CONTINUOUS
 62
3
 66
1
 40
1.0E-003
 41
1.0E-003
 70
0
  0
VERTEX
  8
253
 42
0.0
 10
2.2762629E+002
 20
1.1808251E+001
 70
0
  0
VERTEX
  8
253
 42
0.0
 10
2.287813E+002
 20
1.1808251E+001
 70
0
  0
SEQEND
  0
POLYLINE
  8
253
  6
CONTINUOUS
 62
3
 66
1
 40
1.0E-003
 41
1.0E-003
 70
0
  0
VERTEX
  8
253
 42
0.0
 10
2.287813E+002
 20
1.3863249E+001
 70
0
  0
VERTEX
  8
253
 42
0.0
 10
2.287813E+002
 20
1.1808251E+001
 70
0
  0
SEQEND
  0
POLYLINE
  8
253
  6
CONTINUOUS
 62
3
 66
1
 40
1.0E-003
 41
1.0E-003
 70
0
  0
VERTEX
  8
253
 42
0.0
 10
2.2762629E+002
 20
1.3863249E+001
 70
0
  0
VERTEX
  8
253
 42
0.0
 10
2.287813E+002
 20
1.3863249E+001
 70
0
  0
SEQEND
  0
POLYLINE
  8
253
  6
CONTINUOUS
 62
3
 66
1
 40
1.0E-003
 41
1.0E-003
 70
0
  0
VERTEX
  8
253
 42
0.0
 10
2.2762629E+002
 20
1.6308247E+001
 70
0
  0
VERTEX
  8
253
 42
0.0
 10
2.2762629E+002
 20
1.4253249E+001
 70
0
  0
SEQEND
  0
POLYLINE
  8
253
  6
CONTINUOUS
 62
3
 66
1
 40
1.0E-003
 41
1.0E-003
 70
0
  0
VERTEX
  8
253
 42
0.0
 10
2.2762629E+002
 20
1.4253249E+001
 70
0
  0
VERTEX
  8
253
 42
0.0
 10
2.287813E+002
 20
1.4253249E+001
 70
0
  0
SEQEND
  0
POLYLINE
  8
253
  6
CONTINUOUS
 62
3
 66
1
 40
1.0E-003
 41
1.0E-003
 70
0
  0
VERTEX
  8
253
 42
0.0
 10
2.287813E+002
 20
1.6308247E+001
 70
0
  0
VERTEX
  8
253
 42
0.0
 10
2.287813E+002
 20
1.4253249E+001
 70
0
  0
SEQEND
  0
POLYLINE
  8
253
  6
CONTINUOUS
 62
3
 66
1
 40
1.0E-003
 41
1.0E-003
 70
0
  0
VERTEX
  8
253
 42
0.0
 10
2.2762629E+002
 20
1.6308247E+001
 70
0
  0
VERTEX
  8
253
 42
0.0
 10
2.287813E+002
 20
1.6308247E+001
 70
0
  0
SEQEND
  0
POLYLINE
  8
253
  6
CONTINUOUS
 62
3
 66
1
 40
1.0E-003
 41
1.0E-003
 70
0
  0
VERTEX
  8
253
 42
0.0
 10
2.2917129E+002
 20
1.3863249E+001
 70
0
  0
VERTEX
  8
253
 42
0.0
 10
2.2917129E+002
 20
1.1808251E+001
 70
0
  0
SEQEND
  0
POLYLINE
  8
253
  6
CONTINUOUS
 62
3
 66
1
 40
1.0E-003
 41
1.0E-003
 70
0
  0
VERTEX
  8
253
 42
0.0
 10
2.2917129E+002
 20
1.1808251E+001
 70
0
  0
VERTEX
  8
253
 42
0.0
 10
2.2942629E+002
 20
1.1808251E+001
 70
0
  0
SEQEND
  0
POLYLINE
  8
253
  6
CONTINUOUS
 62
3
 66
1
 40
1.0E-003
 41
1.0E-003
 70
0
  0
VERTEX
  8
253
 42
0.0
 10
2.2917129E+002
 20
1.3863249E+001
 70
0
  0
VERTEX
  8
253
 42
0.0
 10
2.3057758E+002
 20
1.3863249E+001
 70
0
  0
SEQEND
  0
POLYLINE
  8
253
  6
CONTINUOUS
 62
3
 66
1
 40
1.0E-003
 41
1.0E-003
 70
0
  0
VERTEX
  8
253
 42
0.0
 10
2.2917129E+002
 20
1.6308247E+001
 70
0
  0
VERTEX
  8
253
 42
0.0
 10
2.2917129E+002
 20
1.4253249E+001
 70
0
  0
SEQEND
  0
POLYLINE
  8
253
  6
CONTINUOUS
 62
3
 66
1
 40
1.0E-003
 41
1.0E-003
 70
0
  0
VERTEX
  8
253
 42
0.0
 10
2.2917129E+002
 20
1.4253249E+001
 70
0
  0
VERTEX
  8
253
 42
0.0
 10
2.302159E+002
 20
1.4253249E+001
 70
0
  0
SEQEND
  0
POLYLINE
  8
253
  6
CONTINUOUS
 62
3
 66
1
 40
1.0E-003
 41
1.0E-003
 70
0
  0
VERTEX
  8
253
 42
0.0
 10
2.2917129E+002
 20
1.6308247E+001
 70
0
  0
VERTEX
  8
253
 42
0.0
 10
2.2942629E+002
 20
1.6308247E+001
 70
0
  0
SEQEND
  0
INSERT
  2
XHXH1NEW02NEW01
  8
254
 10
2.2093265E+002
 20
1.6081774E+001
  0
POLYLINE
  8
254
  6
CONTINUOUS
 62
3
 66
1
 40
1.0E-003
 41
1.0E-003
 70
0
  0
VERTEX
  8
254
 42
1.0
 10
3.4952021E+002
 20
2.2750004E+001
 70
0
  0
VERTEX
  8
254
 42
1.0
 10
3.4552021E+002
 20
2.2750004E+001
 70
0
  0
VERTEX
  8
254
 42
0.0
 10
3.4952021E+002
 20
2.2750004E+001
 70
0
  0
SEQEND
  0
POLYLINE
  8
254
  6
CONTINUOUS
 62
3
 66
1
 40
1.0E-003
 41
1.0E-003
 70
0
  0
VERTEX
  8
254
 42
1.0
 10
3.4852021E+002
 20
2.2750004E+001
 70
0
  0
VERTEX
  8
254
 42
1.0
 10
3.4652021E+002
 20
2.2750004E+001
 70
0
  0
VERTEX
  8
254
 42
0.0
 10
3.4852021E+002
 20
2.2750004E+001
 70
0
  0
SEQEND
  0
POLYLINE
  8
253
  6
CONTINUOUS
 62
3
 66
1
 40
1.0E-003
 41
1.0E-003
 70
0
  0
VERTEX
  8
253
 42
5.8600137E-001
 10
2.259163E+002
 20
1.1808249E+001
 70
0
  0
VERTEX
  8
253
 42
0.0
 10
2.2706759E+002
 20
1.386325E+001
 70
0
  0
SEQEND
  0
POLYLINE
  8
253
  6
CONTINUOUS
 62
3
 66
1
 40
1.0E-003
 41
1.0E-003
 70
0
  0
VERTEX
  8
253
 42
6.2051509E-002
 10
2.267059E+002
 20
1.4253248E+001
 70
0
  0
VERTEX
  8
253
 42
0.0
 10
2.264131E+002
 20
1.4413513E+001
 70
0
  0
SEQEND
  0
POLYLINE
  8
253
  6
CONTINUOUS
 62
3
 66
1
 40
1.0E-003
 41
1.0E-003
 70
0
  0
VERTEX
  8
253
 42
7.7160142E-001
 10
2.264131E+002
 20
1.4413513E+001
 70
0
  0
VERTEX
  8
253
 42
0.0
 10
2.259163E+002
 20
1.630825E+001
 70
0
  0
SEQEND
  0
POLYLINE
  8
253
  6
CONTINUOUS
 62
3
 66
1
 40
1.0E-003
 41
1.0E-003
 70
0
  0
VERTEX
  8
253
 42
5.8600137E-001
 10
2.2942629E+002
 20
1.1808249E+001
 70
0
  0
VERTEX
  8
253
 42
0.0
 10
2.3057758E+002
 20
1.386325E+001
 70
0
  0
SEQEND
  0
POLYLINE
  8
253
  6
CONTINUOUS
 62
3
 66
1
 40
1.0E-003
 41
1.0E-003
 70
0
  0
VERTEX
  8
253
 42
6.2051509E-002
 10
2.302159E+002
 20
1.4253248E+001
 70
0
  0
VERTEX
  8
253
 42
0.0
 10
2.2992309E+002
 20
1.4413513E+001
 70
0
  0
SEQEND
  0
POLYLINE
  8
253
  6
CONTINUOUS
 62
3
 66
1
 40
1.0E-003
 41
1.0E-003
 70
0
  0
VERTEX
  8
253
 42
7.7160142E-001
 10
2.2992309E+002
 20
1.4413513E+001
 70
0
  0
VERTEX
  8
253
 42
0.0
 10
2.2942629E+002
 20
1.630825E+001
 70
0
  0
SEQEND
  0
LINE
  8
254
  6
CONTINUOUS
 62
3
 10
3.4799943E+002
 20
2.685E+002
 11
4.0999943E+002
 21
2.685E+002
  0
POINT
  8
Drafting_Hidden_Entities
  6
CONTINUOUS
 62
1
 10
0.0
 20
0.0
  0
ENDBLK
  0
BLOCK
  2
_AH1
 70
0
 10
0.0
 20
0.0
  3
_AH1
  0
LINE
  8
0
  6
CONTINUOUS
 62
0
 10
-1.0
 20
1.66667E-001
 11
0.0
 21
0.0
  0
LINE
  8
0
  6
CONTINUOUS
 62
0
 10
0.0
 20
0.0
 11
-1.0
 21
-1.66667E-001
  0
LINE
  8
0
  6
CONTINUOUS
 62
0
 10
-1.0
 20
1.66667E-001
 11
-1.0
 21
-1.66667E-001
  0
LINE
  8
0
  6
CONTINUOUS
 62
0
 10
0.0
 20
0.0
 11
-1.0
 21
0.0
  0
ENDBLK
  0
BLOCK
  2
_AH2
 70
0
 10
0.0
 20
0.0
  3
_AH2
  0
LINE
  8
0
  6
CONTINUOUS
 62
0
 10
-1.0
 20
1.66667E-001
 11
0.0
 21
0.0
  0
LINE
  8
0
  6
CONTINUOUS
 62
0
 10
0.0
 20
0.0
 11
-1.0
 21
-1.66667E-001
  0
LINE
  8
0
  6
CONTINUOUS
 62
0
 10
0.0
 20
0.0
 11
-1.0
 21
0.0
  0
ENDBLK
  0
BLOCK
  2
*D497
  3
*D
 10
0.0
 20
0.0
 70
65
  0
LINE
  8
1
  6
CONTINUOUS
 62
4
 10
9.6230237E+001
 20
2.0898675E+002
 11
9.6230237E+001
 21
2.4284355E+002
  0
LINE
  8
1
  6
CONTINUOUS
 62
4
 10
9.6230237E+001
 20
2.4569985E+002
 11
9.6230237E+001
 21
2.5041896E+002
  0
LINE
  8
1
  6
CONTINUOUS
 62
4
 10
9.6230237E+001
 20
2.5315107E+002
 11
9.6230237E+001
 21
2.5876152E+002
  0
LINE
  8
1
  6
CONTINUOUS
 62
4
 10
1.2623024E+002
 20
2.0898675E+002
 11
1.2623024E+002
 21
2.4892872E+002
  0
LINE
  8
1
  6
CONTINUOUS
 62
4
 10
1.2623024E+002
 20
2.529027E+002
 11
1.2623024E+002
 21
2.5876152E+002
  0
LINE
  8
1
  6
CONTINUOUS
 62
4
 10
9.6230237E+001
 20
2.5776152E+002
 11
1.1123024E+002
 21
2.5776152E+002
  0
LINE
  8
1
  6
CONTINUOUS
 62
4
 10
1.2623024E+002
 20
2.5776152E+002
 11
1.1123024E+002
 21
2.5776152E+002
  0
INSERT
  2
_AH13
  8
1
 62
4
 10
9.6230237E+001
 20
2.5776152E+002
 41
3.0
 42
3.0
 43
3.0
 50
1.8E+002
  0
INSERT
  2
_AH13
  8
1
 62
4
 10
1.2623024E+002
 20
2.5776152E+002
 41
3.0
 42
3.0
 43
3.0
 50
3.6E+002
  0
TEXT
  8
1
  6
CONTINUOUS
 62
4
 10
1.0883024E+002
 20
2.5926252E+002
 40
3.0
  1
30
 41
8.0E-001
  0
ENDBLK
  0
BLOCK
  2
*D499
  3
*D
 10
0.0
 20
0.0
 70
65
  0
LINE
  8
1
  6
CONTINUOUS
 62
4
 10
9.8380237E+001
 20
2.0977596E+002
 11
9.8380237E+001
 21
2.5264032E+002
  0
LINE
  8
1
  6
CONTINUOUS
 62
4
 10
9.4080237E+001
 20
2.1107596E+002
 11
9.4080237E+001
 21
2.4247099E+002
  0
LINE
  8
1
  6
CONTINUOUS
 62
4
 10
9.4080237E+001
 20
2.4594823E+002
 11
9.4080237E+001
 21
2.5264032E+002
  0
LINE
  8
1
  6
CONTINUOUS
 62
4
 10
1.0438024E+002
 20
2.5164032E+002
 11
9.4080237E+001
 21
2.5164032E+002
  0
LINE
  8
1
  6
CONTINUOUS
 62
4
 10
9.4080237E+001
 20
2.5164032E+002
 11
8.1080785E+001
 21
2.5164032E+002
  0
INSERT
  2
_AH13
  8
1
 62
4
 10
9.8380237E+001
 20
2.5164032E+002
 41
3.0
 42
3.0
 43
3.0
 50
5.4E+002
  0
INSERT
  2
_AH13
  8
1
 62
4
 10
9.4080237E+001
 20
2.5164032E+002
 41
3.0
 42
3.0
 43
3.0
 50
7.2E+002
  0
TEXT
  8
1
  6
CONTINUOUS
 62
4
 10
8.2580785E+001
 20
2.5314132E+002
 40
3.0
  1
4,3
 41
8.0E-001
 50
3.6E+002
  0
ENDBLK
  0
BLOCK
  2
*D950
  3
*D
 10
0.0
 20
0.0
 70
65
  0
LINE
  8
1
  6
CONTINUOUS
 62
4
 10
1.7362006E+002
 20
1.9109687E+002
 11
1.9742156E+002
 21
1.9109687E+002
  0
SOLID
  8
1
  6
CONTINUOUS
 62
0
 10
1.9642156E+002
 20
1.9109687E+002
 11
1.9692157E+002
 21
1.9409687E+002
 12
1.9592156E+002
 22
1.9409687E+002
 13
1.9592156E+002
 23
1.9409687E+002
  0
LINE
  8
1
  6
CONTINUOUS
 62
4
 10
1.9642156E+002
 20
2.1109687E+002
 11
1.9642156E+002
 21
2.0109687E+002
  0
LINE
  8
1
  6
CONTINUOUS
 62
4
 10
1.9642156E+002
 20
1.9109687E+002
 11
1.9642156E+002
 21
2.0109687E+002
  0
INSERT
  2
_AH13
  8
1
 62
4
 10
1.9642156E+002
 20
1.9109687E+002
 41
3.0
 42
3.0
 43
3.0
 50
6.3E+002
  0
TEXT
  8
1
  6
CONTINUOUS
 62
4
 10
1.9492056E+002
 20
1.9809687E+002
 40
3.0
  1
20
 50
9.0E+001
  0
ENDBLK
  0
BLOCK
  2
*D3070
  3
*D
 10
0.0
 20
0.0
 70
65
  0
LINE
  8
1
  6
CONTINUOUS
 62
4
 10
3.2512569E+002
 20
2.0157596E+002
 11
3.4793389E+002
 21
2.0157596E+002
  0
LINE
  8
1
  6
CONTINUOUS
 62
4
 10
2.9412569E+002
 20
1.4557596E+002
 11
3.4793389E+002
 21
1.4557596E+002
  0
LINE
  8
1
  6
CONTINUOUS
 62
4
 10
3.4693389E+002
 20
2.0157596E+002
 11
3.4693389E+002
 21
1.7357596E+002
  0
LINE
  8
1
  6
CONTINUOUS
 62
4
 10
3.4693389E+002
 20
1.4557596E+002
 11
3.4693389E+002
 21
1.7357596E+002
  0
INSERT
  2
_AH13
  8
1
 62
4
 10
3.4693389E+002
 20
2.0157596E+002
 41
3.0
 42
3.0
 43
3.0
 50
4.5E+002
  0
INSERT
  2
_AH13
  8
1
 62
4
 10
3.4693389E+002
 20
1.4557596E+002
 41
3.0
 42
3.0
 43
3.0
 50
6.3E+002
  0
TEXT
  8
1
  6
CONTINUOUS
 62
4
 10
3.4543289E+002
 20
1.7117596E+002
 40
3.0
  1
56
 41
8.0E-001
 50
9.0E+001
  0
ENDBLK
  0
BLOCK
  2
*D3071
  3
*D
 10
0.0
 20
0.0
 70
65
  0
LINE
  8
1
  6
CONTINUOUS
 62
4
 10
3.2512569E+002
 20
2.0157596E+002
 11
3.4793389E+002
 21
2.0157596E+002
  0
LINE
  8
1
  6
CONTINUOUS
 62
4
 10
2.8362569E+002
 20
2.3557596E+002
 11
3.4793389E+002
 21
2.3557596E+002
  0
LINE
  8
1
  6
CONTINUOUS
 62
4
 10
3.4693389E+002
 20
2.0157596E+002
 11
3.4693389E+002
 21
2.1857596E+002
  0
LINE
  8
1
  6
CONTINUOUS
 62
4
 10
3.4693389E+002
 20
2.3557596E+002
 11
3.4693389E+002
 21
2.1857596E+002
  0
INSERT
  2
_AH13
  8
1
 62
4
 10
3.4693389E+002
 20
2.0157596E+002
 41
3.0
 42
3.0
 43
3.0
 50
2.7E+002
  0
INSERT
  2
_AH13
  8
1
 62
4
 10
3.4693389E+002
 20
2.3557596E+002
 41
3.0
 42
3.0
 43
3.0
 50
4.5E+002
  0
TEXT
  8
1
  6
CONTINUOUS
 62
4
 10
3.4543289E+002
 20
2.1617596E+002
 40
3.0
  1
34
 41
8.0E-001
 50
9.0E+001
  0
ENDBLK
  0
BLOCK
  2
*D3489
  3
*D
 10
0.0
 20
0.0
 70
65
  0
LINE
  8
1
  6
CONTINUOUS
 62
4
 10
2.2062569E+002
 20
2.0157596E+002
 11
2.2062569E+002
 21
2.4775557E+002
  0
LINE
  8
1
  6
CONTINUOUS
 62
4
 10
2.8212569E+002
 20
2.3557596E+002
 11
2.8212569E+002
 21
2.4775557E+002
  0
LINE
  8
1
  6
CONTINUOUS
 62
4
 10
2.2062569E+002
 20
2.4675557E+002
 11
2.5137569E+002
 21
2.4675557E+002
  0
LINE
  8
1
  6
CONTINUOUS
 62
4
 10
2.8212569E+002
 20
2.4675557E+002
 11
2.5137569E+002
 21
2.4675557E+002
  0
INSERT
  2
_AH13
  8
1
 62
4
 10
2.2062569E+002
 20
2.4675557E+002
 41
3.0
 42
3.0
 43
3.0
 50
1.8E+002
  0
INSERT
  2
_AH13
  8
1
 62
4
 10
2.8212569E+002
 20
2.4675557E+002
 41
3.0
 42
3.0
 43
3.0
 50
3.6E+002
  0
TEXT
  8
1
  6
CONTINUOUS
 62
4
 10
2.4657569E+002
 20
2.4825657E+002
 40
3.0
  1
61,5
 41
8.0E-001
  0
ENDBLK
  0
BLOCK
  2
*D3491
  3
*D
 10
0.0
 20
0.0
 70
65
  0
LINE
  8
1
  6
CONTINUOUS
 62
4
 10
2.8212569E+002
 20
2.3557596E+002
 11
2.8212569E+002
 21
2.4775557E+002
  0
LINE
  8
1
  6
CONTINUOUS
 62
4
 10
2.8362569E+002
 20
2.3557596E+002
 11
2.8362569E+002
 21
2.4775557E+002
  0
LINE
  8
1
  6
CONTINUOUS
 62
4
 10
2.7612569E+002
 20
2.4675557E+002
 11
2.8362569E+002
 21
2.4675557E+002
  0
LINE
  8
1
  6
CONTINUOUS
 62
4
 10
2.8362569E+002
 20
2.4675557E+002
 11
2.9710507E+002
 21
2.4675557E+002
  0
INSERT
  2
_AH13
  8
1
 62
4
 10
2.8212569E+002
 20
2.4675557E+002
 41
3.0
 42
3.0
 43
3.0
 50
3.6E+002
  0
INSERT
  2
_AH13
  8
1
 62
4
 10
2.8362569E+002
 20
2.4675557E+002
 41
3.0
 42
3.0
 43
3.0
 50
5.4E+002
  0
TEXT
  8
1
  6
CONTINUOUS
 62
4
 10
2.8840507E+002
 20
2.4825657E+002
 40
3.0
  1
1,5
 41
8.0E-001
  0
ENDBLK
  0
BLOCK
  2
*D3496
  3
*D
 10
0.0
 20
0.0
 70
65
  0
LINE
  8
1
  6
CONTINUOUS
 62
4
 10
3.3112569E+002
 20
1.8557596E+002
 11
3.3112569E+002
 21
1.5897209E+002
  0
LINE
  8
1
  6
CONTINUOUS
 62
4
 10
3.2512569E+002
 20
1.7157596E+002
 11
3.2512569E+002
 21
1.5897209E+002
  0
LINE
  8
1
  6
CONTINUOUS
 62
4
 10
3.3112569E+002
 20
1.5997209E+002
 11
3.3880815E+002
 21
1.5997209E+002
  0
LINE
  8
1
  6
CONTINUOUS
 62
4
 10
3.1912569E+002
 20
1.5997209E+002
 11
3.3112569E+002
 21
1.5997209E+002
  0
INSERT
  2
_AH13
  8
1
 62
4
 10
3.3112569E+002
 20
1.5997209E+002
 41
3.0
 42
3.0
 43
3.0
 50
5.4E+002
  0
INSERT
  2
_AH13
  8
1
 62
4
 10
3.2512569E+002
 20
1.5997209E+002
 41
3.0
 42
3.0
 43
3.0
 50
7.2E+002
  0
TEXT
  8
1
  6
CONTINUOUS
 62
4
 10
3.3490815E+002
 20
1.6147309E+002
 40
3.0
  1
6
 41
8.0E-001
 50
3.6E+002
  0
ENDBLK
  0
BLOCK
  2
*D3497
  3
*D
 10
0.0
 20
0.0
 70
65
  0
LINE
  8
1
  6
CONTINUOUS
 62
4
 10
3.3112569E+002
 20
1.8557596E+002
 11
3.3112569E+002
 21
1.3133907E+002
  0
LINE
  8
1
  6
CONTINUOUS
 62
4
 10
2.2062569E+002
 20
1.6607596E+002
 11
2.2062569E+002
 21
1.3133907E+002
  0
LINE
  8
1
  6
CONTINUOUS
 62
4
 10
3.3112569E+002
 20
1.3233907E+002
 11
2.7587569E+002
 21
1.3233907E+002
  0
LINE
  8
1
  6
CONTINUOUS
 62
4
 10
2.2062569E+002
 20
1.3233907E+002
 11
2.7587569E+002
 21
1.3233907E+002
  0
INSERT
  2
_AH13
  8
1
 62
4
 10
3.3112569E+002
 20
1.3233907E+002
 41
3.0
 42
3.0
 43
3.0
 50
3.6E+002
  0
INSERT
  2
_AH13
  8
1
 62
4
 10
2.2062569E+002
 20
1.3233907E+002
 41
3.0
 42
3.0
 43
3.0
 50
5.4E+002
  0
TEXT
  8
1
  6
CONTINUOUS
 62
4
 10
2.6987569E+002
 20
1.3384007E+002
 40
3.0
  1
110,5
 41
8.0E-001
 50
3.6E+002
  0
ENDBLK
  0
BLOCK
  2
*D3498
  3
*D
 10
0.0
 20
0.0
 70
65
  0
LINE
  8
1
  6
CONTINUOUS
 62
4
 10
9.3730237E+001
 20
1.5026319E+002
 11
9.3730237E+001
 21
1.3133907E+002
  0
LINE
  8
1
  6
CONTINUOUS
 62
4
 10
1.1123024E+002
 20
1.5026319E+002
 11
1.1123024E+002
 21
1.3133907E+002
  0
LINE
  8
1
  6
CONTINUOUS
 62
4
 10
9.3730237E+001
 20
1.3233907E+002
 11
1.0248024E+002
 21
1.3233907E+002
  0
LINE
  8
1
  6
CONTINUOUS
 62
4
 10
1.1123024E+002
 20
1.3233907E+002
 11
1.0248024E+002
 21
1.3233907E+002
  0
INSERT
  2
_AH13
  8
1
 62
4
 10
9.3730237E+001
 20
1.3233907E+002
 41
3.0
 42
3.0
 43
3.0
 50
1.8E+002
  0
INSERT
  2
_AH13
  8
1
 62
4
 10
1.1123024E+002
 20
1.3233907E+002
 41
3.0
 42
3.0
 43
3.0
 50
3.6E+002
  0
TEXT
  8
1
  6
CONTINUOUS
 62
4
 10
9.7680237E+001
 20
1.3384007E+002
 40
3.0
  1
17,5
 41
8.0E-001
  0
ENDBLK
  0
BLOCK
  2
*D3499
  3
*D
 10
0.0
 20
0.0
 70
65
  0
LINE
  8
1
  6
CONTINUOUS
 62
4
 10
1.1123024E+002
 20
1.5026319E+002
 11
1.1123024E+002
 21
1.3133907E+002
  0
LINE
  8
1
  6
CONTINUOUS
 62
4
 10
1.2873024E+002
 20
1.5116714E+002
 11
1.2873024E+002
 21
1.3133907E+002
  0
LINE
  8
1
  6
CONTINUOUS
 62
4
 10
1.1123024E+002
 20
1.3233907E+002
 11
1.1998024E+002
 21
1.3233907E+002
  0
LINE
  8
1
  6
CONTINUOUS
 62
4
 10
1.2873024E+002
 20
1.3233907E+002
 11
1.1998024E+002
 21
1.3233907E+002
  0
INSERT
  2
_AH13
  8
1
 62
4
 10
1.1123024E+002
 20
1.3233907E+002
 41
3.0
 42
3.0
 43
3.0
 50
1.8E+002
  0
INSERT
  2
_AH13
  8
1
 62
4
 10
1.2873024E+002
 20
1.3233907E+002
 41
3.0
 42
3.0
 43
3.0
 50
3.6E+002
  0
TEXT
  8
1
  6
CONTINUOUS
 62
4
 10
1.1518024E+002
 20
1.3384007E+002
 40
3.0
  1
17,5
 41
8.0E-001
  0
ENDBLK
  0
BLOCK
  2
*D3500
  3
*D
 10
0.0
 20
0.0
 70
65
  0
LINE
  8
1
  6
CONTINUOUS
 62
4
 10
8.4230197E+001
 20
1.4657596E+002
 11
8.4230197E+001
 21
1.2314725E+002
  0
LINE
  8
1
  6
CONTINUOUS
 62
4
 10
1.382302E+002
 20
1.4657596E+002
 11
1.382302E+002
 21
1.2314725E+002
  0
LINE
  8
1
  6
CONTINUOUS
 62
4
 10
8.4230197E+001
 20
1.2414725E+002
 11
1.112302E+002
 21
1.2414725E+002
  0
LINE
  8
1
  6
CONTINUOUS
 62
4
 10
1.382302E+002
 20
1.2414725E+002
 11
1.112302E+002
 21
1.2414725E+002
  0
INSERT
  2
_AH13
  8
1
 62
4
 10
8.4230197E+001
 20
1.2414725E+002
 41
3.0
 42
3.0
 43
3.0
 50
1.8E+002
  0
INSERT
  2
_AH13
  8
1
 62
4
 10
1.382302E+002
 20
1.2414725E+002
 41
3.0
 42
3.0
 43
3.0
 50
3.6E+002
  0
TEXT
  8
1
  6
CONTINUOUS
 62
4
 10
1.088302E+002
 20
1.2564825E+002
 40
3.0
  1
54
 41
8.0E-001
  0
ENDBLK
  0
BLOCK
  2
*D3504
  3
*D
 10
0.0
 20
0.0
 70
65
  0
LINE
  8
1
  6
CONTINUOUS
 62
4
 10
8.4230197E+001
 20
2.0157596E+002
 11
8.4230197E+001
 21
2.4529048E+002
  0
LINE
  8
1
  6
CONTINUOUS
 62
4
 10
9.2130237E+001
 20
2.3786223E+002
 11
9.2130237E+001
 21
2.4529048E+002
  0
LINE
  8
1
  6
CONTINUOUS
 62
4
 10
7.8230197E+001
 20
2.4429048E+002
 11
8.4230197E+001
 21
2.4429048E+002
  0
LINE
  8
1
  6
CONTINUOUS
 62
4
 10
9.8130237E+001
 20
2.4429048E+002
 11
8.4230197E+001
 21
2.4429048E+002
  0
INSERT
  2
_AH13
  8
1
 62
4
 10
8.4230197E+001
 20
2.4429048E+002
 41
3.0
 42
3.0
 43
3.0
 50
3.6E+002
  0
INSERT
  2
_AH13
  8
1
 62
4
 10
9.2130237E+001
 20
2.4429048E+002
 41
3.0
 42
3.0
 43
3.0
 50
5.4E+002
  0
TEXT
  8
1
  6
CONTINUOUS
 62
4
 10
8.6980217E+001
 20
2.4579148E+002
 40
3.0
  1
8
 41
8.0E-001
  0
ENDBLK
  0
BLOCK
  2
*D3505
  3
*D
 10
0.0
 20
0.0
 70
65
  0
LINE
  8
1
  6
CONTINUOUS
 62
4
 10
9.2130237E+001
 20
2.3786223E+002
 11
9.2130237E+001
 21
2.5041896E+002
  0
LINE
  8
1
  6
CONTINUOUS
 62
4
 10
9.2130237E+001
 20
2.5327526E+002
 11
9.2130237E+001
 21
2.6567995E+002
  0
LINE
  8
1
  6
CONTINUOUS
 62
4
 10
1.0653024E+002
 20
2.3774797E+002
 11
1.0653024E+002
 21
2.5588319E+002
  0
LINE
  8
1
  6
CONTINUOUS
 62
4
 10
1.0653024E+002
 20
2.5973298E+002
 11
1.0653024E+002
 21
2.6567995E+002
  0
LINE
  8
1
  6
CONTINUOUS
 62
4
 10
9.2130237E+001
 20
2.6467995E+002
 11
9.9330237E+001
 21
2.6467995E+002
  0
LINE
  8
1
  6
CONTINUOUS
 62
4
 10
1.0653024E+002
 20
2.6467995E+002
 11
9.9330237E+001
 21
2.6467995E+002
  0
INSERT
  2
_AH13
  8
1
 62
4
 10
9.2130237E+001
 20
2.6467995E+002
 41
3.0
 42
3.0
 43
3.0
 50
1.8E+002
  0
INSERT
  2
_AH13
  8
1
 62
4
 10
1.0653024E+002
 20
2.6467995E+002
 41
3.0
 42
3.0
 43
3.0
 50
3.6E+002
  0
TEXT
  8
1
  6
CONTINUOUS
 62
4
 10
9.4530237E+001
 20
2.6618095E+002
 40
3.0
  1
14.5
 41
8.0E-001
  0
ENDBLK
  0
BLOCK
  2
*D3507
  3
*D
 10
0.0
 20
0.0
 70
65
  0
LINE
  8
1
  6
CONTINUOUS
 62
4
 10
1.0653024E+002
 20
2.3774797E+002
 11
1.0653024E+002
 21
2.5625575E+002
  0
LINE
  8
1
  6
CONTINUOUS
 62
4
 10
1.0653024E+002
 20
2.5948461E+002
 11
1.0653024E+002
 21
2.6567995E+002
  0
LINE
  8
1
  6
CONTINUOUS
 62
4
 10
1.2093024E+002
 20
2.374052E+002
 11
1.2093024E+002
 21
2.6567995E+002
  0
LINE
  8
1
  6
CONTINUOUS
 62
4
 10
1.0653024E+002
 20
2.6467995E+002
 11
1.1373024E+002
 21
2.6467995E+002
  0
LINE
  8
1
  6
CONTINUOUS
 62
4
 10
1.2093024E+002
 20
2.6467995E+002
 11
1.1373024E+002
 21
2.6467995E+002
  0
INSERT
  2
_AH13
  8
1
 62
4
 10
1.0653024E+002
 20
2.6467995E+002
 41
3.0
 42
3.0
 43
3.0
 50
1.8E+002
  0
INSERT
  2
_AH13
  8
1
 62
4
 10
1.2093024E+002
 20
2.6467995E+002
 41
3.0
 42
3.0
 43
3.0
 50
3.6E+002
  0
TEXT
  8
1
  6
CONTINUOUS
 62
4
 10
1.0893024E+002
 20
2.6618095E+002
 40
3.0
  1
14.5
 41
8.0E-001
  0
ENDBLK
  0
BLOCK
  2
*D3511
  3
*D
 10
0.0
 20
0.0
 70
65
  0
LINE
  8
1
  6
CONTINUOUS
 62
4
 10
2.2062569E+002
 20
2.0157596E+002
 11
2.0901291E+002
 21
2.0157596E+002
  0
LINE
  8
1
  6
CONTINUOUS
 62
4
 10
2.1584132E+002
 20
2.0657596E+002
 11
2.0901291E+002
 21
2.0657596E+002
  0
LINE
  8
1
  6
CONTINUOUS
 62
4
 10
2.1001291E+002
 20
1.9557596E+002
 11
2.1001291E+002
 21
2.0157596E+002
  0
LINE
  8
1
  6
CONTINUOUS
 62
4
 10
2.1001291E+002
 20
2.1257596E+002
 11
2.1001291E+002
 21
2.0157596E+002
  0
INSERT
  2
_AH13
  8
1
 62
4
 10
2.1001291E+002
 20
2.0157596E+002
 41
3.0
 42
3.0
 43
3.0
 50
4.5E+002
  0
INSERT
  2
_AH13
  8
1
 62
4
 10
2.1001291E+002
 20
2.0657596E+002
 41
3.0
 42
3.0
 43
3.0
 50
6.3E+002
  0
TEXT
  8
1
  6
CONTINUOUS
 62
4
 10
2.0851191E+002
 20
2.0287596E+002
 40
3.0
  1
5
 41
8.0E-001
 50
9.0E+001
  0
ENDBLK
  0
BLOCK
  2
*D3514
  3
*D
 10
0.0
 20
0.0
 70
65
  0
LINE
  8
1
  6
CONTINUOUS
 62
4
 10
1.382302E+002
 20
2.0157596E+002
 11
1.4903159E+002
 21
2.0157596E+002
  0
LINE
  8
1
  6
CONTINUOUS
 62
4
 10
1.295352E+002
 20
1.9157596E+002
 11
1.4903159E+002
 21
1.9157596E+002
  0
LINE
  8
1
  6
CONTINUOUS
 62
4
 10
1.4803159E+002
 20
2.0157596E+002
 11
1.4803159E+002
 21
1.9657596E+002
  0
LINE
  8
1
  6
CONTINUOUS
 62
4
 10
1.4803159E+002
 20
1.9157596E+002
 11
1.4803159E+002
 21
1.9657596E+002
  0
INSERT
  2
_AH13
  8
1
 62
4
 10
1.4803159E+002
 20
2.0157596E+002
 41
3.0
 42
3.0
 43
3.0
 50
4.5E+002
  0
INSERT
  2
_AH13
  8
1
 62
4
 10
1.4803159E+002
 20
1.9157596E+002
 41
3.0
 42
3.0
 43
3.0
 50
6.3E+002
  0
TEXT
  8
1
  6
CONTINUOUS
 62
4
 10
1.4653059E+002
 20
1.9417596E+002
 40
3.0
  1
10
 41
8.0E-001
 50
9.0E+001
  0
ENDBLK
  0
BLOCK
  2
*D3524
  3
*D
 10
0.0
 20
0.0
 70
65
  0
LINE
  8
1
  6
CONTINUOUS
 62
4
 10
1.382302E+002
 20
2.0157596E+002
 11
1.382302E+002
 21
2.5216161E+002
  0
LINE
  8
1
  6
CONTINUOUS
 62
4
 10
1.252302E+002
 20
2.0157596E+002
 11
1.252302E+002
 21
2.5216161E+002
  0
LINE
  8
1
  6
CONTINUOUS
 62
4
 10
1.382302E+002
 20
2.5116161E+002
 11
1.317302E+002
 21
2.5116161E+002
  0
LINE
  8
1
  6
CONTINUOUS
 62
4
 10
1.252302E+002
 20
2.5116161E+002
 11
1.317302E+002
 21
2.5116161E+002
  0
INSERT
  2
_AH13
  8
1
 62
4
 10
1.382302E+002
 20
2.5116161E+002
 41
3.0
 42
3.0
 43
3.0
 50
3.6E+002
  0
INSERT
  2
_AH13
  8
1
 62
4
 10
1.252302E+002
 20
2.5116161E+002
 41
3.0
 42
3.0
 43
3.0
 50
5.4E+002
  0
TEXT
  8
1
  6
CONTINUOUS
 62
4
 10
1.293302E+002
 20
2.5266261E+002
 40
3.0
  1
13
 41
8.0E-001
 50
3.6E+002
  0
ENDBLK
  0
BLOCK
  2
*D4150
  3
*D
 10
0.0
 20
0.0
 70
65
  0
LINE
  8
1
  6
CONTINUOUS
 62
4
 10
2.2062569E+002
 20
2.1107596E+002
 11
2.2062569E+002
 21
2.3061357E+002
  0
LINE
  8
1
  6
CONTINUOUS
 62
4
 10
2.2562569E+002
 20
2.1107596E+002
 11
2.2562569E+002
 21
2.3061357E+002
  0
LINE
  8
1
  6
CONTINUOUS
 62
4
 10
2.1462569E+002
 20
2.2961357E+002
 11
2.2062569E+002
 21
2.2961357E+002
  0
LINE
  8
1
  6
CONTINUOUS
 62
4
 10
2.3162569E+002
 20
2.2961357E+002
 11
2.2062569E+002
 21
2.2961357E+002
  0
INSERT
  2
_AH13
  8
1
 62
4
 10
2.2062569E+002
 20
2.2961357E+002
 41
3.0
 42
3.0
 43
3.0
 50
3.6E+002
  0
INSERT
  2
_AH13
  8
1
 62
4
 10
2.2562569E+002
 20
2.2961357E+002
 41
3.0
 42
3.0
 43
3.0
 50
5.4E+002
  0
TEXT
  8
1
  6
CONTINUOUS
 62
4
 10
2.2192569E+002
 20
2.3111457E+002
 40
3.0
  1
5
 41
8.0E-001
  0
ENDBLK
  0
ENDSEC
  0
SECTION
  2
ENTITIES
  0
TEXT
  8
1
  6
CONTINUOUS
 62
4
 10
3.256317E+002
 20
5.5142876E+001
 40
3.0
  1
Changes of dimensions reserved !
 41
8.0E-001
  0
TEXT
  8
4
  6
CONTINUOUS
 62
4
 10
3.2569651E+002
 20
4.9979745E+001
 40
3.0
  1
Massaenderungen vorbehalten !
 41
8.3323629E-001
  0
TEXT
  8
6
  6
CONTINUOUS
 62
4
 10
3.5359991E+002
 20
1.1556695E+001
 40
5.0
  1
1SA Z30 0401
 41
8.0E-001
  0
TEXT
  8
4
  6
CONTINUOUS
 62
4
 10
3.7609399E+002
 20
2.7726508E+001
 40
2.5
  1
X
 41
1.066667
  0
POLYLINE
  8
2
  6
CONTINUOUS
 62
3
 66
1
 40
5.0E-001
 41
5.0E-001
 70
0
  0
VERTEX
  8
2
 42
0.0
 10
1.192302E+002
 20
1.9857596E+002
 70
0
  0
VERTEX
  8
2
 42
0.0
 10
1.192302E+002
 20
1.8557596E+002
 70
0
  0
SEQEND
  0
TEXT
  8
8
  6
CONTINUOUS
 62
4
 10
3.4972081E+002
 20
1.5013754E+001
 40
2.2
  1
TA 42DU
 41
8.0E-001
 72
1
 11
3.4356081E+002
 21
1.5013754E+001
  0
TEXT
  8
7
  6
CONTINUOUS
 62
4
 10
3.4250557E+002
 20
2.8048979E+001
 40
3.5
  1
1:1
 41
6.2085333E-001
  0
TEXT
  8
1
  6
CONTINUOUS
 62
4
 10
2.7848588E+002
 20
1.1695366E+001
 40
2.8
  1
dimension drawing
 41
8.0E-001
  0
TEXT
  8
8
  6
CONTINUOUS
 62
4
 10
3.1651432E+002
 20
1.9655577E+001
 40
2.4
  1
15.9.04 GuNi
 41
6.0E-001
  0
TEXT
  8
8
  6
CONTINUOUS
 62
4
 10
3.1637567E+002
 20
2.7974987E+001
 40
2.4
  1
15.9.04 GrBe
 41
6.0E-001
  0
TEXT
  8
8
  6
CONTINUOUS
 62
4
 10
3.1554373E+002
 20
3.2273349E+001
 40
2.4
  1
15.9.04 AnDi
 41
6.0E-001
  0
TEXT
  8
8
  6
CONTINUOUS
 62
4
 10
2.8066632E+002
 20
1.9296944E+001
 40
2.5
  1
STO/CLD
 41
1.083333
  0
TEXT
  8
6
  6
CONTINUOUS
 62
4
 10
2.7475115E+002
 20
1.1763247E+001
 40
4.5
  1
Massbild
 41
8.0E-001
 72
1
 11
2.6035115E+002
 21
1.1763247E+001
  0
TEXT
  8
8
  6
CONTINUOUS
 62
4
 10
2.3195466E+002
 20
3.2171292E+001
 40
2.0
  1
Z25 201 v. 10.9.04 Di
 41
6.0E-001
  0
TEXT
  8
8
  6
CONTINUOUS
 62
4
 10
2.2486145E+002
 20
3.2169412E+001
 40
2.5
  1
a
 41
7.6E-001
  0
POLYLINE
  8
2
  6
CONTINUOUS
 62
3
 66
1
 40
5.0E-001
 41
5.0E-001
 70
0
  0
VERTEX
  8
2
 42
0.0
 10
1.192302E+002
 20
1.9857596E+002
 70
0
  0
VERTEX
  8
2
 42
0.0
 10
1.252302E+002
 20
1.9857596E+002
 70
0
  0
SEQEND
  0
POLYLINE
  8
2
  6
CONTINUOUS
 62
3
 66
1
 40
5.0E-001
 41
5.0E-001
 70
0
  0
VERTEX
  8
2
 42
1.0
 10
1.277302E+002
 20
1.9607596E+002
 70
0
  0
VERTEX
  8
2
 42
1.0
 10
1.227302E+002
 20
1.9607596E+002
 70
0
  0
VERTEX
  8
2
 42
0.0
 10
1.277302E+002
 20
1.9607596E+002
 70
0
  0
SEQEND
  0
LINE
  8
4
  6
CENTERLINE
 62
1
 10
1.238867E+002
 20
1.9607596E+002
 11
1.266447E+002
 21
1.9607596E+002
  0
LINE
  8
4
  6
CENTERLINE
 62
1
 10
1.252302E+002
 20
1.9757196E+002
 11
1.252302E+002
 21
1.9452276E+002
  0
POLYLINE
  8
2
  6
CONTINUOUS
 62
3
 66
1
 40
5.0E-001
 41
5.0E-001
 70
0
  0
VERTEX
  8
2
 42
0.0
 10
1.304802E+002
 20
1.9757596E+002
 70
0
  0
VERTEX
  8
2
 42
0.0
 10
1.272302E+002
 20
1.9757596E+002
 70
0
  0
SEQEND
  0
LINE
  8
1
  6
HIDDEN
 62
4
 10
1.3273024E+002
 20
2.0157596E+002
 11
1.3273024E+002
 21
2.1107596E+002
  0
POLYLINE
  8
2
  6
CONTINUOUS
 62
3
 66
1
 40
5.0E-001
 41
5.0E-001
 70
0
  0
VERTEX
  8
2
 42
0.0
 10
1.304802E+002
 20
1.9757596E+002
 70
0
  0
VERTEX
  8
2
 42
0.0
 10
1.304802E+002
 20
1.8557596E+002
 70
0
  0
SEQEND
  0
POLYLINE
  8
2
  6
CONTINUOUS
 62
3
 66
1
 40
5.0E-001
 41
5.0E-001
 70
0
  0
VERTEX
  8
2
 42
0.0
 10
1.192302E+002
 20
1.8557596E+002
 70
0
  0
VERTEX
  8
2
 42
0.0
 10
1.304802E+002
 20
1.8557596E+002
 70
0
  0
SEQEND
  0
POLYLINE
  8
2
  6
CONTINUOUS
 62
3
 66
1
 40
5.0E-001
 41
5.0E-001
 70
0
  0
VERTEX
  8
2
 42
0.0
 10
3.2512569E+002
 20
1.9857596E+002
 70
0
  0
VERTEX
  8
2
 42
0.0
 10
3.3112569E+002
 20
1.9857596E+002
 70
0
  0
SEQEND
  0
POLYLINE
  8
2
  6
CONTINUOUS
 62
3
 66
1
 40
5.0E-001
 41
5.0E-001
 70
0
  0
VERTEX
  8
2
 42
0.0
 10
3.2512569E+002
 20
1.9207596E+002
 70
0
  0
VERTEX
  8
2
 42
0.0
 10
3.2932569E+002
 20
1.9207596E+002
 70
0
  0
SEQEND
  0
POLYLINE
  8
2
  6
CONTINUOUS
 62
3
 66
1
 40
5.0E-001
 41
5.0E-001
 70
0
  0
VERTEX
  8
2
 42
0.0
 10
3.2932569E+002
 20
1.9857596E+002
 70
0
  0
VERTEX
  8
2
 42
0.0
 10
3.2932569E+002
 20
1.8557596E+002
 70
0
  0
SEQEND
  0
POLYLINE
  8
2
  6
CONTINUOUS
 62
3
 66
1
 40
5.0E-001
 41
5.0E-001
 70
0
  0
VERTEX
  8
2
 42
0.0
 10
3.2932569E+002
 20
1.8557596E+002
 70
0
  0
VERTEX
  8
2
 42
0.0
 10
3.3112569E+002
 20
1.8557596E+002
 70
0
  0
SEQEND
  0
POLYLINE
  8
2
  6
CONTINUOUS
 62
3
 66
1
 40
5.0E-001
 41
5.0E-001
 70
0
  0
VERTEX
  8
2
 42
0.0
 10
3.3112569E+002
 20
1.9857596E+002
 70
0
  0
VERTEX
  8
2
 42
0.0
 10
3.3112569E+002
 20
1.8557596E+002
 70
0
  0
SEQEND
  0
LINE
  8
1
  6
HIDDEN
 62
4
 10
1.3273024E+002
 20
2.1107596E+002
 11
1.2838024E+002
 21
2.1107596E+002
  0
LINE
  8
4
  6
CENTERLINE
 62
1
 10
9.2435717E+001
 20
1.7797596E+002
 11
1.2988794E+002
 21
1.7797596E+002
  0
LINE
  8
1
  6
HIDDEN
 62
4
 10
1.2838024E+002
 20
2.0657596E+002
 11
1.2838024E+002
 21
2.1107596E+002
  0
ARC
  8
1
  6
HIDDEN
 62
4
 10
1.2623024E+002
 20
2.0657596E+002
 40
2.15
 50
1.8E+002
 51
3.6E+002
  0
POLYLINE
  8
2
  6
CONTINUOUS
 62
3
 66
1
 40
5.0E-001
 41
5.0E-001
 70
0
  0
VERTEX
  8
2
 42
0.0
 10
1.0208399E+002
 20
1.9757596E+002
 70
0
  0
VERTEX
  8
2
 42
0.0
 10
1.192302E+002
 20
1.9757596E+002
 70
0
  0
SEQEND
  0
POLYLINE
  8
2
  6
CONTINUOUS
 62
3
 66
1
 40
5.0E-001
 41
5.0E-001
 70
0
  0
VERTEX
  8
2
 42
0.0
 10
1.304802E+002
 20
1.9757596E+002
 70
0
  0
VERTEX
  8
2
 42
0.0
 10
1.382302E+002
 20
1.9757596E+002
 70
0
  0
SEQEND
  0
LINE
  8
4
  6
CENTERLINE
 62
1
 10
1.0823284E+002
 20
1.9237596E+002
 11
1.1450994E+002
 21
1.9237596E+002
  0
LINE
  8
1
  6
HIDDEN
 62
4
 10
1.2408024E+002
 20
2.0657596E+002
 11
1.2408024E+002
 21
2.1107596E+002
  0
POLYLINE
  8
2
  6
CONTINUOUS
 62
3
 66
1
 40
5.0E-001
 41
5.0E-001
 70
0
  0
VERTEX
  8
2
 42
1.0
 10
1.0808014E+002
 20
1.7797596E+002
 70
0
  0
VERTEX
  8
2
 42
1.0
 10
1.0408014E+002
 20
1.7797596E+002
 70
0
  0
VERTEX
  8
2
 42
0.0
 10
1.0808014E+002
 20
1.7797596E+002
 70
0
  0
SEQEND
  0
LINE
  8
1
  6
HIDDEN
 62
4
 10
1.2408024E+002
 20
2.1107596E+002
 11
1.1698024E+002
 21
2.1107596E+002
  0
POLYLINE
  8
2
  6
CONTINUOUS
 62
3
 66
1
 40
5.0E-001
 41
5.0E-001
 70
0
  0
VERTEX
  8
2
 42
0.0
 10
1.1123024E+002
 20
1.8727626E+002
 70
0
  0
VERTEX
  8
2
 42
0.0
 10
1.1123024E+002
 20
1.8810908E+002
 70
0
  0
SEQEND
  0
POLYLINE
  8
2
  6
CONTINUOUS
 62
3
 66
1
 40
5.0E-001
 41
5.0E-001
 70
0
  0
VERTEX
  8
2
 42
1.0
 10
9.7780197E+001
 20
1.7797596E+002
 70
0
  0
VERTEX
  8
2
 42
1.0
 10
9.3780197E+001
 20
1.7797596E+002
 70
0
  0
VERTEX
  8
2
 42
0.0
 10
9.7780197E+001
 20
1.7797596E+002
 70
0
  0
SEQEND
  0
POLYLINE
  8
2
  6
CONTINUOUS
 62
3
 66
1
 40
5.0E-001
 41
5.0E-001
 70
0
  0
VERTEX
  8
2
 42
0.0
 10
9.1630207E+001
 20
1.7287596E+002
 70
0
  0
VERTEX
  8
2
 42
0.0
 10
9.1630207E+001
 20
1.8197596E+002
 70
0
  0
SEQEND
  0
LINE
  8
1
  6
HIDDEN
 62
4
 10
1.1698024E+002
 20
2.0707596E+002
 11
1.1698024E+002
 21
2.1107596E+002
  0
LINE
  8
1
  6
CENTERLINE
 62
1
 10
1.2623024E+002
 20
2.0282496E+002
 11
1.2623024E+002
 21
2.0898675E+002
  0
LINE
  8
1
  6
HIDDEN
 62
1
 10
1.232802E+002
 20
2.0657596E+002
 11
1.3012816E+002
 21
2.0657596E+002
  0
LINE
  8
1
  6
HIDDEN
 62
1
 10
9.3171253E+001
 20
2.0657596E+002
 11
9.9456763E+001
 21
2.0657596E+002
  0
LINE
  8
1
  6
CENTERLINE
 62
1
 10
9.6230237E+001
 20
2.0282496E+002
 11
9.6230237E+001
 21
2.0898675E+002
  0
LINE
  8
1
  6
HIDDEN
 62
4
 10
1.0548024E+002
 20
2.0977596E+002
 11
9.8380237E+001
 21
2.0977596E+002
  0
POLYLINE
  8
2
  6
CONTINUOUS
 62
3
 66
1
 40
5.0E-001
 41
5.0E-001
 70
0
  0
VERTEX
  8
2
 42
4.1421356E-001
 10
1.0728024E+002
 20
1.8697596E+002
 70
0
  0
VERTEX
  8
2
 42
0.0
 10
1.0528024E+002
 20
1.8497596E+002
 70
0
  0
SEQEND
  0
POLYLINE
  8
2
  6
CONTINUOUS
 62
3
 66
1
 40
5.0E-001
 41
5.0E-001
 70
0
  0
VERTEX
  8
2
 42
3.783001E-004
 10
1.0528024E+002
 20
1.8547829E+002
 70
0
  0
VERTEX
  8
2
 42
0.0
 10
1.0528024E+002
 20
1.8547526E+002
 70
0
  0
SEQEND
  0
POLYLINE
  8
2
  6
CONTINUOUS
 62
3
 66
1
 40
5.0E-001
 41
5.0E-001
 70
0
  0
VERTEX
  8
2
 42
4.1421356E-001
 10
1.1708024E+002
 20
1.8497596E+002
 70
0
  0
VERTEX
  8
2
 42
0.0
 10
1.1508024E+002
 20
1.8697596E+002
 70
0
  0
SEQEND
  0
LINE
  8
1
  6
HIDDEN
 62
4
 10
1.0548024E+002
 20
2.0157596E+002
 11
1.0548024E+002
 21
2.0977596E+002
  0
LINE
  8
1
  6
HIDDEN
 62
4
 10
9.8380237E+001
 20
2.0657596E+002
 11
9.8380237E+001
 21
2.0977596E+002
  0
ARC
  8
1
  6
HIDDEN
 62
4
 10
9.6230237E+001
 20
2.0657596E+002
 40
2.15
 50
1.8E+002
 51
3.6E+002
  0
LINE
  8
1
  6
HIDDEN
 62
4
 10
9.4080237E+001
 20
2.0657596E+002
 11
9.4080237E+001
 21
2.1107596E+002
  0
POLYLINE
  8
2
  6
CONTINUOUS
 62
3
 66
1
 40
5.0E-001
 41
5.0E-001
 70
0
  0
VERTEX
  8
2
 42
0.0
 10
1.1638024E+002
 20
1.9237596E+002
 70
0
  0
VERTEX
  8
2
 42
0.0
 10
1.1558024E+002
 20
1.9237596E+002
 70
0
  0
SEQEND
  0
POLYLINE
  8
2
  6
CONTINUOUS
 62
3
 66
1
 40
5.0E-001
 41
5.0E-001
 70
0
  0
VERTEX
  8
2
 42
0.0
 10
1.0613024E+002
 20
1.9237596E+002
 70
0
  0
VERTEX
  8
2
 42
0.0
 10
1.0693024E+002
 20
1.9237596E+002
 70
0
  0
SEQEND
  0
LINE
  8
4
  6
CENTERLINE
 62
1
 10
9.7780197E+001
 20
1.8722986E+002
 11
9.7780197E+001
 21
1.9807196E+002
  0
LINE
  8
1
  6
HIDDEN
 62
4
 10
9.4080237E+001
 20
2.1107596E+002
 11
8.9730237E+001
 21
2.1107596E+002
  0
LINE
  8
4
  6
CENTERLINE
 62
1
 10
1.0352514E+002
 20
1.9237596E+002
 11
9.2112307E+001
 21
1.9237596E+002
  0
POLYLINE
  8
2
  6
CONTINUOUS
 62
3
 66
1
 40
5.0E-001
 41
5.0E-001
 70
0
  0
VERTEX
  8
2
 42
2.43331
 10
1.1123246E+002
 20
1.8807623E+002
 70
0
  0
VERTEX
  8
2
 42
0.0
 10
1.0698024E+002
 20
1.9237596E+002
 70
0
  0
SEQEND
  0
POLYLINE
  8
2
  6
CONTINUOUS
 62
3
 66
1
 40
5.0E-001
 41
5.0E-001
 70
0
  0
VERTEX
  8
2
 42
1.0
 10
1.045302E+002
 20
1.9237596E+002
 70
0
  0
VERTEX
  8
2
 42
1.0
 10
9.1030197E+001
 20
1.9237596E+002
 70
0
  0
VERTEX
  8
2
 42
0.0
 10
1.045302E+002
 20
1.9237596E+002
 70
0
  0
SEQEND
  0
POLYLINE
  8
2
  6
CONTINUOUS
 62
3
 66
1
 40
5.0E-001
 41
5.0E-001
 70
0
  0
VERTEX
  8
2
 42
0.0
 10
1.0618024E+002
 20
1.9237596E+002
 70
0
  0
VERTEX
  8
2
 42
0.0
 10
1.0702101E+002
 20
1.9237596E+002
 70
0
  0
SEQEND
  0
POLYLINE
  8
2
  6
CONTINUOUS
 62
3
 66
1
 40
5.0E-001
 41
5.0E-001
 70
0
  0
VERTEX
  8
2
 42
0.0
 10
8.4230197E+001
 20
1.9757596E+002
 70
0
  0
VERTEX
  8
2
 42
0.0
 10
9.3476417E+001
 20
1.9757596E+002
 70
0
  0
SEQEND
  0
LINE
  8
1
  6
HIDDEN
 62
4
 10
8.9730237E+001
 20
2.0157596E+002
 11
8.9730237E+001
 21
2.1107596E+002
  0
POLYLINE
  8
2
  6
CONTINUOUS
 62
3
 66
1
 40
5.0E-001
 41
5.0E-001
 70
0
  0
VERTEX
  8
2
 42
0.0
 10
1.0728024E+002
 20
1.8697596E+002
 70
0
  0
VERTEX
  8
2
 42
0.0
 10
1.1508024E+002
 20
1.8697596E+002
 70
0
  0
SEQEND
  0
POLYLINE
  8
2
  6
CONTINUOUS
 62
3
 66
1
 40
5.0E-001
 41
5.0E-001
 70
0
  0
VERTEX
  8
2
 42
0.0
 10
9.1630207E+001
 20
1.8197596E+002
 70
0
  0
VERTEX
  8
2
 42
0.0
 10
9.5672867E+001
 20
1.8197596E+002
 70
0
  0
SEQEND
  0
POLYLINE
  8
2
  6
CONTINUOUS
 62
3
 66
1
 40
5.0E-001
 41
5.0E-001
 70
0
  0
VERTEX
  8
2
 42
0.0
 10
1.3083024E+002
 20
1.7287596E+002
 70
0
  0
VERTEX
  8
2
 42
0.0
 10
1.3083024E+002
 20
1.8197596E+002
 70
0
  0
SEQEND
  0
POLYLINE
  8
2
  6
CONTINUOUS
 62
3
 66
1
 40
5.0E-001
 41
5.0E-001
 70
0
  0
VERTEX
  8
2
 42
0.0
 10
1.0528024E+002
 20
1.8197596E+002
 70
0
  0
VERTEX
  8
2
 42
0.0
 10
1.0528024E+002
 20
1.8497596E+002
 70
0
  0
SEQEND
  0
POLYLINE
  8
2
  6
CONTINUOUS
 62
3
 66
1
 40
5.0E-001
 41
5.0E-001
 70
0
  0
VERTEX
  8
2
 42
0.0
 10
1.1708024E+002
 20
1.8197596E+002
 70
0
  0
VERTEX
  8
2
 42
0.0
 10
1.1708024E+002
 20
1.8497596E+002
 70
0
  0
SEQEND
  0
POLYLINE
  8
2
  6
CONTINUOUS
 62
3
 66
1
 40
5.0E-001
 41
5.0E-001
 70
0
  0
VERTEX
  8
2
 42
0.0
 10
9.7780197E+001
 20
1.8562596E+002
 70
0
  0
VERTEX
  8
2
 42
0.0
 10
9.5672867E+001
 20
1.8197596E+002
 70
0
  0
SEQEND
  0
POLYLINE
  8
2
  6
CONTINUOUS
 62
3
 66
1
 40
5.0E-001
 41
5.0E-001
 70
0
  0
VERTEX
  8
2
 42
0.0
 10
9.7780197E+001
 20
1.8562596E+002
 70
0
  0
VERTEX
  8
2
 42
0.0
 10
9.9887527E+001
 20
1.8197596E+002
 70
0
  0
SEQEND
  0
POLYLINE
  8
2
  6
CONTINUOUS
 62
3
 66
1
 40
5.0E-001
 41
5.0E-001
 70
0
  0
VERTEX
  8
2
 42
1.0
 10
1.2868024E+002
 20
1.7797596E+002
 70
0
  0
VERTEX
  8
2
 42
1.0
 10
1.2468024E+002
 20
1.7797596E+002
 70
0
  0
VERTEX
  8
2
 42
0.0
 10
1.2868024E+002
 20
1.7797596E+002
 70
0
  0
SEQEND
  0
POLYLINE
  8
2
  6
CONTINUOUS
 62
3
 66
1
 40
5.0E-001
 41
5.0E-001
 70
0
  0
VERTEX
  8
2
 42
1.0
 10
1.1838014E+002
 20
1.7797596E+002
 70
0
  0
VERTEX
  8
2
 42
1.0
 10
1.1438014E+002
 20
1.7797596E+002
 70
0
  0
VERTEX
  8
2
 42
0.0
 10
1.1838014E+002
 20
1.7797596E+002
 70
0
  0
SEQEND
  0
POLYLINE
  8
2
  6
CONTINUOUS
 62
3
 66
1
 40
5.0E-001
 41
5.0E-001
 70
0
  0
VERTEX
  8
2
 42
1.0
 10
1.0618024E+002
 20
1.9237596E+002
 70
0
  0
VERTEX
  8
2
 42
0.0
 10
1.1638024E+002
 20
1.9237596E+002
 70
0
  0
SEQEND
  0
LINE
  8
4
  6
CENTERLINE
 62
1
 10
1.1123024E+002
 20
1.8697596E+002
 11
1.1123024E+002
 21
2.1262062E+002
  0
LINE
  8
4
  6
CENTERLINE
 62
1
 10
1.0608014E+002
 20
1.8093346E+002
 11
1.0608014E+002
 21
1.7426386E+002
  0
LINE
  8
4
  6
CENTERLINE
 62
1
 10
1.2668024E+002
 20
1.8067696E+002
 11
1.2668024E+002
 21
1.7452046E+002
  0
LINE
  8
4
  6
CENTERLINE
 62
1
 10
1.1638014E+002
 20
1.8076246E+002
 11
1.1638014E+002
 21
1.7460596E+002
  0
LINE
  8
4
  6
CENTERLINE
 62
1
 10
9.5780197E+001
 20
1.8110446E+002
 11
9.5780197E+001
 21
1.7434936E+002
  0
POLYLINE
  8
2
  6
CONTINUOUS
 62
3
 66
1
 40
5.0E-001
 41
5.0E-001
 70
0
  0
VERTEX
  8
2
 42
0.0
 10
9.9887527E+001
 20
1.8197596E+002
 70
0
  0
VERTEX
  8
2
 42
0.0
 10
1.0528024E+002
 20
1.8197596E+002
 70
0
  0
SEQEND
  0
POLYLINE
  8
2
  6
CONTINUOUS
 62
3
 66
1
 40
5.0E-001
 41
5.0E-001
 70
0
  0
VERTEX
  8
2
 42
0.0
 10
1.1708024E+002
 20
1.8197596E+002
 70
0
  0
VERTEX
  8
2
 42
0.0
 10
1.3083024E+002
 20
1.8197596E+002
 70
0
  0
SEQEND
  0
POLYLINE
  8
4
  6
CONTINUOUS
 62
3
 66
1
 40
5.0E-001
 41
5.0E-001
 70
0
  0
VERTEX
  8
4
 42
0.0
 10
9.4745283E+001
 20
1.7901088E+002
 70
0
  0
VERTEX
  8
4
 42
0.0
 10
9.6840857E+001
 20
1.769153E+002
 70
0
  0
SEQEND
  0
POLYLINE
  8
1
  6
CONTINUOUS
 62
3
 66
1
 40
5.0E-001
 41
5.0E-001
 70
0
  0
VERTEX
  8
1
 42
0.0
 10
9.4719537E+001
 20
1.769153E+002
 70
0
  0
VERTEX
  8
1
 42
0.0
 10
9.6840857E+001
 20
1.7903662E+002
 70
0
  0
SEQEND
  0
POLYLINE
  8
4
  6
CONTINUOUS
 62
3
 66
1
 40
5.0E-001
 41
5.0E-001
 70
0
  0
VERTEX
  8
4
 42
0.0
 10
1.0504522E+002
 20
1.7901088E+002
 70
0
  0
VERTEX
  8
4
 42
0.0
 10
1.071408E+002
 20
1.769153E+002
 70
0
  0
SEQEND
  0
POLYLINE
  8
1
  6
CONTINUOUS
 62
3
 66
1
 40
5.0E-001
 41
5.0E-001
 70
0
  0
VERTEX
  8
1
 42
0.0
 10
1.0501948E+002
 20
1.769153E+002
 70
0
  0
VERTEX
  8
1
 42
0.0
 10
1.071408E+002
 20
1.7903662E+002
 70
0
  0
SEQEND
  0
POLYLINE
  8
4
  6
CONTINUOUS
 62
3
 66
1
 40
5.0E-001
 41
5.0E-001
 70
0
  0
VERTEX
  8
4
 42
0.0
 10
1.1534522E+002
 20
1.7901088E+002
 70
0
  0
VERTEX
  8
4
 42
0.0
 10
1.174408E+002
 20
1.769153E+002
 70
0
  0
SEQEND
  0
POLYLINE
  8
1
  6
CONTINUOUS
 62
3
 66
1
 40
5.0E-001
 41
5.0E-001
 70
0
  0
VERTEX
  8
1
 42
0.0
 10
1.1531948E+002
 20
1.769153E+002
 70
0
  0
VERTEX
  8
1
 42
0.0
 10
1.174408E+002
 20
1.7903662E+002
 70
0
  0
SEQEND
  0
POLYLINE
  8
4
  6
CONTINUOUS
 62
3
 66
1
 40
5.0E-001
 41
5.0E-001
 70
0
  0
VERTEX
  8
4
 42
0.0
 10
1.2564532E+002
 20
1.7901088E+002
 70
0
  0
VERTEX
  8
4
 42
0.0
 10
1.277409E+002
 20
1.769153E+002
 70
0
  0
SEQEND
  0
POLYLINE
  8
1
  6
CONTINUOUS
 62
3
 66
1
 40
5.0E-001
 41
5.0E-001
 70
0
  0
VERTEX
  8
1
 42
0.0
 10
1.2561958E+002
 20
1.769153E+002
 70
0
  0
VERTEX
  8
1
 42
0.0
 10
1.277409E+002
 20
1.7903662E+002
 70
0
  0
SEQEND
  0
POLYLINE
  8
4
  6
CONTINUOUS
 62
3
 66
1
 40
5.0E-001
 41
5.0E-001
 70
0
  0
VERTEX
  8
4
 42
0.0
 10
1.1019532E+002
 20
1.9340053E+002
 70
0
  0
VERTEX
  8
4
 42
0.0
 10
1.122909E+002
 20
1.9130495E+002
 70
0
  0
SEQEND
  0
POLYLINE
  8
1
  6
CONTINUOUS
 62
3
 66
1
 40
5.0E-001
 41
5.0E-001
 70
0
  0
VERTEX
  8
1
 42
0.0
 10
1.1016958E+002
 20
1.9130495E+002
 70
0
  0
VERTEX
  8
1
 42
0.0
 10
1.122909E+002
 20
1.9342627E+002
 70
0
  0
SEQEND
  0
POLYLINE
  8
1
  6
CONTINUOUS
 62
3
 66
1
 40
5.0E-001
 41
5.0E-001
 70
0
  0
VERTEX
  8
1
 42
0.0
 10
9.6365983E+001
 20
1.9096175E+002
 70
0
  0
VERTEX
  8
1
 42
0.0
 10
9.9194411E+001
 20
1.9379018E+002
 70
0
  0
SEQEND
  0
POLYLINE
  8
4
  6
CONTINUOUS
 62
3
 66
1
 40
5.0E-001
 41
5.0E-001
 70
0
  0
VERTEX
  8
4
 42
0.0
 10
9.6365983E+001
 20
1.9379018E+002
 70
0
  0
VERTEX
  8
4
 42
0.0
 10
9.9194411E+001
 20
1.9096175E+002
 70
0
  0
SEQEND
  0
DIMENSION
  8
1
  6
CONTINUOUS
 62
4
  2
*D497
  3
DSTYLE1
 10
1.2623024E+002
 20
2.5776152E+002
 11
1.1123024E+002
 21
2.6076252E+002
 70
128
 13
9.6230237E+001
 23
2.0898675E+002
 14
1.2623024E+002
 24
2.0898675E+002
 40
3.0
 50
0.0
1001
ACAD
1000
DSTYLE
1002
{
1070
173
1070
0
1070
5
1000
_AH13
1002
}
  0
DIMENSION
  8
1
  6
CONTINUOUS
 62
4
  2
*D499
  3
DSTYLE1
 10
9.4080237E+001
 20
2.5164032E+002
 11
8.6180785E+001
 21
2.5464132E+002
 70
128
 13
9.8380237E+001
 23
2.0977596E+002
 14
9.4080237E+001
 24
2.1107596E+002
 40
3.0
 50
0.0
1001
ACAD
1000
DSTYLE
1002
{
1070
173
1070
0
1070
5
1000
_AH13
1002
}
  0
DIMENSION
  8
Drafting_Hidden_Entities
  6
CONTINUOUS
 62
4
  2
*D950
  3
DSTYLE2
 10
1.9642156E+002
 20
1.9109687E+002
 11
1.9342056E+002
 21
2.0109687E+002
 70
128
 13
1.565561E+002
 23
2.1109687E+002
 14
1.7362006E+002
 24
1.9109687E+002
 40
3.0
 50
9.0E+001
1001
ACAD
1000
DSTYLE
1002
{
1070
173
1070
0
1002
}
  0
INSERT
  2
RAHMEN_A3
  8
1
 10
0.0
 20
0.0
  0
POLYLINE
  8
1
  6
CONTINUOUS
 62
3
 66
1
 40
5.0E-001
 41
5.0E-001
 70
0
  0
VERTEX
  8
1
 42
0.0
 10
8.4230197E+001
 20
2.0157596E+002
 70
0
  0
VERTEX
  8
1
 42
0.0
 10
1.081802E+002
 20
2.0157596E+002
 70
0
  0
SEQEND
  0
POLYLINE
  8
1
  6
CONTINUOUS
 62
3
 66
1
 40
5.0E-001
 41
5.0E-001
 70
0
  0
VERTEX
  8
1
 42
0.0
 10
8.4230197E+001
 20
2.0157596E+002
 70
0
  0
VERTEX
  8
1
 42
0.0
 10
8.4230197E+001
 20
1.4657596E+002
 70
0
  0
SEQEND
  0
POLYLINE
  8
1
  6
CONTINUOUS
 62
3
 66
1
 40
5.0E-001
 41
5.0E-001
 70
0
  0
VERTEX
  8
1
 42
0.0
 10
1.382302E+002
 20
2.0157596E+002
 70
0
  0
VERTEX
  8
1
 42
0.0
 10
1.382302E+002
 20
1.4657596E+002
 70
0
  0
SEQEND
  0
POLYLINE
  8
1
  6
CONTINUOUS
 62
3
 66
1
 40
5.0E-001
 41
5.0E-001
 70
0
  0
VERTEX
  8
1
 42
0.0
 10
2.2062569E+002
 20
2.0157596E+002
 70
0
  0
VERTEX
  8
1
 42
0.0
 10
2.2062569E+002
 20
1.6607596E+002
 70
0
  0
SEQEND
  0
POLYLINE
  8
1
  6
CONTINUOUS
 62
3
 66
1
 40
5.0E-001
 41
5.0E-001
 70
0
  0
VERTEX
  8
1
 42
0.0
 10
3.2512569E+002
 20
2.0157596E+002
 70
0
  0
VERTEX
  8
1
 42
0.0
 10
3.2512569E+002
 20
1.7157596E+002
 70
0
  0
SEQEND
  0
POLYLINE
  8
1
  6
CONTINUOUS
 62
3
 66
1
 40
5.0E-001
 41
5.0E-001
 70
0
  0
VERTEX
  8
1
 42
0.0
 10
1.0073024E+002
 20
1.4557596E+002
 70
0
  0
VERTEX
  8
1
 42
0.0
 10
1.0423024E+002
 20
1.4557596E+002
 70
0
  0
SEQEND
  0
POLYLINE
  8
1
  6
CONTINUOUS
 62
3
 66
1
 40
5.0E-001
 41
5.0E-001
 70
0
  0
VERTEX
  8
1
 42
0.0
 10
2.4546137E+002
 20
1.4557596E+002
 70
0
  0
VERTEX
  8
1
 42
0.0
 10
2.9412569E+002
 20
1.4557596E+002
 70
0
  0
SEQEND
  0
POLYLINE
  8
1
  6
CONTINUOUS
 62
3
 66
1
 40
5.0E-001
 41
5.0E-001
 70
0
  0
VERTEX
  8
1
 42
0.0
 10
2.2062569E+002
 20
2.0157596E+002
 70
0
  0
VERTEX
  8
1
 42
0.0
 10
3.2512569E+002
 20
2.0157596E+002
 70
0
  0
SEQEND
  0
POLYLINE
  8
1
  6
CONTINUOUS
 62
3
 66
1
 40
5.0E-001
 41
5.0E-001
 70
0
  0
VERTEX
  8
1
 42
0.0
 10
2.2062569E+002
 20
1.6607596E+002
 70
0
  0
VERTEX
  8
1
 42
0.0
 10
2.3362569E+002
 20
1.6607596E+002
 70
0
  0
SEQEND
  0
POLYLINE
  8
1
  6
CONTINUOUS
 62
3
 66
1
 40
5.0E-001
 41
5.0E-001
 70
0
  0
VERTEX
  8
1
 42
0.0
 10
2.3362569E+002
 20
1.6607596E+002
 70
0
  0
VERTEX
  8
1
 42
0.0
 10
2.4546137E+002
 20
1.4557596E+002
 70
0
  0
SEQEND
  0
POLYLINE
  8
1
  6
CONTINUOUS
 62
3
 66
1
 40
5.0E-001
 41
5.0E-001
 70
0
  0
VERTEX
  8
1
 42
0.0
 10
2.9412569E+002
 20
1.7307596E+002
 70
0
  0
VERTEX
  8
1
 42
0.0
 10
2.9412569E+002
 20
1.4907596E+002
 70
0
  0
SEQEND
  0
POLYLINE
  8
1
  6
CONTINUOUS
 62
3
 66
1
 40
5.0E-001
 41
5.0E-001
 70
0
  0
VERTEX
  8
1
 42
0.0
 10
2.2062569E+002
 20
1.9757596E+002
 70
0
  0
VERTEX
  8
1
 42
0.0
 10
3.2512569E+002
 20
1.9757596E+002
 70
0
  0
SEQEND
  0
POLYLINE
  8
1
  6
CONTINUOUS
 62
3
 66
1
 40
5.0E-001
 41
5.0E-001
 70
0
  0
VERTEX
  8
1
 42
0.0
 10
3.0247564E+002
 20
1.6907596E+002
 70
0
  0
VERTEX
  8
1
 42
0.0
 10
3.2262569E+002
 20
1.6907596E+002
 70
0
  0
SEQEND
  0
POLYLINE
  8
1
  6
CONTINUOUS
 62
3
 66
1
 40
5.0E-001
 41
5.0E-001
 70
0
  0
VERTEX
  8
1
 42
4.1421356E-001
 10
3.2262569E+002
 20
1.6907596E+002
 70
0
  0
VERTEX
  8
1
 42
0.0
 10
3.2512569E+002
 20
1.7157596E+002
 70
0
  0
SEQEND
  0
POLYLINE
  8
1
  6
CONTINUOUS
 62
3
 66
1
 40
5.0E-001
 41
5.0E-001
 70
0
  0
VERTEX
  8
1
 42
0.0
 10
2.9412569E+002
 20
1.7307596E+002
 70
0
  0
VERTEX
  8
1
 42
0.0
 10
3.2512569E+002
 20
1.7307596E+002
 70
0
  0
SEQEND
  0
POLYLINE
  8
1
  6
CONTINUOUS
 62
3
 66
1
 40
5.0E-001
 41
5.0E-001
 70
0
  0
VERTEX
  8
1
 42
0.0
 10
3.0212569E+002
 20
1.7307596E+002
 70
0
  0
VERTEX
  8
1
 42
0.0
 10
3.0247431E+002
 20
1.6909118E+002
 70
0
  0
SEQEND
  0
POLYLINE
  8
1
  6
CONTINUOUS
 62
3
 66
1
 40
5.0E-001
 41
5.0E-001
 70
0
  0
VERTEX
  8
1
 42
0.0
 10
3.1816096E+002
 20
2.0143967E+002
 70
0
  0
VERTEX
  8
1
 42
0.0
 10
3.1712569E+002
 20
1.9757596E+002
 70
0
  0
SEQEND
  0
POLYLINE
  8
1
  6
CONTINUOUS
 62
3
 66
1
 40
5.0E-001
 41
5.0E-001
 70
0
  0
VERTEX
  8
1
 42
0.0
 10
2.2759041E+002
 20
2.0143967E+002
 70
0
  0
VERTEX
  8
1
 42
0.0
 10
2.2862569E+002
 20
1.9757596E+002
 70
0
  0
SEQEND
  0
POLYLINE
  8
1
  6
CONTINUOUS
 62
3
 66
1
 40
5.0E-001
 41
5.0E-001
 70
0
  0
VERTEX
  8
1
 42
0.0
 10
2.2062569E+002
 20
2.0157596E+002
 70
0
  0
VERTEX
  8
1
 42
0.0
 10
2.2062569E+002
 20
2.1107596E+002
 70
0
  0
SEQEND
  0
POLYLINE
  8
1
  6
CONTINUOUS
 62
3
 66
1
 40
5.0E-001
 41
5.0E-001
 70
0
  0
VERTEX
  8
1
 42
0.0
 10
2.2562569E+002
 20
2.0157596E+002
 70
0
  0
VERTEX
  8
1
 42
0.0
 10
2.2562569E+002
 20
2.1107596E+002
 70
0
  0
SEQEND
  0
POLYLINE
  8
1
  6
CONTINUOUS
 62
3
 66
1
 40
5.0E-001
 41
5.0E-001
 70
0
  0
VERTEX
  8
1
 42
0.0
 10
2.2062569E+002
 20
2.1107596E+002
 70
0
  0
VERTEX
  8
1
 42
0.0
 10
2.2562569E+002
 20
2.1107596E+002
 70
0
  0
SEQEND
  0
POLYLINE
  8
1
  6
CONTINUOUS
 62
3
 66
1
 40
5.0E-001
 41
5.0E-001
 70
0
  0
VERTEX
  8
1
 42
0.0
 10
2.3512569E+002
 20
2.0157596E+002
 70
0
  0
VERTEX
  8
1
 42
0.0
 10
2.2562569E+002
 20
2.1107596E+002
 70
0
  0
SEQEND
  0
POLYLINE
  8
1
  6
CONTINUOUS
 62
3
 66
1
 40
5.0E-001
 41
5.0E-001
 70
0
  0
VERTEX
  8
1
 42
0.0
 10
2.4050009E+002
 20
2.0657596E+002
 70
0
  0
VERTEX
  8
1
 42
0.0
 10
2.5052569E+002
 20
2.0657596E+002
 70
0
  0
SEQEND
  0
POLYLINE
  8
1
  6
CONTINUOUS
 62
3
 66
1
 40
5.0E-001
 41
5.0E-001
 70
0
  0
VERTEX
  8
1
 42
0.0
 10
2.8962569E+002
 20
2.0157596E+002
 70
0
  0
VERTEX
  8
1
 42
0.0
 10
2.8868314E+002
 20
2.050936E+002
 70
0
  0
SEQEND
  0
POLYLINE
  8
1
  6
CONTINUOUS
 62
3
 66
1
 40
5.0E-001
 41
5.0E-001
 70
0
  0
VERTEX
  8
1
 42
0.0
 10
2.3762569E+002
 20
2.0157596E+002
 70
0
  0
VERTEX
  8
1
 42
0.0
 10
2.3856824E+002
 20
2.050936E+002
 70
0
  0
SEQEND
  0
POLYLINE
  8
1
  6
CONTINUOUS
 62
3
 66
1
 40
5.0E-001
 41
5.0E-001
 70
0
  0
VERTEX
  8
1
 42
3.3945426E-001
 10
2.8868314E+002
 20
2.050936E+002
 70
0
  0
VERTEX
  8
1
 42
0.0
 10
2.8675129E+002
 20
2.0657596E+002
 70
0
  0
SEQEND
  0
POLYLINE
  8
1
  6
CONTINUOUS
 62
3
 66
1
 40
5.0E-001
 41
5.0E-001
 70
0
  0
VERTEX
  8
1
 42
3.3945426E-001
 10
2.4050009E+002
 20
2.0657596E+002
 70
0
  0
VERTEX
  8
1
 42
0.0
 10
2.3856824E+002
 20
2.050936E+002
 70
0
  0
SEQEND
  0
POLYLINE
  8
1
  6
CONTINUOUS
 62
3
 66
1
 40
5.0E-001
 41
5.0E-001
 70
0
  0
VERTEX
  8
1
 42
0.0
 10
2.4712569E+002
 20
2.1957596E+002
 70
0
  0
VERTEX
  8
1
 42
0.0
 10
2.4712569E+002
 20
2.0657596E+002
 70
0
  0
SEQEND
  0
POLYLINE
  8
1
  6
CONTINUOUS
 62
3
 66
1
 40
5.0E-001
 41
5.0E-001
 70
0
  0
VERTEX
  8
1
 42
0.0
 10
2.5112569E+002
 20
2.1957596E+002
 70
0
  0
VERTEX
  8
1
 42
0.0
 10
2.5112569E+002
 20
2.1157596E+002
 70
0
  0
SEQEND
  0
POLYLINE
  8
1
  6
CONTINUOUS
 62
3
 66
1
 40
5.0E-001
 41
5.0E-001
 70
0
  0
VERTEX
  8
1
 42
0.0
 10
2.5312569E+002
 20
2.2057596E+002
 70
0
  0
VERTEX
  8
1
 42
0.0
 10
2.5312569E+002
 20
2.1957596E+002
 70
0
  0
SEQEND
  0
POLYLINE
  8
1
  6
CONTINUOUS
 62
3
 66
1
 40
5.0E-001
 41
5.0E-001
 70
0
  0
VERTEX
  8
1
 42
0.0
 10
2.4512569E+002
 20
2.2057596E+002
 70
0
  0
VERTEX
  8
1
 42
0.0
 10
2.4512569E+002
 20
2.1957596E+002
 70
0
  0
SEQEND
  0
POLYLINE
  8
1
  6
CONTINUOUS
 62
3
 66
1
 40
5.0E-001
 41
5.0E-001
 70
0
  0
VERTEX
  8
1
 42
0.0
 10
2.4712569E+002
 20
2.2257596E+002
 70
0
  0
VERTEX
  8
1
 42
0.0
 10
2.5112569E+002
 20
2.2257596E+002
 70
0
  0
SEQEND
  0
POLYLINE
  8
1
  6
CONTINUOUS
 62
3
 66
1
 40
5.0E-001
 41
5.0E-001
 70
0
  0
VERTEX
  8
1
 42
0.0
 10
2.4512569E+002
 20
2.1957596E+002
 70
0
  0
VERTEX
  8
1
 42
0.0
 10
2.4712569E+002
 20
2.1957596E+002
 70
0
  0
SEQEND
  0
POLYLINE
  8
1
  6
CONTINUOUS
 62
3
 66
1
 40
5.0E-001
 41
5.0E-001
 70
0
  0
VERTEX
  8
1
 42
4.1421356E-001
 10
2.5312569E+002
 20
2.2057596E+002
 70
0
  0
VERTEX
  8
1
 42
0.0
 10
2.5112569E+002
 20
2.2257596E+002
 70
0
  0
SEQEND
  0
POLYLINE
  8
1
  6
CONTINUOUS
 62
3
 66
1
 40
5.0E-001
 41
5.0E-001
 70
0
  0
VERTEX
  8
1
 42
4.1421356E-001
 10
2.4712569E+002
 20
2.2257596E+002
 70
0
  0
VERTEX
  8
1
 42
0.0
 10
2.4512569E+002
 20
2.2057596E+002
 70
0
  0
SEQEND
  0
POLYLINE
  8
1
  6
CONTINUOUS
 62
3
 66
1
 40
5.0E-001
 41
5.0E-001
 70
0
  0
VERTEX
  8
1
 42
0.0
 10
2.5112569E+002
 20
2.1957596E+002
 70
0
  0
VERTEX
  8
1
 42
0.0
 10
2.5312569E+002
 20
2.1957596E+002
 70
0
  0
SEQEND
  0
POLYLINE
  8
1
  6
CONTINUOUS
 62
3
 66
1
 40
5.0E-001
 41
5.0E-001
 70
0
  0
VERTEX
  8
1
 42
0.0
 10
2.9767569E+002
 20
2.0457596E+002
 70
0
  0
VERTEX
  8
1
 42
0.0
 10
2.9767569E+002
 20
2.0157596E+002
 70
0
  0
SEQEND
  0
POLYLINE
  8
1
  6
CONTINUOUS
 62
3
 66
1
 40
5.0E-001
 41
5.0E-001
 70
0
  0
VERTEX
  8
1
 42
0.0
 10
2.9457569E+002
 20
2.0457596E+002
 70
0
  0
VERTEX
  8
1
 42
0.0
 10
2.9457569E+002
 20
2.0157596E+002
 70
0
  0
SEQEND
  0
POLYLINE
  8
1
  6
CONTINUOUS
 62
3
 66
1
 40
5.0E-001
 41
5.0E-001
 70
0
  0
VERTEX
  8
1
 42
0.0
 10
2.9257569E+002
 20
2.0557596E+002
 70
0
  0
VERTEX
  8
1
 42
0.0
 10
2.9357569E+002
 20
2.0557596E+002
 70
0
  0
SEQEND
  0
POLYLINE
  8
1
  6
CONTINUOUS
 62
3
 66
1
 40
5.0E-001
 41
5.0E-001
 70
0
  0
VERTEX
  8
1
 42
0.0
 10
2.9257569E+002
 20
2.0557596E+002
 70
0
  0
VERTEX
  8
1
 42
0.0
 10
2.9026629E+002
 20
2.0157596E+002
 70
0
  0
SEQEND
  0
POLYLINE
  8
1
  6
CONTINUOUS
 62
3
 66
1
 40
5.0E-001
 41
5.0E-001
 70
0
  0
VERTEX
  8
1
 42
0.0
 10
2.9967569E+002
 20
2.0557596E+002
 70
0
  0
VERTEX
  8
1
 42
0.0
 10
3.0198509E+002
 20
2.0157596E+002
 70
0
  0
SEQEND
  0
POLYLINE
  8
1
  6
CONTINUOUS
 62
3
 66
1
 40
5.0E-001
 41
5.0E-001
 70
0
  0
VERTEX
  8
1
 42
0.0
 10
2.9867569E+002
 20
2.0557596E+002
 70
0
  0
VERTEX
  8
1
 42
0.0
 10
2.9967569E+002
 20
2.0557596E+002
 70
0
  0
SEQEND
  0
POLYLINE
  8
1
  6
CONTINUOUS
 62
3
 66
1
 40
5.0E-001
 41
5.0E-001
 70
0
  0
VERTEX
  8
1
 42
0.0
 10
2.9867569E+002
 20
2.0557596E+002
 70
0
  0
VERTEX
  8
1
 42
0.0
 10
2.9767569E+002
 20
2.0457596E+002
 70
0
  0
SEQEND
  0
POLYLINE
  8
1
  6
CONTINUOUS
 62
3
 66
1
 40
5.0E-001
 41
5.0E-001
 70
0
  0
VERTEX
  8
1
 42
0.0
 10
2.9457569E+002
 20
2.0457596E+002
 70
0
  0
VERTEX
  8
1
 42
0.0
 10
2.9357569E+002
 20
2.0557596E+002
 70
0
  0
SEQEND
  0
POLYLINE
  8
1
  6
CONTINUOUS
 62
3
 66
1
 40
5.0E-001
 41
5.0E-001
 70
0
  0
VERTEX
  8
1
 42
0.0
 10
3.2112569E+002
 20
2.0717596E+002
 70
0
  0
VERTEX
  8
1
 42
0.0
 10
3.2112569E+002
 20
2.0157596E+002
 70
0
  0
SEQEND
  0
POLYLINE
  8
1
  6
CONTINUOUS
 62
3
 66
1
 40
5.0E-001
 41
5.0E-001
 70
0
  0
VERTEX
  8
1
 42
0.0
 10
3.1802569E+002
 20
2.0717596E+002
 70
0
  0
VERTEX
  8
1
 42
0.0
 10
3.2112569E+002
 20
2.0717596E+002
 70
0
  0
SEQEND
  0
POLYLINE
  8
1
  6
CONTINUOUS
 62
3
 66
1
 40
5.0E-001
 41
5.0E-001
 70
0
  0
VERTEX
  8
1
 42
0.0
 10
3.1802569E+002
 20
2.0717596E+002
 70
0
  0
VERTEX
  8
1
 42
0.0
 10
3.1802569E+002
 20
2.0157596E+002
 70
0
  0
SEQEND
  0
POLYLINE
  8
1
  6
CONTINUOUS
 62
3
 66
1
 40
5.0E-001
 41
5.0E-001
 70
0
  0
VERTEX
  8
1
 42
0.0
 10
3.1322569E+002
 20
2.0957596E+002
 70
0
  0
VERTEX
  8
1
 42
0.0
 10
3.1322569E+002
 20
2.0157596E+002
 70
0
  0
SEQEND
  0
POLYLINE
  8
1
  6
CONTINUOUS
 62
3
 66
1
 40
5.0E-001
 41
5.0E-001
 70
0
  0
VERTEX
  8
1
 42
0.0
 10
3.1012569E+002
 20
2.0957596E+002
 70
0
  0
VERTEX
  8
1
 42
0.0
 10
3.1012569E+002
 20
2.0157596E+002
 70
0
  0
SEQEND
  0
POLYLINE
  8
1
  6
CONTINUOUS
 62
3
 66
1
 40
5.0E-001
 41
5.0E-001
 70
0
  0
VERTEX
  8
1
 42
0.0
 10
3.1012569E+002
 20
2.0957596E+002
 70
0
  0
VERTEX
  8
1
 42
0.0
 10
3.1322569E+002
 20
2.0957596E+002
 70
0
  0
SEQEND
  0
POLYLINE
  8
1
  6
CONTINUOUS
 62
3
 66
1
 40
5.0E-001
 41
5.0E-001
 70
0
  0
VERTEX
  8
1
 42
0.0
 10
3.1012569E+002
 20
2.0857596E+002
 70
0
  0
VERTEX
  8
1
 42
0.0
 10
3.0312569E+002
 20
2.0157596E+002
 70
0
  0
SEQEND
  0
POLYLINE
  8
1
  6
CONTINUOUS
 62
3
 66
1
 40
5.0E-001
 41
5.0E-001
 70
0
  0
VERTEX
  8
1
 42
0.0
 10
2.8212569E+002
 20
2.3557596E+002
 70
0
  0
VERTEX
  8
1
 42
0.0
 10
2.8362569E+002
 20
2.3557596E+002
 70
0
  0
SEQEND
  0
POLYLINE
  8
1
  6
CONTINUOUS
 62
3
 66
1
 40
5.0E-001
 41
5.0E-001
 70
0
  0
VERTEX
  8
1
 42
0.0
 10
2.8362569E+002
 20
2.3557596E+002
 70
0
  0
VERTEX
  8
1
 42
0.0
 10
2.8362569E+002
 20
2.1657596E+002
 70
0
  0
SEQEND
  0
POLYLINE
  8
1
  6
CONTINUOUS
 62
3
 66
1
 40
5.0E-001
 41
5.0E-001
 70
0
  0
VERTEX
  8
1
 42
0.0
 10
2.8212569E+002
 20
2.3557596E+002
 70
0
  0
VERTEX
  8
1
 42
0.0
 10
2.8212569E+002
 20
2.1657596E+002
 70
0
  0
SEQEND
  0
POLYLINE
  8
1
  6
CONTINUOUS
 62
3
 66
1
 40
5.0E-001
 41
5.0E-001
 70
0
  0
VERTEX
  8
1
 42
0.0
 10
2.8552569E+002
 20
2.0657596E+002
 70
0
  0
VERTEX
  8
1
 42
0.0
 10
2.8675129E+002
 20
2.0657596E+002
 70
0
  0
SEQEND
  0
POLYLINE
  8
1
  6
CONTINUOUS
 62
3
 66
1
 40
5.0E-001
 41
5.0E-001
 70
0
  0
VERTEX
  8
1
 42
0.0
 10
2.4488402E+002
 20
1.4657596E+002
 70
0
  0
VERTEX
  8
1
 42
0.0
 10
2.9162569E+002
 20
1.4657596E+002
 70
0
  0
SEQEND
  0
POLYLINE
  8
1
  6
CONTINUOUS
 62
3
 66
1
 40
5.0E-001
 41
5.0E-001
 70
0
  0
VERTEX
  8
1
 42
4.1421356E-001
 10
2.9162569E+002
 20
1.4657596E+002
 70
0
  0
VERTEX
  8
1
 42
0.0
 10
2.9412569E+002
 20
1.4907596E+002
 70
0
  0
SEQEND
  0
POLYLINE
  8
1
  6
CONTINUOUS
 62
3
 66
1
 40
5.0E-001
 41
5.0E-001
 70
0
  0
VERTEX
  8
1
 42
0.0
 10
2.9662569E+002
 20
1.7307596E+002
 70
0
  0
VERTEX
  8
1
 42
0.0
 10
2.9662569E+002
 20
1.4807596E+002
 70
0
  0
SEQEND
  0
POLYLINE
  8
1
  6
CONTINUOUS
 62
3
 66
1
 40
5.0E-001
 41
5.0E-001
 70
0
  0
VERTEX
  8
1
 42
0.0
 10
2.9412569E+002
 20
1.4957596E+002
 70
0
  0
VERTEX
  8
1
 42
0.0
 10
2.9662569E+002
 20
1.5207596E+002
 70
0
  0
SEQEND
  0
POLYLINE
  8
1
  6
CONTINUOUS
 62
3
 66
1
 40
5.0E-001
 41
5.0E-001
 70
0
  0
VERTEX
  8
1
 42
4.1421356E-001
 10
2.9412569E+002
 20
1.4557596E+002
 70
0
  0
VERTEX
  8
1
 42
0.0
 10
2.9662569E+002
 20
1.4807596E+002
 70
0
  0
SEQEND
  0
DIMENSION
  8
1
  6
CONTINUOUS
 62
4
  2
*D3070
  3
DSTYLE1
 10
3.4693389E+002
 20
1.4557596E+002
 11
3.4393289E+002
 21
1.7357596E+002
 70
128
 13
3.2512569E+002
 23
2.0157596E+002
 14
2.9412569E+002
 24
1.4557596E+002
 40
3.0
 50
9.0E+001
1001
ACAD
1000
DSTYLE
1002
{
1070
173
1070
0
1070
5
1000
_AH13
1002
}
  0
DIMENSION
  8
1
  6
CONTINUOUS
 62
4
  2
*D3071
  3
DSTYLE1
 10
3.4693389E+002
 20
2.3557596E+002
 11
3.4393289E+002
 21
2.1857596E+002
 70
128
 13
3.2512569E+002
 23
2.0157596E+002
 14
2.8362569E+002
 24
2.3557596E+002
 40
3.0
 50
9.0E+001
1001
ACAD
1000
DSTYLE
1002
{
1070
173
1070
0
1070
5
1000
_AH13
1002
}
  0
POLYLINE
  8
1
  6
CONTINUOUS
 62
3
 66
1
 40
5.0E-001
 41
5.0E-001
 70
0
  0
VERTEX
  8
1
 42
0.0
 10
9.5430197E+001
 20
2.0957596E+002
 70
0
  0
VERTEX
  8
1
 42
0.0
 10
9.2430197E+001
 20
2.0957596E+002
 70
0
  0
SEQEND
  0
POLYLINE
  8
1
  6
CONTINUOUS
 62
3
 66
1
 40
5.0E-001
 41
5.0E-001
 70
0
  0
VERTEX
  8
1
 42
0.0
 10
8.5230197E+001
 20
2.0957596E+002
 70
0
  0
VERTEX
  8
1
 42
0.0
 10
8.5230197E+001
 20
2.0157596E+002
 70
0
  0
SEQEND
  0
POLYLINE
  8
1
  6
CONTINUOUS
 62
3
 66
1
 40
5.0E-001
 41
5.0E-001
 70
0
  0
VERTEX
  8
1
 42
0.0
 10
9.5430197E+001
 20
2.0957596E+002
 70
0
  0
VERTEX
  8
1
 42
0.0
 10
9.5430197E+001
 20
2.0157596E+002
 70
0
  0
SEQEND
  0
POLYLINE
  8
1
  6
CONTINUOUS
 62
3
 66
1
 40
5.0E-001
 41
5.0E-001
 70
0
  0
VERTEX
  8
1
 42
0.0
 10
8.8230197E+001
 20
2.0957596E+002
 70
0
  0
VERTEX
  8
1
 42
0.0
 10
8.8230197E+001
 20
2.0547596E+002
 70
0
  0
SEQEND
  0
POLYLINE
  8
1
  6
CONTINUOUS
 62
3
 66
1
 40
5.0E-001
 41
5.0E-001
 70
0
  0
VERTEX
  8
1
 42
0.0
 10
9.2430197E+001
 20
2.0957596E+002
 70
0
  0
VERTEX
  8
1
 42
0.0
 10
9.2430197E+001
 20
2.0547596E+002
 70
0
  0
SEQEND
  0
POLYLINE
  8
1
  6
CONTINUOUS
 62
3
 66
1
 40
5.0E-001
 41
5.0E-001
 70
0
  0
VERTEX
  8
1
 42
1.0
 10
8.8230197E+001
 20
2.0547596E+002
 70
0
  0
VERTEX
  8
1
 42
0.0
 10
9.2430197E+001
 20
2.0547596E+002
 70
0
  0
SEQEND
  0
POLYLINE
  8
1
  6
CONTINUOUS
 62
3
 66
1
 40
5.0E-001
 41
5.0E-001
 70
0
  0
VERTEX
  8
1
 42
0.0
 10
8.8230197E+001
 20
2.0957596E+002
 70
0
  0
VERTEX
  8
1
 42
0.0
 10
8.5230197E+001
 20
2.0957596E+002
 70
0
  0
SEQEND
  0
POLYLINE
  8
1
  6
CONTINUOUS
 62
3
 66
1
 40
5.0E-001
 41
5.0E-001
 70
0
  0
VERTEX
  8
1
 42
0.0
 10
1.081802E+002
 20
2.0557596E+002
 70
0
  0
VERTEX
  8
1
 42
0.0
 10
1.081802E+002
 20
1.9907596E+002
 70
0
  0
SEQEND
  0
POLYLINE
  8
1
  6
CONTINUOUS
 62
3
 66
1
 40
5.0E-001
 41
5.0E-001
 70
0
  0
VERTEX
  8
1
 42
0.0
 10
1.281802E+002
 20
2.0707596E+002
 70
0
  0
VERTEX
  8
1
 42
0.0
 10
1.281802E+002
 20
1.9907596E+002
 70
0
  0
SEQEND
  0
POLYLINE
  8
1
  6
CONTINUOUS
 62
3
 66
1
 40
5.0E-001
 41
5.0E-001
 70
0
  0
VERTEX
  8
1
 42
0.0
 10
1.191802E+002
 20
2.0707596E+002
 70
0
  0
VERTEX
  8
1
 42
0.0
 10
1.191802E+002
 20
2.0057596E+002
 70
0
  0
SEQEND
  0
POLYLINE
  8
1
  6
CONTINUOUS
 62
3
 66
1
 40
5.0E-001
 41
5.0E-001
 70
0
  0
VERTEX
  8
1
 42
0.0
 10
1.096802E+002
 20
2.0707596E+002
 70
0
  0
VERTEX
  8
1
 42
0.0
 10
1.191802E+002
 20
2.0707596E+002
 70
0
  0
SEQEND
  0
POLYLINE
  8
1
  6
CONTINUOUS
 62
3
 66
1
 40
5.0E-001
 41
5.0E-001
 70
0
  0
VERTEX
  8
1
 42
0.0
 10
1.227802E+002
 20
2.0607596E+002
 70
0
  0
VERTEX
  8
1
 42
0.0
 10
1.227802E+002
 20
2.0412596E+002
 70
0
  0
SEQEND
  0
POLYLINE
  8
1
  6
CONTINUOUS
 62
3
 66
1
 40
5.0E-001
 41
5.0E-001
 70
0
  0
VERTEX
  8
1
 42
4.1421356E-001
 10
1.096802E+002
 20
2.0707596E+002
 70
0
  0
VERTEX
  8
1
 42
0.0
 10
1.081802E+002
 20
2.0557596E+002
 70
0
  0
SEQEND
  0
POLYLINE
  8
1
  6
CONTINUOUS
 62
3
 66
1
 40
5.0E-001
 41
5.0E-001
 70
0
  0
VERTEX
  8
1
 42
0.0
 10
1.237802E+002
 20
2.0707596E+002
 70
0
  0
VERTEX
  8
1
 42
0.0
 10
1.281802E+002
 20
2.0707596E+002
 70
0
  0
SEQEND
  0
POLYLINE
  8
1
  6
CONTINUOUS
 62
3
 66
1
 40
5.0E-001
 41
5.0E-001
 70
0
  0
VERTEX
  8
1
 42
0.0
 10
1.227802E+002
 20
2.0412596E+002
 70
0
  0
VERTEX
  8
1
 42
0.0
 10
1.252302E+002
 20
2.0412596E+002
 70
0
  0
SEQEND
  0
POLYLINE
  8
1
  6
CONTINUOUS
 62
3
 66
1
 40
5.0E-001
 41
5.0E-001
 70
0
  0
VERTEX
  8
1
 42
0.0
 10
1.252302E+002
 20
2.0057596E+002
 70
0
  0
VERTEX
  8
1
 42
0.0
 10
1.252302E+002
 20
2.0412596E+002
 70
0
  0
SEQEND
  0
POLYLINE
  8
1
  6
CONTINUOUS
 62
3
 66
1
 40
5.0E-001
 41
5.0E-001
 70
0
  0
VERTEX
  8
1
 42
0.0
 10
1.081802E+002
 20
1.9907596E+002
 70
0
  0
VERTEX
  8
1
 42
0.0
 10
1.281802E+002
 20
1.9907596E+002
 70
0
  0
SEQEND
  0
POLYLINE
  8
1
  6
CONTINUOUS
 62
3
 66
1
 40
5.0E-001
 41
5.0E-001
 70
0
  0
VERTEX
  8
1
 42
0.0
 10
1.237802E+002
 20
2.0707596E+002
 70
0
  0
VERTEX
  8
1
 42
0.0
 10
1.227802E+002
 20
2.0607596E+002
 70
0
  0
SEQEND
  0
POLYLINE
  8
1
  6
CONTINUOUS
 62
3
 66
1
 40
5.0E-001
 41
5.0E-001
 70
0
  0
VERTEX
  8
1
 42
0.0
 10
1.191802E+002
 20
2.0057596E+002
 70
0
  0
VERTEX
  8
1
 42
0.0
 10
1.252302E+002
 20
2.0057596E+002
 70
0
  0
SEQEND
  0
POLYLINE
  8
1
  6
CONTINUOUS
 62
3
 66
1
 40
5.0E-001
 41
5.0E-001
 70
0
  0
VERTEX
  8
1
 42
0.0
 10
1.281802E+002
 20
2.0157596E+002
 70
0
  0
VERTEX
  8
1
 42
0.0
 10
1.382302E+002
 20
2.0157596E+002
 70
0
  0
SEQEND
  0
POLYLINE
  8
1
  6
CENTERLINE
 62
3
 66
1
 40
5.0E-001
 41
5.0E-001
 70
0
  0
VERTEX
  8
1
 42
0.0
 10
1.191802E+002
 20
2.0157596E+002
 70
0
  0
VERTEX
  8
1
 42
0.0
 10
1.252302E+002
 20
2.0157596E+002
 70
0
  0
SEQEND
  0
POLYLINE
  8
1
  6
CONTINUOUS
 62
3
 66
1
 40
5.0E-001
 41
5.0E-001
 70
0
  0
VERTEX
  8
1
 42
0.0
 10
1.109802E+002
 20
2.0412596E+002
 70
0
  0
VERTEX
  8
1
 42
0.0
 10
1.109802E+002
 20
2.0202596E+002
 70
0
  0
SEQEND
  0
POLYLINE
  8
1
  6
CONTINUOUS
 62
3
 66
1
 40
5.0E-001
 41
5.0E-001
 70
0
  0
VERTEX
  8
1
 42
0.0
 10
1.134802E+002
 20
2.0412596E+002
 70
0
  0
VERTEX
  8
1
 42
0.0
 10
1.134802E+002
 20
2.0202596E+002
 70
0
  0
SEQEND
  0
POLYLINE
  8
1
  6
CONTINUOUS
 62
3
 66
1
 40
5.0E-001
 41
5.0E-001
 70
0
  0
VERTEX
  8
1
 42
0.0
 10
1.109802E+002
 20
2.0412596E+002
 70
0
  0
VERTEX
  8
1
 42
0.0
 10
1.134802E+002
 20
2.0412596E+002
 70
0
  0
SEQEND
  0
POLYLINE
  8
1
  6
CONTINUOUS
 62
3
 66
1
 40
5.0E-001
 41
5.0E-001
 70
0
  0
VERTEX
  8
1
 42
0.0
 10
1.109802E+002
 20
2.0202596E+002
 70
0
  0
VERTEX
  8
1
 42
0.0
 10
1.134802E+002
 20
2.0202596E+002
 70
0
  0
SEQEND
  0
POLYLINE
  8
1
  6
CONTINUOUS
 62
3
 66
1
 40
5.0E-001
 41
5.0E-001
 70
0
  0
VERTEX
  8
1
 42
1.0
 10
1.182302E+002
 20
1.8857596E+002
 70
0
  0
VERTEX
  8
1
 42
1.0
 10
1.152302E+002
 20
1.8857596E+002
 70
0
  0
VERTEX
  8
1
 42
0.0
 10
1.182302E+002
 20
1.8857596E+002
 70
0
  0
SEQEND
  0
POLYLINE
  8
1
  6
CONTINUOUS
 62
3
 66
1
 40
5.0E-001
 41
5.0E-001
 70
0
  0
VERTEX
  8
1
 42
0.0
 10
8.4230197E+001
 20
1.7307596E+002
 70
0
  0
VERTEX
  8
1
 42
0.0
 10
8.9480237E+001
 20
1.7307596E+002
 70
0
  0
SEQEND
  0
POLYLINE
  8
1
  6
CONTINUOUS
 62
3
 66
1
 40
5.0E-001
 41
5.0E-001
 70
0
  0
VERTEX
  8
1
 42
0.0
 10
1.3298024E+002
 20
1.7307596E+002
 70
0
  0
VERTEX
  8
1
 42
0.0
 10
1.382302E+002
 20
1.7307596E+002
 70
0
  0
SEQEND
  0
POLYLINE
  8
1
  6
CONTINUOUS
 62
3
 66
1
 40
5.0E-001
 41
5.0E-001
 70
0
  0
VERTEX
  8
1
 42
0.0
 10
1.1023024E+002
 20
1.6907596E+002
 70
0
  0
VERTEX
  8
1
 42
0.0
 10
1.1023024E+002
 20
1.7287596E+002
 70
0
  0
SEQEND
  0
POLYLINE
  8
1
  6
CONTINUOUS
 62
3
 66
1
 40
5.0E-001
 41
5.0E-001
 70
0
  0
VERTEX
  8
1
 42
0.0
 10
1.1223024E+002
 20
1.6907596E+002
 70
0
  0
VERTEX
  8
1
 42
0.0
 10
1.1223024E+002
 20
1.7287596E+002
 70
0
  0
SEQEND
  0
POLYLINE
  8
1
  6
CONTINUOUS
 62
3
 66
1
 40
5.0E-001
 41
5.0E-001
 70
0
  0
VERTEX
  8
1
 42
0.0
 10
1.0193024E+002
 20
1.6907596E+002
 70
0
  0
VERTEX
  8
1
 42
0.0
 10
1.0193024E+002
 20
1.7287596E+002
 70
0
  0
SEQEND
  0
POLYLINE
  8
1
  6
CONTINUOUS
 62
3
 66
1
 40
5.0E-001
 41
5.0E-001
 70
0
  0
VERTEX
  8
1
 42
0.0
 10
1.2053024E+002
 20
1.6907596E+002
 70
0
  0
VERTEX
  8
1
 42
0.0
 10
1.2053024E+002
 20
1.7287596E+002
 70
0
  0
SEQEND
  0
POLYLINE
  8
1
  6
CONTINUOUS
 62
3
 66
1
 40
5.0E-001
 41
5.0E-001
 70
0
  0
VERTEX
  8
1
 42
0.0
 10
1.2253024E+002
 20
1.6907596E+002
 70
0
  0
VERTEX
  8
1
 42
0.0
 10
1.2253024E+002
 20
1.7287596E+002
 70
0
  0
SEQEND
  0
POLYLINE
  8
1
  6
CONTINUOUS
 62
3
 66
1
 40
5.0E-001
 41
5.0E-001
 70
0
  0
VERTEX
  8
1
 42
0.0
 10
9.9930237E+001
 20
1.6907596E+002
 70
0
  0
VERTEX
  8
1
 42
0.0
 10
9.9930237E+001
 20
1.7287596E+002
 70
0
  0
SEQEND
  0
POLYLINE
  8
1
  6
CONTINUOUS
 62
3
 66
1
 40
5.0E-001
 41
5.0E-001
 70
0
  0
VERTEX
  8
1
 42
0.0
 10
9.1630237E+001
 20
1.6907596E+002
 70
0
  0
VERTEX
  8
1
 42
0.0
 10
9.1630237E+001
 20
1.7287596E+002
 70
0
  0
SEQEND
  0
POLYLINE
  8
1
  6
CONTINUOUS
 62
3
 66
1
 40
5.0E-001
 41
5.0E-001
 70
0
  0
VERTEX
  8
1
 42
0.0
 10
1.3083024E+002
 20
1.6907596E+002
 70
0
  0
VERTEX
  8
1
 42
0.0
 10
1.3083024E+002
 20
1.7287596E+002
 70
0
  0
SEQEND
  0
POLYLINE
  8
1
  6
CONTINUOUS
 62
3
 66
1
 40
5.0E-001
 41
5.0E-001
 70
0
  0
VERTEX
  8
1
 42
0.0
 10
8.9480237E+001
 20
1.6907596E+002
 70
0
  0
VERTEX
  8
1
 42
0.0
 10
8.9480237E+001
 20
1.7307596E+002
 70
0
  0
SEQEND
  0
POLYLINE
  8
1
  6
CONTINUOUS
 62
3
 66
1
 40
5.0E-001
 41
5.0E-001
 70
0
  0
VERTEX
  8
1
 42
0.0
 10
1.3298024E+002
 20
1.6907596E+002
 70
0
  0
VERTEX
  8
1
 42
0.0
 10
1.3298024E+002
 20
1.7307596E+002
 70
0
  0
SEQEND
  0
POLYLINE
  8
1
  6
CONTINUOUS
 62
3
 66
1
 40
5.0E-001
 41
5.0E-001
 70
0
  0
VERTEX
  8
1
 42
0.0
 10
8.9480237E+001
 20
1.6907596E+002
 70
0
  0
VERTEX
  8
1
 42
0.0
 10
9.1630237E+001
 20
1.6907596E+002
 70
0
  0
SEQEND
  0
POLYLINE
  8
1
  6
CONTINUOUS
 62
3
 66
1
 40
5.0E-001
 41
5.0E-001
 70
0
  0
VERTEX
  8
1
 42
0.0
 10
1.3083024E+002
 20
1.6907596E+002
 70
0
  0
VERTEX
  8
1
 42
0.0
 10
1.3298024E+002
 20
1.6907596E+002
 70
0
  0
SEQEND
  0
POLYLINE
  8
1
  6
CONTINUOUS
 62
3
 66
1
 40
5.0E-001
 41
5.0E-001
 70
0
  0
VERTEX
  8
1
 42
0.0
 10
1.2053024E+002
 20
1.6907596E+002
 70
0
  0
VERTEX
  8
1
 42
0.0
 10
1.2253024E+002
 20
1.6907596E+002
 70
0
  0
SEQEND
  0
POLYLINE
  8
1
  6
CONTINUOUS
 62
3
 66
1
 40
5.0E-001
 41
5.0E-001
 70
0
  0
VERTEX
  8
1
 42
0.0
 10
1.1023024E+002
 20
1.6907596E+002
 70
0
  0
VERTEX
  8
1
 42
0.0
 10
1.1223024E+002
 20
1.6907596E+002
 70
0
  0
SEQEND
  0
POLYLINE
  8
1
  6
CONTINUOUS
 62
3
 66
1
 40
5.0E-001
 41
5.0E-001
 70
0
  0
VERTEX
  8
1
 42
0.0
 10
9.9930237E+001
 20
1.6907596E+002
 70
0
  0
VERTEX
  8
1
 42
0.0
 10
1.0193024E+002
 20
1.6907596E+002
 70
0
  0
SEQEND
  0
POLYLINE
  8
1
  6
CONTINUOUS
 62
3
 66
1
 40
5.0E-001
 41
5.0E-001
 70
0
  0
VERTEX
  8
1
 42
0.0
 10
9.1630207E+001
 20
1.7287596E+002
 70
0
  0
VERTEX
  8
1
 42
0.0
 10
1.3083024E+002
 20
1.7287596E+002
 70
0
  0
SEQEND
  0
POLYLINE
  8
1
  6
CONTINUOUS
 62
3
 66
1
 40
5.0E-001
 41
5.0E-001
 70
0
  0
VERTEX
  8
1
 42
0.0
 10
1.3083024E+002
 20
1.6907596E+002
 70
0
  0
VERTEX
  8
1
 42
0.0
 10
1.2253024E+002
 20
1.6907596E+002
 70
0
  0
SEQEND
  0
POLYLINE
  8
1
  6
CONTINUOUS
 62
3
 66
1
 40
5.0E-001
 41
5.0E-001
 70
0
  0
VERTEX
  8
1
 42
0.0
 10
1.2053024E+002
 20
1.6907596E+002
 70
0
  0
VERTEX
  8
1
 42
0.0
 10
1.1223024E+002
 20
1.6907596E+002
 70
0
  0
SEQEND
  0
POLYLINE
  8
1
  6
CONTINUOUS
 62
3
 66
1
 40
5.0E-001
 41
5.0E-001
 70
0
  0
VERTEX
  8
1
 42
0.0
 10
1.1023024E+002
 20
1.6907596E+002
 70
0
  0
VERTEX
  8
1
 42
0.0
 10
1.0193024E+002
 20
1.6907596E+002
 70
0
  0
SEQEND
  0
POLYLINE
  8
1
  6
CONTINUOUS
 62
3
 66
1
 40
5.0E-001
 41
5.0E-001
 70
0
  0
VERTEX
  8
1
 42
0.0
 10
9.9930237E+001
 20
1.6907596E+002
 70
0
  0
VERTEX
  8
1
 42
0.0
 10
9.1630237E+001
 20
1.6907596E+002
 70
0
  0
SEQEND
  0
LINE
  8
1
  6
CENTERLINE
 62
1
 10
9.3730237E+001
 20
1.5026319E+002
 11
9.3730237E+001
 21
1.6418758E+002
  0
LINE
  8
1
  6
CENTERLINE
 62
1
 10
1.2873024E+002
 20
1.5116714E+002
 11
1.2873024E+002
 21
1.6418758E+002
  0
LINE
  8
1
  6
CENTERLINE
 62
1
 10
8.8839084E+001
 20
1.5757596E+002
 11
1.3328226E+002
 21
1.5757596E+002
  0
LINE
  8
1
  6
CENTERLINE
 62
1
 10
1.1123024E+002
 20
1.5026319E+002
 11
1.1123024E+002
 21
1.6446996E+002
  0
POLYLINE
  8
1
  6
CONTINUOUS
 62
3
 66
1
 40
5.0E-001
 41
5.0E-001
 70
0
  0
VERTEX
  8
1
 42
1.0
 10
1.1481067E+002
 20
1.5757596E+002
 70
0
  0
VERTEX
  8
1
 42
1.0
 10
1.0731067E+002
 20
1.5757596E+002
 70
0
  0
VERTEX
  8
1
 42
0.0
 10
1.1481067E+002
 20
1.5757596E+002
 70
0
  0
SEQEND
  0
POLYLINE
  8
4
  6
CONTINUOUS
 62
3
 66
1
 40
5.0E-001
 41
5.0E-001
 70
0
  0
VERTEX
  8
4
 42
0.0
 10
1.0876257E+002
 20
1.5987406E+002
 70
0
  0
VERTEX
  8
4
 42
0.0
 10
1.1335877E+002
 20
1.5527786E+002
 70
0
  0
SEQEND
  0
POLYLINE
  8
1
  6
CONTINUOUS
 62
3
 66
1
 40
5.0E-001
 41
5.0E-001
 70
0
  0
VERTEX
  8
1
 42
0.0
 10
1.0876257E+002
 20
1.5527786E+002
 70
0
  0
VERTEX
  8
1
 42
0.0
 10
1.1335877E+002
 20
1.5987406E+002
 70
0
  0
SEQEND
  0
POLYLINE
  8
1
  6
CONTINUOUS
 62
3
 66
1
 40
5.0E-001
 41
5.0E-001
 70
0
  0
VERTEX
  8
1
 42
1.0
 10
1.3248024E+002
 20
1.5757596E+002
 70
0
  0
VERTEX
  8
1
 42
1.0
 10
1.2498024E+002
 20
1.5757596E+002
 70
0
  0
VERTEX
  8
1
 42
0.0
 10
1.3248024E+002
 20
1.5757596E+002
 70
0
  0
SEQEND
  0
POLYLINE
  8
4
  6
CONTINUOUS
 62
3
 66
1
 40
5.0E-001
 41
5.0E-001
 70
0
  0
VERTEX
  8
4
 42
0.0
 10
1.2643214E+002
 20
1.5987406E+002
 70
0
  0
VERTEX
  8
4
 42
0.0
 10
1.3102833E+002
 20
1.5527786E+002
 70
0
  0
SEQEND
  0
POLYLINE
  8
1
  6
CONTINUOUS
 62
3
 66
1
 40
5.0E-001
 41
5.0E-001
 70
0
  0
VERTEX
  8
1
 42
0.0
 10
1.2643214E+002
 20
1.5527786E+002
 70
0
  0
VERTEX
  8
1
 42
0.0
 10
1.3102833E+002
 20
1.5987406E+002
 70
0
  0
SEQEND
  0
POLYLINE
  8
1
  6
CONTINUOUS
 62
3
 66
1
 40
5.0E-001
 41
5.0E-001
 70
0
  0
VERTEX
  8
1
 42
1.0
 10
9.7480237E+001
 20
1.5757596E+002
 70
0
  0
VERTEX
  8
1
 42
1.0
 10
8.9980237E+001
 20
1.5757596E+002
 70
0
  0
VERTEX
  8
1
 42
0.0
 10
9.7480237E+001
 20
1.5757596E+002
 70
0
  0
SEQEND
  0
POLYLINE
  8
4
  6
CONTINUOUS
 62
3
 66
1
 40
5.0E-001
 41
5.0E-001
 70
0
  0
VERTEX
  8
4
 42
0.0
 10
9.143214E+001
 20
1.5987406E+002
 70
0
  0
VERTEX
  8
4
 42
0.0
 10
9.6028334E+001
 20
1.5527786E+002
 70
0
  0
SEQEND
  0
POLYLINE
  8
1
  6
CONTINUOUS
 62
3
 66
1
 40
5.0E-001
 41
5.0E-001
 70
0
  0
VERTEX
  8
1
 42
0.0
 10
9.143214E+001
 20
1.5527786E+002
 70
0
  0
VERTEX
  8
1
 42
0.0
 10
9.6028334E+001
 20
1.5987406E+002
 70
0
  0
SEQEND
  0
POLYLINE
  8
1
  6
CONTINUOUS
 62
3
 66
1
 40
5.0E-001
 41
5.0E-001
 70
0
  0
VERTEX
  8
1
 42
0.0
 10
8.4230197E+001
 20
1.4957596E+002
 70
0
  0
VERTEX
  8
1
 42
0.0
 10
9.8730237E+001
 20
1.4957596E+002
 70
0
  0
SEQEND
  0
POLYLINE
  8
1
  6
CONTINUOUS
 62
3
 66
1
 40
5.0E-001
 41
5.0E-001
 70
0
  0
VERTEX
  8
1
 42
0.0
 10
1.382302E+002
 20
1.4657596E+002
 70
0
  0
VERTEX
  8
1
 42
0.0
 10
1.347867E+002
 20
1.4657596E+002
 70
0
  0
SEQEND
  0
POLYLINE
  8
1
  6
CONTINUOUS
 62
3
 66
1
 40
5.0E-001
 41
5.0E-001
 70
0
  0
VERTEX
  8
1
 42
0.0
 10
1.0423024E+002
 20
1.4557596E+002
 70
0
  0
VERTEX
  8
1
 42
0.0
 10
1.0423024E+002
 20
1.4957596E+002
 70
0
  0
SEQEND
  0
POLYLINE
  8
1
  6
CONTINUOUS
 62
3
 66
1
 40
5.0E-001
 41
5.0E-001
 70
0
  0
VERTEX
  8
1
 42
0.0
 10
1.1823024E+002
 20
1.4557596E+002
 70
0
  0
VERTEX
  8
1
 42
0.0
 10
1.1823024E+002
 20
1.4957596E+002
 70
0
  0
SEQEND
  0
POLYLINE
  8
1
  6
CONTINUOUS
 62
3
 66
1
 40
5.0E-001
 41
5.0E-001
 70
0
  0
VERTEX
  8
1
 42
0.0
 10
1.2173024E+002
 20
1.4557596E+002
 70
0
  0
VERTEX
  8
1
 42
0.0
 10
1.2173024E+002
 20
1.4957596E+002
 70
0
  0
SEQEND
  0
POLYLINE
  8
1
  6
CONTINUOUS
 62
3
 66
1
 40
5.0E-001
 41
5.0E-001
 70
0
  0
VERTEX
  8
1
 42
0.0
 10
1.0073024E+002
 20
1.4557596E+002
 70
0
  0
VERTEX
  8
1
 42
0.0
 10
1.0073024E+002
 20
1.4957596E+002
 70
0
  0
SEQEND
  0
POLYLINE
  8
1
  6
CONTINUOUS
 62
3
 66
1
 40
5.0E-001
 41
5.0E-001
 70
0
  0
VERTEX
  8
1
 42
0.0
 10
1.357302E+002
 20
1.4957596E+002
 70
0
  0
VERTEX
  8
1
 42
0.0
 10
1.357302E+002
 20
1.4657596E+002
 70
0
  0
SEQEND
  0
POLYLINE
  8
1
  6
CONTINUOUS
 62
3
 66
1
 40
5.0E-001
 41
5.0E-001
 70
0
  0
VERTEX
  8
1
 42
0.0
 10
8.6730197E+001
 20
1.4957596E+002
 70
0
  0
VERTEX
  8
1
 42
0.0
 10
8.6730197E+001
 20
1.4657596E+002
 70
0
  0
SEQEND
  0
POLYLINE
  8
1
  6
CONTINUOUS
 62
3
 66
1
 40
5.0E-001
 41
5.0E-001
 70
0
  0
VERTEX
  8
1
 42
0.0
 10
1.1823024E+002
 20
1.4557596E+002
 70
0
  0
VERTEX
  8
1
 42
0.0
 10
1.2173024E+002
 20
1.4557596E+002
 70
0
  0
SEQEND
  0
POLYLINE
  8
1
  6
CONTINUOUS
 62
3
 66
1
 40
5.0E-001
 41
5.0E-001
 70
0
  0
VERTEX
  8
1
 42
0.0
 10
8.767377E+001
 20
1.4657596E+002
 70
0
  0
VERTEX
  8
1
 42
0.0
 10
8.4230197E+001
 20
1.4657596E+002
 70
0
  0
SEQEND
  0
POLYLINE
  8
1
  6
CONTINUOUS
 62
3
 66
1
 40
5.0E-001
 41
5.0E-001
 70
0
  0
VERTEX
  8
1
 42
0.0
 10
8.4230197E+001
 20
1.5212596E+002
 70
0
  0
VERTEX
  8
1
 42
0.0
 10
9.8730237E+001
 20
1.5212596E+002
 70
0
  0
SEQEND
  0
POLYLINE
  8
1
  6
CONTINUOUS
 62
3
 66
1
 40
5.0E-001
 41
5.0E-001
 70
0
  0
VERTEX
  8
1
 42
0.0
 10
1.2373024E+002
 20
1.4957596E+002
 70
0
  0
VERTEX
  8
1
 42
0.0
 10
1.2373024E+002
 20
1.5212596E+002
 70
0
  0
SEQEND
  0
POLYLINE
  8
1
  6
CONTINUOUS
 62
3
 66
1
 40
5.0E-001
 41
5.0E-001
 70
0
  0
VERTEX
  8
1
 42
0.0
 10
1.3373024E+002
 20
1.4957596E+002
 70
0
  0
VERTEX
  8
1
 42
0.0
 10
1.347867E+002
 20
1.4657596E+002
 70
0
  0
SEQEND
  0
POLYLINE
  8
1
  6
CONTINUOUS
 62
3
 66
1
 40
5.0E-001
 41
5.0E-001
 70
0
  0
VERTEX
  8
1
 42
0.0
 10
1.2373024E+002
 20
1.4957596E+002
 70
0
  0
VERTEX
  8
1
 42
0.0
 10
1.2267377E+002
 20
1.4657596E+002
 70
0
  0
SEQEND
  0
POLYLINE
  8
1
  6
CONTINUOUS
 62
3
 66
1
 40
5.0E-001
 41
5.0E-001
 70
0
  0
VERTEX
  8
1
 42
0.0
 10
1.2267377E+002
 20
1.4657596E+002
 70
0
  0
VERTEX
  8
1
 42
0.0
 10
1.2173024E+002
 20
1.4657596E+002
 70
0
  0
SEQEND
  0
POLYLINE
  8
1
  6
CONTINUOUS
 62
3
 66
1
 40
5.0E-001
 41
5.0E-001
 70
0
  0
VERTEX
  8
1
 42
0.0
 10
1.1623024E+002
 20
1.4957596E+002
 70
0
  0
VERTEX
  8
1
 42
0.0
 10
1.1623024E+002
 20
1.5212596E+002
 70
0
  0
SEQEND
  0
POLYLINE
  8
1
  6
CONTINUOUS
 62
3
 66
1
 40
5.0E-001
 41
5.0E-001
 70
0
  0
VERTEX
  8
1
 42
0.0
 10
1.0623024E+002
 20
1.4957596E+002
 70
0
  0
VERTEX
  8
1
 42
0.0
 10
1.0623024E+002
 20
1.5212596E+002
 70
0
  0
SEQEND
  0
POLYLINE
  8
1
  6
CONTINUOUS
 62
3
 66
1
 40
5.0E-001
 41
5.0E-001
 70
0
  0
VERTEX
  8
1
 42
0.0
 10
9.8730237E+001
 20
1.4957596E+002
 70
0
  0
VERTEX
  8
1
 42
0.0
 10
9.8730237E+001
 20
1.5212596E+002
 70
0
  0
SEQEND
  0
POLYLINE
  8
1
  6
CONTINUOUS
 62
3
 66
1
 40
5.0E-001
 41
5.0E-001
 70
0
  0
VERTEX
  8
1
 42
0.0
 10
1.1623024E+002
 20
1.4957596E+002
 70
0
  0
VERTEX
  8
1
 42
0.0
 10
1.172867E+002
 20
1.4657596E+002
 70
0
  0
SEQEND
  0
POLYLINE
  8
1
  6
CONTINUOUS
 62
3
 66
1
 40
5.0E-001
 41
5.0E-001
 70
0
  0
VERTEX
  8
1
 42
0.0
 10
9.8730237E+001
 20
1.4957596E+002
 70
0
  0
VERTEX
  8
1
 42
0.0
 10
9.9786704E+001
 20
1.4657596E+002
 70
0
  0
SEQEND
  0
POLYLINE
  8
1
  6
CONTINUOUS
 62
3
 66
1
 40
5.0E-001
 41
5.0E-001
 70
0
  0
VERTEX
  8
1
 42
0.0
 10
1.0623024E+002
 20
1.4957596E+002
 70
0
  0
VERTEX
  8
1
 42
0.0
 10
1.0517377E+002
 20
1.4657596E+002
 70
0
  0
SEQEND
  0
POLYLINE
  8
1
  6
CONTINUOUS
 62
3
 66
1
 40
5.0E-001
 41
5.0E-001
 70
0
  0
VERTEX
  8
1
 42
0.0
 10
8.8730237E+001
 20
1.4957596E+002
 70
0
  0
VERTEX
  8
1
 42
0.0
 10
8.767377E+001
 20
1.4657596E+002
 70
0
  0
SEQEND
  0
POLYLINE
  8
1
  6
CONTINUOUS
 62
3
 66
1
 40
5.0E-001
 41
5.0E-001
 70
0
  0
VERTEX
  8
1
 42
0.0
 10
1.1823024E+002
 20
1.4657596E+002
 70
0
  0
VERTEX
  8
1
 42
0.0
 10
1.172867E+002
 20
1.4657596E+002
 70
0
  0
SEQEND
  0
POLYLINE
  8
1
  6
CONTINUOUS
 62
3
 66
1
 40
5.0E-001
 41
5.0E-001
 70
0
  0
VERTEX
  8
1
 42
0.0
 10
1.0073024E+002
 20
1.4657596E+002
 70
0
  0
VERTEX
  8
1
 42
0.0
 10
9.9786704E+001
 20
1.4657596E+002
 70
0
  0
SEQEND
  0
POLYLINE
  8
1
  6
CONTINUOUS
 62
3
 66
1
 40
5.0E-001
 41
5.0E-001
 70
0
  0
VERTEX
  8
1
 42
0.0
 10
1.0517377E+002
 20
1.4657596E+002
 70
0
  0
VERTEX
  8
1
 42
0.0
 10
1.0423024E+002
 20
1.4657596E+002
 70
0
  0
SEQEND
  0
POLYLINE
  8
1
  6
CONTINUOUS
 62
3
 66
1
 40
5.0E-001
 41
5.0E-001
 70
0
  0
VERTEX
  8
1
 42
0.0
 10
1.0073024E+002
 20
1.4957596E+002
 70
0
  0
VERTEX
  8
1
 42
0.0
 10
1.0423024E+002
 20
1.4957596E+002
 70
0
  0
SEQEND
  0
POLYLINE
  8
1
  6
CONTINUOUS
 62
3
 66
1
 40
5.0E-001
 41
5.0E-001
 70
0
  0
VERTEX
  8
1
 42
0.0
 10
1.0623024E+002
 20
1.4957596E+002
 70
0
  0
VERTEX
  8
1
 42
0.0
 10
1.1623024E+002
 20
1.4957596E+002
 70
0
  0
SEQEND
  0
POLYLINE
  8
1
  6
CONTINUOUS
 62
3
 66
1
 40
5.0E-001
 41
5.0E-001
 70
0
  0
VERTEX
  8
1
 42
0.0
 10
1.1823024E+002
 20
1.4957596E+002
 70
0
  0
VERTEX
  8
1
 42
0.0
 10
1.2173024E+002
 20
1.4957596E+002
 70
0
  0
SEQEND
  0
POLYLINE
  8
1
  6
CONTINUOUS
 62
3
 66
1
 40
5.0E-001
 41
5.0E-001
 70
0
  0
VERTEX
  8
1
 42
0.0
 10
1.2373024E+002
 20
1.4957596E+002
 70
0
  0
VERTEX
  8
1
 42
0.0
 10
1.382302E+002
 20
1.4957596E+002
 70
0
  0
SEQEND
  0
POLYLINE
  8
1
  6
CONTINUOUS
 62
3
 66
1
 40
5.0E-001
 41
5.0E-001
 70
0
  0
VERTEX
  8
1
 42
0.0
 10
1.2373024E+002
 20
1.5212596E+002
 70
0
  0
VERTEX
  8
1
 42
0.0
 10
1.382302E+002
 20
1.5212596E+002
 70
0
  0
SEQEND
  0
POLYLINE
  8
1
  6
CONTINUOUS
 62
3
 66
1
 40
5.0E-001
 41
5.0E-001
 70
0
  0
VERTEX
  8
1
 42
0.0
 10
1.0623024E+002
 20
1.5212596E+002
 70
0
  0
VERTEX
  8
1
 42
0.0
 10
1.1623024E+002
 20
1.5212596E+002
 70
0
  0
SEQEND
  0
POLYLINE
  8
1
  6
CONTINUOUS
 62
3
 66
1
 40
5.0E-001
 41
5.0E-001
 70
0
  0
VERTEX
  8
1
 42
0.0
 10
2.8552569E+002
 20
2.2007596E+002
 70
0
  0
VERTEX
  8
1
 42
0.0
 10
2.8552569E+002
 20
2.0157596E+002
 70
0
  0
SEQEND
  0
POLYLINE
  8
1
  6
CONTINUOUS
 62
3
 66
1
 40
5.0E-001
 41
5.0E-001
 70
0
  0
VERTEX
  8
1
 42
0.0
 10
2.8952569E+002
 20
2.2007596E+002
 70
0
  0
VERTEX
  8
1
 42
0.0
 10
2.8952569E+002
 20
2.1587596E+002
 70
0
  0
SEQEND
  0
POLYLINE
  8
1
  6
CONTINUOUS
 62
3
 66
1
 40
5.0E-001
 41
5.0E-001
 70
0
  0
VERTEX
  8
1
 42
0.0
 10
2.8002569E+002
 20
2.2007596E+002
 70
0
  0
VERTEX
  8
1
 42
0.0
 10
2.8212569E+002
 20
2.2007596E+002
 70
0
  0
SEQEND
  0
POLYLINE
  8
1
  6
CONTINUOUS
 62
3
 66
1
 40
5.0E-001
 41
5.0E-001
 70
0
  0
VERTEX
  8
1
 42
0.0
 10
2.8552569E+002
 20
2.1587596E+002
 70
0
  0
VERTEX
  8
1
 42
0.0
 10
2.8952569E+002
 20
2.1587596E+002
 70
0
  0
SEQEND
  0
POLYLINE
  8
1
  6
CONTINUOUS
 62
3
 66
1
 40
5.0E-001
 41
5.0E-001
 70
0
  0
VERTEX
  8
1
 42
0.0
 10
2.8152569E+002
 20
2.2007596E+002
 70
0
  0
VERTEX
  8
1
 42
0.0
 10
2.8152569E+002
 20
2.1657596E+002
 70
0
  0
SEQEND
  0
POLYLINE
  8
1
  6
CONTINUOUS
 62
3
 66
1
 40
5.0E-001
 41
5.0E-001
 70
0
  0
VERTEX
  8
1
 42
0.0
 10
2.8402569E+002
 20
2.2007596E+002
 70
0
  0
VERTEX
  8
1
 42
0.0
 10
2.8402569E+002
 20
2.1657596E+002
 70
0
  0
SEQEND
  0
POLYLINE
  8
1
  6
CONTINUOUS
 62
3
 66
1
 40
5.0E-001
 41
5.0E-001
 70
0
  0
VERTEX
  8
1
 42
0.0
 10
2.8002569E+002
 20
2.2007596E+002
 70
0
  0
VERTEX
  8
1
 42
0.0
 10
2.8002569E+002
 20
2.1681354E+002
 70
0
  0
SEQEND
  0
POLYLINE
  8
1
  6
CONTINUOUS
 62
3
 66
1
 40
5.0E-001
 41
5.0E-001
 70
0
  0
VERTEX
  8
1
 42
0.0
 10
2.8362569E+002
 20
2.2007596E+002
 70
0
  0
VERTEX
  8
1
 42
0.0
 10
2.8952569E+002
 20
2.2007596E+002
 70
0
  0
SEQEND
  0
POLYLINE
  8
1
  6
CONTINUOUS
 62
3
 66
1
 40
5.0E-001
 41
5.0E-001
 70
0
  0
VERTEX
  8
1
 42
0.0
 10
2.8152569E+002
 20
2.1657596E+002
 70
0
  0
VERTEX
  8
1
 42
0.0
 10
2.8552569E+002
 20
2.1657596E+002
 70
0
  0
SEQEND
  0
POLYLINE
  8
1
  6
CONTINUOUS
 62
3
 66
1
 40
5.0E-001
 41
5.0E-001
 70
0
  0
VERTEX
  8
1
 42
0.0
 10
2.8152569E+002
 20
2.1657596E+002
 70
0
  0
VERTEX
  8
1
 42
0.0
 10
2.5462569E+002
 20
2.208365E+002
 70
0
  0
SEQEND
  0
POLYLINE
  8
1
  6
CONTINUOUS
 62
3
 66
1
 40
5.0E-001
 41
5.0E-001
 70
0
  0
VERTEX
  8
1
 42
0.0
 10
2.5052569E+002
 20
2.1157596E+002
 70
0
  0
VERTEX
  8
1
 42
0.0
 10
2.5052569E+002
 20
2.0157596E+002
 70
0
  0
SEQEND
  0
POLYLINE
  8
1
  6
CONTINUOUS
 62
3
 66
1
 40
5.0E-001
 41
5.0E-001
 70
0
  0
VERTEX
  8
1
 42
0.0
 10
2.5052569E+002
 20
2.1157596E+002
 70
0
  0
VERTEX
  8
1
 42
0.0
 10
2.5462569E+002
 20
2.1157596E+002
 70
0
  0
SEQEND
  0
POLYLINE
  8
1
  6
CONTINUOUS
 62
3
 66
1
 40
5.0E-001
 41
5.0E-001
 70
0
  0
VERTEX
  8
1
 42
0.0
 10
2.5462569E+002
 20
2.208365E+002
 70
0
  0
VERTEX
  8
1
 42
0.0
 10
2.5462569E+002
 20
2.1157596E+002
 70
0
  0
SEQEND
  0
POLYLINE
  8
1
  6
CONTINUOUS
 62
3
 66
1
 40
5.0E-001
 41
5.0E-001
 70
0
  0
VERTEX
  8
1
 42
0.0
 10
8.5830237E+001
 20
2.0957596E+002
 70
0
  0
VERTEX
  8
1
 42
0.0
 10
8.5830237E+001
 20
2.208365E+002
 70
0
  0
SEQEND
  0
POLYLINE
  8
1
  6
CONTINUOUS
 62
3
 66
1
 40
5.0E-001
 41
5.0E-001
 70
0
  0
VERTEX
  8
1
 42
0.0
 10
1.3663024E+002
 20
2.0157596E+002
 70
0
  0
VERTEX
  8
1
 42
0.0
 10
1.3663024E+002
 20
2.1057596E+002
 70
0
  0
SEQEND
  0
POLYLINE
  8
1
  6
CONTINUOUS
 62
3
 66
1
 40
5.0E-001
 41
5.0E-001
 70
0
  0
VERTEX
  8
1
 42
0.0
 10
8.7330237E+001
 20
2.0957596E+002
 70
0
  0
VERTEX
  8
1
 42
0.0
 10
8.7330237E+001
 20
2.208365E+002
 70
0
  0
SEQEND
  0
POLYLINE
  8
1
  6
CONTINUOUS
 62
3
 66
1
 40
5.0E-001
 41
5.0E-001
 70
0
  0
VERTEX
  8
1
 42
0.0
 10
8.7330237E+001
 20
2.1657596E+002
 70
0
  0
VERTEX
  8
1
 42
0.0
 10
8.5830237E+001
 20
2.1657596E+002
 70
0
  0
SEQEND
  0
POLYLINE
  8
1
  6
CONTINUOUS
 62
3
 66
1
 40
5.0E-001
 41
5.0E-001
 70
0
  0
VERTEX
  8
1
 42
0.0
 10
8.7330237E+001
 20
2.208365E+002
 70
0
  0
VERTEX
  8
1
 42
0.0
 10
8.5830237E+001
 20
2.208365E+002
 70
0
  0
SEQEND
  0
POLYLINE
  8
1
  6
CONTINUOUS
 62
3
 66
1
 40
5.0E-001
 41
5.0E-001
 70
0
  0
VERTEX
  8
1
 42
0.0
 10
1.0163024E+002
 20
2.1707596E+002
 70
0
  0
VERTEX
  8
1
 42
0.0
 10
1.0163024E+002
 20
2.2007596E+002
 70
0
  0
SEQEND
  0
POLYLINE
  8
1
  6
CONTINUOUS
 62
3
 66
1
 40
5.0E-001
 41
5.0E-001
 70
0
  0
VERTEX
  8
1
 42
0.0
 10
9.7030237E+001
 20
2.1707596E+002
 70
0
  0
VERTEX
  8
1
 42
0.0
 10
9.7030237E+001
 20
2.2007596E+002
 70
0
  0
SEQEND
  0
POLYLINE
  8
1
  6
CONTINUOUS
 62
3
 66
1
 40
5.0E-001
 41
5.0E-001
 70
0
  0
VERTEX
  8
1
 42
0.0
 10
1.0163024E+002
 20
2.1707596E+002
 70
0
  0
VERTEX
  8
1
 42
0.0
 10
9.7030237E+001
 20
2.1707596E+002
 70
0
  0
SEQEND
  0
POLYLINE
  8
1
  6
CONTINUOUS
 62
3
 66
1
 40
5.0E-001
 41
5.0E-001
 70
0
  0
VERTEX
  8
1
 42
0.0
 10
1.1138024E+002
 20
2.1707596E+002
 70
0
  0
VERTEX
  8
1
 42
0.0
 10
1.1138024E+002
 20
2.2007596E+002
 70
0
  0
SEQEND
  0
POLYLINE
  8
1
  6
CONTINUOUS
 62
3
 66
1
 40
5.0E-001
 41
5.0E-001
 70
0
  0
VERTEX
  8
1
 42
0.0
 10
1.1598024E+002
 20
2.1707596E+002
 70
0
  0
VERTEX
  8
1
 42
0.0
 10
1.1138024E+002
 20
2.1707596E+002
 70
0
  0
SEQEND
  0
POLYLINE
  8
1
  6
CONTINUOUS
 62
3
 66
1
 40
5.0E-001
 41
5.0E-001
 70
0
  0
VERTEX
  8
1
 42
0.0
 10
1.1598024E+002
 20
2.1707596E+002
 70
0
  0
VERTEX
  8
1
 42
0.0
 10
1.1598024E+002
 20
2.2007596E+002
 70
0
  0
SEQEND
  0
POLYLINE
  8
1
  6
CONTINUOUS
 62
3
 66
1
 40
5.0E-001
 41
5.0E-001
 70
0
  0
VERTEX
  8
1
 42
0.0
 10
1.1718024E+002
 20
2.1737596E+002
 70
0
  0
VERTEX
  8
1
 42
0.0
 10
1.1718024E+002
 20
2.2007596E+002
 70
0
  0
SEQEND
  0
POLYLINE
  8
1
  6
CONTINUOUS
 62
3
 66
1
 40
5.0E-001
 41
5.0E-001
 70
0
  0
VERTEX
  8
1
 42
0.0
 10
1.1018024E+002
 20
2.1737596E+002
 70
0
  0
VERTEX
  8
1
 42
0.0
 10
1.1018024E+002
 20
2.2007596E+002
 70
0
  0
SEQEND
  0
POLYLINE
  8
1
  6
CONTINUOUS
 62
3
 66
1
 40
5.0E-001
 41
5.0E-001
 70
0
  0
VERTEX
  8
1
 42
0.0
 10
1.1568024E+002
 20
2.1587596E+002
 70
0
  0
VERTEX
  8
1
 42
0.0
 10
1.1168024E+002
 20
2.1587596E+002
 70
0
  0
SEQEND
  0
POLYLINE
  8
1
  6
CONTINUOUS
 62
3
 66
1
 40
5.0E-001
 41
5.0E-001
 70
0
  0
VERTEX
  8
1
 42
0.0
 10
1.1138024E+002
 20
2.2007596E+002
 70
0
  0
VERTEX
  8
1
 42
0.0
 10
1.0163024E+002
 20
2.2007596E+002
 70
0
  0
SEQEND
  0
POLYLINE
  8
1
  6
CONTINUOUS
 62
3
 66
1
 40
5.0E-001
 41
5.0E-001
 70
0
  0
VERTEX
  8
1
 42
0.0
 10
9.7030237E+001
 20
2.2007596E+002
 70
0
  0
VERTEX
  8
1
 42
0.0
 10
8.7330237E+001
 20
2.2007596E+002
 70
0
  0
SEQEND
  0
POLYLINE
  8
1
  6
CONTINUOUS
 62
3
 66
1
 40
5.0E-001
 41
5.0E-001
 70
0
  0
VERTEX
  8
1
 42
4.1421356E-001
 10
1.1018024E+002
 20
2.1737596E+002
 70
0
  0
VERTEX
  8
1
 42
0.0
 10
1.1168024E+002
 20
2.1587596E+002
 70
0
  0
SEQEND
  0
POLYLINE
  8
1
  6
CONTINUOUS
 62
3
 66
1
 40
5.0E-001
 41
5.0E-001
 70
0
  0
VERTEX
  8
1
 42
4.1421356E-001
 10
1.1568024E+002
 20
2.1587596E+002
 70
0
  0
VERTEX
  8
1
 42
0.0
 10
1.1718024E+002
 20
2.1737596E+002
 70
0
  0
SEQEND
  0
POLYLINE
  8
1
  6
CONTINUOUS
 62
3
 66
1
 40
5.0E-001
 41
5.0E-001
 70
0
  0
VERTEX
  8
1
 42
0.0
 10
1.0283024E+002
 20
2.1737596E+002
 70
0
  0
VERTEX
  8
1
 42
0.0
 10
1.0283024E+002
 20
2.2007596E+002
 70
0
  0
SEQEND
  0
POLYLINE
  8
1
  6
CONTINUOUS
 62
3
 66
1
 40
5.0E-001
 41
5.0E-001
 70
0
  0
VERTEX
  8
1
 42
4.1421356E-001
 10
1.0133024E+002
 20
2.1587596E+002
 70
0
  0
VERTEX
  8
1
 42
0.0
 10
1.0283024E+002
 20
2.1737596E+002
 70
0
  0
SEQEND
  0
POLYLINE
  8
1
  6
CONTINUOUS
 62
3
 66
1
 40
5.0E-001
 41
5.0E-001
 70
0
  0
VERTEX
  8
1
 42
0.0
 10
1.0133024E+002
 20
2.1587596E+002
 70
0
  0
VERTEX
  8
1
 42
0.0
 10
9.7330237E+001
 20
2.1587596E+002
 70
0
  0
SEQEND
  0
POLYLINE
  8
1
  6
CONTINUOUS
 62
3
 66
1
 40
5.0E-001
 41
5.0E-001
 70
0
  0
VERTEX
  8
1
 42
4.1421356E-001
 10
9.5830237E+001
 20
2.1737596E+002
 70
0
  0
VERTEX
  8
1
 42
0.0
 10
9.7330237E+001
 20
2.1587596E+002
 70
0
  0
SEQEND
  0
POLYLINE
  8
1
  6
CONTINUOUS
 62
3
 66
1
 40
5.0E-001
 41
5.0E-001
 70
0
  0
VERTEX
  8
1
 42
0.0
 10
9.5830237E+001
 20
2.1737596E+002
 70
0
  0
VERTEX
  8
1
 42
0.0
 10
9.5830237E+001
 20
2.2007596E+002
 70
0
  0
SEQEND
  0
POLYLINE
  8
1
  6
CONTINUOUS
 62
3
 66
1
 40
5.0E-001
 41
5.0E-001
 70
0
  0
VERTEX
  8
1
 42
0.0
 10
1.2068024E+002
 20
2.1357596E+002
 70
0
  0
VERTEX
  8
1
 42
0.0
 10
1.2068024E+002
 20
2.2007596E+002
 70
0
  0
SEQEND
  0
POLYLINE
  8
1
  6
CONTINUOUS
 62
3
 66
1
 40
5.0E-001
 41
5.0E-001
 70
0
  0
VERTEX
  8
1
 42
0.0
 10
1.2728024E+002
 20
2.1357596E+002
 70
0
  0
VERTEX
  8
1
 42
0.0
 10
1.2728024E+002
 20
2.1928434E+002
 70
0
  0
SEQEND
  0
POLYLINE
  8
1
  6
CONTINUOUS
 62
3
 66
1
 40
5.0E-001
 41
5.0E-001
 70
0
  0
VERTEX
  8
1
 42
0.0
 10
1.2478024E+002
 20
2.1107596E+002
 70
0
  0
VERTEX
  8
1
 42
0.0
 10
1.2318024E+002
 20
2.1107596E+002
 70
0
  0
SEQEND
  0
POLYLINE
  8
1
  6
CONTINUOUS
 62
3
 66
1
 40
5.0E-001
 41
5.0E-001
 70
0
  0
VERTEX
  8
1
 42
0.0
 10
1.2068024E+002
 20
2.2007596E+002
 70
0
  0
VERTEX
  8
1
 42
0.0
 10
1.1598024E+002
 20
2.2007596E+002
 70
0
  0
SEQEND
  0
POLYLINE
  8
1
  6
CONTINUOUS
 62
3
 66
1
 40
5.0E-001
 41
5.0E-001
 70
0
  0
VERTEX
  8
1
 42
4.1421356E-001
 10
1.2068024E+002
 20
2.1357596E+002
 70
0
  0
VERTEX
  8
1
 42
0.0
 10
1.2318024E+002
 20
2.1107596E+002
 70
0
  0
SEQEND
  0
POLYLINE
  8
1
  6
CONTINUOUS
 62
3
 66
1
 40
5.0E-001
 41
5.0E-001
 70
0
  0
VERTEX
  8
1
 42
4.1421356E-001
 10
1.2478024E+002
 20
2.1107596E+002
 70
0
  0
VERTEX
  8
1
 42
0.0
 10
1.2728024E+002
 20
2.1357596E+002
 70
0
  0
SEQEND
  0
POLYLINE
  8
1
  6
CONTINUOUS
 62
3
 66
1
 40
5.0E-001
 41
5.0E-001
 70
0
  0
VERTEX
  8
1
 42
0.0
 10
1.2878024E+002
 20
2.1057596E+002
 70
0
  0
VERTEX
  8
1
 42
0.0
 10
1.3663024E+002
 20
2.1057596E+002
 70
0
  0
SEQEND
  0
POLYLINE
  8
1
  6
CONTINUOUS
 62
3
 66
1
 40
5.0E-001
 41
5.0E-001
 70
0
  0
VERTEX
  8
1
 42
0.0
 10
1.2878024E+002
 20
2.1057596E+002
 70
0
  0
VERTEX
  8
1
 42
0.0
 10
1.2878024E+002
 20
2.1928434E+002
 70
0
  0
SEQEND
  0
POLYLINE
  8
1
  6
CONTINUOUS
 62
3
 66
1
 40
5.0E-001
 41
5.0E-001
 70
0
  0
VERTEX
  8
1
 42
0.0
 10
1.2878024E+002
 20
2.1928434E+002
 70
0
  0
VERTEX
  8
1
 42
0.0
 10
1.2728024E+002
 20
2.1928434E+002
 70
0
  0
SEQEND
  0
POLYLINE
  8
1
  6
CONTINUOUS
 62
3
 66
1
 40
5.0E-001
 41
5.0E-001
 70
0
  0
VERTEX
  8
1
 42
0.0
 10
1.2728024E+002
 20
2.1707596E+002
 70
0
  0
VERTEX
  8
1
 42
0.0
 10
1.2878024E+002
 20
2.1707596E+002
 70
0
  0
SEQEND
  0
LINE
  8
1
  6
CENTERLINE
 62
1
 10
9.2130237E+001
 20
2.1683906E+002
 11
9.2130237E+001
 21
2.3786223E+002
  0
POLYLINE
  8
1
  6
CONTINUOUS
 62
3
 66
1
 40
5.0E-001
 41
5.0E-001
 70
0
  0
VERTEX
  8
1
 42
0.0
 10
8.8880237E+001
 20
2.2007596E+002
 70
0
  0
VERTEX
  8
1
 42
0.0
 10
8.8880237E+001
 20
2.3457596E+002
 70
0
  0
SEQEND
  0
POLYLINE
  8
1
  6
CONTINUOUS
 62
3
 66
1
 40
5.0E-001
 41
5.0E-001
 70
0
  0
VERTEX
  8
1
 42
0.0
 10
9.5380237E+001
 20
2.2007596E+002
 70
0
  0
VERTEX
  8
1
 42
0.0
 10
9.5380237E+001
 20
2.3457596E+002
 70
0
  0
SEQEND
  0
POLYLINE
  8
1
  6
CONTINUOUS
 62
3
 66
1
 40
5.0E-001
 41
5.0E-001
 70
0
  0
VERTEX
  8
1
 42
0.0
 10
9.4380237E+001
 20
2.3557596E+002
 70
0
  0
VERTEX
  8
1
 42
0.0
 10
8.9880237E+001
 20
2.3557596E+002
 70
0
  0
SEQEND
  0
POLYLINE
  8
1
  6
CONTINUOUS
 62
3
 66
1
 40
5.0E-001
 41
5.0E-001
 70
0
  0
VERTEX
  8
1
 42
0.0
 10
9.5380237E+001
 20
2.3457596E+002
 70
0
  0
VERTEX
  8
1
 42
0.0
 10
9.4380237E+001
 20
2.3557596E+002
 70
0
  0
SEQEND
  0
POLYLINE
  8
1
  6
CONTINUOUS
 62
3
 66
1
 40
5.0E-001
 41
5.0E-001
 70
0
  0
VERTEX
  8
1
 42
0.0
 10
8.9880237E+001
 20
2.3557596E+002
 70
0
  0
VERTEX
  8
1
 42
0.0
 10
8.8880237E+001
 20
2.3457596E+002
 70
0
  0
SEQEND
  0
LINE
  8
1
  6
CENTERLINE
 62
1
 10
1.0653024E+002
 20
2.1721182E+002
 11
1.0653024E+002
 21
2.3774797E+002
  0
POLYLINE
  8
1
  6
CONTINUOUS
 62
3
 66
1
 40
5.0E-001
 41
5.0E-001
 70
0
  0
VERTEX
  8
1
 42
0.0
 10
1.0978024E+002
 20
2.2007596E+002
 70
0
  0
VERTEX
  8
1
 42
0.0
 10
1.0978024E+002
 20
2.3457596E+002
 70
0
  0
SEQEND
  0
POLYLINE
  8
1
  6
CONTINUOUS
 62
3
 66
1
 40
5.0E-001
 41
5.0E-001
 70
0
  0
VERTEX
  8
1
 42
0.0
 10
1.0978024E+002
 20
2.3457596E+002
 70
0
  0
VERTEX
  8
1
 42
0.0
 10
1.0878024E+002
 20
2.3557596E+002
 70
0
  0
SEQEND
  0
POLYLINE
  8
1
  6
CONTINUOUS
 62
3
 66
1
 40
5.0E-001
 41
5.0E-001
 70
0
  0
VERTEX
  8
1
 42
0.0
 10
1.0878024E+002
 20
2.3557596E+002
 70
0
  0
VERTEX
  8
1
 42
0.0
 10
1.0428024E+002
 20
2.3557596E+002
 70
0
  0
SEQEND
  0
POLYLINE
  8
1
  6
CONTINUOUS
 62
3
 66
1
 40
5.0E-001
 41
5.0E-001
 70
0
  0
VERTEX
  8
1
 42
0.0
 10
1.0428024E+002
 20
2.3557596E+002
 70
0
  0
VERTEX
  8
1
 42
0.0
 10
1.0328024E+002
 20
2.3457596E+002
 70
0
  0
SEQEND
  0
POLYLINE
  8
1
  6
CONTINUOUS
 62
3
 66
1
 40
5.0E-001
 41
5.0E-001
 70
0
  0
VERTEX
  8
1
 42
0.0
 10
1.0328024E+002
 20
2.2007596E+002
 70
0
  0
VERTEX
  8
1
 42
0.0
 10
1.0328024E+002
 20
2.3457596E+002
 70
0
  0
SEQEND
  0
LINE
  8
1
  6
CENTERLINE
 62
1
 10
1.2093024E+002
 20
2.2148067E+002
 11
1.2093024E+002
 21
2.374052E+002
  0
POLYLINE
  8
1
  6
CONTINUOUS
 62
3
 66
1
 40
5.0E-001
 41
5.0E-001
 70
0
  0
VERTEX
  8
1
 42
0.0
 10
1.2418024E+002
 20
2.2133756E+002
 70
0
  0
VERTEX
  8
1
 42
0.0
 10
1.2418024E+002
 20
2.3457596E+002
 70
0
  0
SEQEND
  0
POLYLINE
  8
1
  6
CONTINUOUS
 62
3
 66
1
 40
5.0E-001
 41
5.0E-001
 70
0
  0
VERTEX
  8
1
 42
0.0
 10
1.2418024E+002
 20
2.3457596E+002
 70
0
  0
VERTEX
  8
1
 42
0.0
 10
1.2318024E+002
 20
2.3557596E+002
 70
0
  0
SEQEND
  0
POLYLINE
  8
1
  6
CONTINUOUS
 62
3
 66
1
 40
5.0E-001
 41
5.0E-001
 70
0
  0
VERTEX
  8
1
 42
0.0
 10
1.2318024E+002
 20
2.3557596E+002
 70
0
  0
VERTEX
  8
1
 42
0.0
 10
1.1868024E+002
 20
2.3557596E+002
 70
0
  0
SEQEND
  0
POLYLINE
  8
1
  6
CONTINUOUS
 62
3
 66
1
 40
5.0E-001
 41
5.0E-001
 70
0
  0
VERTEX
  8
1
 42
0.0
 10
1.1868024E+002
 20
2.3557596E+002
 70
0
  0
VERTEX
  8
1
 42
0.0
 10
1.1768024E+002
 20
2.3457596E+002
 70
0
  0
SEQEND
  0
POLYLINE
  8
1
  6
CONTINUOUS
 62
3
 66
1
 40
5.0E-001
 41
5.0E-001
 70
0
  0
VERTEX
  8
1
 42
0.0
 10
1.1768024E+002
 20
2.2007596E+002
 70
0
  0
VERTEX
  8
1
 42
0.0
 10
1.1768024E+002
 20
2.3457596E+002
 70
0
  0
SEQEND
  0
POLYLINE
  8
1
  6
CONTINUOUS
 62
3
 66
1
 40
5.0E-001
 41
5.0E-001
 70
0
  0
VERTEX
  8
1
 42
1.2407729E-001
 10
1.2160326E+002
 20
2.1939567E+002
 70
0
  0
VERTEX
  8
1
 42
0.0
 10
1.2068024E+002
 20
2.1841853E+002
 70
0
  0
SEQEND
  0
POLYLINE
  8
1
  6
CONTINUOUS
 62
3
 66
1
 40
5.0E-001
 41
5.0E-001
 70
0
  0
VERTEX
  8
1
 42
0.0
 10
1.2418024E+002
 20
2.2133756E+002
 70
0
  0
VERTEX
  8
1
 42
0.0
 10
1.2160326E+002
 20
2.1939567E+002
 70
0
  0
SEQEND
  0
DIMENSION
  8
1
  6
CONTINUOUS
 62
4
  2
*D3489
  3
DSTYLE1
 10
2.8212569E+002
 20
2.4675557E+002
 11
2.5137569E+002
 21
2.4975657E+002
 70
128
 13
2.2062569E+002
 23
2.0157596E+002
 14
2.8212569E+002
 24
2.3557596E+002
 40
3.0
 50
0.0
1001
ACAD
1000
DSTYLE
1002
{
1070
173
1070
0
1070
5
1000
_AH13
1002
}
  0
DIMENSION
  8
1
  6
CONTINUOUS
 62
4
  2
*D3491
  3
DSTYLE1
 10
2.8362569E+002
 20
2.4675557E+002
 11
2.9200507E+002
 21
2.4975657E+002
 70
128
 13
2.8212569E+002
 23
2.3557596E+002
 14
2.8362569E+002
 24
2.3557596E+002
 40
3.0
 50
0.0
1001
ACAD
1000
DSTYLE
1002
{
1070
173
1070
0
1070
5
1000
_AH13
1002
}
  0
DIMENSION
  8
1
  6
CONTINUOUS
 62
4
  2
*D3496
  3
DSTYLE1
 10
3.2512569E+002
 20
1.5997209E+002
 11
3.3610815E+002
 21
1.6297309E+002
 70
128
 13
3.3112569E+002
 23
1.8557596E+002
 14
3.2512569E+002
 24
1.7157596E+002
 40
3.0
 50
0.0
1001
ACAD
1000
DSTYLE
1002
{
1070
173
1070
0
1070
5
1000
_AH13
1002
}
  0
DIMENSION
  8
1
  6
CONTINUOUS
 62
4
  2
*D3497
  3
DSTYLE1
 10
2.2062569E+002
 20
1.3233907E+002
 11
2.7587569E+002
 21
1.3534007E+002
 70
128
 13
3.3112569E+002
 23
1.8557596E+002
 14
2.2062569E+002
 24
1.6607596E+002
 40
3.0
 50
0.0
1001
ACAD
1000
DSTYLE
1002
{
1070
173
1070
0
1070
5
1000
_AH13
1002
}
  0
DIMENSION
  8
1
  6
CONTINUOUS
 62
4
  2
*D3498
  3
DSTYLE1
 10
1.1123024E+002
 20
1.3233907E+002
 11
1.0248024E+002
 21
1.3534007E+002
 70
128
 13
9.3730237E+001
 23
1.5026319E+002
 14
1.1123024E+002
 24
1.5026319E+002
 40
3.0
 50
0.0
1001
ACAD
1000
DSTYLE
1002
{
1070
173
1070
0
1070
5
1000
_AH13
1002
}
  0
DIMENSION
  8
1
  6
CONTINUOUS
 62
4
  2
*D3499
  3
DSTYLE1
 10
1.2873024E+002
 20
1.3233907E+002
 11
1.1998024E+002
 21
1.3534007E+002
 70
128
 13
1.1123024E+002
 23
1.5026319E+002
 14
1.2873024E+002
 24
1.5116714E+002
 40
3.0
 50
0.0
1001
ACAD
1000
DSTYLE
1002
{
1070
173
1070
0
1070
5
1000
_AH13
1002
}
  0
DIMENSION
  8
1
  6
CONTINUOUS
 62
4
  2
*D3500
  3
DSTYLE1
 10
1.382302E+002
 20
1.2414725E+002
 11
1.112302E+002
 21
1.2714825E+002
 70
128
 13
8.4230197E+001
 23
1.4657596E+002
 14
1.382302E+002
 24
1.4657596E+002
 40
3.0
 50
0.0
1001
ACAD
1000
DSTYLE
1002
{
1070
173
1070
0
1070
5
1000
_AH13
1002
}
  0
LINE
  8
1
  6
CENTERLINE
 62
1
 10
1.295352E+002
 20
1.9157596E+002
 11
1.2078707E+002
 21
1.9157596E+002
  0
DIMENSION
  8
1
  6
CONTINUOUS
 62
4
  1
8
  2
*D3504
  3
DSTYLE1
 10
9.2130237E+001
 20
2.4429048E+002
 11
8.8180217E+001
 21
2.4729148E+002
 70
128
 13
8.4230197E+001
 23
2.0157596E+002
 14
9.2130237E+001
 24
2.3786223E+002
 40
3.0
 50
0.0
1001
ACAD
1000
DSTYLE
1002
{
1070
173
1070
0
1070
5
1000
_AH13
1002
}
  0
DIMENSION
  8
1
  6
CONTINUOUS
 62
4
  1
14.5
  2
*D3505
  3
DSTYLE1
 10
1.0653024E+002
 20
2.6467995E+002
 11
9.9330237E+001
 21
2.6768095E+002
 70
128
 13
9.2130237E+001
 23
2.3786223E+002
 14
1.0653024E+002
 24
2.3774797E+002
 40
3.0
 50
0.0
1001
ACAD
1000
DSTYLE
1002
{
1070
173
1070
0
1070
5
1000
_AH13
1002
}
  0
DIMENSION
  8
1
  6
CONTINUOUS
 62
4
  1
14.5
  2
*D3507
  3
DSTYLE1
 10
1.2093024E+002
 20
2.6467995E+002
 11
1.1373024E+002
 21
2.6768095E+002
 70
128
 13
1.0653024E+002
 23
2.3774797E+002
 14
1.2093024E+002
 24
2.374052E+002
 40
3.0
 50
0.0
1001
ACAD
1000
DSTYLE
1002
{
1070
173
1070
0
1070
5
1000
_AH13
1002
}
  0
LINE
  8
1
  6
CENTERLINE
 62
1
 10
2.1584132E+002
 20
2.0657596E+002
 11
2.3307969E+002
 21
2.0657596E+002
  0
DIMENSION
  8
1
  6
CONTINUOUS
 62
4
  2
*D3511
  3
DSTYLE1
 10
2.1001291E+002
 20
2.0657596E+002
 11
2.0701191E+002
 21
2.0407596E+002
 70
128
 13
2.2062569E+002
 23
2.0157596E+002
 14
2.1584132E+002
 24
2.0657596E+002
 40
3.0
 50
9.0E+001
1001
ACAD
1000
DSTYLE
1002
{
1070
173
1070
0
1070
5
1000
_AH13
1002
}
  0
DIMENSION
  8
1
  6
CONTINUOUS
 62
4
  2
*D3514
  3
DSTYLE1
 10
1.4803159E+002
 20
1.9157596E+002
 11
1.4503059E+002
 21
1.9657596E+002
 70
128
 13
1.382302E+002
 23
2.0157596E+002
 14
1.295352E+002
 24
1.9157596E+002
 40
3.0
 50
9.0E+001
1001
ACAD
1000
DSTYLE
1002
{
1070
173
1070
0
1070
5
1000
_AH13
1002
}
  0
LINE
  8
1
  6
CENTERLINE
 62
1
 10
1.252302E+002
 20
2.0157596E+002
 11
1.252302E+002
 21
1.882737E+002
  0
DIMENSION
  8
1
  6
CONTINUOUS
 62
4
  2
*D3524
  3
DSTYLE1
 10
1.252302E+002
 20
2.5116161E+002
 11
1.317302E+002
 21
2.5416261E+002
 70
128
 13
1.382302E+002
 23
2.0157596E+002
 14
1.252302E+002
 24
2.0157596E+002
 40
3.0
 50
0.0
1001
ACAD
1000
DSTYLE
1002
{
1070
173
1070
0
1070
5
1000
_AH13
1002
}
  0
DIMENSION
  8
1
  6
CONTINUOUS
 62
4
  2
*D4150
  3
DSTYLE1
 10
2.2562569E+002
 20
2.2961357E+002
 11
2.2312569E+002
 21
2.3261457E+002
 70
128
 13
2.2062569E+002
 23
2.1107596E+002
 14
2.2562569E+002
 24
2.1107596E+002
 40
3.0
 50
0.0
1001
ACAD
1000
DSTYLE
1002
{
1070
173
1070
0
1070
5
1000
_AH13
1002
}
  0
ENDSEC
  0
EOF
