  0
SECTION
  2
HEADER
  9
$ACADVER
  1
AC1009
999
I-DEAS Drafting Master Series 7m3 Not Encoded
  9
$EXTMIN
 10
0.0
 20
0.0
  9
$EXTMAX
 10
4.2E+002
 20
2.97E+002
  9
$TEXTSIZE
 40
1.25E-001
  9
$LTSCALE
 40
1.0
  9
$CLAYER
  8
1
  9
$CECOLOR
 62
2
  9
$DIMASZ
 40
1.25E-001
  9
$DIMEXO
 40
6.25E-002
  9
$DIMDLI
 40
2.5E-001
  9
$DIMEXE
 40
1.25E-001
  9
$DIMTP
 40
5.0E-003
  9
$DIMTM
 40
-5.0E-003
  9
$DIMTXT
 40
3.0
  9
$DIMLIM
 70
0
  9
$DIMTIH
 70
1
  9
$DIMTOH
 70
1
  9
$DIMSE1
 70
0
  9
$DIMSE2
 70
0
  9
$DIMTAD
 70
0
  9
$DIMASO
 70
1
  9
$DIMALT
 70
0
  9
$DIMALTD
 70
0
  9
$DIMTOFL
 70
1
  9
$DIMTIX
 70
0
  9
$DIMSAH
 70
0
  9
$DIMTFAC
 40
1.0
  9
$DIMGAP
 40
6.25E-002
  9
$LUNITS
 70
2
  9
$LUPREC
 70
3
  9
$FILLETRAD
 40
1.0E+001
  9
$AUNITS
 70
0
  9
$AUPREC
 70
1
  9
$CHAMFERA
 40
6.0
  9
$CHAMFERB
 40
6.0
  9
$ANGBASE
 50
0.0
  9
$ANGDIR
 70
0
  9
$PDMODE
 70
2
  9
$PDSIZE
 40
-1.0E-002
  9
$SPLINETYPE
 70
6
  0
ENDSEC
  0
SECTION
  2
TABLES
  0
TABLE
  2
LTYPE
 70
13
  0
LTYPE
  2
HIDDENNEW00
  3
_ 
 70
64
 72
65
 73
2
 40
4.5
 49
3.0
 49
-1.5
  0
LTYPE
  2
HIDDENNEW01
  3
_ 
 70
64
 72
65
 73
2
 40
4.5
 49
3.0
 49
-1.5
  0
LTYPE
  2
HIDDEN
  3
_ 
 70
64
 72
65
 73
2
 40
4.5
 49
3.0
 49
-1.5
  0
LTYPE
  2
CENTERLINE
  3
_ 
 70
64
 72
65
 73
4
 40
3.0E+001
 49
2.4E+001
 49
-1.5
 49
3.0
 49
-1.5
  0
LTYPE
  2
PHANTOM
  3
_ 
 70
64
 72
65
 73
6
 40
2.95E+001
 49
1.9E+001
 49
-1.5
 49
3.0
 49
-1.5
 49
3.0
 49
-1.5
  0
LTYPE
  2
SHORT_DASH
  3
_ 
 70
64
 72
65
 73
2
 40
3.0
 49
1.5
 49
-1.5
  0
LTYPE
  2
LONG_DASH
  3
_ 
 70
64
 72
65
 73
2
 40
9.0
 49
4.5
 49
-4.5
  0
LTYPE
  2
DASHED
  3
_ 
 70
64
 72
65
 73
2
 40
1.0
 49
7.5E-001
 49
-2.5E-001
  0
LTYPE
  2
CENTER
  3
_ 
 70
64
 72
65
 73
4
 40
2.625
 49
1.875
 49
-2.5E-001
 49
2.5E-001
 49
-2.5E-001
  0
LTYPE
  2
DOT
  3
_ 
 70
64
 72
65
 73
2
 40
2.5375E-001
 49
3.75E-003
 49
-2.5E-001
  0
LTYPE
  2
DASHDOT
  3
_ 
 70
64
 72
65
 73
4
 40
1.26
 49
7.5E-001
 49
-2.5E-001
 49
1.0E-002
 49
-2.5E-001
  0
LTYPE
  2
BORDER
  3
_ 
 70
64
 72
65
 73
6
 40
2.0175
 49
7.5E-001
 49
-2.5E-001
 49
5.0E-001
 49
-2.5E-001
 49
1.75E-002
 49
-2.5E-001
  0
LTYPE
  2
DIVIDE
  3
_ 
 70
64
 72
65
 73
6
 40
1.525
 49
7.5E-001
 49
-2.5E-001
 49
1.25E-002
 49
-2.5E-001
 49
1.25E-002
 49
-2.5E-001
  0
ENDTAB
  0
TABLE
  2
LAYER
 70
258
  0
LAYER
  2
1
 70
0
 62
7
  6
CONTINUOUS
  0
LAYER
  2
2
 70
0
 62
7
  6
CONTINUOUS
  0
LAYER
  2
3
 70
0
 62
7
  6
CONTINUOUS
  0
LAYER
  2
Drafting_Hidden_Entities
 70
1
 62
7
  6
CONTINUOUS
  0
ENDTAB
  0
TABLE
  2
STYLE
 70
1
  0
STYLE
  2
STANDARD
 70
64
 40
0.0
 41
1.0
 50
0.0
 71
0
 42
1.0
  3
monotxt.shx
  4

  0
ENDTAB
  0
TABLE
  2
VIEW
 70
0
  0
ENDTAB
  0
TABLE
  2
DIMSTYLE
 70
1
  0
DIMSTYLE
  2
DSTYLE1
 70
0
  3

  4

  5

  6

  7

 40
1.0
 41
3.0
 42
0.0
 43
3.8E-001
 44
3.0
 45
1.0E-001
 46
0.0
 47
1.0
 48
1.0
 71
0
 72
0
 73
0
 74
0
 75
0
 76
0
 77
1
 78
3
140
3.0
141
9.0E-002
142
0.0
143
3.9370079E-002
144
1.0
145
0.0
146
1.0
147
1.5
170
0
171
2
172
0
173
0
174
0
175
0
176
0
177
0
178
0
  0
ENDTAB
  0
ENDSEC
  0
SECTION
  2
BLOCKS
  0
BLOCK
  2
*TX37
  3
*TX
 10
0.0
 20
0.0
 70
65
  0
TEXT
  8
3
  6
CONTINUOUS
 62
1
 10
0.0
 20
0.0
 40
2.0
  1
1SCC301062F0002
  0
TEXT
  8
3
  6
CONTINUOUS
 62
1
 10
0.0
 20
-3.0
 40
2.0
  1
22488619
  0
ENDBLK
  0
BLOCK
  2
*D610
  3
*D
 10
0.0
 20
0.0
 70
65
  0
LINE
  8
1
  6
CONTINUOUS
 62
1
 10
3.00733E+002
 20
2.03664E+002
 11
3.22321E+002
 21
2.03664E+002
  0
LINE
  8
1
  6
CONTINUOUS
 62
1
 10
2.17233E+002
 20
2.78164E+002
 11
3.22321E+002
 21
2.78164E+002
  0
LINE
  8
1
  6
CONTINUOUS
 62
1
 10
3.19321E+002
 20
2.03664E+002
 11
3.19821E+002
 21
2.06664E+002
  0
LINE
  8
1
  6
CONTINUOUS
 62
1
 10
3.19321E+002
 20
2.03664E+002
 11
3.18821E+002
 21
2.06664E+002
  0
LINE
  8
1
  6
CONTINUOUS
 62
1
 10
3.19821E+002
 20
2.06664E+002
 11
3.18821E+002
 21
2.06664E+002
  0
LINE
  8
1
  6
CONTINUOUS
 62
1
 10
3.19321E+002
 20
2.78164E+002
 11
3.19821E+002
 21
2.75164E+002
  0
LINE
  8
1
  6
CONTINUOUS
 62
1
 10
3.19321E+002
 20
2.78164E+002
 11
3.18821E+002
 21
2.75164E+002
  0
LINE
  8
1
  6
CONTINUOUS
 62
1
 10
3.19821E+002
 20
2.75164E+002
 11
3.18821E+002
 21
2.75164E+002
  0
LINE
  8
1
  6
CONTINUOUS
 62
1
 10
3.19321E+002
 20
2.03664E+002
 11
3.19321E+002
 21
2.40914E+002
  0
LINE
  8
1
  6
CONTINUOUS
 62
1
 10
3.19321E+002
 20
2.78164E+002
 11
3.19321E+002
 21
2.40914E+002
  0
TEXT
  8
1
  6
CONTINUOUS
 62
1
 10
3.1782E+002
 20
2.34914E+002
 40
3.0
  1
74,5
 50
9.0E+001
  0
ENDBLK
  0
ENDSEC
  0
SECTION
  2
ENTITIES
  0
LINE
  8
1
  6
CONTINUOUS
 62
40
 10
1.87233E+002
 20
5.8463E+001
 11
1.87233E+002
 21
1.26463E+002
  0
LINE
  8
1
  6
CONTINUOUS
 62
40
 10
1.33233E+002
 20
1.68463E+002
 11
2.86233E+002
 21
1.68463E+002
  0
LINE
  8
1
  6
CONTINUOUS
 62
40
 10
1.33233E+002
 20
5.8463E+001
 11
2.86233E+002
 21
5.8463E+001
  0
LINE
  8
1
  6
CONTINUOUS
 62
40
 10
1.33233E+002
 20
5.8463E+001
 11
1.33233E+002
 21
1.68463E+002
  0
LINE
  8
1
  6
CONTINUOUS
 62
40
 10
2.59233E+002
 20
5.8463E+001
 11
2.59233E+002
 21
1.26463E+002
  0
LINE
  8
1
  6
CONTINUOUS
 62
40
 10
2.86233E+002
 20
5.8463E+001
 11
2.86233E+002
 21
1.68463E+002
  0
LINE
  8
1
  6
CONTINUOUS
 62
40
 10
1.33233E+002
 20
1.35963E+002
 11
2.86233E+002
 21
1.35963E+002
  0
LINE
  8
1
  6
CONTINUOUS
 62
40
 10
1.33233E+002
 20
9.0963E+001
 11
2.86233E+002
 21
9.0963E+001
  0
LINE
  8
1
  6
CONTINUOUS
 62
40
 10
1.62233E+002
 20
4.9963E+001
 11
1.62233E+002
 21
5.8463E+001
  0
LINE
  8
1
  6
CONTINUOUS
 62
40
 10
1.85233E+002
 20
4.9963E+001
 11
1.85233E+002
 21
5.8463E+001
  0
LINE
  8
1
  6
CONTINUOUS
 62
40
 10
2.34233E+002
 20
4.9963E+001
 11
2.34233E+002
 21
5.8463E+001
  0
LINE
  8
1
  6
CONTINUOUS
 62
40
 10
2.57233E+002
 20
4.9963E+001
 11
2.57233E+002
 21
5.8463E+001
  0
LINE
  8
1
  6
CONTINUOUS
 62
40
 10
2.61233E+002
 20
4.9963E+001
 11
2.61233E+002
 21
5.8463E+001
  0
LINE
  8
1
  6
CONTINUOUS
 62
40
 10
2.84233E+002
 20
4.9963E+001
 11
2.84233E+002
 21
5.8463E+001
  0
LINE
  8
1
  6
CONTINUOUS
 62
40
 10
1.64233E+002
 20
4.9963E+001
 11
1.64233E+002
 21
5.8463E+001
  0
LINE
  8
1
  6
CONTINUOUS
 62
40
 10
1.83233E+002
 20
4.9963E+001
 11
1.83233E+002
 21
5.8463E+001
  0
LINE
  8
1
  6
CONTINUOUS
 62
40
 10
2.36233E+002
 20
4.9963E+001
 11
2.36233E+002
 21
5.8463E+001
  0
LINE
  8
1
  6
CONTINUOUS
 62
40
 10
2.55233E+002
 20
4.9963E+001
 11
2.55233E+002
 21
5.8463E+001
  0
LINE
  8
1
  6
CONTINUOUS
 62
40
 10
2.63233E+002
 20
4.9963E+001
 11
2.63233E+002
 21
5.8463E+001
  0
LINE
  8
1
  6
CONTINUOUS
 62
40
 10
2.82233E+002
 20
4.9963E+001
 11
2.82233E+002
 21
5.8463E+001
  0
LINE
  8
1
  6
CONTINUOUS
 62
40
 10
1.62233E+002
 20
1.76963E+002
 11
1.64233E+002
 21
1.76963E+002
  0
LINE
  8
1
  6
CONTINUOUS
 62
40
 10
1.62233E+002
 20
4.9963E+001
 11
1.64233E+002
 21
4.9963E+001
  0
LINE
  8
1
  6
CONTINUOUS
 62
40
 10
1.62233E+002
 20
1.68463E+002
 11
1.62233E+002
 21
1.76963E+002
  0
LINE
  8
1
  6
CONTINUOUS
 62
40
 10
1.64233E+002
 20
1.68463E+002
 11
1.64233E+002
 21
1.76963E+002
  0
LINE
  8
1
  6
CONTINUOUS
 62
40
 10
1.83233E+002
 20
1.68463E+002
 11
1.83233E+002
 21
1.76963E+002
  0
LINE
  8
1
  6
CONTINUOUS
 62
40
 10
1.85233E+002
 20
1.68463E+002
 11
1.85233E+002
 21
1.76963E+002
  0
LINE
  8
1
  6
CONTINUOUS
 62
40
 10
2.34233E+002
 20
1.68463E+002
 11
2.34233E+002
 21
1.76963E+002
  0
LINE
  8
1
  6
CONTINUOUS
 62
40
 10
2.36233E+002
 20
1.68463E+002
 11
2.36233E+002
 21
1.76963E+002
  0
LINE
  8
1
  6
CONTINUOUS
 62
40
 10
2.55233E+002
 20
1.68463E+002
 11
2.55233E+002
 21
1.76963E+002
  0
LINE
  8
1
  6
CONTINUOUS
 62
40
 10
2.57233E+002
 20
1.68463E+002
 11
2.57233E+002
 21
1.76963E+002
  0
LINE
  8
1
  6
CONTINUOUS
 62
40
 10
2.61233E+002
 20
1.68463E+002
 11
2.61233E+002
 21
1.76963E+002
  0
LINE
  8
1
  6
CONTINUOUS
 62
40
 10
2.63233E+002
 20
1.68463E+002
 11
2.63233E+002
 21
1.76963E+002
  0
LINE
  8
1
  6
CONTINUOUS
 62
40
 10
2.82233E+002
 20
1.68463E+002
 11
2.82233E+002
 21
1.76963E+002
  0
LINE
  8
1
  6
CONTINUOUS
 62
40
 10
2.84233E+002
 20
1.68463E+002
 11
2.84233E+002
 21
1.76963E+002
  0
LINE
  8
1
  6
CONTINUOUS
 62
40
 10
1.83233E+002
 20
1.76963E+002
 11
1.85233E+002
 21
1.76963E+002
  0
LINE
  8
1
  6
CONTINUOUS
 62
40
 10
2.34233E+002
 20
1.76963E+002
 11
2.36233E+002
 21
1.76963E+002
  0
LINE
  8
1
  6
CONTINUOUS
 62
40
 10
2.55233E+002
 20
1.76963E+002
 11
2.57233E+002
 21
1.76963E+002
  0
LINE
  8
1
  6
CONTINUOUS
 62
40
 10
2.61233E+002
 20
1.76963E+002
 11
2.63233E+002
 21
1.76963E+002
  0
LINE
  8
1
  6
CONTINUOUS
 62
40
 10
2.82233E+002
 20
1.76963E+002
 11
2.84233E+002
 21
1.76963E+002
  0
LINE
  8
1
  6
CONTINUOUS
 62
40
 10
1.83233E+002
 20
4.9963E+001
 11
1.85233E+002
 21
4.9963E+001
  0
LINE
  8
1
  6
CONTINUOUS
 62
40
 10
2.34233E+002
 20
4.9963E+001
 11
2.36233E+002
 21
4.9963E+001
  0
LINE
  8
1
  6
CONTINUOUS
 62
40
 10
2.55233E+002
 20
4.9963E+001
 11
2.57233E+002
 21
4.9963E+001
  0
LINE
  8
1
  6
CONTINUOUS
 62
40
 10
2.61233E+002
 20
4.9963E+001
 11
2.63233E+002
 21
4.9963E+001
  0
LINE
  8
1
  6
CONTINUOUS
 62
40
 10
2.82233E+002
 20
4.9963E+001
 11
2.84233E+002
 21
4.9963E+001
  0
LINE
  8
1
  6
CONTINUOUS
 62
40
 10
2.02733E+002
 20
5.0663E+001
 11
2.02733E+002
 21
5.8463E+001
  0
LINE
  8
1
  6
CONTINUOUS
 62
40
 10
2.16733E+002
 20
5.0663E+001
 11
2.16733E+002
 21
5.8463E+001
  0
LINE
  8
1
  6
CONTINUOUS
 62
40
 10
2.05733E+002
 20
5.2963E+001
 11
2.05733E+002
 21
5.4963E+001
  0
LINE
  8
1
  6
CONTINUOUS
 62
40
 10
2.13733E+002
 20
5.2963E+001
 11
2.13733E+002
 21
5.4963E+001
  0
LINE
  8
1
  6
CONTINUOUS
 62
40
 10
2.05733E+002
 20
1.79263E+002
 11
2.13733E+002
 21
1.79263E+002
  0
LINE
  8
1
  6
CONTINUOUS
 62
40
 10
2.05733E+002
 20
4.7663E+001
 11
2.13733E+002
 21
4.7663E+001
  0
LINE
  8
1
  6
CONTINUOUS
 62
40
 10
2.05733E+002
 20
1.71963E+002
 11
2.05733E+002
 21
1.73963E+002
  0
LINE
  8
1
  6
CONTINUOUS
 62
40
 10
2.13733E+002
 20
1.71963E+002
 11
2.13733E+002
 21
1.73963E+002
  0
LINE
  8
1
  6
CONTINUOUS
 62
40
 10
2.16733E+002
 20
1.68463E+002
 11
2.16733E+002
 21
1.76263E+002
  0
LINE
  8
1
  6
CONTINUOUS
 62
40
 10
2.02733E+002
 20
1.68463E+002
 11
2.02733E+002
 21
1.76263E+002
  0
ARC
  8
1
  6
CONTINUOUS
 62
40
 10
2.05733E+002
 20
5.0663E+001
 40
3.0
 50
1.8E+002
 51
2.7E+002
  0
ARC
  8
1
  6
CONTINUOUS
 62
40
 10
2.13733E+002
 20
5.0663E+001
 40
3.0
 50
2.7E+002
 51
3.6E+002
  0
ARC
  8
1
  6
CONTINUOUS
 62
40
 10
2.05733E+002
 20
1.76263E+002
 40
3.0
 50
9.0E+001
 51
1.8E+002
  0
ARC
  8
1
  6
CONTINUOUS
 62
40
 10
2.13733E+002
 20
1.76263E+002
 40
3.0
 50
0.0
 51
9.0E+001
  0
LINE
  8
1
  6
CONTINUOUS
 62
40
 10
2.07733E+002
 20
1.16463E+002
 11
2.11733E+002
 21
1.16463E+002
  0
LINE
  8
1
  6
CONTINUOUS
 62
40
 10
2.07733E+002
 20
1.10463E+002
 11
2.11733E+002
 21
1.10463E+002
  0
LINE
  8
1
  6
CONTINUOUS
 62
40
 10
2.06733E+002
 20
1.11463E+002
 11
2.06733E+002
 21
1.15463E+002
  0
LINE
  8
1
  6
CONTINUOUS
 62
40
 10
2.12733E+002
 20
1.11463E+002
 11
2.12733E+002
 21
1.15463E+002
  0
ARC
  8
1
  6
CONTINUOUS
 62
40
 10
2.11733E+002
 20
1.15463E+002
 40
1.0
 50
0.0
 51
9.0E+001
  0
ARC
  8
1
  6
CONTINUOUS
 62
40
 10
2.11733E+002
 20
1.11463E+002
 40
1.0
 50
2.7E+002
 51
3.6E+002
  0
ARC
  8
1
  6
CONTINUOUS
 62
40
 10
2.07733E+002
 20
1.11463E+002
 40
1.0
 50
1.8E+002
 51
2.7E+002
  0
ARC
  8
1
  6
CONTINUOUS
 62
40
 10
2.07733E+002
 20
1.15463E+002
 40
1.0
 50
9.0E+001
 51
1.8E+002
  0
LINE
  8
1
  6
CONTINUOUS
 62
40
 10
1.67733E+002
 20
1.22963E+002
 11
1.79733E+002
 21
1.22963E+002
  0
LINE
  8
1
  6
CONTINUOUS
 62
40
 10
1.67733E+002
 20
9.4963E+001
 11
1.79733E+002
 21
9.4963E+001
  0
LINE
  8
1
  6
CONTINUOUS
 62
40
 10
1.67733E+002
 20
9.4963E+001
 11
1.67733E+002
 21
1.22963E+002
  0
LINE
  8
1
  6
CONTINUOUS
 62
40
 10
1.79733E+002
 20
9.4963E+001
 11
1.79733E+002
 21
1.22963E+002
  0
LINE
  8
1
  6
CONTINUOUS
 62
40
 10
2.51733E+002
 20
9.4963E+001
 11
2.51733E+002
 21
1.22963E+002
  0
LINE
  8
1
  6
CONTINUOUS
 62
40
 10
2.66733E+002
 20
9.4963E+001
 11
2.66733E+002
 21
1.22963E+002
  0
LINE
  8
1
  6
CONTINUOUS
 62
40
 10
2.78733E+002
 20
9.4963E+001
 11
2.78733E+002
 21
1.22963E+002
  0
LINE
  8
1
  6
CONTINUOUS
 62
40
 10
2.39733E+002
 20
1.22963E+002
 11
2.51733E+002
 21
1.22963E+002
  0
LINE
  8
1
  6
CONTINUOUS
 62
40
 10
2.39733E+002
 20
9.4963E+001
 11
2.51733E+002
 21
9.4963E+001
  0
LINE
  8
1
  6
CONTINUOUS
 62
40
 10
2.66733E+002
 20
9.4963E+001
 11
2.78733E+002
 21
9.4963E+001
  0
LINE
  8
1
  6
CONTINUOUS
 62
40
 10
2.66733E+002
 20
1.22963E+002
 11
2.78733E+002
 21
1.22963E+002
  0
LINE
  8
1
  6
CONTINUOUS
 62
40
 10
1.33233E+002
 20
1.32463E+002
 11
2.86233E+002
 21
1.32463E+002
  0
LINE
  8
1
  6
CONTINUOUS
 62
40
 10
1.33233E+002
 20
1.26463E+002
 11
2.86233E+002
 21
1.26463E+002
  0
LINE
  8
1
  6
CONTINUOUS
 62
40
 10
1.87233E+002
 20
1.32463E+002
 11
1.87233E+002
 21
1.68463E+002
  0
LINE
  8
1
  6
CONTINUOUS
 62
40
 10
2.32233E+002
 20
1.32463E+002
 11
2.32233E+002
 21
1.68463E+002
  0
LINE
  8
1
  6
CONTINUOUS
 62
40
 10
2.59233E+002
 20
1.32463E+002
 11
2.59233E+002
 21
1.68463E+002
  0
LINE
  8
1
  6
CONTINUOUS
 62
40
 10
2.09433E+002
 20
1.26963E+002
 11
2.09433E+002
 21
1.31963E+002
  0
LINE
  8
1
  6
CONTINUOUS
 62
40
 10
2.10033E+002
 20
1.26963E+002
 11
2.10033E+002
 21
1.31963E+002
  0
LINE
  8
1
  6
CONTINUOUS
 62
40
 10
2.09433E+002
 20
1.31963E+002
 11
2.10033E+002
 21
1.31963E+002
  0
LINE
  8
1
  6
CONTINUOUS
 62
40
 10
2.09433E+002
 20
1.26963E+002
 11
2.10033E+002
 21
1.26963E+002
  0
CIRCLE
  8
1
  6
CONTINUOUS
 62
40
 10
1.91713E+002
 20
1.13543E+002
 40
2.5
  0
CIRCLE
  8
1
  6
CONTINUOUS
 62
40
 10
1.91713E+002
 20
1.13543E+002
 40
2.0
  0
LINE
  8
1
  6
CONTINUOUS
 62
40
 10
7.9733E+001
 20
9.5763E+001
 11
8.6233E+001
 21
9.5763E+001
  0
LINE
  8
1
  6
CONTINUOUS
 62
40
 10
7.9733E+001
 20
1.31163E+002
 11
8.6233E+001
 21
1.31163E+002
  0
LINE
  8
1
  6
CONTINUOUS
 62
40
 10
7.9733E+001
 20
7.5663E+001
 11
8.2933E+001
 21
7.5663E+001
  0
LINE
  8
1
  6
CONTINUOUS
 62
40
 10
7.9733E+001
 20
1.51263E+002
 11
8.7233E+001
 21
1.51263E+002
  0
LINE
  8
1
  6
CONTINUOUS
 62
40
 10
3.8233E+001
 20
5.8463E+001
 11
8.6233E+001
 21
5.8463E+001
  0
LINE
  8
1
  6
CONTINUOUS
 62
40
 10
3.8233E+001
 20
1.68463E+002
 11
8.6233E+001
 21
1.68463E+002
  0
LINE
  8
1
  6
CONTINUOUS
 62
40
 10
5.2683E+001
 20
4.9963E+001
 11
6.9903E+001
 21
4.9963E+001
  0
LINE
  8
1
  6
CONTINUOUS
 62
40
 10
5.2683E+001
 20
1.76963E+002
 11
6.9903E+001
 21
1.76963E+002
  0
LINE
  8
1
  6
CONTINUOUS
 62
40
 10
7.9733E+001
 20
7.5663E+001
 11
7.9733E+001
 21
9.1783E+001
  0
LINE
  8
1
  6
CONTINUOUS
 62
40
 10
3.5233E+001
 20
6.1463E+001
 11
3.5233E+001
 21
9.0963E+001
  0
LINE
  8
1
  6
CONTINUOUS
 62
40
 10
2.7233E+001
 20
9.2963E+001
 11
2.7233E+001
 21
1.33963E+002
  0
LINE
  8
1
  6
CONTINUOUS
 62
40
 10
8.7233E+001
 20
1.51263E+002
 11
8.7233E+001
 21
1.79263E+002
  0
LINE
  8
1
  6
CONTINUOUS
 62
40
 10
2.9233E+001
 20
9.0963E+001
 11
3.5233E+001
 21
9.0963E+001
  0
LINE
  8
1
  6
CONTINUOUS
 62
40
 10
2.9233E+001
 20
1.35963E+002
 11
3.5233E+001
 21
1.35963E+002
  0
LINE
  8
1
  6
CONTINUOUS
 62
40
 10
3.5233E+001
 20
1.35963E+002
 11
3.5233E+001
 21
1.65463E+002
  0
LINE
  8
1
  6
CONTINUOUS
 62
40
 10
7.1313E+001
 20
1.76383E+002
 11
7.9233E+001
 21
1.68463E+002
  0
LINE
  8
1
  6
CONTINUOUS
 62
40
 10
7.1313E+001
 20
5.0553E+001
 11
7.9233E+001
 21
5.8463E+001
  0
ARC
  8
1
  6
CONTINUOUS
 62
40
 10
2.9233E+001
 20
1.33963E+002
 40
2.0
 50
9.0E+001
 51
1.8E+002
  0
ARC
  8
1
  6
CONTINUOUS
 62
40
 10
2.9233E+001
 20
9.2963E+001
 40
2.0
 50
1.8E+002
 51
2.7E+002
  0
ARC
  8
1
  6
CONTINUOUS
 62
40
 10
3.8233E+001
 20
1.65463E+002
 40
3.0
 50
9.0E+001
 51
1.8E+002
  0
ARC
  8
1
  6
CONTINUOUS
 62
40
 10
3.8233E+001
 20
6.1463E+001
 40
3.0
 50
1.8E+002
 51
2.7E+002
  0
LINE
  8
1
  6
CONTINUOUS
 62
40
 10
3.6733E+001
 20
5.8863E+001
 11
5.1683E+001
 21
5.0233E+001
  0
LINE
  8
1
  6
CONTINUOUS
 62
40
 10
3.6733E+001
 20
1.68063E+002
 11
5.1683E+001
 21
1.76693E+002
  0
ARC
  8
1
  6
CONTINUOUS
 62
40
 10
5.2683E+001
 20
1.74963E+002
 40
2.0
 50
9.0E+001
 51
1.2E+002
  0
ARC
  8
1
  6
CONTINUOUS
 62
40
 10
6.9903E+001
 20
1.74963E+002
 40
2.0
 50
4.5E+001
 51
9.0E+001
  0
ARC
  8
1
  6
CONTINUOUS
 62
40
 10
5.2683E+001
 20
5.1963E+001
 40
2.0
 50
2.4E+002
 51
2.7E+002
  0
ARC
  8
1
  6
CONTINUOUS
 62
40
 10
6.9903E+001
 20
5.1963E+001
 40
2.0
 50
2.7E+002
 51
3.15E+002
  0
LINE
  8
1
  6
CONTINUOUS
 62
40
 10
8.6233E+001
 20
9.3763E+001
 11
8.6233E+001
 21
9.5763E+001
  0
LINE
  8
1
  6
CONTINUOUS
 62
40
 10
8.0563E+001
 20
1.34163E+002
 11
8.6233E+001
 21
1.33163E+002
  0
LINE
  8
1
  6
CONTINUOUS
 62
40
 10
8.0563E+001
 20
9.2763E+001
 11
8.6233E+001
 21
9.3763E+001
  0
LINE
  8
1
  6
CONTINUOUS
 62
40
 10
8.6233E+001
 20
1.31163E+002
 11
8.6233E+001
 21
1.33163E+002
  0
ARC
  8
1
  6
CONTINUOUS
 62
40
 10
8.0733E+001
 20
9.1783E+001
 40
1.0
 50
1.0E+002
 51
1.8E+002
  0
ARC
  8
1
  6
CONTINUOUS
 62
40
 10
8.0733E+001
 20
1.35153E+002
 40
1.0
 50
1.8E+002
 51
2.6E+002
  0
LINE
  8
1
  6
CONTINUOUS
 62
40
 10
7.9733E+001
 20
1.35153E+002
 11
7.9733E+001
 21
1.51263E+002
  0
LINE
  8
1
  6
CONTINUOUS
 62
40
 10
7.9733E+001
 20
9.5763E+001
 11
7.9733E+001
 21
1.31163E+002
  0
LINE
  8
1
  6
CONTINUOUS
 62
40
 10
2.32233E+002
 20
2.03664E+002
 11
2.59233E+002
 21
2.03664E+002
  0
LINE
  8
1
  6
CONTINUOUS
 62
40
 10
2.32233E+002
 20
2.03664E+002
 11
2.32233E+002
 21
2.63664E+002
  0
LINE
  8
1
  6
CONTINUOUS
 62
40
 10
1.87233E+002
 20
2.03664E+002
 11
1.87233E+002
 21
2.63664E+002
  0
LINE
  8
1
  6
CONTINUOUS
 62
40
 10
2.59233E+002
 20
2.03664E+002
 11
2.59233E+002
 21
2.63664E+002
  0
LINE
  8
1
  6
CONTINUOUS
 62
40
 10
1.33233E+002
 20
2.03664E+002
 11
1.33233E+002
 21
2.63664E+002
  0
LINE
  8
1
  6
CONTINUOUS
 62
40
 10
2.86233E+002
 20
2.03664E+002
 11
2.86233E+002
 21
2.63664E+002
  0
LINE
  8
1
  6
CONTINUOUS
 62
40
 10
2.32233E+002
 20
2.63664E+002
 11
2.59233E+002
 21
2.63664E+002
  0
LINE
  8
1
  6
CONTINUOUS
 62
40
 10
2.32233E+002
 20
2.55664E+002
 11
2.59233E+002
 21
2.55664E+002
  0
LINE
  8
1
  6
CONTINUOUS
 62
40
 10
2.55233E+002
 20
2.11664E+002
 11
2.57233E+002
 21
2.11664E+002
  0
LINE
  8
1
  6
CONTINUOUS
 62
40
 10
2.57233E+002
 20
2.11664E+002
 11
2.57233E+002
 21
2.55664E+002
  0
LINE
  8
1
  6
CONTINUOUS
 62
40
 10
2.55233E+002
 20
2.11664E+002
 11
2.55233E+002
 21
2.55664E+002
  0
LINE
  8
1
  6
CONTINUOUS
 62
40
 10
2.34233E+002
 20
2.11664E+002
 11
2.34233E+002
 21
2.55664E+002
  0
LINE
  8
1
  6
CONTINUOUS
 62
40
 10
2.36233E+002
 20
2.11664E+002
 11
2.36233E+002
 21
2.55664E+002
  0
LINE
  8
1
  6
CONTINUOUS
 62
40
 10
1.85233E+002
 20
2.11664E+002
 11
1.85233E+002
 21
2.55664E+002
  0
LINE
  8
1
  6
CONTINUOUS
 62
40
 10
1.83233E+002
 20
2.11664E+002
 11
1.83233E+002
 21
2.55664E+002
  0
LINE
  8
1
  6
CONTINUOUS
 62
40
 10
1.62233E+002
 20
2.11664E+002
 11
1.62233E+002
 21
2.55664E+002
  0
LINE
  8
1
  6
CONTINUOUS
 62
40
 10
1.64233E+002
 20
2.11664E+002
 11
1.64233E+002
 21
2.55664E+002
  0
LINE
  8
1
  6
CONTINUOUS
 62
40
 10
2.61233E+002
 20
2.11664E+002
 11
2.61233E+002
 21
2.55664E+002
  0
LINE
  8
1
  6
CONTINUOUS
 62
40
 10
2.63233E+002
 20
2.11664E+002
 11
2.63233E+002
 21
2.55664E+002
  0
LINE
  8
1
  6
CONTINUOUS
 62
40
 10
2.84233E+002
 20
2.11664E+002
 11
2.84233E+002
 21
2.55664E+002
  0
LINE
  8
1
  6
CONTINUOUS
 62
40
 10
2.82233E+002
 20
2.11664E+002
 11
2.82233E+002
 21
2.55664E+002
  0
LINE
  8
1
  6
CONTINUOUS
 62
40
 10
2.34233E+002
 20
2.11664E+002
 11
2.36233E+002
 21
2.11664E+002
  0
LINE
  8
1
  6
CONTINUOUS
 62
40
 10
1.83233E+002
 20
2.11664E+002
 11
1.85233E+002
 21
2.11664E+002
  0
LINE
  8
1
  6
CONTINUOUS
 62
40
 10
1.62233E+002
 20
2.11664E+002
 11
1.64233E+002
 21
2.11664E+002
  0
LINE
  8
1
  6
CONTINUOUS
 62
40
 10
2.82233E+002
 20
2.11664E+002
 11
2.84233E+002
 21
2.11664E+002
  0
LINE
  8
1
  6
CONTINUOUS
 62
40
 10
2.61233E+002
 20
2.11664E+002
 11
2.63233E+002
 21
2.11664E+002
  0
LINE
  8
1
  6
CONTINUOUS
 62
40
 10
2.16733E+002
 20
2.03664E+002
 11
2.16733E+002
 21
2.08664E+002
  0
LINE
  8
1
  6
CONTINUOUS
 62
40
 10
2.02733E+002
 20
2.03664E+002
 11
2.02733E+002
 21
2.08664E+002
  0
LINE
  8
1
  6
CONTINUOUS
 62
40
 10
2.02733E+002
 20
2.08664E+002
 11
2.16733E+002
 21
2.08664E+002
  0
LINE
  8
1
  6
CONTINUOUS
 62
40
 10
2.40233E+002
 20
2.33964E+002
 11
2.51233E+002
 21
2.33964E+002
  0
LINE
  8
1
  6
CONTINUOUS
 62
40
 10
2.53233E+002
 20
2.19664E+002
 11
2.53233E+002
 21
2.31964E+002
  0
LINE
  8
1
  6
CONTINUOUS
 62
40
 10
2.38233E+002
 20
2.19664E+002
 11
2.38233E+002
 21
2.31964E+002
  0
LINE
  8
1
  6
CONTINUOUS
 62
40
 10
1.81233E+002
 20
2.19664E+002
 11
1.81233E+002
 21
2.31964E+002
  0
LINE
  8
1
  6
CONTINUOUS
 62
40
 10
1.66233E+002
 20
2.19664E+002
 11
1.66233E+002
 21
2.31964E+002
  0
LINE
  8
1
  6
CONTINUOUS
 62
40
 10
2.65233E+002
 20
2.19664E+002
 11
2.65233E+002
 21
2.31964E+002
  0
LINE
  8
1
  6
CONTINUOUS
 62
40
 10
2.80233E+002
 20
2.19664E+002
 11
2.80233E+002
 21
2.31964E+002
  0
LINE
  8
1
  6
CONTINUOUS
 62
40
 10
1.68233E+002
 20
2.33964E+002
 11
1.79233E+002
 21
2.33964E+002
  0
LINE
  8
1
  6
CONTINUOUS
 62
40
 10
2.67233E+002
 20
2.33964E+002
 11
2.78233E+002
 21
2.33964E+002
  0
LINE
  8
1
  6
CONTINUOUS
 62
40
 10
2.40233E+002
 20
2.17664E+002
 11
2.51233E+002
 21
2.17664E+002
  0
LINE
  8
1
  6
CONTINUOUS
 62
40
 10
1.68233E+002
 20
2.17664E+002
 11
1.79233E+002
 21
2.17664E+002
  0
LINE
  8
1
  6
CONTINUOUS
 62
40
 10
2.67233E+002
 20
2.17664E+002
 11
2.78233E+002
 21
2.17664E+002
  0
ARC
  8
1
  6
CONTINUOUS
 62
40
 10
2.51233E+002
 20
2.19664E+002
 40
2.0
 50
2.7E+002
 51
3.6E+002
  0
ARC
  8
1
  6
CONTINUOUS
 62
40
 10
2.40233E+002
 20
2.19664E+002
 40
2.0
 50
1.8E+002
 51
2.7E+002
  0
ARC
  8
1
  6
CONTINUOUS
 62
40
 10
2.40233E+002
 20
2.31964E+002
 40
2.0
 50
9.0E+001
 51
1.8E+002
  0
ARC
  8
1
  6
CONTINUOUS
 62
40
 10
2.51233E+002
 20
2.31964E+002
 40
2.0
 50
0.0
 51
9.0E+001
  0
ARC
  8
1
  6
CONTINUOUS
 62
40
 10
1.79233E+002
 20
2.31964E+002
 40
2.0
 50
0.0
 51
9.0E+001
  0
ARC
  8
1
  6
CONTINUOUS
 62
40
 10
1.79233E+002
 20
2.19664E+002
 40
2.0
 50
2.7E+002
 51
3.6E+002
  0
ARC
  8
1
  6
CONTINUOUS
 62
40
 10
1.68233E+002
 20
2.19664E+002
 40
2.0
 50
1.8E+002
 51
2.7E+002
  0
ARC
  8
1
  6
CONTINUOUS
 62
40
 10
1.68233E+002
 20
2.31964E+002
 40
2.0
 50
9.0E+001
 51
1.8E+002
  0
ARC
  8
1
  6
CONTINUOUS
 62
40
 10
2.67233E+002
 20
2.31964E+002
 40
2.0
 50
9.0E+001
 51
1.8E+002
  0
ARC
  8
1
  6
CONTINUOUS
 62
40
 10
2.78233E+002
 20
2.31964E+002
 40
2.0
 50
0.0
 51
9.0E+001
  0
ARC
  8
1
  6
CONTINUOUS
 62
40
 10
2.78233E+002
 20
2.19664E+002
 40
2.0
 50
2.7E+002
 51
3.6E+002
  0
ARC
  8
1
  6
CONTINUOUS
 62
40
 10
2.67233E+002
 20
2.19664E+002
 40
2.0
 50
1.8E+002
 51
2.7E+002
  0
LINE
  8
1
  6
CONTINUOUS
 62
40
 10
2.39733E+002
 20
2.32664E+002
 11
2.51733E+002
 21
2.32664E+002
  0
LINE
  8
1
  6
CONTINUOUS
 62
40
 10
2.51733E+002
 20
2.32664E+002
 11
2.51733E+002
 21
2.33904E+002
  0
LINE
  8
1
  6
CONTINUOUS
 62
40
 10
2.39733E+002
 20
2.32664E+002
 11
2.39733E+002
 21
2.33904E+002
  0
LINE
  8
1
  6
CONTINUOUS
 62
40
 10
1.79733E+002
 20
2.32664E+002
 11
1.79733E+002
 21
2.33904E+002
  0
LINE
  8
1
  6
CONTINUOUS
 62
40
 10
1.67733E+002
 20
2.32664E+002
 11
1.67733E+002
 21
2.33904E+002
  0
LINE
  8
1
  6
CONTINUOUS
 62
40
 10
2.66733E+002
 20
2.32664E+002
 11
2.66733E+002
 21
2.33904E+002
  0
LINE
  8
1
  6
CONTINUOUS
 62
40
 10
2.78733E+002
 20
2.32664E+002
 11
2.78733E+002
 21
2.33904E+002
  0
LINE
  8
1
  6
CONTINUOUS
 62
40
 10
1.67733E+002
 20
2.32664E+002
 11
1.79733E+002
 21
2.32664E+002
  0
LINE
  8
1
  6
CONTINUOUS
 62
40
 10
2.66733E+002
 20
2.32664E+002
 11
2.78733E+002
 21
2.32664E+002
  0
CIRCLE
  8
1
  6
CONTINUOUS
 62
40
 10
5.6933E+001
 20
1.13463E+002
 40
1.37E+001
  0
LINE
  8
1
  6
CENTER
 62
40
 10
1.9733E+001
 20
1.05683E+002
 11
1.9733E+001
 21
1.21773E+002
  0
LINE
  8
1
  6
CONTINUOUS
 62
40
 10
8.4393E+001
 20
7.9663E+001
 11
8.7233E+001
 21
7.9663E+001
  0
LINE
  8
1
  6
CONTINUOUS
 62
40
 10
8.2933E+001
 20
7.5663E+001
 11
8.4393E+001
 21
7.9663E+001
  0
ARC
  8
1
  6
CENTER
 62
40
 10
5.6933E+001
 20
1.13463E+002
 40
8.0
 50
9.349E+001
 51
1.7321E+002
  0
ARC
  8
1
  6
CONTINUOUS
 62
40
 10
4.9463E+001
 20
1.16333E+002
 40
3.5
 50
1.59E+002
 51
3.39E+002
  0
ARC
  8
1
  6
CONTINUOUS
 62
40
 10
5.4063E+001
 20
1.20933E+002
 40
3.5
 50
2.91E+002
 51
4.71E+002
  0
ARC
  8
1
  6
CONTINUOUS
 62
40
 10
5.9803E+001
 20
1.05993E+002
 40
3.5
 50
1.11E+002
 51
2.91E+002
  0
ARC
  8
1
  6
CONTINUOUS
 62
40
 10
6.4403E+001
 20
1.10603E+002
 40
3.5
 50
3.39E+002
 51
5.19E+002
  0
ARC
  8
1
  6
CONTINUOUS
 62
40
 10
5.6933E+001
 20
1.13463E+002
 40
4.5
 50
1.11E+002
 51
1.59E+002
  0
ARC
  8
1
  6
CONTINUOUS
 62
40
 10
5.6933E+001
 20
1.13463E+002
 40
1.15E+001
 50
1.11E+002
 51
1.59E+002
  0
ARC
  8
1
  6
CONTINUOUS
 62
40
 10
5.6933E+001
 20
1.13463E+002
 40
1.15E+001
 50
2.91E+002
 51
3.39E+002
  0
ARC
  8
1
  6
CONTINUOUS
 62
40
 10
5.6933E+001
 20
1.13463E+002
 40
4.5
 50
2.91E+002
 51
3.39E+002
  0
ARC
  8
1
  6
CENTER
 62
40
 10
5.6933E+001
 20
1.13463E+002
 40
8.0
 50
2.7719E+002
 51
3.5402E+002
  0
LINE
  8
1
  6
CONTINUOUS
 62
40
 10
8.7233E+001
 20
4.7663E+001
 11
8.7233E+001
 21
7.9663E+001
  0
ARC
  8
1
  6
CONTINUOUS
 62
40
 10
8.6233E+001
 20
5.9463E+001
 40
1.0
 50
2.7E+002
 51
3.6E+002
  0
ARC
  8
1
  6
CONTINUOUS
 62
40
 10
8.6233E+001
 20
1.67463E+002
 40
1.0
 50
0.0
 51
9.0E+001
  0
LINE
  8
1
  6
HIDDEN
 62
40
 10
8.0263E+001
 20
7.0963E+001
 11
9.2373E+001
 21
7.0963E+001
  0
LINE
  8
1
  6
HIDDEN
 62
40
 10
8.0853E+001
 20
1.55963E+002
 11
9.1913E+001
 21
1.55963E+002
  0
LINE
  8
1
  6
HIDDEN
 62
40
 10
7.2233E+001
 20
6.4963E+001
 11
8.7233E+001
 21
6.4963E+001
  0
LINE
  8
1
  6
HIDDEN
 62
40
 10
7.2233E+001
 20
7.6963E+001
 11
8.7233E+001
 21
7.6963E+001
  0
LINE
  8
1
  6
HIDDEN
 62
40
 10
7.2233E+001
 20
1.49963E+002
 11
8.7233E+001
 21
1.49963E+002
  0
LINE
  8
1
  6
HIDDEN
 62
40
 10
7.2233E+001
 20
1.61963E+002
 11
8.7233E+001
 21
1.61963E+002
  0
LINE
  8
1
  6
HIDDEN
 62
40
 10
7.0233E+001
 20
6.6963E+001
 11
7.0233E+001
 21
7.4963E+001
  0
LINE
  8
1
  6
HIDDEN
 62
40
 10
7.0233E+001
 20
1.51963E+002
 11
7.0233E+001
 21
1.59963E+002
  0
LINE
  8
1
  6
HIDDEN
 62
40
 10
8.4233E+001
 20
6.4963E+001
 11
8.4233E+001
 21
7.6963E+001
  0
LINE
  8
1
  6
HIDDEN
 62
40
 10
8.4233E+001
 20
1.49963E+002
 11
8.4233E+001
 21
1.61963E+002
  0
ARC
  8
1
  6
HIDDEN
 62
40
 10
7.2233E+001
 20
1.51963E+002
 40
2.0
 50
1.8E+002
 51
2.7E+002
  0
ARC
  8
1
  6
HIDDEN
 62
40
 10
7.2233E+001
 20
1.59963E+002
 40
2.0
 50
9.0E+001
 51
1.8E+002
  0
ARC
  8
1
  6
HIDDEN
 62
40
 10
7.2233E+001
 20
6.6963E+001
 40
2.0
 50
1.8E+002
 51
2.7E+002
  0
ARC
  8
1
  6
HIDDEN
 62
40
 10
7.2233E+001
 20
7.4963E+001
 40
2.0
 50
9.0E+001
 51
1.8E+002
  0
LINE
  8
1
  6
HIDDEN
 62
40
 10
3.00733E+002
 20
1.51963E+002
 11
3.00733E+002
 21
1.59963E+002
  0
LINE
  8
1
  6
HIDDEN
 62
40
 10
1.18733E+002
 20
1.51963E+002
 11
1.18733E+002
 21
1.59963E+002
  0
LINE
  8
1
  6
HIDDEN
 62
40
 10
1.20733E+002
 20
1.61963E+002
 11
1.32733E+002
 21
1.61963E+002
  0
LINE
  8
1
  6
HIDDEN
 62
40
 10
1.20733E+002
 20
1.49963E+002
 11
1.32733E+002
 21
1.49963E+002
  0
LINE
  8
1
  6
HIDDEN
 62
40
 10
1.20733E+002
 20
6.4963E+001
 11
1.32733E+002
 21
6.4963E+001
  0
LINE
  8
1
  6
HIDDEN
 62
40
 10
1.20733E+002
 20
7.6963E+001
 11
1.32733E+002
 21
7.6963E+001
  0
LINE
  8
1
  6
HIDDEN
 62
40
 10
3.00733E+002
 20
6.6963E+001
 11
3.00733E+002
 21
7.4963E+001
  0
LINE
  8
1
  6
HIDDEN
 62
40
 10
1.18733E+002
 20
6.6963E+001
 11
1.18733E+002
 21
7.4963E+001
  0
LINE
  8
1
  6
HIDDEN
 62
40
 10
2.88733E+002
 20
1.49963E+002
 11
2.88733E+002
 21
1.61963E+002
  0
LINE
  8
1
  6
HIDDEN
 62
40
 10
1.30733E+002
 20
1.49963E+002
 11
1.30733E+002
 21
1.61963E+002
  0
LINE
  8
1
  6
HIDDEN
 62
40
 10
1.30733E+002
 20
6.4963E+001
 11
1.30733E+002
 21
7.6963E+001
  0
LINE
  8
1
  6
HIDDEN
 62
40
 10
2.88733E+002
 20
6.4963E+001
 11
2.88733E+002
 21
7.6963E+001
  0
LINE
  8
1
  6
HIDDEN
 62
40
 10
2.86733E+002
 20
7.6963E+001
 11
2.98733E+002
 21
7.6963E+001
  0
LINE
  8
1
  6
HIDDEN
 62
40
 10
2.86733E+002
 20
6.4963E+001
 11
2.98733E+002
 21
6.4963E+001
  0
LINE
  8
1
  6
HIDDEN
 62
40
 10
2.86733E+002
 20
1.49963E+002
 11
2.98733E+002
 21
1.49963E+002
  0
LINE
  8
1
  6
HIDDEN
 62
40
 10
2.86733E+002
 20
1.61963E+002
 11
2.98733E+002
 21
1.61963E+002
  0
ARC
  8
1
  6
HIDDEN
 62
40
 10
2.98733E+002
 20
1.59963E+002
 40
2.0
 50
0.0
 51
9.0E+001
  0
ARC
  8
1
  6
HIDDEN
 62
40
 10
2.98733E+002
 20
1.51963E+002
 40
2.0
 50
2.7E+002
 51
3.6E+002
  0
ARC
  8
1
  6
HIDDEN
 62
40
 10
2.98733E+002
 20
7.4963E+001
 40
2.0
 50
0.0
 51
9.0E+001
  0
ARC
  8
1
  6
HIDDEN
 62
40
 10
2.98733E+002
 20
6.6963E+001
 40
2.0
 50
2.7E+002
 51
3.6E+002
  0
ARC
  8
1
  6
HIDDEN
 62
40
 10
1.20733E+002
 20
1.59963E+002
 40
2.0
 50
9.0E+001
 51
1.8E+002
  0
ARC
  8
1
  6
HIDDEN
 62
40
 10
1.20733E+002
 20
1.51963E+002
 40
2.0
 50
1.8E+002
 51
2.7E+002
  0
ARC
  8
1
  6
HIDDEN
 62
40
 10
1.20733E+002
 20
7.4963E+001
 40
2.0
 50
9.0E+001
 51
1.8E+002
  0
ARC
  8
1
  6
HIDDEN
 62
40
 10
1.20733E+002
 20
6.6963E+001
 40
2.0
 50
1.8E+002
 51
2.7E+002
  0
CIRCLE
  8
1
  6
HIDDEN
 62
40
 10
2.94733E+002
 20
1.55963E+002
 40
2.5
  0
CIRCLE
  8
1
  6
HIDDEN
 62
40
 10
2.94733E+002
 20
7.0963E+001
 40
2.5
  0
CIRCLE
  8
1
  6
HIDDEN
 62
40
 10
1.24733E+002
 20
7.0963E+001
 40
2.5
  0
CIRCLE
  8
1
  6
HIDDEN
 62
40
 10
1.24733E+002
 20
1.55963E+002
 40
2.5
  0
LINE
  8
1
  6
HIDDEN
 62
40
 10
1.28733E+002
 20
2.20664E+002
 11
1.32733E+002
 21
2.20664E+002
  0
LINE
  8
1
  6
HIDDEN
 62
40
 10
1.18733E+002
 20
2.06664E+002
 11
1.30733E+002
 21
2.06664E+002
  0
LINE
  8
1
  6
HIDDEN
 62
40
 10
1.18733E+002
 20
2.03664E+002
 11
1.18733E+002
 21
2.06664E+002
  0
LINE
  8
1
  6
HIDDEN
 62
40
 10
1.30733E+002
 20
2.03664E+002
 11
1.30733E+002
 21
2.20664E+002
  0
LINE
  8
1
  6
HIDDEN
 62
40
 10
1.28733E+002
 20
2.13664E+002
 11
1.28733E+002
 21
2.20664E+002
  0
LINE
  8
1
  6
HIDDEN
 62
40
 10
2.88733E+002
 20
2.03664E+002
 11
2.88733E+002
 21
2.20664E+002
  0
LINE
  8
1
  6
HIDDEN
 62
40
 10
2.90733E+002
 20
2.13664E+002
 11
2.90733E+002
 21
2.20664E+002
  0
LINE
  8
1
  6
HIDDEN
 62
40
 10
3.00733E+002
 20
2.03664E+002
 11
3.00733E+002
 21
2.06664E+002
  0
LINE
  8
1
  6
HIDDEN
 62
40
 10
1.18733E+002
 20
2.03664E+002
 11
1.32733E+002
 21
2.03664E+002
  0
LINE
  8
1
  6
HIDDEN
 62
40
 10
2.86733E+002
 20
2.20664E+002
 11
2.90733E+002
 21
2.20664E+002
  0
LINE
  8
1
  6
HIDDEN
 62
40
 10
2.88733E+002
 20
2.06664E+002
 11
3.00733E+002
 21
2.06664E+002
  0
LINE
  8
1
  6
HIDDEN
 62
40
 10
2.86733E+002
 20
2.03664E+002
 11
3.00733E+002
 21
2.03664E+002
  0
LINE
  8
1
  6
HIDDEN
 62
40
 10
2.88853E+002
 20
2.06664E+002
 11
2.90733E+002
 21
2.13664E+002
  0
LINE
  8
1
  6
HIDDEN
 62
40
 10
1.28733E+002
 20
2.13664E+002
 11
1.30603E+002
 21
2.06664E+002
  0
LINE
  8
1
  6
HIDDEN
 62
40
 10
1.24733E+002
 20
1.99634E+002
 11
1.24733E+002
 21
2.10444E+002
  0
LINE
  8
1
  6
HIDDEN
 62
40
 10
2.94733E+002
 20
1.98264E+002
 11
2.94733E+002
 21
2.10044E+002
  0
LINE
  8
1
  6
CONTINUOUS
 62
40
 10
8.1733E+001
 20
1.05463E+002
 11
8.1733E+001
 21
1.21463E+002
  0
LINE
  8
1
  6
CONTINUOUS
 62
40
 10
7.9733E+001
 20
1.05463E+002
 11
8.1733E+001
 21
1.05463E+002
  0
LINE
  8
1
  6
CONTINUOUS
 62
40
 10
7.9733E+001
 20
1.21463E+002
 11
8.1733E+001
 21
1.21463E+002
  0
LINE
  8
1
  6
CONTINUOUS
 62
40
 10
1.4733E+001
 20
1.09463E+002
 11
1.4733E+001
 21
1.17463E+002
  0
LINE
  8
1
  6
CONTINUOUS
 62
40
 10
2.03733E+002
 20
2.63664E+002
 11
2.03733E+002
 21
2.64164E+002
  0
LINE
  8
1
  6
CONTINUOUS
 62
40
 10
2.15733E+002
 20
2.63664E+002
 11
2.15733E+002
 21
2.64164E+002
  0
LINE
  8
1
  6
CONTINUOUS
 62
40
 10
2.36233E+002
 20
2.35964E+002
 11
2.55233E+002
 21
2.35964E+002
  0
LINE
  8
1
  6
CONTINUOUS
 62
40
 10
2.36233E+002
 20
2.37964E+002
 11
2.55233E+002
 21
2.37964E+002
  0
LINE
  8
1
  6
CONTINUOUS
 62
40
 10
2.63233E+002
 20
2.37964E+002
 11
2.82233E+002
 21
2.37964E+002
  0
LINE
  8
1
  6
CONTINUOUS
 62
40
 10
2.63233E+002
 20
2.35964E+002
 11
2.82233E+002
 21
2.35964E+002
  0
LINE
  8
1
  6
CONTINUOUS
 62
40
 10
1.64233E+002
 20
2.37964E+002
 11
1.83233E+002
 21
2.37964E+002
  0
LINE
  8
1
  6
CONTINUOUS
 62
40
 10
1.64233E+002
 20
2.35964E+002
 11
1.83233E+002
 21
2.35964E+002
  0
LINE
  8
1
  6
CONTINUOUS
 62
40
 10
1.64233E+002
 20
1.73463E+002
 11
1.83233E+002
 21
1.73463E+002
  0
LINE
  8
1
  6
CONTINUOUS
 62
40
 10
1.64233E+002
 20
5.3463E+001
 11
1.83233E+002
 21
5.3463E+001
  0
LINE
  8
1
  6
CONTINUOUS
 62
40
 10
2.63233E+002
 20
5.3463E+001
 11
2.82233E+002
 21
5.3463E+001
  0
LINE
  8
1
  6
CONTINUOUS
 62
40
 10
2.36233E+002
 20
5.3463E+001
 11
2.55233E+002
 21
5.3463E+001
  0
LINE
  8
1
  6
CONTINUOUS
 62
40
 10
2.63233E+002
 20
1.73463E+002
 11
2.82233E+002
 21
1.73463E+002
  0
LINE
  8
1
  6
CONTINUOUS
 62
40
 10
2.36233E+002
 20
1.73463E+002
 11
2.55233E+002
 21
1.73463E+002
  0
ARC
  8
1
  6
CONTINUOUS
 62
40
 10
2.09733E+002
 20
1.72963E+002
 40
2.5
 50
2.7E+002
 51
3.3642E+002
  0
ARC
  8
1
  6
CONTINUOUS
 62
40
 10
2.09733E+002
 20
5.3963E+001
 40
2.5
 50
2.7E+002
 51
3.3642E+002
  0
LINE
  8
1
  6
CONTINUOUS
 62
40
 10
2.05733E+002
 20
5.4963E+001
 11
2.07443E+002
 21
5.4963E+001
  0
LINE
  8
1
  6
CONTINUOUS
 62
40
 10
2.05733E+002
 20
5.2963E+001
 11
2.07443E+002
 21
5.2963E+001
  0
LINE
  8
1
  6
CONTINUOUS
 62
40
 10
2.05733E+002
 20
1.73963E+002
 11
2.07443E+002
 21
1.73963E+002
  0
LINE
  8
1
  6
CONTINUOUS
 62
40
 10
2.05733E+002
 20
1.71963E+002
 11
2.07443E+002
 21
1.71963E+002
  0
LINE
  8
1
  6
CONTINUOUS
 62
40
 10
2.12023E+002
 20
5.4963E+001
 11
2.13733E+002
 21
5.4963E+001
  0
LINE
  8
1
  6
CONTINUOUS
 62
40
 10
2.12023E+002
 20
5.2963E+001
 11
2.13733E+002
 21
5.2963E+001
  0
LINE
  8
1
  6
CONTINUOUS
 62
40
 10
2.12023E+002
 20
1.73963E+002
 11
2.13733E+002
 21
1.73963E+002
  0
LINE
  8
1
  6
CONTINUOUS
 62
40
 10
2.12023E+002
 20
1.71963E+002
 11
2.13733E+002
 21
1.71963E+002
  0
ARC
  8
1
  6
CONTINUOUS
 62
40
 10
2.09733E+002
 20
5.3963E+001
 40
2.5
 50
3.3642E+002
 51
5.6358E+002
  0
ARC
  8
1
  6
CONTINUOUS
 62
40
 10
2.09733E+002
 20
5.3963E+001
 40
2.5
 50
2.0358E+002
 51
2.7E+002
  0
ARC
  8
1
  6
CONTINUOUS
 62
40
 10
2.09733E+002
 20
1.72963E+002
 40
2.5
 50
3.3642E+002
 51
5.6358E+002
  0
ARC
  8
1
  6
CONTINUOUS
 62
40
 10
2.09733E+002
 20
1.72963E+002
 40
2.5
 50
2.0358E+002
 51
2.7E+002
  0
LINE
  8
1
  6
CONTINUOUS
 62
40
 10
8.2933E+001
 20
4.7663E+001
 11
8.2933E+001
 21
5.8463E+001
  0
LINE
  8
1
  6
CONTINUOUS
 62
40
 10
8.2933E+001
 20
1.79263E+002
 11
8.7233E+001
 21
1.79263E+002
  0
LINE
  8
1
  6
CONTINUOUS
 62
40
 10
8.2933E+001
 20
4.7663E+001
 11
8.7233E+001
 21
4.7663E+001
  0
LINE
  8
1
  6
CONTINUOUS
 62
40
 10
8.2933E+001
 20
1.68463E+002
 11
8.2933E+001
 21
1.79263E+002
  0
LINE
  8
1
  6
CONTINUOUS
 62
40
 10
4.4933E+001
 20
1.70463E+002
 11
7.4933E+001
 21
1.70463E+002
  0
LINE
  8
1
  6
CONTINUOUS
 62
40
 10
7.4933E+001
 20
5.6463E+001
 11
7.4933E+001
 21
5.8463E+001
  0
LINE
  8
1
  6
CONTINUOUS
 62
40
 10
4.4933E+001
 20
5.6463E+001
 11
4.4933E+001
 21
5.8463E+001
  0
LINE
  8
1
  6
CONTINUOUS
 62
40
 10
4.4933E+001
 20
5.6463E+001
 11
7.4933E+001
 21
5.6463E+001
  0
LINE
  8
1
  6
CONTINUOUS
 62
40
 10
4.4933E+001
 20
1.68463E+002
 11
4.4933E+001
 21
1.70463E+002
  0
LINE
  8
1
  6
CONTINUOUS
 62
40
 10
7.4933E+001
 20
1.68463E+002
 11
7.4933E+001
 21
1.70463E+002
  0
LINE
  8
1
  6
CONTINUOUS
 62
40
 10
1.96733E+002
 20
1.09463E+002
 11
1.96733E+002
 21
1.17463E+002
  0
ARC
  8
1
  6
CONTINUOUS
 62
40
 10
2.09733E+002
 20
1.13463E+002
 40
8.5
 50
1.4397E+002
 51
2.1603E+002
  0
LINE
  8
1
  6
CONTINUOUS
 62
40
 10
1.97733E+002
 20
1.18463E+002
 11
2.02863E+002
 21
1.18463E+002
  0
LINE
  8
1
  6
CONTINUOUS
 62
40
 10
1.97733E+002
 20
1.08463E+002
 11
2.02863E+002
 21
1.08463E+002
  0
ARC
  8
1
  6
CONTINUOUS
 62
40
 10
1.97733E+002
 20
1.17463E+002
 40
1.0
 50
9.0E+001
 51
1.8E+002
  0
ARC
  8
1
  6
CONTINUOUS
 62
40
 10
1.97733E+002
 20
1.09463E+002
 40
1.0
 50
1.8E+002
 51
2.7E+002
  0
CIRCLE
  8
1
  6
CONTINUOUS
 62
40
 10
1.9733E+001
 20
1.13463E+002
 40
2.5
  0
LINE
  8
1
  6
CONTINUOUS
 62
40
 10
2.4733E+001
 20
1.04963E+002
 11
2.4733E+001
 21
1.21963E+002
  0
LINE
  8
1
  6
CONTINUOUS
 62
40
 10
1.3733E+001
 20
1.04963E+002
 11
2.4733E+001
 21
1.04963E+002
  0
LINE
  8
1
  6
CONTINUOUS
 62
40
 10
1.3733E+001
 20
1.21963E+002
 11
2.4733E+001
 21
1.21963E+002
  0
LINE
  8
1
  6
CONTINUOUS
 62
40
 10
1.5733E+001
 20
1.08463E+002
 11
2.4733E+001
 21
1.08463E+002
  0
LINE
  8
1
  6
CONTINUOUS
 62
40
 10
1.5733E+001
 20
1.18463E+002
 11
2.4733E+001
 21
1.18463E+002
  0
LINE
  8
1
  6
CONTINUOUS
 62
40
 10
2.6733E+001
 20
1.05963E+002
 11
2.6733E+001
 21
1.20963E+002
  0
LINE
  8
1
  6
CONTINUOUS
 62
40
 10
2.4733E+001
 20
1.20963E+002
 11
2.6733E+001
 21
1.20963E+002
  0
LINE
  8
1
  6
CONTINUOUS
 62
40
 10
2.4733E+001
 20
1.05963E+002
 11
2.6733E+001
 21
1.05963E+002
  0
LINE
  8
1
  6
CONTINUOUS
 62
40
 10
1.2733E+001
 20
1.05963E+002
 11
1.2733E+001
 21
1.20963E+002
  0
LINE
  8
1
  6
CONTINUOUS
 62
40
 10
1.96733E+002
 20
2.66164E+002
 11
1.96733E+002
 21
2.75164E+002
  0
LINE
  8
1
  6
CONTINUOUS
 62
40
 10
2.02233E+002
 20
2.78164E+002
 11
2.17233E+002
 21
2.78164E+002
  0
LINE
  8
1
  6
CONTINUOUS
 62
40
 10
1.96733E+002
 20
2.66164E+002
 11
2.01233E+002
 21
2.66164E+002
  0
LINE
  8
1
  6
CONTINUOUS
 62
40
 10
2.02233E+002
 20
2.64164E+002
 11
2.17233E+002
 21
2.64164E+002
  0
LINE
  8
1
  6
CONTINUOUS
 62
40
 10
1.97733E+002
 20
2.76164E+002
 11
2.01233E+002
 21
2.76164E+002
  0
LINE
  8
1
  6
CONTINUOUS
 62
40
 10
2.18233E+002
 20
2.76164E+002
 11
2.18233E+002
 21
2.77164E+002
  0
LINE
  8
1
  6
CONTINUOUS
 62
40
 10
2.01233E+002
 20
2.66164E+002
 11
2.01233E+002
 21
2.77164E+002
  0
LINE
  8
1
  6
CONTINUOUS
 62
40
 10
2.17233E+002
 20
2.64164E+002
 11
2.17233E+002
 21
2.66164E+002
  0
LINE
  8
1
  6
CONTINUOUS
 62
40
 10
2.02233E+002
 20
2.64164E+002
 11
2.02233E+002
 21
2.66164E+002
  0
LINE
  8
1
  6
CONTINUOUS
 62
40
 10
2.01233E+002
 20
2.66164E+002
 11
2.18233E+002
 21
2.66164E+002
  0
ARC
  8
1
  6
CONTINUOUS
 62
40
 10
2.09733E+002
 20
1.13463E+002
 40
8.5
 50
2.1603E+002
 51
5.0397E+002
  0
ARC
  8
1
  6
CONTINUOUS
 62
40
 10
1.97733E+002
 20
2.75164E+002
 40
1.0
 50
9.0E+001
 51
1.8E+002
  0
ARC
  8
1
  6
CONTINUOUS
 62
40
 10
2.17233E+002
 20
2.77164E+002
 40
1.0
 50
0.0
 51
9.0E+001
  0
LINE
  8
1
  6
CONTINUOUS
 62
40
 10
2.18233E+002
 20
2.66164E+002
 11
2.18233E+002
 21
2.76164E+002
  0
ARC
  8
1
  6
CONTINUOUS
 62
40
 10
1.3733E+001
 20
1.05963E+002
 40
1.0
 50
1.8E+002
 51
2.7E+002
  0
ARC
  8
1
  6
CONTINUOUS
 62
40
 10
1.3733E+001
 20
1.20963E+002
 40
1.0
 50
9.0E+001
 51
1.8E+002
  0
ARC
  8
1
  6
CONTINUOUS
 62
40
 10
1.5733E+001
 20
1.09463E+002
 40
1.0
 50
1.8E+002
 51
2.7E+002
  0
ARC
  8
1
  6
CONTINUOUS
 62
40
 10
1.5733E+001
 20
1.17463E+002
 40
1.0
 50
9.0E+001
 51
1.8E+002
  0
ARC
  8
1
  6
CONTINUOUS
 62
40
 10
2.02233E+002
 20
2.77164E+002
 40
1.0
 50
9.0E+001
 51
1.8E+002
  0
LINE
  8
1
  6
CONTINUOUS
 62
40
 10
2.39733E+002
 20
9.4963E+001
 11
2.39733E+002
 21
1.22963E+002
  0
LINE
  8
1
  6
CONTINUOUS
 62
40
 10
2.32233E+002
 20
5.8463E+001
 11
2.32233E+002
 21
1.26463E+002
  0
LINE
  8
1
  6
DASHED
 62
40
 10
1.96733E+002
 20
1.15963E+002
 11
2.06733E+002
 21
1.15963E+002
  0
LINE
  8
1
  6
DASHED
 62
40
 10
1.96733E+002
 20
1.10963E+002
 11
2.06733E+002
 21
1.10963E+002
  0
LINE
  8
1
  6
CONTINUOUS
 62
40
 10
1.96233E+002
 20
1.13713E+002
 11
1.96233E+002
 21
1.15463E+002
  0
LINE
  8
1
  6
CONTINUOUS
 62
40
 10
1.96233E+002
 20
1.13713E+002
 11
1.96633E+002
 21
1.13713E+002
  0
LINE
  8
1
  6
CONTINUOUS
 62
40
 10
1.96233E+002
 20
1.13213E+002
 11
1.96633E+002
 21
1.13213E+002
  0
LINE
  8
1
  6
CONTINUOUS
 62
40
 10
1.96633E+002
 20
1.13213E+002
 11
1.96633E+002
 21
1.13713E+002
  0
LINE
  8
1
  6
CONTINUOUS
 62
40
 10
1.96233E+002
 20
1.11463E+002
 11
1.96233E+002
 21
1.13213E+002
  0
LINE
  8
1
  6
CONTINUOUS
 62
40
 10
1.96233E+002
 20
1.15463E+002
 11
1.96733E+002
 21
1.15963E+002
  0
LINE
  8
1
  6
CONTINUOUS
 62
40
 10
1.96233E+002
 20
1.11463E+002
 11
1.96733E+002
 21
1.10963E+002
  0
LINE
  8
1
  6
CONTINUOUS
 62
40
 10
1.7453E+001
 20
1.14493E+002
 11
2.1763E+001
 21
1.12003E+002
  0
LINE
  8
1
  6
CONTINUOUS
 62
40
 10
1.7703E+001
 20
1.14923E+002
 11
2.2013E+001
 21
1.12433E+002
  0
LINE
  8
1
  6
CONTINUOUS
 62
40
 10
1.96233E+002
 20
2.69164E+002
 11
1.96233E+002
 21
2.73164E+002
  0
LINE
  8
1
  6
CONTINUOUS
 62
40
 10
1.96233E+002
 20
2.69164E+002
 11
1.96733E+002
 21
2.68664E+002
  0
LINE
  8
1
  6
CONTINUOUS
 62
40
 10
1.96233E+002
 20
2.73164E+002
 11
1.96733E+002
 21
2.73664E+002
  0
LINE
  8
1
  6
CONTINUOUS
 62
40
 10
1.87233E+002
 20
2.55664E+002
 11
2.32233E+002
 21
2.55664E+002
  0
LINE
  8
1
  6
CONTINUOUS
 62
40
 10
1.87233E+002
 20
2.63664E+002
 11
2.32233E+002
 21
2.63664E+002
  0
LINE
  8
1
  6
CONTINUOUS
 62
40
 10
1.33233E+002
 20
2.63664E+002
 11
1.87233E+002
 21
2.63664E+002
  0
LINE
  8
1
  6
CONTINUOUS
 62
40
 10
1.33233E+002
 20
2.55664E+002
 11
1.87233E+002
 21
2.55664E+002
  0
LINE
  8
1
  6
CONTINUOUS
 62
40
 10
1.33233E+002
 20
2.03664E+002
 11
1.87233E+002
 21
2.03664E+002
  0
LINE
  8
1
  6
CONTINUOUS
 62
40
 10
1.87233E+002
 20
2.03664E+002
 11
2.32233E+002
 21
2.03664E+002
  0
LINE
  8
1
  6
CONTINUOUS
 62
40
 10
2.59233E+002
 20
2.03664E+002
 11
2.86233E+002
 21
2.03664E+002
  0
LINE
  8
1
  6
CONTINUOUS
 62
40
 10
2.59233E+002
 20
2.55664E+002
 11
2.86233E+002
 21
2.55664E+002
  0
LINE
  8
1
  6
CONTINUOUS
 62
40
 10
2.59233E+002
 20
2.63664E+002
 11
2.86233E+002
 21
2.63664E+002
  0
TEXT
  8
1
  6
CONTINUOUS
 62
40
 10
1.98893E+002
 20
1.59503E+002
 40
3.0
  1
OT 125 A4
  0
TEXT
  8
1
  6
CONTINUOUS
 62
1
 10
2.13333E+002
 20
1.27673E+002
 40
3.0
  1
ON
  0
TEXT
  8
1
  6
CONTINUOUS
 62
1
 10
1.88713E+002
 20
1.06113E+002
 40
3.0
  1
OFF
  0
LINE
  8
1
  6
CONTINUOUS
 62
40
 10
1.37233E+002
 20
1.73463E+002
 11
1.56233E+002
 21
1.73463E+002
  0
LINE
  8
1
  6
CONTINUOUS
 62
40
 10
1.35233E+002
 20
1.68463E+002
 11
1.35233E+002
 21
1.76963E+002
  0
LINE
  8
1
  6
CONTINUOUS
 62
40
 10
1.37233E+002
 20
1.68463E+002
 11
1.37233E+002
 21
1.76963E+002
  0
LINE
  8
1
  6
CONTINUOUS
 62
40
 10
1.56233E+002
 20
1.68463E+002
 11
1.56233E+002
 21
1.76963E+002
  0
LINE
  8
1
  6
CONTINUOUS
 62
40
 10
1.58233E+002
 20
1.68463E+002
 11
1.58233E+002
 21
1.76963E+002
  0
LINE
  8
1
  6
CONTINUOUS
 62
40
 10
1.56233E+002
 20
1.76963E+002
 11
1.58233E+002
 21
1.76963E+002
  0
LINE
  8
1
  6
CONTINUOUS
 62
40
 10
1.35233E+002
 20
1.76963E+002
 11
1.37233E+002
 21
1.76963E+002
  0
LINE
  8
1
  6
CONTINUOUS
 62
40
 10
1.60233E+002
 20
1.32463E+002
 11
1.60233E+002
 21
1.68463E+002
  0
LINE
  8
1
  6
CONTINUOUS
 62
40
 10
1.40733E+002
 20
1.22963E+002
 11
1.52733E+002
 21
1.22963E+002
  0
LINE
  8
1
  6
CONTINUOUS
 62
40
 10
1.40733E+002
 20
9.4963E+001
 11
1.40733E+002
 21
1.22963E+002
  0
LINE
  8
1
  6
CONTINUOUS
 62
40
 10
1.52733E+002
 20
9.4963E+001
 11
1.52733E+002
 21
1.22963E+002
  0
LINE
  8
1
  6
CONTINUOUS
 62
40
 10
1.40733E+002
 20
9.4963E+001
 11
1.52733E+002
 21
9.4963E+001
  0
LINE
  8
1
  6
CONTINUOUS
 62
40
 10
1.35233E+002
 20
4.9963E+001
 11
1.35233E+002
 21
5.8463E+001
  0
LINE
  8
1
  6
CONTINUOUS
 62
40
 10
1.37233E+002
 20
4.9963E+001
 11
1.37233E+002
 21
5.8463E+001
  0
LINE
  8
1
  6
CONTINUOUS
 62
40
 10
1.35233E+002
 20
4.9963E+001
 11
1.37233E+002
 21
4.9963E+001
  0
LINE
  8
1
  6
CONTINUOUS
 62
40
 10
1.37233E+002
 20
5.3463E+001
 11
1.56233E+002
 21
5.3463E+001
  0
LINE
  8
1
  6
CONTINUOUS
 62
40
 10
1.56233E+002
 20
4.9963E+001
 11
1.56233E+002
 21
5.8463E+001
  0
LINE
  8
1
  6
CONTINUOUS
 62
40
 10
1.56233E+002
 20
4.9963E+001
 11
1.58233E+002
 21
4.9963E+001
  0
LINE
  8
1
  6
CONTINUOUS
 62
40
 10
1.58233E+002
 20
4.9963E+001
 11
1.58233E+002
 21
5.8463E+001
  0
LINE
  8
1
  6
CONTINUOUS
 62
40
 10
1.35233E+002
 20
2.11664E+002
 11
1.35233E+002
 21
2.55664E+002
  0
LINE
  8
1
  6
CONTINUOUS
 62
40
 10
1.37233E+002
 20
2.11664E+002
 11
1.37233E+002
 21
2.55664E+002
  0
LINE
  8
1
  6
CONTINUOUS
 62
40
 10
1.35233E+002
 20
2.11664E+002
 11
1.37233E+002
 21
2.11664E+002
  0
LINE
  8
1
  6
CONTINUOUS
 62
40
 10
1.37233E+002
 20
2.37964E+002
 11
1.56233E+002
 21
2.37964E+002
  0
LINE
  8
1
  6
CONTINUOUS
 62
40
 10
1.37233E+002
 20
2.35964E+002
 11
1.56233E+002
 21
2.35964E+002
  0
LINE
  8
1
  6
CONTINUOUS
 62
40
 10
1.56233E+002
 20
2.11664E+002
 11
1.56233E+002
 21
2.55664E+002
  0
LINE
  8
1
  6
CONTINUOUS
 62
40
 10
1.58233E+002
 20
2.11664E+002
 11
1.58233E+002
 21
2.55664E+002
  0
LINE
  8
1
  6
CONTINUOUS
 62
40
 10
1.56233E+002
 20
2.11664E+002
 11
1.58233E+002
 21
2.11664E+002
  0
LINE
  8
1
  6
CONTINUOUS
 62
40
 10
1.41233E+002
 20
2.33964E+002
 11
1.52233E+002
 21
2.33964E+002
  0
LINE
  8
1
  6
CONTINUOUS
 62
40
 10
1.40733E+002
 20
2.32664E+002
 11
1.52733E+002
 21
2.32664E+002
  0
LINE
  8
1
  6
CONTINUOUS
 62
40
 10
1.40733E+002
 20
2.32664E+002
 11
1.40733E+002
 21
2.33904E+002
  0
LINE
  8
1
  6
CONTINUOUS
 62
40
 10
1.52733E+002
 20
2.32664E+002
 11
1.52733E+002
 21
2.33904E+002
  0
ARC
  8
1
  6
CONTINUOUS
 62
40
 10
1.52233E+002
 20
2.31964E+002
 40
2.0
 50
0.0
 51
9.0E+001
  0
ARC
  8
1
  6
CONTINUOUS
 62
40
 10
1.41233E+002
 20
2.31964E+002
 40
2.0
 50
9.0E+001
 51
1.8E+002
  0
LINE
  8
1
  6
CONTINUOUS
 62
40
 10
1.39233E+002
 20
2.19664E+002
 11
1.39233E+002
 21
2.31964E+002
  0
ARC
  8
1
  6
CONTINUOUS
 62
40
 10
1.41233E+002
 20
2.19664E+002
 40
2.0
 50
1.8E+002
 51
2.7E+002
  0
LINE
  8
1
  6
CONTINUOUS
 62
40
 10
1.41233E+002
 20
2.17664E+002
 11
1.52233E+002
 21
2.17664E+002
  0
ARC
  8
1
  6
CONTINUOUS
 62
40
 10
1.52233E+002
 20
2.19664E+002
 40
2.0
 50
2.7E+002
 51
3.6E+002
  0
LINE
  8
1
  6
CONTINUOUS
 62
40
 10
1.54233E+002
 20
2.19664E+002
 11
1.54233E+002
 21
2.31964E+002
  0
LINE
  8
1
  6
CONTINUOUS
 62
40
 10
1.60233E+002
 20
5.8463E+001
 11
1.60233E+002
 21
1.26463E+002
  0
LINE
  8
1
  6
CONTINUOUS
 62
40
 10
2.09733E+002
 20
1.98254E+002
 11
2.09733E+002
 21
2.13194E+002
  0
LINE
  8
1
  6
HIDDEN
 62
40
 10
8.7233E+001
 20
1.61963E+002
 11
8.7233E+001
 21
1.49963E+002
  0
TEXT
  8
1
  6
CONTINUOUS
 62
40
 10
1.98893E+002
 20
1.54503E+002
 40
3.0
  1
OT 160 E4
  0
LINE
  8
1
  6
HIDDEN
 62
40
 10
2.97733E+002
 20
1.55963E+002
 11
2.91733E+002
 21
1.55963E+002
  0
LINE
  8
1
  6
HIDDEN
 62
40
 10
2.94733E+002
 20
1.58963E+002
 11
2.94733E+002
 21
1.52963E+002
  0
LINE
  8
1
  6
HIDDEN
 62
40
 10
2.99233E+002
 20
1.55963E+002
 11
3.00233E+002
 21
1.55963E+002
  0
LINE
  8
1
  6
HIDDEN
 62
40
 10
2.94733E+002
 20
1.60463E+002
 11
2.94733E+002
 21
1.61463E+002
  0
LINE
  8
1
  6
HIDDEN
 62
40
 10
2.90233E+002
 20
1.55963E+002
 11
2.89233E+002
 21
1.55963E+002
  0
LINE
  8
1
  6
HIDDEN
 62
40
 10
2.94733E+002
 20
1.51463E+002
 11
2.94733E+002
 21
1.50463E+002
  0
LINE
  8
1
  6
HIDDEN
 62
40
 10
2.97733E+002
 20
7.0963E+001
 11
2.91733E+002
 21
7.0963E+001
  0
LINE
  8
1
  6
HIDDEN
 62
40
 10
2.94733E+002
 20
7.3963E+001
 11
2.94733E+002
 21
6.7963E+001
  0
LINE
  8
1
  6
HIDDEN
 62
40
 10
2.99233E+002
 20
7.0963E+001
 11
3.00233E+002
 21
7.0963E+001
  0
LINE
  8
1
  6
HIDDEN
 62
40
 10
2.94733E+002
 20
7.5463E+001
 11
2.94733E+002
 21
7.6463E+001
  0
LINE
  8
1
  6
HIDDEN
 62
40
 10
2.90233E+002
 20
7.0963E+001
 11
2.89233E+002
 21
7.0963E+001
  0
LINE
  8
1
  6
HIDDEN
 62
40
 10
2.94733E+002
 20
6.6463E+001
 11
2.94733E+002
 21
6.5463E+001
  0
LINE
  8
1
  6
CONTINUOUS
 62
40
 10
2.12733E+002
 20
5.3963E+001
 11
2.06733E+002
 21
5.3963E+001
  0
LINE
  8
1
  6
CONTINUOUS
 62
40
 10
2.09733E+002
 20
5.6963E+001
 11
2.09733E+002
 21
5.0963E+001
  0
LINE
  8
1
  6
CONTINUOUS
 62
40
 10
2.14233E+002
 20
5.3963E+001
 11
2.15233E+002
 21
5.3963E+001
  0
LINE
  8
1
  6
CONTINUOUS
 62
40
 10
2.09733E+002
 20
5.8463E+001
 11
2.09733E+002
 21
5.9463E+001
  0
LINE
  8
1
  6
CONTINUOUS
 62
40
 10
2.05233E+002
 20
5.3963E+001
 11
2.04233E+002
 21
5.3963E+001
  0
LINE
  8
1
  6
CONTINUOUS
 62
40
 10
2.09733E+002
 20
4.9463E+001
 11
2.09733E+002
 21
4.8463E+001
  0
LINE
  8
1
  6
CONTINUOUS
 62
40
 10
2.12733E+002
 20
1.72963E+002
 11
2.06733E+002
 21
1.72963E+002
  0
LINE
  8
1
  6
CONTINUOUS
 62
40
 10
2.09733E+002
 20
1.75963E+002
 11
2.09733E+002
 21
1.69963E+002
  0
LINE
  8
1
  6
CONTINUOUS
 62
40
 10
2.14233E+002
 20
1.72963E+002
 11
2.15233E+002
 21
1.72963E+002
  0
LINE
  8
1
  6
CONTINUOUS
 62
40
 10
2.09733E+002
 20
1.77463E+002
 11
2.09733E+002
 21
1.78463E+002
  0
LINE
  8
1
  6
CONTINUOUS
 62
40
 10
2.05233E+002
 20
1.72963E+002
 11
2.04233E+002
 21
1.72963E+002
  0
LINE
  8
1
  6
CONTINUOUS
 62
40
 10
2.09733E+002
 20
1.68463E+002
 11
2.09733E+002
 21
1.67463E+002
  0
LINE
  8
1
  6
HIDDEN
 62
40
 10
1.27733E+002
 20
1.55963E+002
 11
1.21733E+002
 21
1.55963E+002
  0
LINE
  8
1
  6
HIDDEN
 62
40
 10
1.24733E+002
 20
1.58963E+002
 11
1.24733E+002
 21
1.52963E+002
  0
LINE
  8
1
  6
HIDDEN
 62
40
 10
1.29233E+002
 20
1.55963E+002
 11
1.30233E+002
 21
1.55963E+002
  0
LINE
  8
1
  6
HIDDEN
 62
40
 10
1.24733E+002
 20
1.60463E+002
 11
1.24733E+002
 21
1.61463E+002
  0
LINE
  8
1
  6
HIDDEN
 62
40
 10
1.20233E+002
 20
1.55963E+002
 11
1.19233E+002
 21
1.55963E+002
  0
LINE
  8
1
  6
HIDDEN
 62
40
 10
1.24733E+002
 20
1.51463E+002
 11
1.24733E+002
 21
1.50463E+002
  0
LINE
  8
1
  6
HIDDEN
 62
40
 10
1.27733E+002
 20
7.0963E+001
 11
1.21733E+002
 21
7.0963E+001
  0
LINE
  8
1
  6
HIDDEN
 62
40
 10
1.24733E+002
 20
7.3963E+001
 11
1.24733E+002
 21
6.7963E+001
  0
LINE
  8
1
  6
HIDDEN
 62
40
 10
1.29233E+002
 20
7.0963E+001
 11
1.30233E+002
 21
7.0963E+001
  0
LINE
  8
1
  6
HIDDEN
 62
40
 10
1.24733E+002
 20
7.5463E+001
 11
1.24733E+002
 21
7.6463E+001
  0
LINE
  8
1
  6
HIDDEN
 62
40
 10
1.20233E+002
 20
7.0963E+001
 11
1.19233E+002
 21
7.0963E+001
  0
LINE
  8
1
  6
HIDDEN
 62
40
 10
1.24733E+002
 20
6.6463E+001
 11
1.24733E+002
 21
6.5463E+001
  0
LINE
  8
1
  6
CONTINUOUS
 62
40
 10
1.60233E+002
 20
2.63664E+002
 11
1.60233E+002
 21
2.03664E+002
  0
DIMENSION
  8
1
  6
CONTINUOUS
 62
1
  2
*D610
  3
DSTYLE1
 10
3.19321E+002
 20
2.78164E+002
 11
3.1632E+002
 21
2.40914E+002
 70
128
 13
3.00733E+002
 23
2.03664E+002
 14
2.17233E+002
 24
2.78164E+002
 40
3.0
 50
9.0E+001
  0
LINE
  8
1
  6
CONTINUOUS
 62
40
 10
4.1205984E+002
 20
6.717
 11
4.1205984E+002
 21
3.5611833E+001
  0
LINE
  8
1
  6
CONTINUOUS
 62
40
 10
2.3306782E+002
 20
3.5611833E+001
 11
4.1205984E+002
 21
3.5611833E+001
  0
LINE
  8
1
  6
CONTINUOUS
 62
40
 10
2.3316018E+002
 20
2.8615998E+001
 11
4.1205984E+002
 21
2.8615998E+001
  0
LINE
  8
1
  6
CONTINUOUS
 62
40
 10
2.865673E+002
 20
1.9613334E+001
 11
4.1205984E+002
 21
1.9613334E+001
  0
TEXT
  8
1
  6
CONTINUOUS
 62
4
 10
3.52831E+002
 20
3.0423E+001
 40
3.0
  1
OT 160 E4
  0
TEXT
  8
1
  6
CONTINUOUS
 62
40
 10
4.0147802E+002
 20
1.7039993E+001
 40
1.1998795
  1
REVISION
 41
1.0000004
  0
TEXT
  8
1
  6
CONTINUOUS
 62
40
 10
4.047328E+002
 20
1.0086595E+001
 40
5.0
  1
B
  0
TEXT
  8
1
  6
CONTINUOUS
 62
40
 10
3.5259765E+002
 20
1.4767951E+001
 40
2.5
  1
DXF_KUVAT
  0
TEXT
  8
1
  6
CONTINUOUS
 62
4
 10
3.52831E+002
 20
9.483
 40
2.5
  1
OT_160
  0
LINE
  8
1
  6
CONTINUOUS
 62
40
 10
2.865673E+002
 20
1.3119132E+001
 11
3.3806054E+002
 21
1.3119132E+001
  0
LINE
  8
1
  6
CONTINUOUS
 62
40
 10
2.6406154E+002
 20
2.8615998E+001
 11
2.6406154E+002
 21
3.5611833E+001
  0
CIRCLE
  8
1
  6
CONTINUOUS
 62
40
 10
2.755587E+002
 20
3.2113767E+001
 40
2.0065312
  0
CIRCLE
  8
1
  6
CONTINUOUS
 62
40
 10
2.755587E+002
 20
3.2113767E+001
 40
1.0032656
  0
LINE
  8
1
  6
CONTINUOUS
 62
40
 10
2.755587E+002
 20
2.9394732E+001
 11
2.755587E+002
 21
3.1150299E+001
  0
LINE
  8
1
  6
CONTINUOUS
 62
40
 10
2.755587E+002
 20
3.2918934E+001
 11
2.755587E+002
 21
3.4674798E+001
  0
LINE
  8
1
  6
CONTINUOUS
 62
40
 10
2.6556614E+002
 20
3.2113767E+001
 11
2.6697867E+002
 21
3.2113767E+001
  0
LINE
  8
1
  6
CONTINUOUS
 62
40
 10
2.683909E+002
 20
3.2113767E+001
 11
2.6980343E+002
 21
3.2113767E+001
  0
LINE
  8
1
  6
CONTINUOUS
 62
40
 10
2.6980343E+002
 20
3.2113767E+001
 11
2.7121567E+002
 21
3.2113767E+001
  0
LINE
  8
1
  6
CONTINUOUS
 62
40
 10
2.726282E+002
 20
3.2113767E+001
 11
2.7404073E+002
 21
3.2113767E+001
  0
LINE
  8
1
  6
CONTINUOUS
 62
40
 10
2.7404073E+002
 20
3.2113767E+001
 11
2.7545297E+002
 21
3.2113767E+001
  0
LINE
  8
1
  6
CONTINUOUS
 62
40
 10
2.768655E+002
 20
3.2113767E+001
 11
2.782911E+002
 21
3.2113767E+001
  0
LINE
  8
1
  6
CONTINUOUS
 62
40
 10
2.71559E+002
 20
3.0133965E+001
 11
2.71559E+002
 21
3.4120299E+001
  0
LINE
  8
1
  6
CONTINUOUS
 62
40
 10
2.6856257E+002
 20
3.1110798E+001
 11
2.6856257E+002
 21
3.3117033E+001
  0
LINE
  8
1
  6
CONTINUOUS
 62
40
 10
2.6856257E+002
 20
3.3117033E+001
 11
2.71559E+002
 21
3.4120299E+001
  0
TEXT
  8
1
  6
CONTINUOUS
 62
40
 10
2.7996736E+002
 20
3.3420567E+001
 40
1.1998795
  1
PROJ
 41
1.0000004
  0
TEXT
  8
1
  6
CONTINUOUS
 62
40
 10
3.2776445E+002
 20
1.6920732E+001
 40
1.1998795
  1
CHECKED
 41
1.0000004
  0
TEXT
  8
1
  6
CONTINUOUS
 62
40
 10
3.2636528E+002
 20
1.0413165E+001
 40
1.1998795
  1
APPROVED
 41
1.0000004
  0
LINE
  8
1
  6
CONTINUOUS
 62
40
 10
2.6856257E+002
 20
3.1110798E+001
 11
2.71559E+002
 21
3.0133965E+001
  0
TEXT
  8
1
  6
CONTINUOUS
 62
40
 10
2.8706893E+002
 20
1.0360299E+001
 40
1.1998795
  1
HYVÄKSYI
 41
1.0000004
  0
TEXT
  8
1
  6
CONTINUOUS
 62
40
 10
2.8706893E+002
 20
8.564934
 40
1.1998795
  1
GODKÄND
 41
1.0000004
  0
TEXT
  8
1
  6
CONTINUOUS
 62
40
 10
2.8706893E+002
 20
1.6867866E+001
 40
1.1998795
  1
TARKASTI
 41
1.0000004
  0
TEXT
  8
1
  6
CONTINUOUS
 62
40
 10
2.8706893E+002
 20
1.5059433E+001
 40
1.1998795
  1
GRANSKAD
 41
1.0000004
  0
TEXT
  8
1
  6
CONTINUOUS
 62
40
 10
2.8706893E+002
 20
2.5711932E+001
 40
1.1998795
  1
TEKI
 41
1.0000004
  0
TEXT
  8
1
  6
CONTINUOUS
 62
40
 10
2.8706893E+002
 20
2.3916567E+001
 40
1.1998795
  1
RITAD
 41
1.0000004
  0
TEXT
  8
1
  6
CONTINUOUS
 62
40
 10
2.8706893E+002
 20
2.2121499E+001
 40
1.1998795
  1
DRAWN
 41
1.0000004
  0
TEXT
  8
1
  6
CONTINUOUS
 62
40
 10
2.8706893E+002
 20
3.3460365E+001
 40
1.1998795
  1
OSASTO
 41
1.0000004
  0
TEXT
  8
1
  6
CONTINUOUS
 62
40
 10
2.8706893E+002
 20
3.1665E+001
 40
1.1998795
  1
AVDELNING
 41
1.0000004
  0
TEXT
  8
1
  6
CONTINUOUS
 62
40
 10
2.8706893E+002
 20
2.9869932E+001
 40
1.1998795
  1
DEPARTMENT
 41
1.0000004
  0
TEXT
  8
1
  6
CONTINUOUS
 62
40
 10
3.3848254E+002
 20
1.6888638E+001
 40
1.1998795
  1
PROJECT
 41
1.0000004
  0
TEXT
  8
1
  6
CONTINUOUS
 62
40
 10
3.3856217E+002
 20
1.1564353E+001
 40
1.1998795
  1
LIBRARY
 41
1.0000004
  0
TEXT
  8
1
  6
CONTINUOUS
 62
40
 10
3.3856217E+002
 20
3.3460365E+001
 40
1.1998795
  1
LAJI
 41
1.0000004
  0
TEXT
  8
1
  6
CONTINUOUS
 62
40
 10
3.3856217E+002
 20
3.1665E+001
 40
1.1998795
  1
TYP
 41
1.0000004
  0
TEXT
  8
1
  6
CONTINUOUS
 62
40
 10
3.3856217E+002
 20
2.9869932E+001
 40
1.1998795
  1
TYPE
 41
1.0000004
  0
TEXT
  8
1
  6
CONTINUOUS
 62
40
 10
3.0165984E+002
 20
2.4629198E+001
 40
2.5
  1
1997-09-02
  0
TEXT
  8
1
  6
CONTINUOUS
 62
40
 10
3.1021984E+002
 20
3.0379198E+001
 40
3.0
  1
LSO
  0
TEXT
  8
1
  6
CONTINUOUS
 62
30
 10
2.3640328E+002
 20
1.3417684E+001
 40
3.55
  1
Low Voltage Products
 41
6.35E-001
  0
LINE
  8
1
  6
CONTINUOUS
 62
40
 10
2.865673E+002
 20
6.519198
 11
2.865673E+002
 21
3.5611833E+001
  0
LINE
  8
1
  6
CONTINUOUS
 62
40
 10
3.3806054E+002
 20
6.717
 11
3.3806054E+002
 21
3.5611833E+001
  0
LINE
  8
1
  6
CONTINUOUS
 62
40
 10
4.1205984E+002
 20
6.717
 11
2.3306782E+002
 21
6.717
  0
LINE
  8
1
  6
CONTINUOUS
 62
40
 10
2.3306782E+002
 20
3.5611833E+001
 11
2.3306782E+002
 21
6.717
  0
TEXT
  8
1
  6
CONTINUOUS
 62
4
 10
3.51646E+002
 20
2.3706E+001
 40
3.0
  1
14 OT
  0
TEXT
  8
1
  6
CONTINUOUS
 62
40
 10
3.3856217E+002
 20
2.6500718E+001
 40
1.1998795
  1
KIRJAUS
 41
1.0000004
  0
TEXT
  8
3
  6
CONTINUOUS
 62
30
 10
2.3678979E+002
 20
1.8345637E+001
 40
4.5
  1
ABB Oy
 41
7.62E-001
  0
TEXT
  8
3
  6
CONTINUOUS
 62
4
 10
2.99887E+002
 20
2.1336E+001
 40
2.5
  1
Marko Pikkala
  0
INSERT
  2
*TX37
  8
3
 10
3.80094E+002
 20
2.4102E+001
  0
ENDSEC
  0
EOF
