  0
SECTION
  2
HEADER
  9
$ACADVER
  1
AC1009
999
I-DEAS 8 Not Encoded
  9
$EXTMIN
 10
0.0
 20
0.0
  9
$EXTMAX
 10
2.1E+002
 20
2.97E+002
  9
$TEXTSIZE
 40
1.25E-001
  9
$LTSCALE
 40
1.0
  9
$CLAYER
  8
1
  9
$CECOLOR
 62
1
  9
$DIMASZ
 40
1.25E-001
  9
$DIMEXO
 40
6.25E-002
  9
$DIMDLI
 40
2.5E-001
  9
$DIMEXE
 40
1.25E-001
  9
$DIMTP
 40
5.0E-003
  9
$DIMTM
 40
-5.0E-003
  9
$DIMTXT
 40
3.0
  9
$DIMLIM
 70
0
  9
$DIMTIH
 70
1
  9
$DIMTOH
 70
1
  9
$DIMSE1
 70
0
  9
$DIMSE2
 70
0
  9
$DIMTAD
 70
0
  9
$DIMASO
 70
1
  9
$DIMALT
 70
0
  9
$DIMALTD
 70
0
  9
$DIMTOFL
 70
1
  9
$DIMTIX
 70
0
  9
$DIMSAH
 70
0
  9
$DIMTFAC
 40
1.0
  9
$DIMGAP
 40
6.25E-002
  9
$LUNITS
 70
2
  9
$LUPREC
 70
3
  9
$FILLETRAD
 40
1.0E+001
  9
$AUNITS
 70
0
  9
$AUPREC
 70
1
  9
$CHAMFERA
 40
6.0
  9
$CHAMFERB
 40
6.0
  9
$ANGBASE
 50
0.0
  9
$ANGDIR
 70
0
  9
$PEXTMIN
 10
0.0
 20
0.0
 30
0.0
  9
$PEXTMAX
 10
2.1E+002
 20
2.97E+002
 30
0.0
  9
$PLIMMIN
 10
0.0
 20
0.0
  9
$PLIMMAX
 10
2.1E+002
 20
2.97E+002
  9
$PDMODE
 70
2
  9
$PDSIZE
 40
-1.0E-002
  9
$SPLINETYPE
 70
6
  9
$TILEMODE
 70
0
  0
ENDSEC
  0
SECTION
  2
TABLES
  0
TABLE
  2
VPORT
 70
2
  0
VPORT
  2
*Active
 70
0
 10
0.0
 20
0.0
 11
2.1E+002
 21
2.97E+002
 12
1.05E+002
 22
1.485E+002
 13
0.0
 23
0.0
 14
1.0
 24
1.0
 15
0.0
 25
0.0
 16
0.0
 26
0.0
 36
1.0
 17
0.0
 27
0.0
 37
0.0
 40
2.97E+002
 41
7.0707071E-001
 42
5.0E+001
 43
0.0
 44
0.0
 50
0.0
 51
0.0
 71
0
 72
100
 73
1
 74
3
 75
0
 76
0
 77
0
 78
0
  0
ENDTAB
  0
TABLE
  2
LTYPE
 70
7
  0
LTYPE
  2
HIDDENNEW00
  3
_ 
 70
64
 72
65
 73
3
 40
4.5
 49
1.5
 49
-1.5
 49
1.5
  0
LTYPE
  2
HIDDENNEW01
  3
_ 
 70
64
 72
65
 73
3
 40
4.5
 49
1.5
 49
-1.5
 49
1.5
  0
LTYPE
  2
HIDDEN
  3
_ 
 70
64
 72
65
 73
3
 40
4.5
 49
1.5
 49
-1.5
 49
1.5
  0
LTYPE
  2
CENTERLINE
  3
_ 
 70
64
 72
65
 73
5
 40
3.0E+001
 49
1.2E+001
 49
-1.5
 49
3.0
 49
-1.5
 49
1.2E+001
  0
LTYPE
  2
PHANTOM
  3
_ 
 70
64
 72
65
 73
7
 40
2.95E+001
 49
9.5
 49
-1.5
 49
3.0
 49
-1.5
 49
3.0
 49
-1.5
 49
9.5
  0
LTYPE
  2
SHORT_DASH
  3
_ 
 70
64
 72
65
 73
3
 40
3.0
 49
7.5E-001
 49
-1.5
 49
7.5E-001
  0
LTYPE
  2
LONG_DASH
  3
_ 
 70
64
 72
65
 73
3
 40
9.0
 49
2.25
 49
-4.5
 49
2.25
  0
ENDTAB
  0
TABLE
  2
LAYER
 70
258
  0
LAYER
  2
1
 70
0
 62
7
  6
CONTINUOUS
  0
LAYER
  2
Drafting_Hidden_Entities
 70
1
 62
7
  6
CONTINUOUS
  0
ENDTAB
  0
TABLE
  2
STYLE
 70
1
  0
STYLE
  2
STANDARD
 70
64
 40
0.0
 41
1.0
 50
0.0
 71
0
 42
1.0
  3
monotxt.shx
  4

  0
ENDTAB
  0
TABLE
  2
VIEW
 70
0
  0
ENDTAB
  0
TABLE
  2
DIMSTYLE
 70
1
  0
DIMSTYLE
  2
DSTYLE1
 70
0
  3

  4

  5

  6

  7

 40
1.0
 41
3.0
 42
0.0
 43
3.8E-001
 44
1.5
 45
1.0E-001
 46
0.0
 47
0.0
 48
0.0
 71
0
 72
0
 73
0
 74
0
 75
0
 76
0
 77
1
 78
11
140
3.0
141
9.0E-002
142
0.0
143
2.54E+001
144
1.0
145
0.0
146
1.0
147
1.5
170
0
171
2
172
0
173
0
174
0
175
0
176
0
177
0
178
0
  0
ENDTAB
  0
ENDSEC
  0
SECTION
  2
BLOCKS
  0
BLOCK
  2
*AH13
  3
*AH
 10
0.0
 20
0.0
 70
65
  0
LINE
  8
1
  6
CONTINUOUS
 62
0
 10
0.0
 20
0.0
 11
1.0
 21
-1.666679E-001
  0
LINE
  8
1
  6
CONTINUOUS
 62
0
 10
1.0
 20
-1.666679E-001
 11
1.0
 21
1.66668E-001
  0
LINE
  8
1
  6
CONTINUOUS
 62
0
 10
1.0
 20
1.66668E-001
 11
0.0
 21
0.0
  0
ENDBLK
  0
BLOCK
  2
XHXH1NEW02NEW00NEW00
 10
0.0
 20
0.0
 70
0
  0
POLYLINE
  8
254
  6
CONTINUOUS
 62
6
 66
1
 40
1.0E-003
 41
1.0E-003
 70
0
  0
VERTEX
  8
254
 42
0.0
 10
-2.2647095E-001
 20
-2.2647285E-001
 70
0
  0
VERTEX
  8
254
 42
0.0
 10
2.2647095E-001
 20
2.2647285E-001
 70
0
  0
SEQEND
  0
POLYLINE
  8
254
  6
CONTINUOUS
 62
6
 66
1
 40
1.0E-003
 41
1.0E-003
 70
0
  0
VERTEX
  8
254
 42
0.0
 10
-3.9656067E-001
 20
-6.7941666E-001
 70
0
  0
VERTEX
  8
254
 42
0.0
 10
4.2364502E-001
 20
1.4080048E-001
 70
0
  0
SEQEND
  0
POLYLINE
  8
254
  6
CONTINUOUS
 62
6
 66
1
 40
1.0E-003
 41
1.0E-003
 70
0
  0
VERTEX
  8
254
 42
0.0
 10
-5.6666565E-001
 20
-1.1323624
 70
0
  0
VERTEX
  8
254
 42
0.0
 10
4.2364502E-001
 20
-1.4204407E-001
 70
0
  0
SEQEND
  0
POLYLINE
  8
254
  6
CONTINUOUS
 62
6
 66
1
 40
1.0E-003
 41
1.0E-003
 70
0
  0
VERTEX
  8
254
 42
0.0
 10
-7.3677063E-001
 20
-1.5853081
 70
0
  0
VERTEX
  8
254
 42
0.0
 10
4.2364502E-001
 20
-4.248867E-001
 70
0
  0
SEQEND
  0
POLYLINE
  8
254
  6
CONTINUOUS
 62
6
 66
1
 40
1.0E-003
 41
1.0E-003
 70
0
  0
VERTEX
  8
254
 42
0.0
 10
8.1364441E-001
 20
-3.4885406E-002
 70
0
  0
VERTEX
  8
254
 42
0.0
 10
1.0749969
 20
2.2647285E-001
 70
0
  0
SEQEND
  0
POLYLINE
  8
254
  6
CONTINUOUS
 62
6
 66
1
 40
1.0E-003
 41
1.0E-003
 70
0
  0
VERTEX
  8
254
 42
0.0
 10
-6.9714355E-001
 20
-1.8285255
 70
0
  0
VERTEX
  8
254
 42
0.0
 10
4.2364502E-001
 20
-7.0773125E-001
 70
0
  0
SEQEND
  0
POLYLINE
  8
254
  6
CONTINUOUS
 62
6
 66
1
 40
1.0E-003
 41
1.0E-003
 70
0
  0
VERTEX
  8
254
 42
0.0
 10
8.1364441E-001
 20
-3.1772995E-001
 70
0
  0
VERTEX
  8
254
 42
0.0
 10
1.3111725
 20
1.7979813E-001
 70
0
  0
SEQEND
  0
POLYLINE
  8
254
  6
CONTINUOUS
 62
6
 66
1
 40
1.0E-003
 41
1.0E-003
 70
0
  0
VERTEX
  8
254
 42
0.0
 10
-8.928833E-001
 20
-2.3071117
 70
0
  0
VERTEX
  8
254
 42
0.0
 10
-8.0430603E-001
 20
-2.2185249
 70
0
  0
SEQEND
  0
POLYLINE
  8
254
  6
CONTINUOUS
 62
6
 66
1
 40
1.0E-003
 41
1.0E-003
 70
0
  0
VERTEX
  8
254
 42
0.0
 10
-4.1430664E-001
 20
-1.8285255
 70
0
  0
VERTEX
  8
254
 42
0.0
 10
4.2364502E-001
 20
-9.9057388E-001
 70
0
  0
SEQEND
  0
POLYLINE
  8
254
  6
CONTINUOUS
 62
6
 66
1
 40
1.0E-003
 41
1.0E-003
 70
0
  0
VERTEX
  8
254
 42
0.0
 10
8.1364441E-001
 20
-6.0057259E-001
 70
0
  0
VERTEX
  8
254
 42
0.0
 10
1.3883972
 20
-2.58255E-002
 70
0
  0
SEQEND
  0
POLYLINE
  8
254
  6
CONTINUOUS
 62
6
 66
1
 40
1.0E-003
 41
1.0E-003
 70
0
  0
VERTEX
  8
254
 42
0.0
 10
-1.0629883
 20
-2.7600574
 70
0
  0
VERTEX
  8
254
 42
0.0
 10
-5.2145386E-001
 20
-2.2185249
 70
0
  0
SEQEND
  0
POLYLINE
  8
254
  6
CONTINUOUS
 62
6
 66
1
 40
1.0E-003
 41
1.0E-003
 70
0
  0
VERTEX
  8
254
 42
0.0
 10
-1.3145447E-001
 20
-1.8285255
 70
0
  0
VERTEX
  8
254
 42
0.0
 10
4.2364502E-001
 20
-1.2734165
 70
0
  0
SEQEND
  0
POLYLINE
  8
254
  6
CONTINUOUS
 62
6
 66
1
 40
1.0E-003
 41
1.0E-003
 70
0
  0
VERTEX
  8
254
 42
0.0
 10
8.1364441E-001
 20
-8.8341522E-001
 70
0
  0
VERTEX
  8
254
 42
0.0
 10
1.4656067
 20
-2.3144722E-001
 70
0
  0
SEQEND
  0
POLYLINE
  8
254
  6
CONTINUOUS
 62
6
 66
1
 40
1.0E-003
 41
1.0E-003
 70
0
  0
VERTEX
  8
254
 42
0.0
 10
-1.2330933
 20
-3.2130032
 70
0
  0
VERTEX
  8
254
 42
0.0
 10
-2.3861694E-001
 20
-2.2185249
 70
0
  0
SEQEND
  0
POLYLINE
  8
254
  6
CONTINUOUS
 62
6
 66
1
 40
1.0E-003
 41
1.0E-003
 70
0
  0
VERTEX
  8
254
 42
0.0
 10
1.5138245E-001
 20
-1.8285255
 70
0
  0
VERTEX
  8
254
 42
0.0
 10
4.2364502E-001
 20
-1.5562611
 70
0
  0
SEQEND
  0
POLYLINE
  8
254
  6
CONTINUOUS
 62
6
 66
1
 40
1.0E-003
 41
1.0E-003
 70
0
  0
VERTEX
  8
254
 42
0.0
 10
8.1364441E-001
 20
-1.1662598
 70
0
  0
VERTEX
  8
254
 42
0.0
 10
1.5428314
 20
-4.3707085E-001
 70
0
  0
SEQEND
  0
POLYLINE
  8
254
  6
CONTINUOUS
 62
6
 66
1
 40
1.0E-003
 41
1.0E-003
 70
0
  0
VERTEX
  8
254
 42
0.0
 10
-1.4031982
 20
-3.665947
 70
0
  0
VERTEX
  8
254
 42
0.0
 10
4.4219971E-002
 20
-2.2185249
 70
0
  0
SEQEND
  0
POLYLINE
  8
254
  6
CONTINUOUS
 62
6
 66
1
 40
1.0E-003
 41
1.0E-003
 70
0
  0
VERTEX
  8
254
 42
0.0
 10
8.1364441E-001
 20
-1.4491024
 70
0
  0
VERTEX
  8
254
 42
0.0
 10
1.6200562
 20
-6.4269257E-001
 70
0
  0
SEQEND
  0
POLYLINE
  8
254
  6
CONTINUOUS
 62
6
 66
1
 40
1.0E-003
 41
1.0E-003
 70
0
  0
VERTEX
  8
254
 42
0.0
 10
-1.573288
 20
-4.1188927
 70
0
  0
VERTEX
  8
254
 42
0.0
 10
3.2707214E-001
 20
-2.2185249
 70
0
  0
SEQEND
  0
POLYLINE
  8
254
  6
CONTINUOUS
 62
6
 66
1
 40
1.0E-003
 41
1.0E-003
 70
0
  0
VERTEX
  8
254
 42
0.0
 10
8.1364441E-001
 20
-1.731945
 70
0
  0
VERTEX
  8
254
 42
0.0
 10
1.6972656
 20
-8.4831619E-001
 70
0
  0
SEQEND
  0
POLYLINE
  8
254
  6
CONTINUOUS
 62
6
 66
1
 40
1.0E-003
 41
1.0E-003
 70
0
  0
VERTEX
  8
254
 42
0.0
 10
-1.4450836
 20
-4.2735233
 70
0
  0
VERTEX
  8
254
 42
0.0
 10
4.2364502E-001
 20
-2.4047909
 70
0
  0
SEQEND
  0
POLYLINE
  8
254
  6
CONTINUOUS
 62
6
 66
1
 40
1.0E-003
 41
1.0E-003
 70
0
  0
VERTEX
  8
254
 42
0.0
 10
9.9990845E-001
 20
-1.8285255
 70
0
  0
VERTEX
  8
254
 42
0.0
 10
1.7744904
 20
-1.0539379
 70
0
  0
SEQEND
  0
POLYLINE
  8
254
  6
CONTINUOUS
 62
6
 66
1
 40
1.0E-003
 41
1.0E-003
 70
0
  0
VERTEX
  8
254
 42
0.0
 10
-1.1622314
 20
-4.2735233
 70
0
  0
VERTEX
  8
254
 42
0.0
 10
4.2364502E-001
 20
-2.6876335
 70
0
  0
SEQEND
  0
POLYLINE
  8
254
  6
CONTINUOUS
 62
6
 66
1
 40
1.0E-003
 41
1.0E-003
 70
0
  0
VERTEX
  8
254
 42
0.0
 10
8.1364441E-001
 20
-2.2976322
 70
0
  0
VERTEX
  8
254
 42
0.0
 10
8.9274597E-001
 20
-2.2185249
 70
0
  0
SEQEND
  0
POLYLINE
  8
254
  6
CONTINUOUS
 62
6
 66
1
 40
1.0E-003
 41
1.0E-003
 70
0
  0
VERTEX
  8
254
 42
0.0
 10
1.2827454
 20
-1.8285255
 70
0
  0
VERTEX
  8
254
 42
0.0
 10
1.8517151
 20
-1.2595596
 70
0
  0
SEQEND
  0
POLYLINE
  8
254
  6
CONTINUOUS
 62
6
 66
1
 40
1.0E-003
 41
1.0E-003
 70
0
  0
VERTEX
  8
254
 42
0.0
 10
3.1836395
 20
7.2372437E-002
 70
0
  0
VERTEX
  8
254
 42
0.0
 10
3.337738
 20
2.2647285E-001
 70
0
  0
SEQEND
  0
POLYLINE
  8
254
  6
CONTINUOUS
 62
6
 66
1
 40
1.0E-003
 41
1.0E-003
 70
0
  0
VERTEX
  8
254
 42
0.0
 10
-8.7939453E-001
 20
-4.2735233
 70
0
  0
VERTEX
  8
254
 42
0.0
 10
-3.0549622E-001
 20
-3.6996193
 70
0
  0
SEQEND
  0
POLYLINE
  8
254
  6
CONTINUOUS
 62
6
 66
1
 40
1.0E-003
 41
1.0E-003
 70
0
  0
VERTEX
  8
254
 42
0.0
 10
2.0599365E-002
 20
-3.3735256
 70
0
  0
VERTEX
  8
254
 42
0.0
 10
4.2364502E-001
 20
-2.9704762
 70
0
  0
SEQEND
  0
POLYLINE
  8
254
  6
CONTINUOUS
 62
6
 66
1
 40
1.0E-003
 41
1.0E-003
 70
0
  0
VERTEX
  8
254
 42
0.0
 10
8.1364441E-001
 20
-2.5804749
 70
0
  0
VERTEX
  8
254
 42
0.0
 10
1.1755981
 20
-2.2185249
 70
0
  0
SEQEND
  0
POLYLINE
  8
254
  6
CONTINUOUS
 62
6
 66
1
 40
1.0E-003
 41
1.0E-003
 70
0
  0
VERTEX
  8
254
 42
0.0
 10
1.5655975
 20
-1.8285255
 70
0
  0
VERTEX
  8
254
 42
0.0
 10
1.9289398
 20
-1.4651833
 70
0
  0
SEQEND
  0
POLYLINE
  8
254
  6
CONTINUOUS
 62
6
 66
1
 40
1.0E-003
 41
1.0E-003
 70
0
  0
VERTEX
  8
254
 42
0.0
 10
3.1836395
 20
-2.104702E-001
 70
0
  0
VERTEX
  8
254
 42
0.0
 10
3.620575
 20
2.2647285E-001
 70
0
  0
SEQEND
  0
POLYLINE
  8
254
  6
CONTINUOUS
 62
6
 66
1
 40
1.0E-003
 41
1.0E-003
 70
0
  0
VERTEX
  8
254
 42
0.0
 10
-5.9655762E-001
 20
-4.2735233
 70
0
  0
VERTEX
  8
254
 42
0.0
 10
-4.5779419E-001
 20
-4.1347656
 70
0
  0
SEQEND
  0
POLYLINE
  8
254
  6
CONTINUOUS
 62
6
 66
1
 40
1.0E-003
 41
1.0E-003
 70
0
  0
VERTEX
  8
254
 42
0.0
 10
3.0343628E-001
 20
-3.3735256
 70
0
  0
VERTEX
  8
254
 42
0.0
 10
4.2364502E-001
 20
-3.2533207
 70
0
  0
SEQEND
  0
POLYLINE
  8
254
  6
CONTINUOUS
 62
6
 66
1
 40
1.0E-003
 41
1.0E-003
 70
0
  0
VERTEX
  8
254
 42
0.0
 10
8.1364441E-001
 20
-2.8633194
 70
0
  0
VERTEX
  8
254
 42
0.0
 10
1.4584351
 20
-2.2185249
 70
0
  0
SEQEND
  0
POLYLINE
  8
254
  6
CONTINUOUS
 62
6
 66
1
 40
1.0E-003
 41
1.0E-003
 70
0
  0
VERTEX
  8
254
 42
0.0
 10
1.8484344
 20
-1.8285255
 70
0
  0
VERTEX
  8
254
 42
0.0
 10
2.0061493
 20
-1.670805
 70
0
  0
SEQEND
  0
POLYLINE
  8
254
  6
CONTINUOUS
 62
6
 66
1
 40
1.0E-003
 41
1.0E-003
 70
0
  0
VERTEX
  8
254
 42
0.0
 10
3.1836395
 20
-4.9331474E-001
 70
0
  0
VERTEX
  8
254
 42
0.0
 10
3.9034271
 20
2.2647285E-001
 70
0
  0
SEQEND
  0
POLYLINE
  8
254
  6
CONTINUOUS
 62
6
 66
1
 40
1.0E-003
 41
1.0E-003
 70
0
  0
VERTEX
  8
254
 42
0.0
 10
8.1364441E-001
 20
-3.146162
 70
0
  0
VERTEX
  8
254
 42
0.0
 10
1.741272
 20
-2.2185249
 70
0
  0
SEQEND
  0
POLYLINE
  8
254
  6
CONTINUOUS
 62
6
 66
1
 40
1.0E-003
 41
1.0E-003
 70
0
  0
VERTEX
  8
254
 42
0.0
 10
3.1836395
 20
-7.7615738E-001
 70
0
  0
VERTEX
  8
254
 42
0.0
 10
4.186264
 20
2.2647285E-001
 70
0
  0
SEQEND
  0
POLYLINE
  8
254
  6
CONTINUOUS
 62
6
 66
1
 40
1.0E-003
 41
1.0E-003
 70
0
  0
VERTEX
  8
254
 42
0.0
 10
8.6912537E-001
 20
-3.3735256
 70
0
  0
VERTEX
  8
254
 42
0.0
 10
2.0241241
 20
-2.2185249
 70
0
  0
SEQEND
  0
POLYLINE
  8
254
  6
CONTINUOUS
 62
6
 66
1
 40
1.0E-003
 41
1.0E-003
 70
0
  0
VERTEX
  8
254
 42
0.0
 10
3.1836395
 20
-1.059
 70
0
  0
VERTEX
  8
254
 42
0.0
 10
4.3386536
 20
9.6017838E-002
 70
0
  0
SEQEND
  0
POLYLINE
  8
254
  6
CONTINUOUS
 62
6
 66
1
 40
1.0E-003
 41
1.0E-003
 70
0
  0
VERTEX
  8
254
 42
0.0
 10
1.1519623
 20
-3.3735256
 70
0
  0
VERTEX
  8
254
 42
0.0
 10
2.1542511
 20
-2.3712425
 70
0
  0
SEQEND
  0
POLYLINE
  8
254
  6
CONTINUOUS
 62
6
 66
1
 40
1.0E-003
 41
1.0E-003
 70
0
  0
VERTEX
  8
254
 42
0.0
 10
3.1836395
 20
-1.3418446
 70
0
  0
VERTEX
  8
254
 42
0.0
 10
4.3386536
 20
-1.868248E-001
 70
0
  0
SEQEND
  0
POLYLINE
  8
254
  6
CONTINUOUS
 62
6
 66
1
 40
1.0E-003
 41
1.0E-003
 70
0
  0
VERTEX
  8
254
 42
0.0
 10
4.7286377
 20
2.0316124E-001
 70
0
  0
VERTEX
  8
254
 42
0.0
 10
4.7519531
 20
2.2647285E-001
 70
0
  0
SEQEND
  0
POLYLINE
  8
254
  6
CONTINUOUS
 62
6
 66
1
 40
1.0E-003
 41
1.0E-003
 70
0
  0
VERTEX
  8
254
 42
0.0
 10
1.4302368
 20
-3.3780994
 70
0
  0
VERTEX
  8
254
 42
0.0
 10
2.2314606
 20
-2.5768642
 70
0
  0
SEQEND
  0
POLYLINE
  8
254
  6
CONTINUOUS
 62
6
 66
1
 40
1.0E-003
 41
1.0E-003
 70
0
  0
VERTEX
  8
254
 42
0.0
 10
3.1836395
 20
-1.6246872
 70
0
  0
VERTEX
  8
254
 42
0.0
 10
4.3386536
 20
-4.6966743E-001
 70
0
  0
SEQEND
  0
POLYLINE
  8
254
  6
CONTINUOUS
 62
6
 66
1
 40
1.0E-003
 41
1.0E-003
 70
0
  0
VERTEX
  8
254
 42
0.0
 10
4.7286377
 20
-7.9683304E-002
 70
0
  0
VERTEX
  8
254
 42
0.0
 10
5.0330811
 20
2.2476578E-001
 70
0
  0
SEQEND
  0
POLYLINE
  8
254
  6
CONTINUOUS
 62
6
 66
1
 40
1.0E-003
 41
1.0E-003
 70
0
  0
VERTEX
  8
254
 42
0.0
 10
1.5035706
 20
-3.5876122
 70
0
  0
VERTEX
  8
254
 42
0.0
 10
2.3086853
 20
-2.7824879
 70
0
  0
SEQEND
  0
POLYLINE
  8
254
  6
CONTINUOUS
 62
6
 66
1
 40
1.0E-003
 41
1.0E-003
 70
0
  0
VERTEX
  8
254
 42
0.0
 10
3.2626495
 20
-1.8285255
 70
0
  0
VERTEX
  8
254
 42
0.0
 10
4.3386536
 20
-7.5251198E-001
 70
0
  0
SEQEND
  0
POLYLINE
  8
254
  6
CONTINUOUS
 62
6
 66
1
 40
1.0E-003
 41
1.0E-003
 70
0
  0
VERTEX
  8
254
 42
0.0
 10
4.7286377
 20
-3.6252594E-001
 70
0
  0
VERTEX
  8
254
 42
0.0
 10
5.2719421
 20
1.8078232E-001
 70
0
  0
SEQEND
  0
POLYLINE
  8
254
  6
CONTINUOUS
 62
6
 66
1
 40
1.0E-003
 41
1.0E-003
 70
0
  0
VERTEX
  8
254
 42
0.0
 10
1.576889
 20
-3.7971249
 70
0
  0
VERTEX
  8
254
 42
0.0
 10
2.38591
 20
-2.9881096
 70
0
  0
SEQEND
  0
POLYLINE
  8
254
  6
CONTINUOUS
 62
6
 66
1
 40
1.0E-003
 41
1.0E-003
 70
0
  0
VERTEX
  8
254
 42
0.0
 10
3.5454865
 20
-1.8285255
 70
0
  0
VERTEX
  8
254
 42
0.0
 10
4.3386536
 20
-1.0353546
 70
0
  0
SEQEND
  0
POLYLINE
  8
254
  6
CONTINUOUS
 62
6
 66
1
 40
1.0E-003
 41
1.0E-003
 70
0
  0
VERTEX
  8
254
 42
0.0
 10
4.7286377
 20
-6.4536858E-001
 70
0
  0
VERTEX
  8
254
 42
0.0
 10
5.4707031
 20
9.6696854E-002
 70
0
  0
SEQEND
  0
POLYLINE
  8
254
  6
CONTINUOUS
 62
6
 66
1
 40
1.0E-003
 41
1.0E-003
 70
0
  0
VERTEX
  8
254
 42
0.0
 10
1.6502228
 20
-4.0066376
 70
0
  0
VERTEX
  8
254
 42
0.0
 10
2.4631348
 20
-3.1937332
 70
0
  0
SEQEND
  0
POLYLINE
  8
254
  6
CONTINUOUS
 62
6
 66
1
 40
1.0E-003
 41
1.0E-003
 70
0
  0
VERTEX
  8
254
 42
0.0
 10
3.1836395
 20
-2.473217
 70
0
  0
VERTEX
  8
254
 42
0.0
 10
3.438324
 20
-2.2185249
 70
0
  0
SEQEND
  0
POLYLINE
  8
254
  6
CONTINUOUS
 62
6
 66
1
 40
1.0E-003
 41
1.0E-003
 70
0
  0
VERTEX
  8
254
 42
0.0
 10
3.8283234
 20
-1.8285255
 70
0
  0
VERTEX
  8
254
 42
0.0
 10
4.3386536
 20
-1.3181992
 70
0
  0
SEQEND
  0
POLYLINE
  8
254
  6
CONTINUOUS
 62
6
 66
1
 40
1.0E-003
 41
1.0E-003
 70
0
  0
VERTEX
  8
254
 42
0.0
 10
4.7286377
 20
-9.2821312E-001
 70
0
  0
VERTEX
  8
254
 42
0.0
 10
5.6378021
 20
-1.9039154E-002
 70
0
  0
SEQEND
  0
POLYLINE
  8
254
  6
CONTINUOUS
 62
6
 66
1
 40
1.0E-003
 41
1.0E-003
 70
0
  0
VERTEX
  8
254
 42
0.0
 10
1.7235565
 20
-4.2161503
 70
0
  0
VERTEX
  8
254
 42
0.0
 10
2.5403442
 20
-3.3993549
 70
0
  0
SEQEND
  0
POLYLINE
  8
254
  6
CONTINUOUS
 62
6
 66
1
 40
1.0E-003
 41
1.0E-003
 70
0
  0
VERTEX
  8
254
 42
0.0
 10
3.1836395
 20
-2.7560596
 70
0
  0
VERTEX
  8
254
 42
0.0
 10
3.7211761
 20
-2.2185249
 70
0
  0
SEQEND
  0
POLYLINE
  8
254
  6
CONTINUOUS
 62
6
 66
1
 40
1.0E-003
 41
1.0E-003
 70
0
  0
VERTEX
  8
254
 42
0.0
 10
4.1111755
 20
-1.8285255
 70
0
  0
VERTEX
  8
254
 42
0.0
 10
4.3386536
 20
-1.6010418
 70
0
  0
SEQEND
  0
POLYLINE
  8
254
  6
CONTINUOUS
 62
6
 66
1
 40
1.0E-003
 41
1.0E-003
 70
0
  0
VERTEX
  8
254
 42
0.0
 10
4.7286377
 20
-1.2110558
 70
0
  0
VERTEX
  8
254
 42
0.0
 10
5.7763824
 20
-1.633091E-001
 70
0
  0
SEQEND
  0
POLYLINE
  8
254
  6
CONTINUOUS
 62
6
 66
1
 40
1.0E-003
 41
1.0E-003
 70
0
  0
VERTEX
  8
254
 42
0.0
 10
1.9490204
 20
-4.2735233
 70
0
  0
VERTEX
  8
254
 42
0.0
 10
2.617569
 20
-3.6049767
 70
0
  0
SEQEND
  0
POLYLINE
  8
254
  6
CONTINUOUS
 62
6
 66
1
 40
1.0E-003
 41
1.0E-003
 70
0
  0
VERTEX
  8
254
 42
0.0
 10
3.1836395
 20
-3.0389042
 70
0
  0
VERTEX
  8
254
 42
0.0
 10
4.0040131
 20
-2.2185249
 70
0
  0
SEQEND
  0
POLYLINE
  8
254
  6
CONTINUOUS
 62
6
 66
1
 40
1.0E-003
 41
1.0E-003
 70
0
  0
VERTEX
  8
254
 42
0.0
 10
4.7286377
 20
-1.4938984
 70
0
  0
VERTEX
  8
254
 42
0.0
 10
5.885849
 20
-3.3667946E-001
 70
0
  0
SEQEND
  0
POLYLINE
  8
254
  6
CONTINUOUS
 62
6
 66
1
 40
1.0E-003
 41
1.0E-003
 70
0
  0
VERTEX
  8
254
 42
0.0
 10
2.2318726
 20
-4.2735233
 70
0
  0
VERTEX
  8
254
 42
0.0
 10
2.6947937
 20
-3.8106003
 70
0
  0
SEQEND
  0
POLYLINE
  8
254
  6
CONTINUOUS
 62
6
 66
1
 40
1.0E-003
 41
1.0E-003
 70
0
  0
VERTEX
  8
254
 42
0.0
 10
3.1836395
 20
-3.3217468
 70
0
  0
VERTEX
  8
254
 42
0.0
 10
4.2868652
 20
-2.2185249
 70
0
  0
SEQEND
  0
POLYLINE
  8
254
  6
CONTINUOUS
 62
6
 66
1
 40
1.0E-003
 41
1.0E-003
 70
0
  0
VERTEX
  8
254
 42
0.0
 10
4.7286377
 20
-1.7767429
 70
0
  0
VERTEX
  8
254
 42
0.0
 10
5.9616241
 20
-5.4375839E-001
 70
0
  0
SEQEND
  0
POLYLINE
  8
254
  6
CONTINUOUS
 62
6
 66
1
 40
1.0E-003
 41
1.0E-003
 70
0
  0
VERTEX
  8
254
 42
0.0
 10
6.693634
 20
1.8826294E-001
 70
0
  0
VERTEX
  8
254
 42
0.0
 10
6.731842
 20
2.2647285E-001
 70
0
  0
SEQEND
  0
POLYLINE
  8
254
  6
CONTINUOUS
 62
6
 66
1
 40
1.0E-003
 41
1.0E-003
 70
0
  0
VERTEX
  8
254
 42
0.0
 10
2.5147095
 20
-4.2735233
 70
0
  0
VERTEX
  8
254
 42
0.0
 10
2.7720032
 20
-4.016222
 70
0
  0
SEQEND
  0
POLYLINE
  8
254
  6
CONTINUOUS
 62
6
 66
1
 40
1.0E-003
 41
1.0E-003
 70
0
  0
VERTEX
  8
254
 42
0.0
 10
3.1836395
 20
-3.6045914
 70
0
  0
VERTEX
  8
254
 42
0.0
 10
4.3386536
 20
-2.4495716
 70
0
  0
SEQEND
  0
POLYLINE
  8
254
  6
CONTINUOUS
 62
6
 66
1
 40
1.0E-003
 41
1.0E-003
 70
0
  0
VERTEX
  8
254
 42
0.0
 10
4.9597015
 20
-1.8285255
 70
0
  0
VERTEX
  8
254
 42
0.0
 10
5.9921417
 20
-7.9607391E-001
 70
0
  0
SEQEND
  0
POLYLINE
  8
254
  6
CONTINUOUS
 62
6
 66
1
 40
1.0E-003
 41
1.0E-003
 70
0
  0
VERTEX
  8
254
 42
0.0
 10
6.693634
 20
-9.4581604E-002
 70
0
  0
VERTEX
  8
254
 42
0.0
 10
7.0146942
 20
2.2647285E-001
 70
0
  0
SEQEND
  0
POLYLINE
  8
254
  6
CONTINUOUS
 62
6
 66
1
 40
1.0E-003
 41
1.0E-003
 70
0
  0
VERTEX
  8
254
 42
0.0
 10
2.7975464
 20
-4.2735233
 70
0
  0
VERTEX
  8
254
 42
0.0
 10
2.8492279
 20
-4.2218456
 70
0
  0
SEQEND
  0
POLYLINE
  8
254
  6
CONTINUOUS
 62
6
 66
1
 40
1.0E-003
 41
1.0E-003
 70
0
  0
VERTEX
  8
254
 42
0.0
 10
3.1836395
 20
-3.887434
 70
0
  0
VERTEX
  8
254
 42
0.0
 10
4.3386536
 20
-2.7324142
 70
0
  0
SEQEND
  0
POLYLINE
  8
254
  6
CONTINUOUS
 62
6
 66
1
 40
1.0E-003
 41
1.0E-003
 70
0
  0
VERTEX
  8
254
 42
0.0
 10
4.7286377
 20
-2.3424282
 70
0
  0
VERTEX
  8
254
 42
0.0
 10
4.8525391
 20
-2.2185249
 70
0
  0
SEQEND
  0
POLYLINE
  8
254
  6
CONTINUOUS
 62
6
 66
1
 40
1.0E-003
 41
1.0E-003
 70
0
  0
VERTEX
  8
254
 42
0.0
 10
5.2425385
 20
-1.8285255
 70
0
  0
VERTEX
  8
254
 42
0.0
 10
5.9243927
 20
-1.1466713
 70
0
  0
SEQEND
  0
POLYLINE
  8
254
  6
CONTINUOUS
 62
6
 66
1
 40
1.0E-003
 41
1.0E-003
 70
0
  0
VERTEX
  8
254
 42
0.0
 10
6.693634
 20
-3.7742424E-001
 70
0
  0
VERTEX
  8
254
 42
0.0
 10
7.2975311
 20
2.2647285E-001
 70
0
  0
SEQEND
  0
POLYLINE
  8
254
  6
CONTINUOUS
 62
6
 66
1
 40
1.0E-003
 41
1.0E-003
 70
0
  0
VERTEX
  8
254
 42
0.0
 10
3.1836395
 20
-4.1702766
 70
0
  0
VERTEX
  8
254
 42
0.0
 10
4.3386536
 20
-3.0152588
 70
0
  0
SEQEND
  0
POLYLINE
  8
254
  6
CONTINUOUS
 62
6
 66
1
 40
1.0E-003
 41
1.0E-003
 70
0
  0
VERTEX
  8
254
 42
0.0
 10
4.7286377
 20
-2.6252728
 70
0
  0
VERTEX
  8
254
 42
0.0
 10
5.1353912
 20
-2.2185249
 70
0
  0
SEQEND
  0
POLYLINE
  8
254
  6
CONTINUOUS
 62
6
 66
1
 40
1.0E-003
 41
1.0E-003
 70
0
  0
VERTEX
  8
254
 42
0.0
 10
5.5253754
 20
-1.8285255
 70
0
  0
VERTEX
  8
254
 42
0.0
 10
5.618103
 20
-1.7358074
 70
0
  0
SEQEND
  0
POLYLINE
  8
254
  6
CONTINUOUS
 62
6
 66
1
 40
1.0E-003
 41
1.0E-003
 70
0
  0
VERTEX
  8
254
 42
0.0
 10
6.693634
 20
-6.6026688E-001
 70
0
  0
VERTEX
  8
254
 42
0.0
 10
7.580368
 20
2.2647285E-001
 70
0
  0
SEQEND
  0
POLYLINE
  8
254
  6
CONTINUOUS
 62
6
 66
1
 40
1.0E-003
 41
1.0E-003
 70
0
  0
VERTEX
  8
254
 42
0.0
 10
3.3632355
 20
-4.2735233
 70
0
  0
VERTEX
  8
254
 42
0.0
 10
4.3386536
 20
-3.2981014
 70
0
  0
SEQEND
  0
POLYLINE
  8
254
  6
CONTINUOUS
 62
6
 66
1
 40
1.0E-003
 41
1.0E-003
 70
0
  0
VERTEX
  8
254
 42
0.0
 10
4.7286377
 20
-2.9081154
 70
0
  0
VERTEX
  8
254
 42
0.0
 10
5.4182281
 20
-2.2185249
 70
0
  0
SEQEND
  0
POLYLINE
  8
254
  6
CONTINUOUS
 62
6
 66
1
 40
1.0E-003
 41
1.0E-003
 70
0
  0
VERTEX
  8
254
 42
0.0
 10
6.693634
 20
-9.4311142E-001
 70
0
  0
VERTEX
  8
254
 42
0.0
 10
7.8486481
 20
2.1190834E-001
 70
0
  0
SEQEND
  0
POLYLINE
  8
254
  6
CONTINUOUS
 62
6
 66
1
 40
1.0E-003
 41
1.0E-003
 70
0
  0
VERTEX
  8
254
 42
0.0
 10
3.6460724
 20
-4.2735233
 70
0
  0
VERTEX
  8
254
 42
0.0
 10
4.3386536
 20
-3.5809441
 70
0
  0
SEQEND
  0
POLYLINE
  8
254
  6
CONTINUOUS
 62
6
 66
1
 40
1.0E-003
 41
1.0E-003
 70
0
  0
VERTEX
  8
254
 42
0.0
 10
4.7286377
 20
-3.1909599
 70
0
  0
VERTEX
  8
254
 42
0.0
 10
5.7010651
 20
-2.2185249
 70
0
  0
SEQEND
  0
POLYLINE
  8
254
  6
CONTINUOUS
 62
6
 66
1
 40
1.0E-003
 41
1.0E-003
 70
0
  0
VERTEX
  8
254
 42
0.0
 10
6.693634
 20
-1.2259541
 70
0
  0
VERTEX
  8
254
 42
0.0
 10
7.8486481
 20
-7.0936203E-002
 70
0
  0
SEQEND
  0
POLYLINE
  8
254
  6
CONTINUOUS
 62
6
 66
1
 40
1.0E-003
 41
1.0E-003
 70
0
  0
VERTEX
  8
254
 42
0.0
 10
3.9289246
 20
-4.2735233
 70
0
  0
VERTEX
  8
254
 42
0.0
 10
4.3386536
 20
-3.8637886
 70
0
  0
SEQEND
  0
POLYLINE
  8
254
  6
CONTINUOUS
 62
6
 66
1
 40
1.0E-003
 41
1.0E-003
 70
0
  0
VERTEX
  8
254
 42
0.0
 10
4.7286377
 20
-3.4738026
 70
0
  0
VERTEX
  8
254
 42
0.0
 10
5.9839172
 20
-2.2185249
 70
0
  0
SEQEND
  0
POLYLINE
  8
254
  6
CONTINUOUS
 62
6
 66
1
 40
1.0E-003
 41
1.0E-003
 70
0
  0
VERTEX
  8
254
 42
0.0
 10
6.693634
 20
-1.5087986
 70
0
  0
VERTEX
  8
254
 42
0.0
 10
7.8486481
 20
-3.5377884E-001
 70
0
  0
SEQEND
  0
POLYLINE
  8
254
  6
CONTINUOUS
 62
6
 66
1
 40
1.0E-003
 41
1.0E-003
 70
0
  0
VERTEX
  8
254
 42
0.0
 10
8.2386322
 20
3.6207199E-002
 70
0
  0
VERTEX
  8
254
 42
0.0
 10
8.428894
 20
2.2647285E-001
 70
0
  0
SEQEND
  0
POLYLINE
  8
254
  6
CONTINUOUS
 62
6
 66
1
 40
1.0E-003
 41
1.0E-003
 70
0
  0
VERTEX
  8
254
 42
0.0
 10
4.2117615
 20
-4.2735233
 70
0
  0
VERTEX
  8
254
 42
0.0
 10
4.3386536
 20
-4.1466312
 70
0
  0
SEQEND
  0
POLYLINE
  8
254
  6
CONTINUOUS
 62
6
 66
1
 40
1.0E-003
 41
1.0E-003
 70
0
  0
VERTEX
  8
254
 42
0.0
 10
4.7286377
 20
-3.7566452
 70
0
  0
VERTEX
  8
254
 42
0.0
 10
6.181076
 20
-2.3042011
 70
0
  0
SEQEND
  0
POLYLINE
  8
254
  6
CONTINUOUS
 62
6
 66
1
 40
1.0E-003
 41
1.0E-003
 70
0
  0
VERTEX
  8
254
 42
0.0
 10
6.693634
 20
-1.7916412
 70
0
  0
VERTEX
  8
254
 42
0.0
 10
7.8486481
 20
-6.3662148E-001
 70
0
  0
SEQEND
  0
POLYLINE
  8
254
  6
CONTINUOUS
 62
6
 66
1
 40
1.0E-003
 41
1.0E-003
 70
0
  0
VERTEX
  8
254
 42
0.0
 10
8.2386322
 20
-2.4663544E-001
 70
0
  0
VERTEX
  8
254
 42
0.0
 10
8.6889954
 20
2.0372772E-001
 70
0
  0
SEQEND
  0
POLYLINE
  8
254
  6
CONTINUOUS
 62
6
 66
1
 40
1.0E-003
 41
1.0E-003
 70
0
  0
VERTEX
  8
254
 42
0.0
 10
4.7286377
 20
-4.0394897
 70
0
  0
VERTEX
  8
254
 42
0.0
 10
6.2656097
 20
-2.5025082
 70
0
  0
SEQEND
  0
POLYLINE
  8
254
  6
CONTINUOUS
 62
6
 66
1
 40
1.0E-003
 41
1.0E-003
 70
0
  0
VERTEX
  8
254
 42
0.0
 10
6.9395905
 20
-1.8285255
 70
0
  0
VERTEX
  8
254
 42
0.0
 10
7.8486481
 20
-9.1946602E-001
 70
0
  0
SEQEND
  0
POLYLINE
  8
254
  6
CONTINUOUS
 62
6
 66
1
 40
1.0E-003
 41
1.0E-003
 70
0
  0
VERTEX
  8
254
 42
0.0
 10
8.2386322
 20
-5.2947998E-001
 70
0
  0
VERTEX
  8
254
 42
0.0
 10
8.9050598
 20
1.3694763E-001
 70
0
  0
SEQEND
  0
POLYLINE
  8
254
  6
CONTINUOUS
 62
6
 66
1
 40
1.0E-003
 41
1.0E-003
 70
0
  0
VERTEX
  8
254
 42
0.0
 10
4.7774506
 20
-4.2735233
 70
0
  0
VERTEX
  8
254
 42
0.0
 10
6.3190155
 20
-2.7319412
 70
0
  0
SEQEND
  0
POLYLINE
  8
254
  6
CONTINUOUS
 62
6
 66
1
 40
1.0E-003
 41
1.0E-003
 70
0
  0
VERTEX
  8
254
 42
0.0
 10
6.693634
 20
-2.3573284
 70
0
  0
VERTEX
  8
254
 42
0.0
 10
6.8324432
 20
-2.2185249
 70
0
  0
SEQEND
  0
POLYLINE
  8
254
  6
CONTINUOUS
 62
6
 66
1
 40
1.0E-003
 41
1.0E-003
 70
0
  0
VERTEX
  8
254
 42
0.0
 10
7.2224274
 20
-1.8285255
 70
0
  0
VERTEX
  8
254
 42
0.0
 10
7.8486481
 20
-1.2023087
 70
0
  0
SEQEND
  0
POLYLINE
  8
254
  6
CONTINUOUS
 62
6
 66
1
 40
1.0E-003
 41
1.0E-003
 70
0
  0
VERTEX
  8
254
 42
0.0
 10
8.2386322
 20
-8.1232262E-001
 70
0
  0
VERTEX
  8
254
 42
0.0
 10
9.0850067
 20
3.4049988E-002
 70
0
  0
SEQEND
  0
POLYLINE
  8
254
  6
CONTINUOUS
 62
6
 66
1
 40
1.0E-003
 41
1.0E-003
 70
0
  0
VERTEX
  8
254
 42
0.0
 10
5.0675201
 20
-4.2662849
 70
0
  0
VERTEX
  8
254
 42
0.0
 10
6.3274994
 20
-3.0063057
 70
0
  0
SEQEND
  0
POLYLINE
  8
254
  6
CONTINUOUS
 62
6
 66
1
 40
1.0E-003
 41
1.0E-003
 70
0
  0
VERTEX
  8
254
 42
0.0
 10
6.693634
 20
-2.6401711
 70
0
  0
VERTEX
  8
254
 42
0.0
 10
7.1152802
 20
-2.2185249
 70
0
  0
SEQEND
  0
POLYLINE
  8
254
  6
CONTINUOUS
 62
6
 66
1
 40
1.0E-003
 41
1.0E-003
 70
0
  0
VERTEX
  8
254
 42
0.0
 10
7.5052795
 20
-1.8285255
 70
0
  0
VERTEX
  8
254
 42
0.0
 10
7.8486481
 20
-1.4851513
 70
0
  0
SEQEND
  0
POLYLINE
  8
254
  6
CONTINUOUS
 62
6
 66
1
 40
1.0E-003
 41
1.0E-003
 70
0
  0
VERTEX
  8
254
 42
0.0
 10
8.2386322
 20
-1.0951672
 70
0
  0
VERTEX
  8
254
 42
0.0
 10
9.2350922
 20
-9.869957E-002
 70
0
  0
SEQEND
  0
POLYLINE
  8
254
  6
CONTINUOUS
 62
6
 66
1
 40
1.0E-003
 41
1.0E-003
 70
0
  0
VERTEX
  8
254
 42
0.0
 10
5.416275
 20
-4.2003727
 70
0
  0
VERTEX
  8
254
 42
0.0
 10
6.2580872
 20
-3.3585587
 70
0
  0
SEQEND
  0
POLYLINE
  8
254
  6
CONTINUOUS
 62
6
 66
1
 40
1.0E-003
 41
1.0E-003
 70
0
  0
VERTEX
  8
254
 42
0.0
 10
6.693634
 20
-2.9230137
 70
0
  0
VERTEX
  8
254
 42
0.0
 10
7.3981171
 20
-2.2185249
 70
0
  0
SEQEND
  0
POLYLINE
  8
254
  6
CONTINUOUS
 62
6
 66
1
 40
1.0E-003
 41
1.0E-003
 70
0
  0
VERTEX
  8
254
 42
0.0
 10
7.7881165
 20
-1.8285255
 70
0
  0
VERTEX
  8
254
 42
0.0
 10
7.8486481
 20
-1.7679958
 70
0
  0
SEQEND
  0
POLYLINE
  8
254
  6
CONTINUOUS
 62
6
 66
1
 40
1.0E-003
 41
1.0E-003
 70
0
  0
VERTEX
  8
254
 42
0.0
 10
8.2386322
 20
-1.3780098
 70
0
  0
VERTEX
  8
254
 42
0.0
 10
9.3569641
 20
-2.5967217E-001
 70
0
  0
SEQEND
  0
POLYLINE
  8
254
  6
CONTINUOUS
 62
6
 66
1
 40
1.0E-003
 41
1.0E-003
 70
0
  0
VERTEX
  8
254
 42
0.0
 10
6.693634
 20
-3.2058582
 70
0
  0
VERTEX
  8
254
 42
0.0
 10
7.6809692
 20
-2.2185249
 70
0
  0
SEQEND
  0
POLYLINE
  8
254
  6
CONTINUOUS
 62
6
 66
1
 40
1.0E-003
 41
1.0E-003
 70
0
  0
VERTEX
  8
254
 42
0.0
 10
8.2386322
 20
-1.6608524
 70
0
  0
VERTEX
  8
254
 42
0.0
 10
9.4486694
 20
-4.5081711E-001
 70
0
  0
SEQEND
  0
POLYLINE
  8
254
  6
CONTINUOUS
 62
6
 66
1
 40
1.0E-003
 41
1.0E-003
 70
0
  0
VERTEX
  8
254
 42
0.0
 10
6.693634
 20
-3.4887009
 70
0
  0
VERTEX
  8
254
 42
0.0
 10
7.8486481
 20
-2.3336811
 70
0
  0
SEQEND
  0
POLYLINE
  8
254
  6
CONTINUOUS
 62
6
 66
1
 40
1.0E-003
 41
1.0E-003
 70
0
  0
VERTEX
  8
254
 42
0.0
 10
8.3538055
 20
-1.8285255
 70
0
  0
VERTEX
  8
254
 42
0.0
 10
9.4981384
 20
-6.8418121E-001
 70
0
  0
SEQEND
  0
POLYLINE
  8
254
  6
CONTINUOUS
 62
6
 66
1
 40
1.0E-003
 41
1.0E-003
 70
0
  0
VERTEX
  8
254
 42
0.0
 10
6.693634
 20
-3.7715435
 70
0
  0
VERTEX
  8
254
 42
0.0
 10
7.8486481
 20
-2.6165256
 70
0
  0
SEQEND
  0
POLYLINE
  8
254
  6
CONTINUOUS
 62
6
 66
1
 40
1.0E-003
 41
1.0E-003
 70
0
  0
VERTEX
  8
254
 42
0.0
 10
8.2386322
 20
-2.2265396
 70
0
  0
VERTEX
  8
254
 42
0.0
 10
8.2466431
 20
-2.2185249
 70
0
  0
SEQEND
  0
POLYLINE
  8
254
  6
CONTINUOUS
 62
6
 66
1
 40
1.0E-003
 41
1.0E-003
 70
0
  0
VERTEX
  8
254
 42
0.0
 10
8.6366425
 20
-1.8285255
 70
0
  0
VERTEX
  8
254
 42
0.0
 10
9.4822998
 20
-9.8287392E-001
 70
0
  0
SEQEND
  0
POLYLINE
  8
254
  6
CONTINUOUS
 62
6
 66
1
 40
1.0E-003
 41
1.0E-003
 70
0
  0
VERTEX
  8
254
 42
0.0
 10
6.693634
 20
-4.054388
 70
0
  0
VERTEX
  8
254
 42
0.0
 10
7.8486481
 20
-2.8993683
 70
0
  0
SEQEND
  0
POLYLINE
  8
254
  6
CONTINUOUS
 62
6
 66
1
 40
1.0E-003
 41
1.0E-003
 70
0
  0
VERTEX
  8
254
 42
0.0
 10
8.2386322
 20
-2.5093822
 70
0
  0
VERTEX
  8
254
 42
0.0
 10
8.5294952
 20
-2.2185249
 70
0
  0
SEQEND
  0
POLYLINE
  8
254
  6
CONTINUOUS
 62
6
 66
1
 40
1.0E-003
 41
1.0E-003
 70
0
  0
VERTEX
  8
254
 42
0.0
 10
8.9194946
 20
-1.8285255
 70
0
  0
VERTEX
  8
254
 42
0.0
 10
9.0524445
 20
-1.6955605
 70
0
  0
SEQEND
  0
POLYLINE
  8
254
  6
CONTINUOUS
 62
6
 66
1
 40
1.0E-003
 41
1.0E-003
 70
0
  0
VERTEX
  8
254
 42
0.0
 10
6.7573395
 20
-4.2735233
 70
0
  0
VERTEX
  8
254
 42
0.0
 10
7.8486481
 20
-3.1822128
 70
0
  0
SEQEND
  0
POLYLINE
  8
254
  6
CONTINUOUS
 62
6
 66
1
 40
1.0E-003
 41
1.0E-003
 70
0
  0
VERTEX
  8
254
 42
0.0
 10
8.2386322
 20
-2.7922268
 70
0
  0
VERTEX
  8
254
 42
0.0
 10
8.8123322
 20
-2.2185249
 70
0
  0
SEQEND
  0
POLYLINE
  8
254
  6
CONTINUOUS
 62
6
 66
1
 40
1.0E-003
 41
1.0E-003
 70
0
  0
VERTEX
  8
254
 42
0.0
 10
9.2023315
 20
-1.8285255
 70
0
  0
VERTEX
  8
254
 42
0.0
 10
9.2325897
 20
-1.7982578
 70
0
  0
SEQEND
  0
POLYLINE
  8
254
  6
CONTINUOUS
 62
6
 66
1
 40
1.0E-003
 41
1.0E-003
 70
0
  0
VERTEX
  8
254
 42
0.0
 10
7.0401917
 20
-4.2735233
 70
0
  0
VERTEX
  8
254
 42
0.0
 10
7.8486481
 20
-3.4650555
 70
0
  0
SEQEND
  0
POLYLINE
  8
254
  6
CONTINUOUS
 62
6
 66
1
 40
1.0E-003
 41
1.0E-003
 70
0
  0
VERTEX
  8
254
 42
0.0
 10
8.2386322
 20
-3.0750694
 70
0
  0
VERTEX
  8
254
 42
0.0
 10
9.0951691
 20
-2.2185249
 70
0
  0
SEQEND
  0
POLYLINE
  8
254
  6
CONTINUOUS
 62
6
 66
1
 40
1.0E-003
 41
1.0E-003
 70
0
  0
VERTEX
  8
254
 42
0.0
 10
7.3230286
 20
-4.2735233
 70
0
  0
VERTEX
  8
254
 42
0.0
 10
7.8486481
 20
-3.7478981
 70
0
  0
SEQEND
  0
POLYLINE
  8
254
  6
CONTINUOUS
 62
6
 66
1
 40
1.0E-003
 41
1.0E-003
 70
0
  0
VERTEX
  8
254
 42
0.0
 10
8.2386322
 20
-3.3579121
 70
0
  0
VERTEX
  8
254
 42
0.0
 10
9.3780212
 20
-2.2185249
 70
0
  0
SEQEND
  0
POLYLINE
  8
254
  6
CONTINUOUS
 62
6
 66
1
 40
1.0E-003
 41
1.0E-003
 70
0
  0
VERTEX
  8
254
 42
0.0
 10
7.6058655
 20
-4.2735233
 70
0
  0
VERTEX
  8
254
 42
0.0
 10
7.8486481
 20
-4.0307426
 70
0
  0
SEQEND
  0
POLYLINE
  8
254
  6
CONTINUOUS
 62
6
 66
1
 40
1.0E-003
 41
1.0E-003
 70
0
  0
VERTEX
  8
254
 42
0.0
 10
8.2386322
 20
-3.6407566
 70
0
  0
VERTEX
  8
254
 42
0.0
 10
9.6507568
 20
-2.228632
 70
0
  0
SEQEND
  0
POLYLINE
  8
254
  6
CONTINUOUS
 62
6
 66
1
 40
1.0E-003
 41
1.0E-003
 70
0
  0
VERTEX
  8
254
 42
0.0
 10
8.2386322
 20
-3.9235992
 70
0
  0
VERTEX
  8
254
 42
0.0
 10
9.7415924
 20
-2.4206371
 70
0
  0
SEQEND
  0
POLYLINE
  8
254
  6
CONTINUOUS
 62
6
 66
1
 40
1.0E-003
 41
1.0E-003
 70
0
  0
VERTEX
  8
254
 42
0.0
 10
8.2386322
 20
-4.2064419
 70
0
  0
VERTEX
  8
254
 42
0.0
 10
9.8081055
 20
-2.6369629
 70
0
  0
SEQEND
  0
POLYLINE
  8
254
  6
CONTINUOUS
 62
6
 66
1
 40
1.0E-003
 41
1.0E-003
 70
0
  0
VERTEX
  8
254
 42
0.0
 10
8.4543915
 20
-4.2735233
 70
0
  0
VERTEX
  8
254
 42
0.0
 10
9.8392181
 20
-2.8886967
 70
0
  0
SEQEND
  0
POLYLINE
  8
254
  6
CONTINUOUS
 62
6
 66
1
 40
1.0E-003
 41
1.0E-003
 70
0
  0
VERTEX
  8
254
 42
0.0
 10
8.7687836
 20
-4.2419796
 70
0
  0
VERTEX
  8
254
 42
0.0
 10
9.8147125
 20
-3.196043
 70
0
  0
SEQEND
  0
POLYLINE
  8
254
  6
CONTINUOUS
 62
6
 66
1
 40
1.0E-003
 41
1.0E-003
 70
0
  0
VERTEX
  8
254
 42
0.0
 10
9.275238
 20
-4.0183601
 70
0
  0
VERTEX
  8
254
 42
0.0
 10
9.5876312
 20
-3.7059689
 70
0
  0
SEQEND
  0
ENDBLK
  0
BLOCK
  2
RAHMENA4
 10
0.0
 20
0.0
 70
0
  0
POLYLINE
  8
1
  6
CONTINUOUS
 62
6
 66
1
 40
7.0E-001
 41
7.0E-001
 70
0
  0
VERTEX
  8
1
 42
0.0
 10
1.9000008E+001
 20
2.9150003E+002
 70
0
  0
VERTEX
  8
1
 42
0.0
 10
1.9000008E+001
 20
5.5
 70
0
  0
SEQEND
  0
POLYLINE
  8
1
  6
CONTINUOUS
 62
6
 66
1
 40
7.0E-001
 41
7.0E-001
 70
0
  0
VERTEX
  8
1
 42
0.0
 10
2.05E+002
 20
5.5
 70
0
  0
VERTEX
  8
1
 42
0.0
 10
1.9000008E+001
 20
5.5
 70
0
  0
SEQEND
  0
POLYLINE
  8
1
  6
CONTINUOUS
 62
6
 66
1
 40
7.0E-001
 41
7.0E-001
 70
0
  0
VERTEX
  8
1
 42
0.0
 10
5.0
 20
5.5
 70
0
  0
VERTEX
  8
1
 42
0.0
 10
5.0
 20
1.045E+002
 70
0
  0
SEQEND
  0
POLYLINE
  8
1
  6
CONTINUOUS
 62
6
 66
1
 40
7.0E-001
 41
7.0E-001
 70
0
  0
VERTEX
  8
1
 42
0.0
 10
5.0
 20
1.045E+002
 70
0
  0
VERTEX
  8
1
 42
0.0
 10
1.9000008E+001
 20
1.045E+002
 70
0
  0
SEQEND
  0
POLYLINE
  8
1
  6
CONTINUOUS
 62
6
 66
1
 40
1.0E-003
 41
1.0E-003
 70
0
  0
VERTEX
  8
1
 42
0.0
 10
1.9000008E+001
 20
1.335E+002
 70
0
  0
VERTEX
  8
1
 42
0.0
 10
1.4500008E+001
 20
1.335E+002
 70
0
  0
SEQEND
  0
POLYLINE
  8
1
  6
CONTINUOUS
 62
6
 66
1
 40
1.0E-003
 41
1.0E-003
 70
0
  0
VERTEX
  8
1
 42
0.0
 10
1.9000008E+001
 20
1.435E+002
 70
0
  0
VERTEX
  8
1
 42
0.0
 10
1.4500008E+001
 20
1.435E+002
 70
0
  0
SEQEND
  0
POLYLINE
  8
1
  6
CONTINUOUS
 62
6
 66
1
 40
1.0E-003
 41
1.0E-003
 70
0
  0
VERTEX
  8
1
 42
0.0
 10
1.9000008E+001
 20
1.5350002E+002
 70
0
  0
VERTEX
  8
1
 42
0.0
 10
1.4500008E+001
 20
1.5350002E+002
 70
0
  0
SEQEND
  0
POLYLINE
  8
1
  6
CONTINUOUS
 62
6
 66
1
 40
1.0E-003
 41
1.0E-003
 70
0
  0
VERTEX
  8
1
 42
0.0
 10
1.9000008E+001
 20
1.6350002E+002
 70
0
  0
VERTEX
  8
1
 42
0.0
 10
1.4500008E+001
 20
1.6350002E+002
 70
0
  0
SEQEND
  0
POLYLINE
  8
1
  6
CONTINUOUS
 62
6
 66
1
 40
1.0E-003
 41
1.0E-003
 70
0
  0
VERTEX
  8
1
 42
0.0
 10
1.9000008E+001
 20
1.7350002E+002
 70
0
  0
VERTEX
  8
1
 42
0.0
 10
1.4500008E+001
 20
1.7350002E+002
 70
0
  0
SEQEND
  0
POLYLINE
  8
1
  6
CONTINUOUS
 62
6
 66
1
 40
1.0E-003
 41
1.0E-003
 70
0
  0
VERTEX
  8
1
 42
0.0
 10
1.9000008E+001
 20
1.285E+002
 70
0
  0
VERTEX
  8
1
 42
0.0
 10
1.7000008E+001
 20
1.285E+002
 70
0
  0
SEQEND
  0
POLYLINE
  8
1
  6
CONTINUOUS
 62
6
 66
1
 40
1.0E-003
 41
1.0E-003
 70
0
  0
VERTEX
  8
1
 42
0.0
 10
1.9000008E+001
 20
1.385E+002
 70
0
  0
VERTEX
  8
1
 42
0.0
 10
1.7000008E+001
 20
1.385E+002
 70
0
  0
SEQEND
  0
POLYLINE
  8
1
  6
CONTINUOUS
 62
6
 66
1
 40
1.0E-003
 41
1.0E-003
 70
0
  0
VERTEX
  8
1
 42
0.0
 10
1.9000008E+001
 20
1.4850002E+002
 70
0
  0
VERTEX
  8
1
 42
0.0
 10
1.2345772E+001
 20
1.4850002E+002
 70
0
  0
SEQEND
  0
POLYLINE
  8
1
  6
CONTINUOUS
 62
6
 66
1
 40
1.0E-003
 41
1.0E-003
 70
0
  0
VERTEX
  8
1
 42
0.0
 10
1.9000008E+001
 20
1.5850002E+002
 70
0
  0
VERTEX
  8
1
 42
0.0
 10
1.7000008E+001
 20
1.5850002E+002
 70
0
  0
SEQEND
  0
POLYLINE
  8
1
  6
CONTINUOUS
 62
6
 66
1
 40
1.0E-003
 41
1.0E-003
 70
0
  0
VERTEX
  8
1
 42
0.0
 10
1.9000008E+001
 20
1.6850002E+002
 70
0
  0
VERTEX
  8
1
 42
0.0
 10
1.7000008E+001
 20
1.6850002E+002
 70
0
  0
SEQEND
  0
POLYLINE
  8
1
  6
CONTINUOUS
 62
6
 66
1
 40
1.0E-003
 41
1.0E-003
 70
0
  0
VERTEX
  8
1
 42
0.0
 10
1.7568611E+001
 20
1.235E+002
 70
0
  0
VERTEX
  8
1
 42
0.0
 10
1.9000008E+001
 20
1.235E+002
 70
0
  0
SEQEND
  0
POLYLINE
  8
1
  6
CONTINUOUS
 62
6
 66
1
 40
1.0E-003
 41
1.0E-003
 70
0
  0
VERTEX
  8
1
 42
0.0
 10
1.9000008E+001
 20
1.235E+002
 70
0
  0
VERTEX
  8
1
 42
0.0
 10
1.5000008E+001
 20
1.235E+002
 70
0
  0
SEQEND
  0
POLYLINE
  8
1
  6
CONTINUOUS
 62
6
 66
1
 40
1.0E-003
 41
1.0E-003
 70
0
  0
VERTEX
  8
1
 42
0.0
 10
1.9000008E+001
 20
1.235E+002
 70
0
  0
VERTEX
  8
1
 42
0.0
 10
1.4500008E+001
 20
1.235E+002
 70
0
  0
SEQEND
  0
POLYLINE
  8
1
  6
CONTINUOUS
 62
3
 66
1
 40
1.0E-003
 41
1.0E-003
 70
0
  0
VERTEX
  8
1
 42
0.0
 10
1.6487923E+001
 20
2.0867195E+002
 70
0
  0
VERTEX
  8
1
 42
0.0
 10
1.3487923E+001
 20
2.0867195E+002
 70
0
  0
SEQEND
  0
POLYLINE
  8
1
  6
CONTINUOUS
 62
3
 66
1
 40
1.0E-003
 41
1.0E-003
 70
0
  0
VERTEX
  8
1
 42
0.0
 10
1.3487923E+001
 20
2.2806367E+002
 70
0
  0
VERTEX
  8
1
 42
0.0
 10
1.6487923E+001
 20
2.2806367E+002
 70
0
  0
SEQEND
  0
POLYLINE
  8
1
  6
CONTINUOUS
 62
3
 66
1
 40
1.0E-003
 41
1.0E-003
 70
0
  0
VERTEX
  8
1
 42
0.0
 10
1.3487923E+001
 20
2.3106367E+002
 70
0
  0
VERTEX
  8
1
 42
0.0
 10
1.6487923E+001
 20
2.3106367E+002
 70
0
  0
SEQEND
  0
POLYLINE
  8
1
  6
CONTINUOUS
 62
3
 66
1
 40
1.0E-003
 41
1.0E-003
 70
0
  0
VERTEX
  8
1
 42
0.0
 10
1.6487923E+001
 20
2.1167192E+002
 70
0
  0
VERTEX
  8
1
 42
0.0
 10
1.3487923E+001
 20
2.1167192E+002
 70
0
  0
SEQEND
  0
POLYLINE
  8
1
  6
CONTINUOUS
 62
3
 66
1
 40
1.0E-003
 41
1.0E-003
 70
0
  0
VERTEX
  8
1
 42
0.0
 10
1.3487923E+001
 20
2.2806367E+002
 70
0
  0
VERTEX
  8
1
 42
0.0
 10
1.3487923E+001
 20
2.3106367E+002
 70
0
  0
SEQEND
  0
POLYLINE
  8
1
  6
CONTINUOUS
 62
3
 66
1
 40
1.0E-003
 41
1.0E-003
 70
0
  0
VERTEX
  8
1
 42
0.0
 10
1.3487923E+001
 20
2.0867195E+002
 70
0
  0
VERTEX
  8
1
 42
0.0
 10
1.3487923E+001
 20
2.1167192E+002
 70
0
  0
SEQEND
  0
POLYLINE
  8
1
  6
CONTINUOUS
 62
3
 66
1
 40
1.0E-003
 41
1.0E-003
 70
0
  0
VERTEX
  8
1
 42
0.0
 10
1.6487923E+001
 20
2.2806367E+002
 70
0
  0
VERTEX
  8
1
 42
0.0
 10
1.6487923E+001
 20
2.3106367E+002
 70
0
  0
SEQEND
  0
POLYLINE
  8
1
  6
CONTINUOUS
 62
4
 66
1
 40
1.0E-003
 41
1.0E-003
 70
0
  0
VERTEX
  8
1
 42
0.0
 10
2.1E+002
 20
0.0
 70
0
  0
VERTEX
  8
1
 42
0.0
 10
2.1E+002
 20
2.9700003E+002
 70
0
  0
SEQEND
  0
POLYLINE
  8
1
  6
CONTINUOUS
 62
6
 66
1
 40
7.0E-001
 41
7.0E-001
 70
0
  0
VERTEX
  8
1
 42
0.0
 10
2.05E+002
 20
2.9150003E+002
 70
0
  0
VERTEX
  8
1
 42
0.0
 10
2.05E+002
 20
5.5
 70
0
  0
SEQEND
  0
POLYLINE
  8
1
  6
CONTINUOUS
 62
6
 66
1
 40
7.0E-001
 41
7.0E-001
 70
0
  0
VERTEX
  8
1
 42
0.0
 10
1.9000008E+001
 20
2.9150003E+002
 70
0
  0
VERTEX
  8
1
 42
0.0
 10
2.05E+002
 20
2.9150003E+002
 70
0
  0
SEQEND
  0
LINE
  8
1
  6
CONTINUOUS
 62
6
 10
3.0000008E+001
 20
2.6550003E+002
 11
2.05E+002
 21
2.6550003E+002
  0
POLYLINE
  8
1
  6
CONTINUOUS
 62
6
 66
1
 40
7.0E-001
 41
7.0E-001
 70
0
  0
VERTEX
  8
1
 42
0.0
 10
2.05E+002
 20
2.7800003E+002
 70
0
  0
VERTEX
  8
1
 42
0.0
 10
3.0000008E+001
 20
2.7800003E+002
 70
0
  0
SEQEND
  0
POLYLINE
  8
1
  6
CONTINUOUS
 62
6
 66
1
 40
7.0E-001
 41
7.0E-001
 70
0
  0
VERTEX
  8
1
 42
0.0
 10
3.0000008E+001
 20
2.9150003E+002
 70
0
  0
VERTEX
  8
1
 42
0.0
 10
3.0000008E+001
 20
2.6550003E+002
 70
0
  0
SEQEND
  0
POLYLINE
  8
1
  6
CONTINUOUS
 62
6
 66
1
 40
5.0E-001
 41
5.0E-001
 70
0
  0
VERTEX
  8
1
 42
0.0
 10
3.7000008E+001
 20
2.9150003E+002
 70
0
  0
VERTEX
  8
1
 42
0.0
 10
3.7000008E+001
 20
2.6550003E+002
 70
0
  0
SEQEND
  0
LINE
  8
1
  6
CONTINUOUS
 62
6
 10
4.2000008E+001
 20
2.9150003E+002
 11
4.2000008E+001
 21
2.6550003E+002
  0
POLYLINE
  8
1
  6
CONTINUOUS
 62
6
 66
1
 40
7.0E-001
 41
7.0E-001
 70
0
  0
VERTEX
  8
1
 42
0.0
 10
5.4000008E+001
 20
2.9150003E+002
 70
0
  0
VERTEX
  8
1
 42
0.0
 10
5.4000008E+001
 20
2.6550003E+002
 70
0
  0
SEQEND
  0
POLYLINE
  8
1
  6
CONTINUOUS
 62
6
 66
1
 40
5.0E-001
 41
5.0E-001
 70
0
  0
VERTEX
  8
1
 42
0.0
 10
1.2000001E+002
 20
2.9150003E+002
 70
0
  0
VERTEX
  8
1
 42
0.0
 10
1.2000001E+002
 20
2.6550003E+002
 70
0
  0
SEQEND
  0
POLYLINE
  8
1
  6
CONTINUOUS
 62
6
 66
1
 40
5.0E-001
 41
5.0E-001
 70
0
  0
VERTEX
  8
1
 42
0.0
 10
1.61E+002
 20
2.9150003E+002
 70
0
  0
VERTEX
  8
1
 42
0.0
 10
1.61E+002
 20
2.6550003E+002
 70
0
  0
SEQEND
  0
POLYLINE
  8
1
  6
CONTINUOUS
 62
6
 66
1
 40
5.0E-001
 41
5.0E-001
 70
0
  0
VERTEX
  8
1
 42
0.0
 10
1.66E+002
 20
2.9150003E+002
 70
0
  0
VERTEX
  8
1
 42
0.0
 10
1.66E+002
 20
2.6550003E+002
 70
0
  0
SEQEND
  0
POLYLINE
  8
1
  6
CONTINUOUS
 62
6
 66
1
 40
5.0E-001
 41
5.0E-001
 70
0
  0
VERTEX
  8
1
 42
0.0
 10
1.76E+002
 20
2.9150003E+002
 70
0
  0
VERTEX
  8
1
 42
0.0
 10
1.76E+002
 20
2.6550003E+002
 70
0
  0
SEQEND
  0
POLYLINE
  8
1
  6
CONTINUOUS
 62
6
 66
1
 40
5.0E-001
 41
5.0E-001
 70
0
  0
VERTEX
  8
1
 42
0.0
 10
1.92E+002
 20
2.9150003E+002
 70
0
  0
VERTEX
  8
1
 42
0.0
 10
1.92E+002
 20
2.6550003E+002
 70
0
  0
SEQEND
  0
LINE
  8
1
  6
CONTINUOUS
 62
6
 10
3.0000008E+001
 20
2.7175003E+002
 11
2.05E+002
 21
2.7175003E+002
  0
POLYLINE
  8
1
  6
CONTINUOUS
 62
6
 66
1
 40
5.0E-001
 41
5.0E-001
 70
0
  0
VERTEX
  8
1
 42
0.0
 10
1.66E+002
 20
2.8475003E+002
 70
0
  0
VERTEX
  8
1
 42
0.0
 10
1.92E+002
 20
2.8475003E+002
 70
0
  0
SEQEND
  0
POLYLINE
  8
1
  6
CONTINUOUS
 62
4
 66
1
 40
1.0E-003
 41
1.0E-003
 70
0
  0
VERTEX
  8
1
 42
0.0
 10
0.0
 20
2.9700003E+002
 70
0
  0
VERTEX
  8
1
 42
0.0
 10
2.1E+002
 20
2.9700003E+002
 70
0
  0
SEQEND
  0
POLYLINE
  8
1
  6
CONTINUOUS
 62
6
 66
1
 40
1.0E-003
 41
1.0E-003
 70
0
  0
VERTEX
  8
1
 42
0.0
 10
2.05E+002
 20
2.5925003E+002
 70
0
  0
VERTEX
  8
1
 42
0.0
 10
2.0E+002
 20
2.5925003E+002
 70
0
  0
SEQEND
  0
POLYLINE
  8
1
  6
CONTINUOUS
 62
6
 66
1
 40
1.0E-003
 41
1.0E-003
 70
0
  0
VERTEX
  8
1
 42
0.0
 10
2.05E+002
 20
2.53E+002
 70
0
  0
VERTEX
  8
1
 42
0.0
 10
2.0E+002
 20
2.53E+002
 70
0
  0
SEQEND
  0
POLYLINE
  8
1
  6
CONTINUOUS
 62
6
 66
1
 40
1.0E-003
 41
1.0E-003
 70
0
  0
VERTEX
  8
1
 42
0.0
 10
2.05E+002
 20
2.4674998E+002
 70
0
  0
VERTEX
  8
1
 42
0.0
 10
2.0E+002
 20
2.4674998E+002
 70
0
  0
SEQEND
  0
POLYLINE
  8
1
  6
CONTINUOUS
 62
6
 66
1
 40
1.0E-003
 41
1.0E-003
 70
0
  0
VERTEX
  8
1
 42
0.0
 10
2.05E+002
 20
2.4049998E+002
 70
0
  0
VERTEX
  8
1
 42
0.0
 10
2.0E+002
 20
2.4049998E+002
 70
0
  0
SEQEND
  0
POLYLINE
  8
1
  6
CONTINUOUS
 62
6
 66
1
 40
1.0E-003
 41
1.0E-003
 70
0
  0
VERTEX
  8
1
 42
0.0
 10
2.05E+002
 20
2.3424998E+002
 70
0
  0
VERTEX
  8
1
 42
0.0
 10
2.0E+002
 20
2.3424998E+002
 70
0
  0
SEQEND
  0
POLYLINE
  8
1
  6
CONTINUOUS
 62
6
 66
1
 40
1.0E-003
 41
1.0E-003
 70
0
  0
VERTEX
  8
1
 42
0.0
 10
2.05E+002
 20
2.2800002E+002
 70
0
  0
VERTEX
  8
1
 42
0.0
 10
2.0E+002
 20
2.2800002E+002
 70
0
  0
SEQEND
  0
POLYLINE
  8
1
  6
CONTINUOUS
 62
6
 66
1
 40
1.0E-003
 41
1.0E-003
 70
0
  0
VERTEX
  8
1
 42
0.0
 10
2.05E+002
 20
2.2175002E+002
 70
0
  0
VERTEX
  8
1
 42
0.0
 10
2.0E+002
 20
2.2175002E+002
 70
0
  0
SEQEND
  0
POLYLINE
  8
1
  6
CONTINUOUS
 62
6
 66
1
 40
1.0E-003
 41
1.0E-003
 70
0
  0
VERTEX
  8
1
 42
0.0
 10
2.05E+002
 20
2.1550002E+002
 70
0
  0
VERTEX
  8
1
 42
0.0
 10
2.0E+002
 20
2.1550002E+002
 70
0
  0
SEQEND
  0
POLYLINE
  8
1
  6
CONTINUOUS
 62
6
 66
1
 40
1.0E-003
 41
1.0E-003
 70
0
  0
VERTEX
  8
1
 42
0.0
 10
2.05E+002
 20
2.9150003E+002
 70
0
  0
VERTEX
  8
1
 42
0.0
 10
2.075E+002
 20
2.9150003E+002
 70
0
  0
SEQEND
  0
POLYLINE
  8
1
  6
CONTINUOUS
 62
6
 66
1
 40
1.0E-003
 41
1.0E-003
 70
0
  0
VERTEX
  8
1
 42
0.0
 10
2.05E+002
 20
2.3175002E+002
 70
0
  0
VERTEX
  8
1
 42
0.0
 10
2.075E+002
 20
2.3175002E+002
 70
0
  0
SEQEND
  0
POLYLINE
  8
1
  6
CONTINUOUS
 62
6
 66
1
 40
1.0E-003
 41
1.0E-003
 70
0
  0
VERTEX
  8
1
 42
0.0
 10
2.05E+002
 20
1.7200002E+002
 70
0
  0
VERTEX
  8
1
 42
0.0
 10
2.075E+002
 20
1.7200002E+002
 70
0
  0
SEQEND
  0
POLYLINE
  8
1
  6
CONTINUOUS
 62
6
 66
1
 40
1.0E-003
 41
1.0E-003
 70
0
  0
VERTEX
  8
1
 42
0.0
 10
2.05E+002
 20
1.1225E+002
 70
0
  0
VERTEX
  8
1
 42
0.0
 10
2.075E+002
 20
1.1225E+002
 70
0
  0
SEQEND
  0
POLYLINE
  8
1
  6
CONTINUOUS
 62
6
 66
1
 40
1.0E-003
 41
1.0E-003
 70
0
  0
VERTEX
  8
1
 42
0.0
 10
2.05E+002
 20
2.9150003E+002
 70
0
  0
VERTEX
  8
1
 42
0.0
 10
2.05E+002
 20
2.9400003E+002
 70
0
  0
SEQEND
  0
POLYLINE
  8
1
  6
CONTINUOUS
 62
6
 66
1
 40
1.0E-003
 41
1.0E-003
 70
0
  0
VERTEX
  8
1
 42
0.0
 10
1.585E+002
 20
2.9150003E+002
 70
0
  0
VERTEX
  8
1
 42
0.0
 10
1.585E+002
 20
2.9400003E+002
 70
0
  0
SEQEND
  0
POLYLINE
  8
1
  6
CONTINUOUS
 62
6
 66
1
 40
1.0E-003
 41
1.0E-003
 70
0
  0
VERTEX
  8
1
 42
0.0
 10
1.1200001E+002
 20
2.9150003E+002
 70
0
  0
VERTEX
  8
1
 42
0.0
 10
1.1200001E+002
 20
2.9400003E+002
 70
0
  0
SEQEND
  0
POLYLINE
  8
1
  6
CONTINUOUS
 62
6
 66
1
 40
1.0E-003
 41
1.0E-003
 70
0
  0
VERTEX
  8
1
 42
0.0
 10
1.9000008E+001
 20
2.9150003E+002
 70
0
  0
VERTEX
  8
1
 42
0.0
 10
1.9000008E+001
 20
2.9400003E+002
 70
0
  0
SEQEND
  0
POLYLINE
  8
1
  6
CONTINUOUS
 62
6
 66
1
 40
1.0E-003
 41
1.0E-003
 70
0
  0
VERTEX
  8
1
 42
0.0
 10
6.5500008E+001
 20
2.9150003E+002
 70
0
  0
VERTEX
  8
1
 42
0.0
 10
6.5500008E+001
 20
2.9400003E+002
 70
0
  0
SEQEND
  0
POLYLINE
  8
1
  6
CONTINUOUS
 62
6
 66
1
 40
7.0E-001
 41
7.0E-001
 70
0
  0
VERTEX
  8
1
 42
0.0
 10
1.0650001E+002
 20
5.5
 70
0
  0
VERTEX
  8
1
 42
0.0
 10
1.0650001E+002
 20
1.5
 70
0
  0
SEQEND
  0
POLYLINE
  8
1
  6
CONTINUOUS
 62
6
 66
1
 40
7.0E-001
 41
7.0E-001
 70
0
  0
VERTEX
  8
1
 42
0.0
 10
1.0350001E+002
 20
5.5
 70
0
  0
VERTEX
  8
1
 42
0.0
 10
1.0350001E+002
 20
1.5
 70
0
  0
SEQEND
  0
POLYLINE
  8
1
  6
CONTINUOUS
 62
6
 66
1
 40
7.0E-001
 41
7.0E-001
 70
0
  0
VERTEX
  8
1
 42
0.0
 10
1.0650001E+002
 20
2.9150003E+002
 70
0
  0
VERTEX
  8
1
 42
0.0
 10
1.0650001E+002
 20
2.9550003E+002
 70
0
  0
SEQEND
  0
POLYLINE
  8
1
  6
CONTINUOUS
 62
6
 66
1
 40
7.0E-001
 41
7.0E-001
 70
0
  0
VERTEX
  8
1
 42
0.0
 10
1.0350001E+002
 20
2.9150003E+002
 70
0
  0
VERTEX
  8
1
 42
0.0
 10
1.0350001E+002
 20
2.9550003E+002
 70
0
  0
SEQEND
  0
POLYLINE
  8
1
  6
CONTINUOUS
 62
6
 66
1
 40
1.0E-003
 41
1.0E-003
 70
0
  0
VERTEX
  8
1
 42
0.0
 10
2.05E+002
 20
5.25E+001
 70
0
  0
VERTEX
  8
1
 42
0.0
 10
2.075E+002
 20
5.25E+001
 70
0
  0
SEQEND
  0
POLYLINE
  8
1
  6
CONTINUOUS
 62
6
 66
1
 40
7.0E-001
 41
7.0E-001
 70
0
  0
VERTEX
  8
1
 42
0.0
 10
1.9000008E+001
 20
5.5
 70
0
  0
VERTEX
  8
1
 42
0.0
 10
5.0
 20
5.5
 70
0
  0
SEQEND
  0
POLYLINE
  8
1
  6
CONTINUOUS
 62
4
 66
1
 40
1.0E-003
 41
1.0E-003
 70
0
  0
VERTEX
  8
1
 42
0.0
 10
0.0
 20
0.0
 70
0
  0
VERTEX
  8
1
 42
0.0
 10
2.1E+002
 20
0.0
 70
0
  0
SEQEND
  0
POLYLINE
  8
1
  6
CONTINUOUS
 62
3
 66
1
 40
1.0E-003
 41
1.0E-003
 70
0
  0
VERTEX
  8
1
 42
0.0
 10
1.6487923E+001
 20
2.1167192E+002
 70
0
  0
VERTEX
  8
1
 42
0.0
 10
1.6487923E+001
 20
2.0867195E+002
 70
0
  0
SEQEND
  0
POLYLINE
  8
1
  6
CONTINUOUS
 62
3
 66
1
 40
1.0E-003
 41
1.0E-003
 70
0
  0
VERTEX
  8
1
 42
0.0
 10
1.6487923E+001
 20
2.1167192E+002
 70
0
  0
VERTEX
  8
1
 42
0.0
 10
1.6487923E+001
 20
2.0867195E+002
 70
0
  0
SEQEND
  0
TEXT
  8
1
  6
CONTINUOUS
 62
3
 10
2.065E+002
 20
2.6162503E+002
 40
2.0
  1
A
  0
TEXT
  8
1
  6
CONTINUOUS
 62
3
 10
2.065E+002
 20
2.0187502E+002
 40
2.0
  1
B
  0
TEXT
  8
1
  6
CONTINUOUS
 62
3
 10
2.065E+002
 20
1.42125E+002
 40
2.0
  1
C
  0
TEXT
  8
1
  6
CONTINUOUS
 62
3
 10
2.065E+002
 20
8.2375E+001
 40
2.0
  1
D
  0
TEXT
  8
1
  6
CONTINUOUS
 62
3
 10
1.6509621E+001
 20
2.1872429E+002
 40
2.0
  1
"grob"
 41
6.5E-001
 50
9.0000003E+001
  0
TEXT
  8
1
  6
CONTINUOUS
 62
3
 10
1.6487923E+001
 20
1.9736339E+002
 40
2.0
  1
"mittel"
 41
6.5E-001
 50
9.0000003E+001
  0
TEXT
  8
1
  6
CONTINUOUS
 62
3
 10
5.8622437
 20
1.9528923E+002
 40
2.0
  1
Allgemeintoleranzen nach
 41
8.0E-001
 50
9.0000003E+001
  0
TEXT
  8
1
  6
CONTINUOUS
 62
3
 10
5.8622437
 20
1.2295421E+002
 40
2.0
  1
Rauheits-Symbole nach GZN 020007
 41
8.0E-001
 50
9.0000003E+001
  0
TEXT
  8
1
  6
CONTINUOUS
 62
3
 10
9.8622437
 20
1.2295421E+002
 40
2.0
  1
    entsprechend DIN ISO 1302
 41
8.0E-001
 50
9.0000003E+001
  0
TEXT
  8
1
  6
CONTINUOUS
 62
6
 10
1.306617E+001
 20
1.2349451E+002
 40
2.0
  1
0
 41
5.25E-001
 50
9.0000003E+001
  0
TEXT
  8
1
  6
CONTINUOUS
 62
6
 10
1.306617E+001
 20
1.7212105E+002
 40
2.0
  1
50
 41
6.75E-001
 50
9.0000003E+001
  0
POLYLINE
  8
1
  6
CONTINUOUS
 62
4
 66
1
 40
1.0E-003
 41
1.0E-003
 70
0
  0
VERTEX
  8
1
 42
0.0
 10
0.0
 20
2.9700003E+002
 70
0
  0
VERTEX
  8
1
 42
0.0
 10
0.0
 20
0.0
 70
0
  0
SEQEND
  0
POLYLINE
  8
1
  6
CONTINUOUS
 62
4
 66
1
 40
1.0E-003
 41
1.0E-003
 70
0
  0
VERTEX
  8
1
 42
0.0
 10
0.0
 20
0.0
 70
0
  0
VERTEX
  8
1
 42
0.0
 10
0.0
 20
2.9700003E+002
 70
0
  0
SEQEND
  0
TEXT
  8
1
  6
CONTINUOUS
 62
3
 10
1.7001917E+002
 20
2.8040002E+002
 40
2.0
  1
I
 41
3.17E-001
  0
TEXT
  8
1
  6
CONTINUOUS
 62
3
 10
4.2250008E+001
 20
2.9300003E+002
 40
2.0
  1
1
  0
TEXT
  8
1
  6
CONTINUOUS
 62
3
 10
8.8750008E+001
 20
2.9300003E+002
 40
2.0
  1
2
  0
TEXT
  8
1
  6
CONTINUOUS
 62
3
 10
1.3525E+002
 20
2.9300003E+002
 40
2.0
  1
3
  0
TEXT
  8
1
  6
CONTINUOUS
 62
3
 10
1.8175E+002
 20
2.9300003E+002
 40
2.0
  1
4
  0
TEXT
  8
1
  6
CONTINUOUS
 62
3
 10
3.0841621E+001
 20
2.8556284E+002
 40
2.0
  1
Ein-
 41
7.925E-001
  0
TEXT
  8
1
  6
CONTINUOUS
 62
3
 10
3.0841621E+001
 20
2.8256284E+002
 40
2.0
  1
heit
 41
7.925E-001
  0
TEXT
  8
1
  6
CONTINUOUS
 62
3
 10
3.8324684E+001
 20
2.8350003E+002
 40
2.0
  1
ZC
 41
7.925E-001
  0
TEXT
  8
1
  6
CONTINUOUS
 62
3
 10
1.6235593E+002
 20
2.8350003E+002
 40
2.0
  1
EC
 41
7.925E-001
  0
TEXT
  8
1
  6
CONTINUOUS
 62
3
 10
1.6759302E+002
 20
2.8716838E+002
 40
2.0
  1
Aend.
 41
8.0E-001
  0
TEXT
  8
1
  6
CONTINUOUS
 62
3
 10
1.7796625E+002
 20
2.8715002E+002
 40
2.0
  1
Masse/E
 41
7.925E-001
  0
TEXT
  8
1
  6
CONTINUOUS
 62
3
 10
1.2262052E+002
 20
2.8350003E+002
 40
2.0
  1
Ident-Nummer
 41
7.925E-001
  0
TEXT
  8
1
  6
CONTINUOUS
 62
3
 10
5.6489449E+001
 20
2.8350003E+002
 40
2.0
  1
Text
 41
7.925E-001
  0
TEXT
  8
1
  6
CONTINUOUS
 62
3
 10
4.343354E+001
 20
2.8350003E+002
 40
2.0
  1
Pos.-Nr.
 41
6.0E-001
  0
TEXT
  8
1
  6
CONTINUOUS
 62
3
 10
1.8364273E+002
 20
2.8040002E+002
 40
2.0
  1
II
 41
7.5E-001
  0
TEXT
  8
1
  6
CONTINUOUS
 62
3
 10
1.9726633E+002
 20
2.8350003E+002
 40
2.0
  1
III
 41
7.5E-001
  0
TEXT
  8
1
  6
CONTINUOUS
 62
3
 10
8.58746
 20
8.773347
 40
1.7
  1
Fuer diese Unterlage behalten wir uns alle Rechte, auch fuer den Fall der Patent-
 41
6.8E-001
 50
9.0000003E+001
  0
TEXT
  8
1
  6
CONTINUOUS
 62
3
 10
1.1408791E+001
 20
8.3925096
 40
1.7
  1
erteilung und der Eintragung eines anderen gewerblichen Schutzrechtes, vor.
 41
6.8E-001
 50
9.0000003E+001
  0
TEXT
  8
1
  6
CONTINUOUS
 62
3
 10
1.4298791E+001
 20
8.3925096
 40
1.7
  1
Missbraeuchliche Verwendung, wie insbesondere Vervielfaeltigung und Weitergabe an
 41
6.8E-001
 50
9.0000003E+001
  0
TEXT
  8
1
  6
CONTINUOUS
 62
3
 10
1.7188792E+001
 20
8.3925096
 40
1.7
  1
Dritte ist nicht gestattet: sie kann zivil- und strafrechtlich geahndet werden.
 41
6.8E-001
 50
9.0000003E+001
  0
TEXT
  8
1
  6
CONTINUOUS
 62
3
 10
1.0199852E+001
 20
2.0239064E+002
 40
2.0
  1
ISO 2768
 41
8.0E-001
 50
9.0000003E+001
  0
POLYLINE
  8
1
  6
CONTINUOUS
 62
6
 66
1
 40
7.0E-001
 41
7.0E-001
 70
0
  0
VERTEX
  8
1
 42
0.0
 10
1.8999985E+001
 20
3.1E+001
 70
0
  0
VERTEX
  8
1
 42
0.0
 10
2.05E+002
 20
3.1E+001
 70
0
  0
SEQEND
  0
POLYLINE
  8
1
  6
CONTINUOUS
 62
6
 66
1
 40
7.0E-001
 41
7.0E-001
 70
0
  0
VERTEX
  8
1
 42
0.0
 10
1.8999985E+001
 20
1.4E+001
 70
0
  0
VERTEX
  8
1
 42
0.0
 10
5.85E+001
 20
1.4E+001
 70
0
  0
SEQEND
  0
LINE
  8
1
  6
CONTINUOUS
 62
6
 10
2.4499985E+001
 20
3.1E+001
 11
2.4499985E+001
 21
1.4E+001
  0
TEXT
  8
1
  6
CONTINUOUS
 62
3
 10
2.2718704E+001
 20
1.9207314E+001
 40
2.0
  1
Aend.
 41
5.0E-001
 50
9.0000003E+001
  0
LINE
  8
1
  6
CONTINUOUS
 62
6
 10
2.4499985E+001
 20
2.675E+001
 11
5.85E+001
 21
2.675E+001
  0
POLYLINE
  8
1
  6
CONTINUOUS
 62
6
 66
1
 40
5.0E-001
 41
5.0E-001
 70
0
  0
VERTEX
  8
1
 42
0.0
 10
1.465E+002
 20
2.675E+001
 70
0
  0
VERTEX
  8
1
 42
0.0
 10
2.05E+002
 20
2.675E+001
 70
0
  0
SEQEND
  0
POLYLINE
  8
1
  6
CONTINUOUS
 62
1
 66
1
 40
1.0E-003
 41
1.0E-003
 70
0
  0
VERTEX
  8
1
 42
0.0
 10
1.75E+002
 20
3.1E+001
 70
0
  0
VERTEX
  8
1
 42
0.0
 10
1.75E+002
 20
2.25E+001
 70
0
  0
SEQEND
  0
POLYLINE
  8
1
  6
CONTINUOUS
 62
6
 66
1
 40
7.0E-001
 41
7.0E-001
 70
0
  0
VERTEX
  8
1
 42
0.0
 10
1.465E+002
 20
3.1E+001
 70
0
  0
VERTEX
  8
1
 42
0.0
 10
1.465E+002
 20
5.5
 70
0
  0
SEQEND
  0
POLYLINE
  8
1
  6
CONTINUOUS
 62
6
 66
1
 40
7.0E-001
 41
7.0E-001
 70
0
  0
VERTEX
  8
1
 42
0.0
 10
1.35E+002
 20
3.0795013E+001
 70
0
  0
VERTEX
  8
1
 42
0.0
 10
1.35E+002
 20
1.4E+001
 70
0
  0
SEQEND
  0
POLYLINE
  8
1
  6
CONTINUOUS
 62
6
 66
1
 40
7.0E-001
 41
7.0E-001
 70
0
  0
VERTEX
  8
1
 42
0.0
 10
9.75E+001
 20
3.1E+001
 70
0
  0
VERTEX
  8
1
 42
0.0
 10
9.75E+001
 20
1.4E+001
 70
0
  0
SEQEND
  0
POLYLINE
  8
1
  6
CONTINUOUS
 62
6
 66
1
 40
7.0E-001
 41
7.0E-001
 70
0
  0
VERTEX
  8
1
 42
0.0
 10
5.85E+001
 20
3.1E+001
 70
0
  0
VERTEX
  8
1
 42
0.0
 10
5.85E+001
 20
1.4E+001
 70
0
  0
SEQEND
  0
POLYLINE
  8
1
  6
CONTINUOUS
 62
6
 66
1
 40
5.0E-001
 41
5.0E-001
 70
0
  0
VERTEX
  8
1
 42
0.0
 10
5.85E+001
 20
2.25E+001
 70
0
  0
VERTEX
  8
1
 42
0.0
 10
1.35E+002
 20
2.25E+001
 70
0
  0
SEQEND
  0
POLYLINE
  8
1
  6
CONTINUOUS
 62
6
 66
1
 40
5.0E-001
 41
5.0E-001
 70
0
  0
VERTEX
  8
1
 42
0.0
 10
5.85E+001
 20
1.825E+001
 70
0
  0
VERTEX
  8
1
 42
0.0
 10
1.35E+002
 20
1.825E+001
 70
0
  0
SEQEND
  0
POLYLINE
  8
1
  6
CONTINUOUS
 62
6
 66
1
 40
7.0E-001
 41
7.0E-001
 70
0
  0
VERTEX
  8
1
 42
0.0
 10
5.85E+001
 20
1.4E+001
 70
0
  0
VERTEX
  8
1
 42
0.0
 10
2.05E+002
 20
1.4E+001
 70
0
  0
SEQEND
  0
POLYLINE
  8
1
  6
CONTINUOUS
 62
6
 66
1
 40
7.0E-001
 41
7.0E-001
 70
0
  0
VERTEX
  8
1
 42
0.0
 10
1.35E+002
 20
2.25E+001
 70
0
  0
VERTEX
  8
1
 42
0.0
 10
2.05E+002
 20
2.25E+001
 70
0
  0
SEQEND
  0
POLYLINE
  8
1
  6
CONTINUOUS
 62
6
 66
1
 40
7.0E-001
 41
7.0E-001
 70
0
  0
VERTEX
  8
1
 42
0.0
 10
1.58E+002
 20
2.25E+001
 70
0
  0
VERTEX
  8
1
 42
0.0
 10
1.58E+002
 20
1.4E+001
 70
0
  0
SEQEND
  0
POLYLINE
  8
1
  6
CONTINUOUS
 62
110
 66
1
 40
7.0E-001
 41
7.0E-001
 70
0
  0
VERTEX
  8
1
 42
0.0
 10
1.68E+002
 20
2.25E+001
 70
0
  0
VERTEX
  8
1
 42
0.0
 10
1.68E+002
 20
1.4E+001
 70
0
  0
SEQEND
  0
POLYLINE
  8
1
  6
CONTINUOUS
 62
110
 66
1
 40
7.0E-001
 41
7.0E-001
 70
0
  0
VERTEX
  8
1
 42
0.0
 10
1.795E+002
 20
2.25E+001
 70
0
  0
VERTEX
  8
1
 42
0.0
 10
1.795E+002
 20
1.4E+001
 70
0
  0
SEQEND
  0
POLYLINE
  8
1
  6
CONTINUOUS
 62
110
 66
1
 40
7.0E-001
 41
7.0E-001
 70
0
  0
VERTEX
  8
1
 42
0.0
 10
1.915E+002
 20
2.25E+001
 70
0
  0
VERTEX
  8
1
 42
0.0
 10
1.915E+002
 20
1.4E+001
 70
0
  0
SEQEND
  0
LINE
  8
1
  6
HIDDEN
 62
6
 10
1.465E+002
 20
7.0
 11
2.05E+002
 21
7.0
  0
LINE
  8
1
  6
CONTINUOUS
 62
6
 10
2.4499985E+001
 20
2.25E+001
 11
5.85E+001
 21
2.25E+001
  0
LINE
  8
1
  6
CONTINUOUS
 62
6
 10
2.4499985E+001
 20
1.825E+001
 11
5.85E+001
 21
1.825E+001
  0
POLYLINE
  8
1
  6
CONTINUOUS
 62
6
 66
1
 40
5.0E-001
 41
5.0E-001
 70
0
  0
VERTEX
  8
1
 42
0.0
 10
5.85E+001
 20
2.675E+001
 70
0
  0
VERTEX
  8
1
 42
0.0
 10
1.35E+002
 20
2.675E+001
 70
0
  0
SEQEND
  0
POLYLINE
  8
1
  6
CONTINUOUS
 62
6
 66
1
 40
7.0E-001
 41
7.0E-001
 70
0
  0
VERTEX
  8
1
 42
0.0
 10
3.3999985E+001
 20
1.4E+001
 70
0
  0
VERTEX
  8
1
 42
0.0
 10
3.3999985E+001
 20
5.5
 70
0
  0
SEQEND
  0
POLYLINE
  8
1
  6
HIDDEN
 62
3
 66
1
 40
1.0E-003
 41
1.0E-003
 70
0
  0
VERTEX
  8
1
 42
0.0
 10
1.5225E+002
 20
1.825E+001
 70
0
  0
VERTEX
  8
1
 42
0.0
 10
1.5225E+002
 20
1.4E+001
 70
0
  0
SEQEND
  0
POLYLINE
  8
1
  6
HIDDEN
 62
3
 66
1
 40
1.0E-003
 41
1.0E-003
 70
0
  0
VERTEX
  8
1
 42
0.0
 10
1.63E+002
 20
1.825E+001
 70
0
  0
VERTEX
  8
1
 42
0.0
 10
1.63E+002
 20
1.4E+001
 70
0
  0
SEQEND
  0
POLYLINE
  8
1
  6
CONTINUOUS
 62
3
 66
1
 40
1.0E-003
 41
1.0E-003
 70
0
  0
VERTEX
  8
1
 42
0.0
 10
1.7079001E+002
 20
2.7410446E+001
 70
0
  0
VERTEX
  8
1
 42
0.0
 10
1.7079001E+002
 20
3.0034676E+001
 70
0
  0
SEQEND
  0
POLYLINE
  8
1
  6
CONTINUOUS
 62
3
 66
1
 40
1.0E-003
 41
1.0E-003
 70
0
  0
VERTEX
  8
1
 42
0.0
 10
1.7079001E+002
 20
3.0034676E+001
 70
0
  0
VERTEX
  8
1
 42
0.0
 10
1.7397659E+002
 20
3.0034676E+001
 70
0
  0
SEQEND
  0
POLYLINE
  8
1
  6
CONTINUOUS
 62
3
 66
1
 40
1.0E-003
 41
1.0E-003
 70
0
  0
VERTEX
  8
1
 42
0.0
 10
1.7397659E+002
 20
3.0034676E+001
 70
0
  0
VERTEX
  8
1
 42
0.0
 10
1.7397659E+002
 20
2.7410446E+001
 70
0
  0
SEQEND
  0
POLYLINE
  8
1
  6
CONTINUOUS
 62
3
 66
1
 40
1.0E-003
 41
1.0E-003
 70
0
  0
VERTEX
  8
1
 42
0.0
 10
1.7397659E+002
 20
2.7410446E+001
 70
0
  0
VERTEX
  8
1
 42
0.0
 10
1.7079001E+002
 20
2.7410446E+001
 70
0
  0
SEQEND
  0
POLYLINE
  8
1
  6
CONTINUOUS
 62
3
 66
1
 40
1.0E-003
 41
1.0E-003
 70
0
  0
VERTEX
  8
1
 42
0.0
 10
2.0079001E+002
 20
2.7410446E+001
 70
0
  0
VERTEX
  8
1
 42
0.0
 10
2.0079001E+002
 20
3.0034676E+001
 70
0
  0
SEQEND
  0
POLYLINE
  8
1
  6
CONTINUOUS
 62
3
 66
1
 40
1.0E-003
 41
1.0E-003
 70
0
  0
VERTEX
  8
1
 42
0.0
 10
2.0079001E+002
 20
3.0034676E+001
 70
0
  0
VERTEX
  8
1
 42
0.0
 10
2.0397659E+002
 20
3.0034676E+001
 70
0
  0
SEQEND
  0
POLYLINE
  8
1
  6
CONTINUOUS
 62
3
 66
1
 40
1.0E-003
 41
1.0E-003
 70
0
  0
VERTEX
  8
1
 42
0.0
 10
2.0397659E+002
 20
3.0034676E+001
 70
0
  0
VERTEX
  8
1
 42
0.0
 10
2.0397659E+002
 20
2.7410446E+001
 70
0
  0
SEQEND
  0
POLYLINE
  8
1
  6
CONTINUOUS
 62
3
 66
1
 40
1.0E-003
 41
1.0E-003
 70
0
  0
VERTEX
  8
1
 42
0.0
 10
2.0397659E+002
 20
2.7410446E+001
 70
0
  0
VERTEX
  8
1
 42
0.0
 10
2.0079001E+002
 20
2.7410446E+001
 70
0
  0
SEQEND
  0
POLYLINE
  8
1
  6
CONTINUOUS
 62
3
 66
1
 40
1.0E-003
 41
1.0E-003
 70
0
  0
VERTEX
  8
1
 42
0.0
 10
1.7079001E+002
 20
2.3160446E+001
 70
0
  0
VERTEX
  8
1
 42
0.0
 10
1.7079001E+002
 20
2.5784676E+001
 70
0
  0
SEQEND
  0
POLYLINE
  8
1
  6
CONTINUOUS
 62
3
 66
1
 40
1.0E-003
 41
1.0E-003
 70
0
  0
VERTEX
  8
1
 42
0.0
 10
1.7079001E+002
 20
2.5784676E+001
 70
0
  0
VERTEX
  8
1
 42
0.0
 10
1.7397659E+002
 20
2.5784676E+001
 70
0
  0
SEQEND
  0
POLYLINE
  8
1
  6
CONTINUOUS
 62
3
 66
1
 40
1.0E-003
 41
1.0E-003
 70
0
  0
VERTEX
  8
1
 42
0.0
 10
1.7397659E+002
 20
2.5784676E+001
 70
0
  0
VERTEX
  8
1
 42
0.0
 10
1.7397659E+002
 20
2.3160446E+001
 70
0
  0
SEQEND
  0
POLYLINE
  8
1
  6
CONTINUOUS
 62
3
 66
1
 40
1.0E-003
 41
1.0E-003
 70
0
  0
VERTEX
  8
1
 42
0.0
 10
1.7397659E+002
 20
2.3160446E+001
 70
0
  0
VERTEX
  8
1
 42
0.0
 10
1.7079001E+002
 20
2.3160446E+001
 70
0
  0
SEQEND
  0
LINE
  8
1
  6
CONTINUOUS
 62
6
 10
3.1499985E+001
 20
3.1E+001
 11
3.1499985E+001
 21
1.4E+001
  0
POLYLINE
  8
1
  6
CONTINUOUS
 62
3
 66
1
 40
1.0E-003
 41
1.0E-003
 70
0
  0
VERTEX
  8
1
 42
0.0
 10
1.3877496E+002
 20
2.025E+001
 70
0
  0
VERTEX
  8
1
 42
0.0
 10
1.3877496E+002
 20
1.625E+001
 70
0
  0
SEQEND
  0
POLYLINE
  8
1
  6
CONTINUOUS
 62
3
 66
1
 40
1.0E-003
 41
1.0E-003
 70
0
  0
VERTEX
  8
1
 42
0.0
 10
1.3601489E+002
 20
1.925E+001
 70
0
  0
VERTEX
  8
1
 42
0.0
 10
1.3601489E+002
 20
1.725E+001
 70
0
  0
SEQEND
  0
POLYLINE
  8
1
  6
CONTINUOUS
 62
3
 66
1
 40
1.0E-003
 41
1.0E-003
 70
0
  0
VERTEX
  8
1
 42
0.0
 10
1.3601489E+002
 20
1.925E+001
 70
0
  0
VERTEX
  8
1
 42
0.0
 10
1.3877496E+002
 20
2.025E+001
 70
0
  0
SEQEND
  0
POLYLINE
  8
1
  6
CONTINUOUS
 62
3
 66
1
 40
1.0E-003
 41
1.0E-003
 70
0
  0
VERTEX
  8
1
 42
0.0
 10
1.3601489E+002
 20
1.725E+001
 70
0
  0
VERTEX
  8
1
 42
0.0
 10
1.3877496E+002
 20
1.625E+001
 70
0
  0
SEQEND
  0
POLYLINE
  8
1
  6
HIDDEN
 62
3
 66
1
 40
1.0E-003
 41
1.0E-003
 70
0
  0
VERTEX
  8
1
 42
0.0
 10
1.4252081E+002
 20
2.0649994E+001
 70
0
  0
VERTEX
  8
1
 42
0.0
 10
1.4252081E+002
 20
1.5849998E+001
 70
0
  0
SEQEND
  0
POLYLINE
  8
1
  6
HIDDEN
 62
3
 66
1
 40
1.0E-003
 41
1.0E-003
 70
0
  0
VERTEX
  8
1
 42
0.0
 10
1.4492081E+002
 20
1.825E+001
 70
0
  0
VERTEX
  8
1
 42
0.0
 10
1.3581775E+002
 20
1.825E+001
 70
0
  0
SEQEND
  0
TEXT
  8
1
  6
CONTINUOUS
 62
3
 10
5.9224213E+001
 20
2.3520981E+001
 40
2.0
  1
Ersatz fuer:
 41
6.0E-001
  0
TEXT
  8
1
  6
CONTINUOUS
 62
3
 10
5.9224213E+001
 20
1.9296745E+001
 40
2.0
  1
Ers. durch:
 41
6.5308091E-001
  0
TEXT
  8
1
  6
CONTINUOUS
 62
3
 10
5.9096191E+001
 20
1.4944511E+001
 40
2.0
  1
Zust. Stelle:
 41
6.3073385E-001
  0
TEXT
  8
1
  6
CONTINUOUS
 62
3
 10
9.8266327E+001
 20
2.7745209E+001
 40
2.0
  1
Ausgest.:
 41
6.0E-001
  0
TEXT
  8
1
  6
CONTINUOUS
 62
3
 10
9.8138336E+001
 20
2.3648987E+001
 40
2.0
  1
Geprueft:
 41
6.0E-001
  0
TEXT
  8
1
  6
CONTINUOUS
 62
3
 10
9.8138336E+001
 20
1.9424751E+001
 40
2.0
  1
Normgepr.:
 41
6.0E-001
  0
TEXT
  8
1
  6
CONTINUOUS
 62
3
 10
9.8138336E+001
 20
1.5072517E+001
 40
2.0
  1
Freigeg.:
 41
6.0E-001
  0
TEXT
  8
1
  6
CONTINUOUS
 62
3
 10
3.4718704E+001
 20
1.0957314E+001
 40
2.0
  1
Titel:
 41
5.9703E-001
  0
TEXT
  8
1
  6
CONTINUOUS
 62
3
 10
1.3619501E+002
 20
2.7965616E+001
 40
2.0
  1
Massstab
 41
6.0E-001
  0
TEXT
  8
1
  6
CONTINUOUS
 62
3
 10
1.7571872E+002
 20
2.7957314E+001
 40
2.0
  1
Sep.SL anderer Nr.
 41
6.0E-001
  0
TEXT
  8
1
  6
CONTINUOUS
 62
3
 10
1.4721872E+002
 20
1.9457314E+001
 40
2.0
  1
Dok.-Art
 41
6.0E-001
  0
TEXT
  8
1
  6
CONTINUOUS
 62
3
 10
1.5971872E+002
 20
1.9457314E+001
 40
2.0
  1
Format
 41
6.0E-001
  0
TEXT
  8
1
  6
CONTINUOUS
 62
3
 10
1.6971872E+002
 20
1.9457314E+001
 40
2.0
  1
Sprache
 41
6.0E-001
  0
TEXT
  8
1
  6
CONTINUOUS
 62
3
 10
1.8171872E+002
 20
1.9457314E+001
 40
2.0
  1
Bl. Nr.
 41
6.0E-001
  0
TEXT
  8
1
  6
CONTINUOUS
 62
3
 10
1.9221872E+002
 20
1.9457314E+001
 40
2.0
  1
Anz. Bl.
 41
6.0E-001
  0
TEXT
  8
1
  6
CONTINUOUS
 62
3
 10
1.4721872E+002
 20
2.7957314E+001
 40
2.0
  1
Sep.SL gleicher Nr.
 41
6.0E-001
  0
TEXT
  8
1
  6
CONTINUOUS
 62
3
 10
1.472323E+002
 20
2.3457428E+001
 40
2.0
  1
O
 41
6.3E-001
  0
TEXT
  8
1
  6
CONTINUOUS
 62
3
 10
1.486723E+002
 20
2.3457428E+001
 40
2.0
  1
hne sep. Stckl.:
 41
6.3727875E-001
  0
TEXT
  8
1
  6
CONTINUOUS
 62
6
 10
1.7570981E+002
 20
2.3817909E+001
 40
2.0
  1
 
 41
8.1E-001
  0
TEXT
  8
1
  6
CONTINUOUS
 62
3
 10
1.7603071E+002
 20
2.3683216E+001
 40
2.0
  1
Uebern. Stelle:
 41
6.0127615E-001
  0
TEXT
  8
1
  6
CONTINUOUS
 62
3
 10
1.595E+002
 20
1.5E+001
 40
2.5
  1
A
  0
TEXT
  8
1
  6
CONTINUOUS
 62
3
 10
1.645E+002
 20
1.5E+001
 40
2.5
  1
4
  0
TEXT
  8
1
  6
CONTINUOUS
 62
3
 10
1.7312595E+002
 20
1.5027565E+001
 40
2.5
  1
D
  0
TEXT
  8
1
  6
CONTINUOUS
 62
3
 10
1.8441553E+002
 20
1.5027565E+001
 40
2.5
  1
1
  0
TEXT
  8
1
  6
CONTINUOUS
 62
3
 10
1.9647238E+002
 20
1.5027565E+001
 40
2.5
  1
1
  0
TEXT
  8
1
  6
CONTINUOUS
 62
3
 10
5.9352203E+001
 20
2.7617203E+001
 40
2.0
  1
E
 41
6.3E-001
  0
TEXT
  8
1
  6
CONTINUOUS
 62
3
 10
6.0612213E+001
 20
2.7617203E+001
 40
2.0
  1
ntst. aus:
 41
6.09444E-001
  0
POLYLINE
  8
1
  6
CONTINUOUS
 62
3
 66
1
 40
1.0E-003
 41
1.0E-003
 70
0
  0
VERTEX
  8
1
 42
0.0
 10
2.0301865E+001
 20
7.3082472
 70
0
  0
VERTEX
  8
1
 42
0.0
 10
2.1426865E+001
 20
7.3082472
 70
0
  0
SEQEND
  0
POLYLINE
  8
1
  6
CONTINUOUS
 62
3
 66
1
 40
1.0E-003
 41
1.0E-003
 70
0
  0
VERTEX
  8
1
 42
0.0
 10
2.1426865E+001
 20
7.3082472
 70
0
  0
VERTEX
  8
1
 42
0.0
 10
2.1741867E+001
 20
8.2082449
 70
0
  0
SEQEND
  0
POLYLINE
  8
1
  6
CONTINUOUS
 62
3
 66
1
 40
1.0E-003
 41
1.0E-003
 70
0
  0
VERTEX
  8
1
 42
0.0
 10
2.1741867E+001
 20
8.2082449
 70
0
  0
VERTEX
  8
1
 42
0.0
 10
2.2356873E+001
 20
8.2082449
 70
0
  0
SEQEND
  0
POLYLINE
  8
1
  6
CONTINUOUS
 62
3
 66
1
 40
1.0E-003
 41
1.0E-003
 70
0
  0
VERTEX
  8
1
 42
0.0
 10
2.2356873E+001
 20
8.2082449
 70
0
  0
VERTEX
  8
1
 42
0.0
 10
2.2356873E+001
 20
9.3632456
 70
0
  0
SEQEND
  0
POLYLINE
  8
1
  6
CONTINUOUS
 62
3
 66
1
 40
1.0E-003
 41
1.0E-003
 70
0
  0
VERTEX
  8
1
 42
0.0
 10
2.2356873E+001
 20
9.3632456
 70
0
  0
VERTEX
  8
1
 42
0.0
 10
2.1073608E+001
 20
9.3632456
 70
0
  0
SEQEND
  0
POLYLINE
  8
1
  6
CONTINUOUS
 62
3
 66
1
 40
1.0E-003
 41
1.0E-003
 70
0
  0
VERTEX
  8
1
 42
0.0
 10
2.1073608E+001
 20
9.3632456
 70
0
  0
VERTEX
  8
1
 42
0.0
 10
2.0301865E+001
 20
7.3082472
 70
0
  0
SEQEND
  0
POLYLINE
  8
1
  6
CONTINUOUS
 62
3
 66
1
 40
1.0E-003
 41
1.0E-003
 70
0
  0
VERTEX
  8
1
 42
0.0
 10
2.4801865E+001
 20
7.3082472
 70
0
  0
VERTEX
  8
1
 42
0.0
 10
2.3676865E+001
 20
7.3082472
 70
0
  0
SEQEND
  0
POLYLINE
  8
1
  6
CONTINUOUS
 62
3
 66
1
 40
1.0E-003
 41
1.0E-003
 70
0
  0
VERTEX
  8
1
 42
0.0
 10
2.3676865E+001
 20
7.3082472
 70
0
  0
VERTEX
  8
1
 42
0.0
 10
2.3361862E+001
 20
8.2082449
 70
0
  0
SEQEND
  0
POLYLINE
  8
1
  6
CONTINUOUS
 62
3
 66
1
 40
1.0E-003
 41
1.0E-003
 70
0
  0
VERTEX
  8
1
 42
0.0
 10
2.3361862E+001
 20
8.2082449
 70
0
  0
VERTEX
  8
1
 42
0.0
 10
2.2746872E+001
 20
8.2082449
 70
0
  0
SEQEND
  0
POLYLINE
  8
1
  6
CONTINUOUS
 62
3
 66
1
 40
1.0E-003
 41
1.0E-003
 70
0
  0
VERTEX
  8
1
 42
0.0
 10
2.2746872E+001
 20
8.2082449
 70
0
  0
VERTEX
  8
1
 42
0.0
 10
2.2746872E+001
 20
9.3632456
 70
0
  0
SEQEND
  0
POLYLINE
  8
1
  6
CONTINUOUS
 62
3
 66
1
 40
1.0E-003
 41
1.0E-003
 70
0
  0
VERTEX
  8
1
 42
0.0
 10
2.2746872E+001
 20
9.3632456
 70
0
  0
VERTEX
  8
1
 42
0.0
 10
2.4030121E+001
 20
9.3632456
 70
0
  0
SEQEND
  0
POLYLINE
  8
1
  6
CONTINUOUS
 62
3
 66
1
 40
1.0E-003
 41
1.0E-003
 70
0
  0
VERTEX
  8
1
 42
0.0
 10
2.4030121E+001
 20
9.3632456
 70
0
  0
VERTEX
  8
1
 42
0.0
 10
2.4801865E+001
 20
7.3082472
 70
0
  0
SEQEND
  0
POLYLINE
  8
1
  6
CONTINUOUS
 62
3
 66
1
 40
1.0E-003
 41
1.0E-003
 70
0
  0
VERTEX
  8
1
 42
0.0
 10
2.2356873E+001
 20
9.753245
 70
0
  0
VERTEX
  8
1
 42
0.0
 10
2.1105118E+001
 20
9.753245
 70
0
  0
SEQEND
  0
POLYLINE
  8
1
  6
CONTINUOUS
 62
3
 66
1
 40
1.0E-003
 41
1.0E-003
 70
0
  0
VERTEX
  8
1
 42
0.0
 10
2.2356873E+001
 20
1.1808243E+001
 70
0
  0
VERTEX
  8
1
 42
0.0
 10
2.2356873E+001
 20
9.753245
 70
0
  0
SEQEND
  0
POLYLINE
  8
1
  6
CONTINUOUS
 62
3
 66
1
 40
1.0E-003
 41
1.0E-003
 70
0
  0
VERTEX
  8
1
 42
0.0
 10
2.2356873E+001
 20
1.1808243E+001
 70
0
  0
VERTEX
  8
1
 42
0.0
 10
2.1876862E+001
 20
1.1808243E+001
 70
0
  0
SEQEND
  0
POLYLINE
  8
1
  6
CONTINUOUS
 62
3
 66
1
 40
1.0E-003
 41
1.0E-003
 70
0
  0
VERTEX
  8
1
 42
0.0
 10
2.1876862E+001
 20
1.1808243E+001
 70
0
  0
VERTEX
  8
1
 42
0.0
 10
2.1105118E+001
 20
9.753245
 70
0
  0
SEQEND
  0
POLYLINE
  8
1
  6
CONTINUOUS
 62
3
 66
1
 40
1.0E-003
 41
1.0E-003
 70
0
  0
VERTEX
  8
1
 42
0.0
 10
2.2746872E+001
 20
9.753245
 70
0
  0
VERTEX
  8
1
 42
0.0
 10
2.3998611E+001
 20
9.753245
 70
0
  0
SEQEND
  0
POLYLINE
  8
1
  6
CONTINUOUS
 62
3
 66
1
 40
1.0E-003
 41
1.0E-003
 70
0
  0
VERTEX
  8
1
 42
0.0
 10
2.2746872E+001
 20
1.1808243E+001
 70
0
  0
VERTEX
  8
1
 42
0.0
 10
2.2746872E+001
 20
9.753245
 70
0
  0
SEQEND
  0
POLYLINE
  8
1
  6
CONTINUOUS
 62
3
 66
1
 40
1.0E-003
 41
1.0E-003
 70
0
  0
VERTEX
  8
1
 42
0.0
 10
2.2746872E+001
 20
1.1808243E+001
 70
0
  0
VERTEX
  8
1
 42
0.0
 10
2.3226868E+001
 20
1.1808243E+001
 70
0
  0
SEQEND
  0
POLYLINE
  8
1
  6
CONTINUOUS
 62
3
 66
1
 40
1.0E-003
 41
1.0E-003
 70
0
  0
VERTEX
  8
1
 42
0.0
 10
2.3226868E+001
 20
1.1808243E+001
 70
0
  0
VERTEX
  8
1
 42
0.0
 10
2.3998611E+001
 20
9.753245
 70
0
  0
SEQEND
  0
POLYLINE
  8
1
  6
CONTINUOUS
 62
3
 66
1
 40
1.0E-003
 41
1.0E-003
 70
0
  0
VERTEX
  8
1
 42
0.0
 10
2.5116867E+001
 20
9.3632456
 70
0
  0
VERTEX
  8
1
 42
0.0
 10
2.5116867E+001
 20
7.3082472
 70
0
  0
SEQEND
  0
POLYLINE
  8
1
  6
CONTINUOUS
 62
3
 66
1
 40
1.0E-003
 41
1.0E-003
 70
0
  0
VERTEX
  8
1
 42
0.0
 10
2.5116867E+001
 20
7.3082472
 70
0
  0
VERTEX
  8
1
 42
0.0
 10
2.6271881E+001
 20
7.3082472
 70
0
  0
SEQEND
  0
POLYLINE
  8
1
  6
CONTINUOUS
 62
3
 66
1
 40
1.0E-003
 41
1.0E-003
 70
0
  0
VERTEX
  8
1
 42
0.0
 10
2.6271881E+001
 20
9.3632456
 70
0
  0
VERTEX
  8
1
 42
0.0
 10
2.6271881E+001
 20
7.3082472
 70
0
  0
SEQEND
  0
POLYLINE
  8
1
  6
CONTINUOUS
 62
3
 66
1
 40
1.0E-003
 41
1.0E-003
 70
0
  0
VERTEX
  8
1
 42
0.0
 10
2.5116867E+001
 20
9.3632456
 70
0
  0
VERTEX
  8
1
 42
0.0
 10
2.6271881E+001
 20
9.3632456
 70
0
  0
SEQEND
  0
POLYLINE
  8
1
  6
CONTINUOUS
 62
3
 66
1
 40
1.0E-003
 41
1.0E-003
 70
0
  0
VERTEX
  8
1
 42
0.0
 10
2.5116867E+001
 20
9.753245
 70
0
  0
VERTEX
  8
1
 42
0.0
 10
2.6271881E+001
 20
9.753245
 70
0
  0
SEQEND
  0
POLYLINE
  8
1
  6
CONTINUOUS
 62
3
 66
1
 40
1.0E-003
 41
1.0E-003
 70
0
  0
VERTEX
  8
1
 42
0.0
 10
2.5116867E+001
 20
1.1808243E+001
 70
0
  0
VERTEX
  8
1
 42
0.0
 10
2.5116867E+001
 20
9.753245
 70
0
  0
SEQEND
  0
POLYLINE
  8
1
  6
CONTINUOUS
 62
3
 66
1
 40
1.0E-003
 41
1.0E-003
 70
0
  0
VERTEX
  8
1
 42
0.0
 10
2.5116867E+001
 20
1.1808243E+001
 70
0
  0
VERTEX
  8
1
 42
0.0
 10
2.6271881E+001
 20
1.1808243E+001
 70
0
  0
SEQEND
  0
POLYLINE
  8
1
  6
CONTINUOUS
 62
3
 66
1
 40
1.0E-003
 41
1.0E-003
 70
0
  0
VERTEX
  8
1
 42
0.0
 10
2.6271881E+001
 20
1.1808243E+001
 70
0
  0
VERTEX
  8
1
 42
0.0
 10
2.6271881E+001
 20
9.753245
 70
0
  0
SEQEND
  0
POLYLINE
  8
1
  6
CONTINUOUS
 62
3
 66
1
 40
1.0E-003
 41
1.0E-003
 70
0
  0
VERTEX
  8
1
 42
0.0
 10
2.6661865E+001
 20
9.3632456
 70
0
  0
VERTEX
  8
1
 42
0.0
 10
2.6661865E+001
 20
7.3082472
 70
0
  0
SEQEND
  0
POLYLINE
  8
1
  6
CONTINUOUS
 62
3
 66
1
 40
1.0E-003
 41
1.0E-003
 70
0
  0
VERTEX
  8
1
 42
0.0
 10
2.6661865E+001
 20
7.3082472
 70
0
  0
VERTEX
  8
1
 42
0.0
 10
2.691687E+001
 20
7.3082472
 70
0
  0
SEQEND
  0
POLYLINE
  8
1
  6
CONTINUOUS
 62
3
 66
1
 40
1.0E-003
 41
1.0E-003
 70
0
  0
VERTEX
  8
1
 42
0.0
 10
2.6661865E+001
 20
9.3632456
 70
0
  0
VERTEX
  8
1
 42
0.0
 10
2.8068161E+001
 20
9.3632456
 70
0
  0
SEQEND
  0
POLYLINE
  8
1
  6
CONTINUOUS
 62
3
 66
1
 40
1.0E-003
 41
1.0E-003
 70
0
  0
VERTEX
  8
1
 42
0.0
 10
2.6661865E+001
 20
1.1808243E+001
 70
0
  0
VERTEX
  8
1
 42
0.0
 10
2.6661865E+001
 20
9.753245
 70
0
  0
SEQEND
  0
POLYLINE
  8
1
  6
CONTINUOUS
 62
3
 66
1
 40
1.0E-003
 41
1.0E-003
 70
0
  0
VERTEX
  8
1
 42
0.0
 10
2.6661865E+001
 20
9.753245
 70
0
  0
VERTEX
  8
1
 42
0.0
 10
2.7706482E+001
 20
9.753245
 70
0
  0
SEQEND
  0
POLYLINE
  8
1
  6
CONTINUOUS
 62
3
 66
1
 40
1.0E-003
 41
1.0E-003
 70
0
  0
VERTEX
  8
1
 42
0.0
 10
2.6661865E+001
 20
1.1808243E+001
 70
0
  0
VERTEX
  8
1
 42
0.0
 10
2.691687E+001
 20
1.1808243E+001
 70
0
  0
SEQEND
  0
POLYLINE
  8
1
  6
CONTINUOUS
 62
3
 66
1
 40
1.0E-003
 41
1.0E-003
 70
0
  0
VERTEX
  8
1
 42
0.0
 10
2.8626862E+001
 20
9.3632456
 70
0
  0
VERTEX
  8
1
 42
0.0
 10
2.8626862E+001
 20
7.3082472
 70
0
  0
SEQEND
  0
POLYLINE
  8
1
  6
CONTINUOUS
 62
3
 66
1
 40
1.0E-003
 41
1.0E-003
 70
0
  0
VERTEX
  8
1
 42
0.0
 10
2.8626862E+001
 20
7.3082472
 70
0
  0
VERTEX
  8
1
 42
0.0
 10
2.9781876E+001
 20
7.3082472
 70
0
  0
SEQEND
  0
POLYLINE
  8
1
  6
CONTINUOUS
 62
3
 66
1
 40
1.0E-003
 41
1.0E-003
 70
0
  0
VERTEX
  8
1
 42
0.0
 10
2.9781876E+001
 20
9.3632456
 70
0
  0
VERTEX
  8
1
 42
0.0
 10
2.9781876E+001
 20
7.3082472
 70
0
  0
SEQEND
  0
POLYLINE
  8
1
  6
CONTINUOUS
 62
3
 66
1
 40
1.0E-003
 41
1.0E-003
 70
0
  0
VERTEX
  8
1
 42
0.0
 10
2.8626862E+001
 20
9.3632456
 70
0
  0
VERTEX
  8
1
 42
0.0
 10
2.9781876E+001
 20
9.3632456
 70
0
  0
SEQEND
  0
POLYLINE
  8
1
  6
CONTINUOUS
 62
3
 66
1
 40
1.0E-003
 41
1.0E-003
 70
0
  0
VERTEX
  8
1
 42
0.0
 10
2.8626862E+001
 20
1.1808243E+001
 70
0
  0
VERTEX
  8
1
 42
0.0
 10
2.8626862E+001
 20
9.753245
 70
0
  0
SEQEND
  0
POLYLINE
  8
1
  6
CONTINUOUS
 62
3
 66
1
 40
1.0E-003
 41
1.0E-003
 70
0
  0
VERTEX
  8
1
 42
0.0
 10
2.8626862E+001
 20
9.753245
 70
0
  0
VERTEX
  8
1
 42
0.0
 10
2.9781876E+001
 20
9.753245
 70
0
  0
SEQEND
  0
POLYLINE
  8
1
  6
CONTINUOUS
 62
3
 66
1
 40
1.0E-003
 41
1.0E-003
 70
0
  0
VERTEX
  8
1
 42
0.0
 10
2.9781876E+001
 20
1.1808243E+001
 70
0
  0
VERTEX
  8
1
 42
0.0
 10
2.9781876E+001
 20
9.753245
 70
0
  0
SEQEND
  0
POLYLINE
  8
1
  6
CONTINUOUS
 62
3
 66
1
 40
1.0E-003
 41
1.0E-003
 70
0
  0
VERTEX
  8
1
 42
0.0
 10
2.8626862E+001
 20
1.1808243E+001
 70
0
  0
VERTEX
  8
1
 42
0.0
 10
2.9781876E+001
 20
1.1808243E+001
 70
0
  0
SEQEND
  0
POLYLINE
  8
1
  6
CONTINUOUS
 62
3
 66
1
 40
1.0E-003
 41
1.0E-003
 70
0
  0
VERTEX
  8
1
 42
0.0
 10
3.017186E+001
 20
9.3632456
 70
0
  0
VERTEX
  8
1
 42
0.0
 10
3.017186E+001
 20
7.3082472
 70
0
  0
SEQEND
  0
POLYLINE
  8
1
  6
CONTINUOUS
 62
3
 66
1
 40
1.0E-003
 41
1.0E-003
 70
0
  0
VERTEX
  8
1
 42
0.0
 10
3.017186E+001
 20
7.3082472
 70
0
  0
VERTEX
  8
1
 42
0.0
 10
3.0426865E+001
 20
7.3082472
 70
0
  0
SEQEND
  0
POLYLINE
  8
1
  6
CONTINUOUS
 62
3
 66
1
 40
1.0E-003
 41
1.0E-003
 70
0
  0
VERTEX
  8
1
 42
0.0
 10
3.017186E+001
 20
9.3632456
 70
0
  0
VERTEX
  8
1
 42
0.0
 10
3.1578156E+001
 20
9.3632456
 70
0
  0
SEQEND
  0
POLYLINE
  8
1
  6
CONTINUOUS
 62
3
 66
1
 40
1.0E-003
 41
1.0E-003
 70
0
  0
VERTEX
  8
1
 42
0.0
 10
3.017186E+001
 20
1.1808243E+001
 70
0
  0
VERTEX
  8
1
 42
0.0
 10
3.017186E+001
 20
9.753245
 70
0
  0
SEQEND
  0
POLYLINE
  8
1
  6
CONTINUOUS
 62
3
 66
1
 40
1.0E-003
 41
1.0E-003
 70
0
  0
VERTEX
  8
1
 42
0.0
 10
3.017186E+001
 20
9.753245
 70
0
  0
VERTEX
  8
1
 42
0.0
 10
3.1216476E+001
 20
9.753245
 70
0
  0
SEQEND
  0
POLYLINE
  8
1
  6
CONTINUOUS
 62
3
 66
1
 40
1.0E-003
 41
1.0E-003
 70
0
  0
VERTEX
  8
1
 42
0.0
 10
3.017186E+001
 20
1.1808243E+001
 70
0
  0
VERTEX
  8
1
 42
0.0
 10
3.0426865E+001
 20
1.1808243E+001
 70
0
  0
SEQEND
  0
INSERT
  2
XHXH1NEW02NEW00NEW00
  8
1
 10
2.1933228E+001
 20
1.1581771E+001
  0
POLYLINE
  8
1
  6
CONTINUOUS
 62
3
 66
1
 40
1.0E-003
 41
1.0E-003
 70
0
  0
VERTEX
  8
1
 42
1.0
 10
1.4452078E+002
 20
1.825E+001
 70
0
  0
VERTEX
  8
1
 42
1.0
 10
1.4052078E+002
 20
1.825E+001
 70
0
  0
VERTEX
  8
1
 42
0.0
 10
1.4452078E+002
 20
1.825E+001
 70
0
  0
SEQEND
  0
POLYLINE
  8
1
  6
CONTINUOUS
 62
3
 66
1
 40
1.0E-003
 41
1.0E-003
 70
0
  0
VERTEX
  8
1
 42
1.0
 10
1.4352078E+002
 20
1.825E+001
 70
0
  0
VERTEX
  8
1
 42
1.0
 10
1.4152078E+002
 20
1.825E+001
 70
0
  0
VERTEX
  8
1
 42
0.0
 10
1.4352078E+002
 20
1.825E+001
 70
0
  0
SEQEND
  0
POLYLINE
  8
1
  6
CONTINUOUS
 62
3
 66
1
 40
1.0E-003
 41
1.0E-003
 70
0
  0
VERTEX
  8
1
 42
5.8600137E-001
 10
2.691687E+001
 20
7.3082456
 70
0
  0
VERTEX
  8
1
 42
0.0
 10
2.8068163E+001
 20
9.3632459
 70
0
  0
SEQEND
  0
POLYLINE
  8
1
  6
CONTINUOUS
 62
3
 66
1
 40
1.0E-003
 41
1.0E-003
 70
0
  0
VERTEX
  8
1
 42
6.2051509E-002
 10
2.7706476E+001
 20
9.7532445
 70
0
  0
VERTEX
  8
1
 42
0.0
 10
2.7413674E+001
 20
9.9135089
 70
0
  0
SEQEND
  0
POLYLINE
  8
1
  6
CONTINUOUS
 62
3
 66
1
 40
1.0E-003
 41
1.0E-003
 70
0
  0
VERTEX
  8
1
 42
7.7160142E-001
 10
2.7413674E+001
 20
9.9135095
 70
0
  0
VERTEX
  8
1
 42
0.0
 10
2.691687E+001
 20
1.1808246E+001
 70
0
  0
SEQEND
  0
POLYLINE
  8
1
  6
CONTINUOUS
 62
3
 66
1
 40
1.0E-003
 41
1.0E-003
 70
0
  0
VERTEX
  8
1
 42
5.8600137E-001
 10
3.0426865E+001
 20
7.3082456
 70
0
  0
VERTEX
  8
1
 42
0.0
 10
3.1578157E+001
 20
9.3632459
 70
0
  0
SEQEND
  0
POLYLINE
  8
1
  6
CONTINUOUS
 62
3
 66
1
 40
1.0E-003
 41
1.0E-003
 70
0
  0
VERTEX
  8
1
 42
6.2051509E-002
 10
3.1216471E+001
 20
9.7532445
 70
0
  0
VERTEX
  8
1
 42
0.0
 10
3.0923669E+001
 20
9.9135089
 70
0
  0
SEQEND
  0
POLYLINE
  8
1
  6
CONTINUOUS
 62
3
 66
1
 40
1.0E-003
 41
1.0E-003
 70
0
  0
VERTEX
  8
1
 42
7.7160142E-001
 10
3.0923669E+001
 20
9.9135095
 70
0
  0
VERTEX
  8
1
 42
0.0
 10
3.0426865E+001
 20
1.1808246E+001
 70
0
  0
SEQEND
  0
POINT
  8
Drafting_Hidden_Entities
  6
CONTINUOUS
 62
1
 10
0.0
 20
0.0
  0
ENDBLK
  0
BLOCK
  2
*XH26
  3
*XH
 10
0.0
 20
0.0
 70
65
  0
LINE
  8
1
  6
CONTINUOUS
 62
4
 10
1.957328E+002
 20
1.939044E+002
 11
1.972328E+002
 21
1.954044E+002
  0
LINE
  8
1
  6
CONTINUOUS
 62
4
 10
1.957328E+002
 20
1.91783E+002
 11
1.972328E+002
 21
1.93283E+002
  0
LINE
  8
1
  6
CONTINUOUS
 62
4
 10
1.957328E+002
 20
1.896617E+002
 11
1.972328E+002
 21
1.911617E+002
  0
LINE
  8
1
  6
CONTINUOUS
 62
4
 10
1.957328E+002
 20
1.875404E+002
 11
1.972328E+002
 21
1.890404E+002
  0
LINE
  8
1
  6
CONTINUOUS
 62
4
 10
1.957328E+002
 20
1.854191E+002
 11
1.972328E+002
 21
1.869191E+002
  0
LINE
  8
1
  6
CONTINUOUS
 62
4
 10
1.957328E+002
 20
1.832978E+002
 11
1.972328E+002
 21
1.847978E+002
  0
LINE
  8
1
  6
CONTINUOUS
 62
4
 10
1.957328E+002
 20
1.811764E+002
 11
1.972328E+002
 21
1.826764E+002
  0
LINE
  8
1
  6
CONTINUOUS
 62
4
 10
1.957328E+002
 20
1.790551E+002
 11
1.972328E+002
 21
1.805551E+002
  0
LINE
  8
1
  6
CONTINUOUS
 62
4
 10
1.957328E+002
 20
1.769338E+002
 11
1.972328E+002
 21
1.784338E+002
  0
LINE
  8
1
  6
CONTINUOUS
 62
4
 10
1.957328E+002
 20
1.748125E+002
 11
1.972328E+002
 21
1.763125E+002
  0
LINE
  8
1
  6
CONTINUOUS
 62
4
 10
1.957328E+002
 20
1.726912E+002
 11
1.972328E+002
 21
1.741912E+002
  0
LINE
  8
1
  6
CONTINUOUS
 62
4
 10
1.957328E+002
 20
1.705698E+002
 11
1.972328E+002
 21
1.720698E+002
  0
LINE
  8
1
  6
CONTINUOUS
 62
4
 10
1.957328E+002
 20
1.684485E+002
 11
1.972328E+002
 21
1.699485E+002
  0
LINE
  8
1
  6
CONTINUOUS
 62
4
 10
1.957328E+002
 20
1.663272E+002
 11
1.972328E+002
 21
1.678272E+002
  0
LINE
  8
1
  6
CONTINUOUS
 62
4
 10
1.957328E+002
 20
1.642059E+002
 11
1.972328E+002
 21
1.657059E+002
  0
LINE
  8
1
  6
CONTINUOUS
 62
4
 10
1.957328E+002
 20
1.620845E+002
 11
1.972328E+002
 21
1.635845E+002
  0
LINE
  8
1
  6
CONTINUOUS
 62
4
 10
1.957328E+002
 20
1.599632E+002
 11
1.972328E+002
 21
1.614632E+002
  0
LINE
  8
1
  6
CONTINUOUS
 62
4
 10
1.957328E+002
 20
1.578419E+002
 11
1.972328E+002
 21
1.593419E+002
  0
LINE
  8
1
  6
CONTINUOUS
 62
4
 10
1.957328E+002
 20
1.557206E+002
 11
1.972328E+002
 21
1.572206E+002
  0
LINE
  8
1
  6
CONTINUOUS
 62
4
 10
1.957328E+002
 20
1.535993E+002
 11
1.972328E+002
 21
1.550993E+002
  0
LINE
  8
1
  6
CONTINUOUS
 62
4
 10
1.957328E+002
 20
1.51478E+002
 11
1.972328E+002
 21
1.52978E+002
  0
LINE
  8
1
  6
CONTINUOUS
 62
4
 10
1.957328E+002
 20
1.493566E+002
 11
1.972328E+002
 21
1.508566E+002
  0
LINE
  8
1
  6
CONTINUOUS
 62
4
 10
1.967104E+002
 20
1.48213E+002
 11
1.972328E+002
 21
1.487353E+002
  0
ENDBLK
  0
BLOCK
  2
*E1290
  3
*E1290
 10
1.2245671E+002
 20
1.952928E+002
 70
65
  0
ARC
  8
1
  6
CONTINUOUS
 62
3
 10
1.2245671E+002
 20
1.952928E+002
 40
1.0
 50
9.0E+001
 51
1.8E+002
  0
ENDBLK
  0
BLOCK
  2
*D1328
  3
*D
 10
0.0
 20
0.0
 70
65
  0
LINE
  8
1
  6
CONTINUOUS
 62
4
 10
8.5147879E+001
 20
1.933929E+002
 11
8.5147879E+001
 21
2.3070917E+002
  0
LINE
  8
1
  6
CONTINUOUS
 62
4
 10
3.2647849E+001
 20
1.491929E+002
 11
3.2647849E+001
 21
2.3070917E+002
  0
SOLID
  8
1
  6
CONTINUOUS
 62
0
 10
8.5147879E+001
 20
2.2920917E+002
 11
8.2147879E+001
 21
2.2970918E+002
 12
8.2147879E+001
 22
2.2870917E+002
 13
8.2147879E+001
 23
2.2870917E+002
  0
SOLID
  8
1
  6
CONTINUOUS
 62
0
 10
3.2647849E+001
 20
2.2920917E+002
 11
3.5647849E+001
 21
2.2870917E+002
 12
3.5647849E+001
 22
2.2970918E+002
 13
3.5647849E+001
 23
2.2970918E+002
  0
LINE
  8
1
  6
CONTINUOUS
 62
4
 10
8.5147879E+001
 20
2.2920917E+002
 11
5.6139357E+001
 21
2.2920917E+002
  0
LINE
  8
1
  6
CONTINUOUS
 62
4
 10
3.2647849E+001
 20
2.2920917E+002
 11
5.6139357E+001
 21
2.2920917E+002
  0
ENDBLK
  0
BLOCK
  2
*D1330
  3
*D
 10
0.0
 20
0.0
 70
65
  0
LINE
  8
1
  6
CONTINUOUS
 62
4
 10
1.7955021E+002
 20
1.868928E+002
 11
1.8845191E+002
 21
1.868928E+002
  0
LINE
  8
1
  6
CONTINUOUS
 62
4
 10
1.920398E+002
 20
1.868928E+002
 11
1.9843921E+002
 21
1.868928E+002
  0
LINE
  8
1
  6
CONTINUOUS
 62
4
 10
1.7955021E+002
 20
1.614928E+002
 11
1.9843921E+002
 21
1.614928E+002
  0
SOLID
  8
1
  6
CONTINUOUS
 62
0
 10
1.9693921E+002
 20
1.868928E+002
 11
1.9643921E+002
 21
1.838928E+002
 12
1.9743921E+002
 22
1.838928E+002
 13
1.9743921E+002
 23
1.838928E+002
  0
SOLID
  8
1
  6
CONTINUOUS
 62
0
 10
1.9693921E+002
 20
1.614928E+002
 11
1.9743921E+002
 21
1.644928E+002
 12
1.9643921E+002
 22
1.644928E+002
 13
1.9643921E+002
 23
1.644928E+002
  0
LINE
  8
1
  6
CONTINUOUS
 62
4
 10
1.9693921E+002
 20
1.868928E+002
 11
1.9693921E+002
 21
1.744402E+002
  0
LINE
  8
1
  6
CONTINUOUS
 62
4
 10
1.9693921E+002
 20
1.614928E+002
 11
1.9693921E+002
 21
1.744402E+002
  0
ENDBLK
  0
BLOCK
  2
*D1334
  3
*D
 10
0.0
 20
0.0
 70
65
  0
LINE
  8
1
  6
CONTINUOUS
 62
4
 10
1.7945681E+002
 20
1.863928E+002
 11
1.9119511E+002
 21
1.863928E+002
  0
LINE
  8
1
  6
CONTINUOUS
 62
4
 10
1.7945681E+002
 20
1.873928E+002
 11
1.9119511E+002
 21
1.873928E+002
  0
SOLID
  8
1
  6
CONTINUOUS
 62
0
 10
1.8969511E+002
 20
1.863928E+002
 11
1.8919511E+002
 21
1.833928E+002
 12
1.9019511E+002
 22
1.833928E+002
 13
1.9019511E+002
 23
1.833928E+002
  0
SOLID
  8
1
  6
CONTINUOUS
 62
0
 10
1.8969511E+002
 20
1.873928E+002
 11
1.9019511E+002
 21
1.903928E+002
 12
1.8919511E+002
 22
1.903928E+002
 13
1.8919511E+002
 23
1.903928E+002
  0
LINE
  8
1
  6
CONTINUOUS
 62
4
 10
1.8969511E+002
 20
1.803928E+002
 11
1.8969511E+002
 21
1.873928E+002
  0
LINE
  8
1
  6
CONTINUOUS
 62
4
 10
1.8969511E+002
 20
1.873928E+002
 11
1.8969511E+002
 21
2.0227416E+002
  0
ENDBLK
  0
BLOCK
  2
*D1344
  3
*D
 10
0.0
 20
0.0
 70
65
  0
LINE
  8
1
  6
CONTINUOUS
 62
4
 10
1.7645671E+002
 20
1.981354E+002
 11
1.7645671E+002
 21
2.189972E+002
  0
LINE
  8
1
  6
CONTINUOUS
 62
4
 10
1.2045671E+002
 20
2.029429E+002
 11
1.2045671E+002
 21
2.189972E+002
  0
SOLID
  8
1
  6
CONTINUOUS
 62
0
 10
1.7645671E+002
 20
2.174972E+002
 11
1.7345671E+002
 21
2.179972E+002
 12
1.7345671E+002
 22
2.169972E+002
 13
1.7345671E+002
 23
2.169972E+002
  0
SOLID
  8
1
  6
CONTINUOUS
 62
0
 10
1.2045671E+002
 20
2.174972E+002
 11
1.2345671E+002
 21
2.169972E+002
 12
1.2345671E+002
 22
2.179972E+002
 13
1.2345671E+002
 23
2.179972E+002
  0
LINE
  8
1
  6
CONTINUOUS
 62
4
 10
1.7645671E+002
 20
2.174972E+002
 11
1.4904381E+002
 21
2.174972E+002
  0
LINE
  8
1
  6
CONTINUOUS
 62
4
 10
1.2045671E+002
 20
2.174972E+002
 11
1.4904381E+002
 21
2.174972E+002
  0
TEXT
  8
1
  6
CONTINUOUS
 62
4
 10
1.4664381E+002
 20
2.189982E+002
 40
3.0
  1
56
 41
8.0E-001
 50
3.6E+002
 51
1.0
  0
ENDBLK
  0
BLOCK
  2
*D1362
  3
*D
 10
0.0
 20
0.0
 70
65
  0
LINE
  8
1
  6
CONTINUOUS
 62
4
 10
8.1397969E+001
 20
1.969428E+002
 11
9.7096009E+001
 21
1.969428E+002
  0
LINE
  8
1
  6
CONTINUOUS
 62
4
 10
8.1397969E+001
 20
2.014428E+002
 11
9.7096009E+001
 21
2.014428E+002
  0
SOLID
  8
1
  6
CONTINUOUS
 62
0
 10
9.5596009E+001
 20
1.969428E+002
 11
9.5096005E+001
 21
1.939428E+002
 12
9.6096013E+001
 22
1.939428E+002
 13
9.6096013E+001
 23
1.939428E+002
  0
SOLID
  8
1
  6
CONTINUOUS
 62
0
 10
9.5596009E+001
 20
2.014428E+002
 11
9.6096013E+001
 21
2.044428E+002
 12
9.5096005E+001
 22
2.044428E+002
 13
9.5096005E+001
 23
2.044428E+002
  0
LINE
  8
1
  6
CONTINUOUS
 62
4
 10
9.5596009E+001
 20
1.909428E+002
 11
9.5596009E+001
 21
2.014428E+002
  0
LINE
  8
1
  6
CONTINUOUS
 62
4
 10
9.5596009E+001
 20
2.014428E+002
 11
9.5596009E+001
 21
2.1250866E+002
  0
ENDBLK
  0
BLOCK
  2
*D1366
  3
*D
 10
0.0
 20
0.0
 70
65
  0
LINE
  8
1
  6
CONTINUOUS
 62
4
 10
1.2495671E+002
 20
1.459427E+002
 11
1.2495671E+002
 21
1.3226183E+002
  0
LINE
  8
1
  6
CONTINUOUS
 62
4
 10
1.2045671E+002
 20
1.454427E+002
 11
1.2045671E+002
 21
1.3226183E+002
  0
SOLID
  8
1
  6
CONTINUOUS
 62
0
 10
1.2495671E+002
 20
1.3376183E+002
 11
1.2795671E+002
 21
1.3326183E+002
 12
1.2795671E+002
 22
1.3426183E+002
 13
1.2795671E+002
 23
1.3426183E+002
  0
SOLID
  8
1
  6
CONTINUOUS
 62
0
 10
1.2045671E+002
 20
1.3376183E+002
 11
1.1745671E+002
 21
1.3426183E+002
 12
1.1745671E+002
 22
1.3326183E+002
 13
1.1745671E+002
 23
1.3326183E+002
  0
LINE
  8
1
  6
CONTINUOUS
 62
4
 10
1.2495671E+002
 20
1.3376183E+002
 11
1.3714504E+002
 21
1.3376183E+002
  0
LINE
  8
1
  6
CONTINUOUS
 62
4
 10
1.1445671E+002
 20
1.3376183E+002
 11
1.2495671E+002
 21
1.3376183E+002
  0
ENDBLK
  0
BLOCK
  2
*D1368
  3
*D
 10
0.0
 20
0.0
 70
65
  0
LINE
  8
1
  6
CONTINUOUS
 62
4
 10
4.6397939E+001
 20
1.454428E+002
 11
1.1011949E+002
 21
1.454428E+002
  0
LINE
  8
1
  6
CONTINUOUS
 62
4
 10
8.1397969E+001
 20
2.029428E+002
 11
1.1011949E+002
 21
2.029428E+002
  0
SOLID
  8
1
  6
CONTINUOUS
 62
0
 10
1.0861949E+002
 20
1.454428E+002
 11
1.0911949E+002
 21
1.484428E+002
 12
1.0811949E+002
 22
1.484428E+002
 13
1.0811949E+002
 23
1.484428E+002
  0
SOLID
  8
1
  6
CONTINUOUS
 62
0
 10
1.0861949E+002
 20
2.029428E+002
 11
1.0811949E+002
 21
1.999428E+002
 12
1.0911949E+002
 22
1.999428E+002
 13
1.0911949E+002
 23
1.999428E+002
  0
LINE
  8
1
  6
CONTINUOUS
 62
4
 10
1.0861949E+002
 20
1.454428E+002
 11
1.0861949E+002
 21
1.75947E+002
  0
LINE
  8
1
  6
CONTINUOUS
 62
4
 10
1.0861949E+002
 20
2.029428E+002
 11
1.0861949E+002
 21
1.75947E+002
  0
ENDBLK
  0
BLOCK
  2
*D1371
  3
*D
 10
0.0
 20
0.0
 70
65
  0
LINE
  8
1
  6
CONTINUOUS
 62
4
 10
8.1397879E+001
 20
1.942695E+002
 11
8.1397879E+001
 21
1.316086E+002
  0
LINE
  8
1
  6
CONTINUOUS
 62
4
 10
4.6397839E+001
 20
1.446015E+002
 11
4.6397839E+001
 21
1.316086E+002
  0
SOLID
  8
1
  6
CONTINUOUS
 62
0
 10
8.1397879E+001
 20
1.331086E+002
 11
7.8397879E+001
 21
1.336086E+002
 12
7.8397879E+001
 22
1.326086E+002
 13
7.8397879E+001
 23
1.326086E+002
  0
SOLID
  8
1
  6
CONTINUOUS
 62
0
 10
4.6397839E+001
 20
1.331086E+002
 11
4.9397839E+001
 21
1.326086E+002
 12
4.9397839E+001
 22
1.336086E+002
 13
4.9397839E+001
 23
1.336086E+002
  0
LINE
  8
1
  6
CONTINUOUS
 62
4
 10
8.1397879E+001
 20
1.331086E+002
 11
6.2723909E+001
 21
1.331086E+002
  0
LINE
  8
1
  6
CONTINUOUS
 62
4
 10
4.6397839E+001
 20
1.331086E+002
 11
6.2723909E+001
 21
1.331086E+002
  0
TEXT
  8
1
  6
CONTINUOUS
 62
4
 10
6.0323909E+001
 20
1.346096E+002
 40
3.0
  1
35
 41
8.0E-001
 50
3.6E+002
 51
1.0
  0
ENDBLK
  0
BLOCK
  2
*D1380
  3
*D
 10
0.0
 20
0.0
 70
65
  0
LINE
  8
1
  6
CONTINUOUS
 62
4
 10
7.0397969E+001
 20
1.967928E+002
 11
1.0348811E+002
 21
1.967928E+002
  0
LINE
  8
1
  6
CONTINUOUS
 62
4
 10
7.0397969E+001
 20
1.515927E+002
 11
1.0348811E+002
 21
1.515927E+002
  0
SOLID
  8
1
  6
CONTINUOUS
 62
0
 10
1.0198811E+002
 20
1.967928E+002
 11
1.0148811E+002
 21
1.937928E+002
 12
1.0248811E+002
 22
1.937928E+002
 13
1.0248811E+002
 23
1.937928E+002
  0
SOLID
  8
1
  6
CONTINUOUS
 62
0
 10
1.0198811E+002
 20
1.515927E+002
 11
1.0248811E+002
 21
1.545927E+002
 12
1.0148811E+002
 22
1.545927E+002
 13
1.0148811E+002
 23
1.545927E+002
  0
LINE
  8
1
  6
CONTINUOUS
 62
4
 10
1.0198811E+002
 20
1.967928E+002
 11
1.0198811E+002
 21
1.743469E+002
  0
LINE
  8
1
  6
CONTINUOUS
 62
4
 10
1.0198811E+002
 20
1.515927E+002
 11
1.0198811E+002
 21
1.743469E+002
  0
ENDBLK
  0
BLOCK
  2
*E1388
  3
*E1388
 10
1.2445671E+002
 20
1.459428E+002
 70
65
  0
ARC
  8
1
  6
CONTINUOUS
 62
3
 10
1.2445671E+002
 20
1.459428E+002
 40
5.0E-001
 50
0.0
 51
9.0E+001
  0
ENDBLK
  0
BLOCK
  2
*D1392
  3
*D
 10
0.0
 20
0.0
 70
65
  0
LINE
  8
1
  6
CONTINUOUS
 62
4
 10
4.2137849E+001
 20
1.889141E+002
 11
4.2137849E+001
 21
2.121172E+002
  0
LINE
  8
1
  6
CONTINUOUS
 62
4
 10
5.2297859E+001
 20
1.889141E+002
 11
5.2297859E+001
 21
2.121172E+002
  0
SOLID
  8
1
  6
CONTINUOUS
 62
0
 10
4.2137849E+001
 20
2.106172E+002
 11
4.5137849E+001
 21
2.101172E+002
 12
4.5137849E+001
 22
2.111172E+002
 13
4.5137849E+001
 23
2.111172E+002
  0
SOLID
  8
1
  6
CONTINUOUS
 62
0
 10
5.2297859E+001
 20
2.106172E+002
 11
4.9297859E+001
 21
2.111172E+002
 12
4.9297859E+001
 22
2.101172E+002
 13
4.9297859E+001
 23
2.101172E+002
  0
LINE
  8
1
  6
CONTINUOUS
 62
4
 10
4.2137849E+001
 20
2.106172E+002
 11
4.6984589E+001
 21
2.106172E+002
  0
LINE
  8
1
  6
CONTINUOUS
 62
4
 10
5.2297859E+001
 20
2.106172E+002
 11
4.6984589E+001
 21
2.106172E+002
  0
ENDBLK
  0
BLOCK
  2
*D1394
  3
*D
 10
0.0
 20
0.0
 70
65
  0
LINE
  8
1
  6
CONTINUOUS
 62
4
 10
8.5147869E+001
 20
1.956929E+002
 11
8.5147869E+001
 21
2.2478047E+002
  0
LINE
  8
1
  6
CONTINUOUS
 62
4
 10
3.7647859E+001
 20
1.956929E+002
 11
3.7647859E+001
 21
2.2478047E+002
  0
SOLID
  8
1
  6
CONTINUOUS
 62
0
 10
8.5147869E+001
 20
2.2328047E+002
 11
8.2147869E+001
 21
2.2378047E+002
 12
8.2147869E+001
 22
2.2278047E+002
 13
8.2147869E+001
 23
2.2278047E+002
  0
SOLID
  8
1
  6
CONTINUOUS
 62
0
 10
3.7647859E+001
 20
2.2328047E+002
 11
4.0647859E+001
 21
2.2278047E+002
 12
4.0647859E+001
 22
2.2378047E+002
 13
4.0647859E+001
 23
2.2378047E+002
  0
LINE
  8
1
  6
CONTINUOUS
 62
4
 10
8.5147869E+001
 20
2.2328047E+002
 11
5.356002E+001
 21
2.2328047E+002
  0
LINE
  8
1
  6
CONTINUOUS
 62
4
 10
3.7647859E+001
 20
2.2328047E+002
 11
5.356002E+001
 21
2.2328047E+002
  0
ENDBLK
  0
BLOCK
  2
*D1396
  3
*D
 10
0.0
 20
0.0
 70
65
  0
LINE
  8
1
  6
CONTINUOUS
 62
4
 10
1.6495671E+002
 20
1.961929E+002
 11
1.6495671E+002
 21
2.052372E+002
  0
LINE
  8
1
  6
CONTINUOUS
 62
4
 10
1.7645671E+002
 20
1.981354E+002
 11
1.7645671E+002
 21
2.052372E+002
  0
SOLID
  8
1
  6
CONTINUOUS
 62
0
 10
1.6495671E+002
 20
2.037372E+002
 11
1.6795671E+002
 21
2.032372E+002
 12
1.6795671E+002
 22
2.042372E+002
 13
1.6795671E+002
 23
2.042372E+002
  0
SOLID
  8
1
  6
CONTINUOUS
 62
0
 10
1.7645671E+002
 20
2.037372E+002
 11
1.7345671E+002
 21
2.042372E+002
 12
1.7345671E+002
 22
2.032372E+002
 13
1.7345671E+002
 23
2.032372E+002
  0
LINE
  8
1
  6
CONTINUOUS
 62
4
 10
1.6495671E+002
 20
2.037372E+002
 11
1.7059261E+002
 21
2.037372E+002
  0
LINE
  8
1
  6
CONTINUOUS
 62
4
 10
1.7645671E+002
 20
2.037372E+002
 11
1.7059261E+002
 21
2.037372E+002
  0
ENDBLK
  0
BLOCK
  2
*D1397
  3
*D
 10
0.0
 20
0.0
 70
65
  0
LINE
  8
1
  6
CONTINUOUS
 62
4
 10
7.6801259E+001
 20
1.991928E+002
 11
2.4880629E+001
 21
1.991928E+002
  0
LINE
  8
1
  6
CONTINUOUS
 62
4
 10
3.1522449E+001
 20
1.491928E+002
 11
2.4880629E+001
 21
1.491928E+002
  0
SOLID
  8
1
  6
CONTINUOUS
 62
0
 10
2.6380629E+001
 20
1.991928E+002
 11
2.5880625E+001
 21
1.961928E+002
 12
2.6880633E+001
 22
1.961928E+002
 13
2.6880633E+001
 23
1.961928E+002
  0
SOLID
  8
1
  6
CONTINUOUS
 62
0
 10
2.6380629E+001
 20
1.491928E+002
 11
2.6880633E+001
 21
1.521928E+002
 12
2.5880625E+001
 22
1.521928E+002
 13
2.5880625E+001
 23
1.521928E+002
  0
LINE
  8
1
  6
CONTINUOUS
 62
4
 10
2.6380629E+001
 20
1.991928E+002
 11
2.6380629E+001
 21
1.743469E+002
  0
LINE
  8
1
  6
CONTINUOUS
 62
4
 10
2.6380629E+001
 20
1.491928E+002
 11
2.6380629E+001
 21
1.743469E+002
  0
TEXT
  8
1
  6
CONTINUOUS
 62
4
 10
2.4879629E+001
 20
1.719469E+002
 40
3.0
  1
50
 41
8.0E-001
 50
9.0E+001
 51
1.0
  0
ENDBLK
  0
BLOCK
  2
*D1399
  3
*D
 10
0.0
 20
0.0
 70
65
  0
LINE
  8
1
  6
CONTINUOUS
 62
4
 10
3.7647859E+001
 20
1.944929E+002
 11
3.7647859E+001
 21
2.189972E+002
  0
LINE
  8
1
  6
CONTINUOUS
 62
4
 10
5.2297859E+001
 20
1.889141E+002
 11
5.2297859E+001
 21
2.189972E+002
  0
SOLID
  8
1
  6
CONTINUOUS
 62
0
 10
3.7647859E+001
 20
2.174972E+002
 11
4.0647859E+001
 21
2.169972E+002
 12
4.0647859E+001
 22
2.179972E+002
 13
4.0647859E+001
 23
2.179972E+002
  0
SOLID
  8
1
  6
CONTINUOUS
 62
0
 10
5.2297859E+001
 20
2.174972E+002
 11
4.9297859E+001
 21
2.179972E+002
 12
4.9297859E+001
 22
2.169972E+002
 13
4.9297859E+001
 23
2.169972E+002
  0
LINE
  8
1
  6
CONTINUOUS
 62
4
 10
3.7647859E+001
 20
2.174972E+002
 11
4.5500672E+001
 21
2.174972E+002
  0
LINE
  8
1
  6
CONTINUOUS
 62
4
 10
5.2297859E+001
 20
2.174972E+002
 11
4.5500672E+001
 21
2.174972E+002
  0
ENDBLK
  0
BLOCK
  2
*D1402
  3
*D
 10
0.0
 20
0.0
 70
65
  0
LINE
  8
1
  6
CONTINUOUS
 62
4
 10
8.1397879E+001
 20
1.942695E+002
 11
8.1397879E+001
 21
1.156086E+002
  0
LINE
  8
1
  6
CONTINUOUS
 62
4
 10
3.6397849E+001
 20
1.447788E+002
 11
3.6397849E+001
 21
1.156086E+002
  0
SOLID
  8
1
  6
CONTINUOUS
 62
0
 10
8.1397879E+001
 20
1.171086E+002
 11
7.8397879E+001
 21
1.176086E+002
 12
7.8397879E+001
 22
1.166086E+002
 13
7.8397879E+001
 23
1.166086E+002
  0
SOLID
  8
1
  6
CONTINUOUS
 62
0
 10
3.6397849E+001
 20
1.171086E+002
 11
3.9397849E+001
 21
1.166086E+002
 12
3.9397849E+001
 22
1.176086E+002
 13
3.9397849E+001
 23
1.176086E+002
  0
LINE
  8
1
  6
CONTINUOUS
 62
4
 10
8.1397879E+001
 20
1.171086E+002
 11
5.8723909E+001
 21
1.171086E+002
  0
LINE
  8
1
  6
CONTINUOUS
 62
4
 10
3.6397849E+001
 20
1.171086E+002
 11
5.8723909E+001
 21
1.171086E+002
  0
TEXT
  8
1
  6
CONTINUOUS
 62
4
 10
5.6323909E+001
 20
1.186096E+002
 40
3.0
  1
45
 41
8.0E-001
 50
3.6E+002
 51
1.0
  0
ENDBLK
  0
BLOCK
  2
*D1403
  3
*D
 10
0.0
 20
0.0
 70
65
  0
LINE
  8
1
  6
CONTINUOUS
 62
4
 10
4.1397839E+001
 20
1.447788E+002
 11
4.1397839E+001
 21
1.236086E+002
  0
LINE
  8
1
  6
CONTINUOUS
 62
4
 10
8.1397879E+001
 20
1.942695E+002
 11
8.1397879E+001
 21
1.236086E+002
  0
SOLID
  8
1
  6
CONTINUOUS
 62
0
 10
4.1397839E+001
 20
1.251086E+002
 11
4.4397839E+001
 21
1.246086E+002
 12
4.4397839E+001
 22
1.256086E+002
 13
4.4397839E+001
 23
1.256086E+002
  0
SOLID
  8
1
  6
CONTINUOUS
 62
0
 10
8.1397879E+001
 20
1.251086E+002
 11
7.8397879E+001
 21
1.256086E+002
 12
7.8397879E+001
 22
1.246086E+002
 13
7.8397879E+001
 23
1.246086E+002
  0
LINE
  8
1
  6
CONTINUOUS
 62
4
 10
4.1397839E+001
 20
1.251086E+002
 11
6.0723909E+001
 21
1.251086E+002
  0
LINE
  8
1
  6
CONTINUOUS
 62
4
 10
8.1397879E+001
 20
1.251086E+002
 11
6.0723909E+001
 21
1.251086E+002
  0
TEXT
  8
1
  6
CONTINUOUS
 62
4
 10
5.8323909E+001
 20
1.266096E+002
 40
3.0
  1
40
 41
8.0E-001
 51
1.0
  0
ENDBLK
  0
BLOCK
  2
*E1419
  3
*E
 10
0.0
 20
0.0
 70
65
  0
CIRCLE
  8
1
  6
CONTINUOUS
 62
3
 10
0.0
 20
0.0
 40
1.0
  0
ENDBLK
  0
BLOCK
  2
*E1420
  3
*E1420
 10
3.6397849E+001
 20
1.491928E+002
 70
65
  0
ARC
  8
1
  6
CONTINUOUS
 62
3
 10
3.6397849E+001
 20
1.491928E+002
 40
2.25
 50
2.0726605E+002
 51
3.872661E+002
  0
ENDBLK
  0
BLOCK
  2
*E1421
  3
*E1421
 10
8.1397879E+001
 20
1.991928E+002
 70
65
  0
ARC
  8
1
  6
CONTINUOUS
 62
3
 10
8.1397879E+001
 20
1.991928E+002
 40
3.75
 50
9.0E+001
 51
2.7E+002
  0
ENDBLK
  0
BLOCK
  2
*E1422
  3
*E1422
 10
4.6397839E+001
 20
1.491928E+002
 70
65
  0
ARC
  8
1
  6
CONTINUOUS
 62
3
 10
4.6397839E+001
 20
1.491928E+002
 40
3.75
 50
0.0
 51
9.0E+001
  0
ENDBLK
  0
BLOCK
  2
*E1423
  3
*E1423
 10
3.6397849E+001
 20
1.491928E+002
 70
65
  0
ARC
  8
1
  6
CONTINUOUS
 62
3
 10
3.6397849E+001
 20
1.491928E+002
 40
3.75
 50
2.1934598E+002
 51
3.6E+002
  0
ENDBLK
  0
BLOCK
  2
*E1424
  3
*E1424
 10
4.1397839E+001
 20
1.491928E+002
 70
65
  0
ARC
  8
1
  6
CONTINUOUS
 62
3
 10
4.1397839E+001
 20
1.491928E+002
 40
2.25
 50
3.327339E+002
 51
5.1273393E+002
  0
ENDBLK
  0
BLOCK
  2
*E1425
  3
*E1425
 10
4.6397839E+001
 20
1.491928E+002
 70
65
  0
ARC
  8
1
  6
CONTINUOUS
 62
3
 10
4.6397839E+001
 20
1.491928E+002
 40
2.25
 50
2.0726607E+002
 51
5.1273393E+002
  0
ENDBLK
  0
BLOCK
  2
*E1758
  3
*E1758
 10
8.2247869E+001
 20
1.602428E+002
 70
65
  0
ARC
  8
1
  6
CONTINUOUS
 62
3
 10
8.2247869E+001
 20
1.602428E+002
 40
5.0E-001
 50
1.7999998E+002
 51
2.7E+002
  0
ENDBLK
  0
BLOCK
  2
*E1761
  3
*E1761
 10
8.2247869E+001
 20
1.627428E+002
 70
65
  0
ARC
  8
1
  6
CONTINUOUS
 62
3
 10
8.2247869E+001
 20
1.627428E+002
 40
5.0E-001
 50
2.7E+002
 51
3.6E+002
  0
ENDBLK
  0
BLOCK
  2
*E1764
  3
*E1764
 10
6.4647869E+001
 20
1.627428E+002
 70
65
  0
ARC
  8
1
  6
CONTINUOUS
 62
3
 10
6.4647869E+001
 20
1.627428E+002
 40
5.0E-001
 50
2.7E+002
 51
3.6E+002
  0
ENDBLK
  0
BLOCK
  2
*E1766
  3
*E1766
 10
6.4647869E+001
 20
1.602428E+002
 70
65
  0
ARC
  8
1
  6
CONTINUOUS
 62
3
 10
6.4647869E+001
 20
1.602428E+002
 40
5.0E-001
 50
1.7999998E+002
 51
2.7E+002
  0
ENDBLK
  0
BLOCK
  2
*E1768
  3
*E1768
 10
5.5047859E+001
 20
1.602428E+002
 70
65
  0
ARC
  8
1
  6
CONTINUOUS
 62
3
 10
5.5047859E+001
 20
1.602428E+002
 40
5.0E-001
 50
1.7999998E+002
 51
2.7E+002
  0
ENDBLK
  0
BLOCK
  2
*E1770
  3
*E1770
 10
5.5047859E+001
 20
1.627428E+002
 70
65
  0
ARC
  8
1
  6
CONTINUOUS
 62
3
 10
5.5047859E+001
 20
1.627428E+002
 40
5.0E-001
 50
2.7E+002
 51
3.6E+002
  0
ENDBLK
  0
BLOCK
  2
*E1772
  3
*E1772
 10
4.5947859E+001
 20
1.602428E+002
 70
65
  0
ARC
  8
1
  6
CONTINUOUS
 62
3
 10
4.5947859E+001
 20
1.602428E+002
 40
5.0E-001
 50
1.7999998E+002
 51
2.7E+002
  0
ENDBLK
  0
BLOCK
  2
*E1774
  3
*E1774
 10
4.5947859E+001
 20
1.627428E+002
 70
65
  0
ARC
  8
1
  6
CONTINUOUS
 62
3
 10
4.5947859E+001
 20
1.627428E+002
 40
5.0E-001
 50
2.7E+002
 51
3.6E+002
  0
ENDBLK
  0
BLOCK
  2
*E1776
  3
*E1776
 10
4.0147859E+001
 20
1.627428E+002
 70
65
  0
ARC
  8
1
  6
CONTINUOUS
 62
3
 10
4.0147859E+001
 20
1.627428E+002
 40
5.0E-001
 50
0.0
 51
9.0E+001
  0
ENDBLK
  0
BLOCK
  2
*E1779
  3
*E1779
 10
4.0147859E+001
 20
1.602428E+002
 70
65
  0
ARC
  8
1
  6
CONTINUOUS
 62
3
 10
4.0147859E+001
 20
1.602428E+002
 40
5.0E-001
 50
9.0E+001
 51
1.8E+002
  0
ENDBLK
  0
BLOCK
  2
*E1782
  3
*E1782
 10
4.9547859E+001
 20
1.602428E+002
 70
65
  0
ARC
  8
1
  6
CONTINUOUS
 62
3
 10
4.9547859E+001
 20
1.602428E+002
 40
5.0E-001
 50
9.0E+001
 51
1.8E+002
  0
ENDBLK
  0
BLOCK
  2
*E1783
  3
*E1783
 10
4.9547859E+001
 20
1.627428E+002
 70
65
  0
ARC
  8
1
  6
CONTINUOUS
 62
3
 10
4.9547859E+001
 20
1.627428E+002
 40
5.0E-001
 50
0.0
 51
9.0E+001
  0
ENDBLK
  0
BLOCK
  2
*E1786
  3
*E1786
 10
5.8647869E+001
 20
1.602428E+002
 70
65
  0
ARC
  8
1
  6
CONTINUOUS
 62
3
 10
5.8647869E+001
 20
1.602428E+002
 40
5.0E-001
 50
9.0E+001
 51
1.8E+002
  0
ENDBLK
  0
BLOCK
  2
*E1788
  3
*E1788
 10
5.8647869E+001
 20
1.627428E+002
 70
65
  0
ARC
  8
1
  6
CONTINUOUS
 62
3
 10
5.8647869E+001
 20
1.627428E+002
 40
5.0E-001
 50
0.0
 51
9.0E+001
  0
ENDBLK
  0
BLOCK
  2
*E1790
  3
*E1790
 10
6.7747869E+001
 20
1.602428E+002
 70
65
  0
ARC
  8
1
  6
CONTINUOUS
 62
3
 10
6.7747869E+001
 20
1.602428E+002
 40
5.0E-001
 50
9.0E+001
 51
1.8E+002
  0
ENDBLK
  0
BLOCK
  2
*E1792
  3
*E1792
 10
6.7747869E+001
 20
1.627428E+002
 70
65
  0
ARC
  8
1
  6
CONTINUOUS
 62
3
 10
6.7747869E+001
 20
1.627428E+002
 40
5.0E-001
 50
0.0
 51
9.0E+001
  0
ENDBLK
  0
BLOCK
  2
*E1794
  3
*E1794
 10
7.6847879E+001
 20
1.602428E+002
 70
65
  0
ARC
  8
1
  6
CONTINUOUS
 62
3
 10
7.6847879E+001
 20
1.602428E+002
 40
5.0E-001
 50
9.0E+001
 51
1.8E+002
  0
ENDBLK
  0
BLOCK
  2
*E1795
  3
*E1795
 10
7.6847879E+001
 20
1.627428E+002
 70
65
  0
ARC
  8
1
  6
CONTINUOUS
 62
3
 10
7.6847879E+001
 20
1.627428E+002
 40
5.0E-001
 50
0.0
 51
9.0E+001
  0
ENDBLK
  0
BLOCK
  2
*E1796
  3
*E1796
 10
7.5647869E+001
 20
1.602428E+002
 70
65
  0
ARC
  8
1
  6
CONTINUOUS
 62
3
 10
7.5647869E+001
 20
1.602428E+002
 40
5.0E-001
 50
1.7999998E+002
 51
2.7E+002
  0
ENDBLK
  0
BLOCK
  2
*E1798
  3
*E1798
 10
7.5647869E+001
 20
1.627428E+002
 70
65
  0
ARC
  8
1
  6
CONTINUOUS
 62
3
 10
7.5647869E+001
 20
1.627428E+002
 40
5.0E-001
 50
2.7E+002
 51
3.6E+002
  0
ENDBLK
  0
BLOCK
  2
*D1946
  3
*D
 10
0.0
 20
0.0
 70
65
  0
LINE
  8
1
  6
CONTINUOUS
 62
4
 10
5.2297859E+001
 20
1.889141E+002
 11
5.2297859E+001
 21
2.121172E+002
  0
LINE
  8
1
  6
CONTINUOUS
 62
4
 10
6.2457869E+001
 20
1.889141E+002
 11
6.2457869E+001
 21
2.121172E+002
  0
SOLID
  8
1
  6
CONTINUOUS
 62
0
 10
5.2297859E+001
 20
2.106172E+002
 11
5.5297859E+001
 21
2.101172E+002
 12
5.5297859E+001
 22
2.111172E+002
 13
5.5297859E+001
 23
2.111172E+002
  0
SOLID
  8
1
  6
CONTINUOUS
 62
0
 10
6.2457869E+001
 20
2.106172E+002
 11
5.9457869E+001
 21
2.111172E+002
 12
5.9457869E+001
 22
2.101172E+002
 13
5.9457869E+001
 23
2.101172E+002
  0
LINE
  8
1
  6
CONTINUOUS
 62
4
 10
5.2297859E+001
 20
2.106172E+002
 11
5.7206639E+001
 21
2.106172E+002
  0
LINE
  8
1
  6
CONTINUOUS
 62
4
 10
6.2457869E+001
 20
2.106172E+002
 11
5.7206639E+001
 21
2.106172E+002
  0
ENDBLK
  0
BLOCK
  2
*D1949
  3
*D
 10
0.0
 20
0.0
 70
65
  0
LINE
  8
1
  6
CONTINUOUS
 62
4
 10
7.2617869E+001
 20
1.889141E+002
 11
7.2617869E+001
 21
2.121172E+002
  0
LINE
  8
1
  6
CONTINUOUS
 62
4
 10
8.0237859E+001
 20
1.889141E+002
 11
8.0237859E+001
 21
2.121172E+002
  0
SOLID
  8
1
  6
CONTINUOUS
 62
0
 10
7.2617869E+001
 20
2.106172E+002
 11
6.9617869E+001
 21
2.111172E+002
 12
6.9617869E+001
 22
2.101172E+002
 13
6.9617869E+001
 23
2.101172E+002
  0
SOLID
  8
1
  6
CONTINUOUS
 62
0
 10
8.0237859E+001
 20
2.106172E+002
 11
8.3237859E+001
 21
2.101172E+002
 12
8.3237859E+001
 22
2.111172E+002
 13
8.3237859E+001
 23
2.111172E+002
  0
LINE
  8
1
  6
CONTINUOUS
 62
4
 10
6.6617869E+001
 20
2.106172E+002
 11
7.2617869E+001
 21
2.106172E+002
  0
LINE
  8
1
  6
CONTINUOUS
 62
4
 10
8.6237859E+001
 20
2.106172E+002
 11
7.2617869E+001
 21
2.106172E+002
  0
ENDBLK
  0
BLOCK
  2
*D1950
  3
*D
 10
0.0
 20
0.0
 70
65
  0
LINE
  8
1
  6
CONTINUOUS
 62
4
 10
1.7645671E+002
 20
1.981354E+002
 11
1.7645671E+002
 21
2.189972E+002
  0
LINE
  8
1
  6
CONTINUOUS
 62
4
 10
1.8045671E+002
 20
1.866608E+002
 11
1.8045671E+002
 21
2.189972E+002
  0
SOLID
  8
1
  6
CONTINUOUS
 62
0
 10
1.7645671E+002
 20
2.174972E+002
 11
1.7345671E+002
 21
2.179972E+002
 12
1.7345671E+002
 22
2.169972E+002
 13
1.7345671E+002
 23
2.169972E+002
  0
SOLID
  8
1
  6
CONTINUOUS
 62
0
 10
1.8045671E+002
 20
2.174972E+002
 11
1.8345671E+002
 21
2.169972E+002
 12
1.8345671E+002
 22
2.179972E+002
 13
1.8345671E+002
 23
2.179972E+002
  0
LINE
  8
1
  6
CONTINUOUS
 62
4
 10
1.7045671E+002
 20
2.174972E+002
 11
1.8045671E+002
 21
2.174972E+002
  0
LINE
  8
1
  6
CONTINUOUS
 62
4
 10
1.8045671E+002
 20
2.174972E+002
 11
1.8627371E+002
 21
2.174972E+002
  0
TEXT
  8
1
  6
CONTINUOUS
 62
4
 10
1.8237371E+002
 20
2.189982E+002
 40
3.0
  1
4
 41
8.0E-001
 51
1.0
  0
ENDBLK
  0
BLOCK
  2
*D1953
  3
*D
 10
0.0
 20
0.0
 70
65
  0
LINE
  8
1
  6
CONTINUOUS
 62
4
 10
6.2457869E+001
 20
1.889141E+002
 11
6.2457869E+001
 21
2.121172E+002
  0
LINE
  8
1
  6
CONTINUOUS
 62
4
 10
7.2617869E+001
 20
1.889141E+002
 11
7.2617869E+001
 21
2.121172E+002
  0
SOLID
  8
1
  6
CONTINUOUS
 62
0
 10
6.2457869E+001
 20
2.106172E+002
 11
6.5457869E+001
 21
2.101172E+002
 12
6.5457869E+001
 22
2.111172E+002
 13
6.5457869E+001
 23
2.111172E+002
  0
SOLID
  8
1
  6
CONTINUOUS
 62
0
 10
7.2617869E+001
 20
2.106172E+002
 11
6.9617869E+001
 21
2.111172E+002
 12
6.9617869E+001
 22
2.101172E+002
 13
6.9617869E+001
 23
2.101172E+002
  0
LINE
  8
1
  6
CONTINUOUS
 62
4
 10
6.2457869E+001
 20
2.106172E+002
 11
6.7133579E+001
 21
2.106172E+002
  0
LINE
  8
1
  6
CONTINUOUS
 62
4
 10
7.2617869E+001
 20
2.106172E+002
 11
6.7133579E+001
 21
2.106172E+002
  0
ENDBLK
  0
BLOCK
  2
*E1969
  3
*E1969
 10
1.7245671E+002
 20
1.784428E+002
 70
65
  0
ARC
  8
1
  6
CONTINUOUS
 62
3
 10
1.7245671E+002
 20
1.784428E+002
 40
1.0
 50
2.7E+002
 51
3.6E+002
  0
ENDBLK
  0
BLOCK
  2
*E1980
  3
*E1980
 10
1.5425671E+002
 20
1.954928E+002
 70
65
  0
ARC
  8
1
  6
CONTINUOUS
 62
3
 10
1.5425671E+002
 20
1.954928E+002
 40
8.0E-001
 50
2.7E+002
 51
2.844796E+002
  0
ENDBLK
  0
BLOCK
  2
*D1984
  3
*D
 10
0.0
 20
0.0
 70
65
  0
LINE
  8
1
  6
CONTINUOUS
 62
4
 10
1.7645671E+002
 20
1.981354E+002
 11
1.7645671E+002
 21
2.121172E+002
  0
LINE
  8
1
  6
CONTINUOUS
 62
4
 10
1.2345671E+002
 20
1.916929E+002
 11
1.2345671E+002
 21
2.121172E+002
  0
SOLID
  8
1
  6
CONTINUOUS
 62
0
 10
1.7645671E+002
 20
2.106172E+002
 11
1.7345671E+002
 21
2.111172E+002
 12
1.7345671E+002
 22
2.101172E+002
 13
1.7345671E+002
 23
2.101172E+002
  0
SOLID
  8
1
  6
CONTINUOUS
 62
0
 10
1.2345671E+002
 20
2.106172E+002
 11
1.2645671E+002
 21
2.101172E+002
 12
1.2645671E+002
 22
2.111172E+002
 13
1.2645671E+002
 23
2.111172E+002
  0
LINE
  8
1
  6
CONTINUOUS
 62
4
 10
1.7645671E+002
 20
2.106172E+002
 11
1.4813521E+002
 21
2.106172E+002
  0
LINE
  8
1
  6
CONTINUOUS
 62
4
 10
1.2345671E+002
 20
2.106172E+002
 11
1.4813521E+002
 21
2.106172E+002
  0
TEXT
  8
1
  6
CONTINUOUS
 62
4
 10
1.4573521E+002
 20
2.121182E+002
 40
3.0
  1
53
 41
8.0E-001
 50
3.6E+002
 51
1.0
  0
ENDBLK
  0
ENDSEC
  0
SECTION
  2
ENTITIES
  0
INSERT
  2
RAHMENA4
  8
1
 10
0.0
 20
0.0
  0
POLYLINE
  8
1
  6
CONTINUOUS
 62
3
 66
1
 40
5.0E-001
 41
5.0E-001
 70
0
  0
VERTEX
  8
1
 42
4.1421356E-001
 10
1.2495671E+002
 20
2.024427E+002
 70
0
  0
VERTEX
  8
1
 42
0.0
 10
1.2445671E+002
 20
2.029427E+002
 70
0
  0
SEQEND
  0
POLYLINE
  8
1
  6
CONTINUOUS
 62
3
 66
1
 40
5.0E-001
 41
5.0E-001
 70
0
  0
VERTEX
  8
1
 42
4.1421356E-001
 10
1.3195671E+002
 20
1.942927E+002
 70
0
  0
VERTEX
  8
1
 42
0.0
 10
1.3145671E+002
 20
1.937927E+002
 70
0
  0
SEQEND
  0
POLYLINE
  8
1
  6
CONTINUOUS
 62
3
 66
1
 40
5.0E-001
 41
5.0E-001
 70
0
  0
VERTEX
  8
1
 42
8.1209532E-002
 10
1.2216454E+002
 20
1.8989275E+002
 70
0
  0
VERTEX
  8
1
 42
0.0
 10
1.2255499E+002
 20
1.9059875E+002
 70
0
  0
SEQEND
  0
POLYLINE
  8
1
  6
CONTINUOUS
 62
3
 66
1
 40
5.0E-001
 41
5.0E-001
 70
0
  0
VERTEX
  8
1
 42
4.1421356E-001
 10
1.3145671E+002
 20
1.545928E+002
 70
0
  0
VERTEX
  8
1
 42
0.0
 10
1.3195671E+002
 20
1.540928E+002
 70
0
  0
SEQEND
  0
POLYLINE
  8
1
  6
CONTINUOUS
 62
3
 66
1
 40
5.0E-001
 41
5.0E-001
 70
0
  0
VERTEX
  8
1
 42
0.0
 10
1.2255501E+002
 20
1.562928E+002
 70
0
  0
VERTEX
  8
1
 42
0.0
 10
1.2045671E+002
 20
1.557305E+002
 70
0
  0
SEQEND
  0
INSERT
  2
*E1290
  8
1
 10
1.2245671E+002
 20
1.952928E+002
 41
1.0
 42
1.0
 43
1.0
 50
2.7E+002
 62
3
  0
POLYLINE
  8
1
  6
CONTINUOUS
 62
3
 66
1
 40
5.0E-001
 41
5.0E-001
 70
0
  0
VERTEX
  8
1
 42
0.0
 10
1.4155671E+002
 20
1.530928E+002
 70
0
  0
VERTEX
  8
1
 42
0.0
 10
1.2495671E+002
 20
1.530928E+002
 70
0
  0
SEQEND
  0
POLYLINE
  8
1
  6
CONTINUOUS
 62
3
 66
1
 40
5.0E-001
 41
5.0E-001
 70
0
  0
VERTEX
  8
1
 42
0.0
 10
1.3195671E+002
 20
1.540928E+002
 70
0
  0
VERTEX
  8
1
 42
0.0
 10
1.4155671E+002
 20
1.540928E+002
 70
0
  0
SEQEND
  0
POLYLINE
  8
1
  6
CONTINUOUS
 62
3
 66
1
 40
5.0E-001
 41
5.0E-001
 70
0
  0
VERTEX
  8
1
 42
0.0
 10
1.4155671E+002
 20
1.942927E+002
 70
0
  0
VERTEX
  8
1
 42
0.0
 10
1.3195671E+002
 20
1.942927E+002
 70
0
  0
SEQEND
  0
POLYLINE
  8
1
  6
CONTINUOUS
 62
3
 66
1
 40
5.0E-001
 41
5.0E-001
 70
0
  0
VERTEX
  8
1
 42
0.0
 10
1.4155671E+002
 20
1.952928E+002
 70
0
  0
VERTEX
  8
1
 42
0.0
 10
1.2045671E+002
 20
1.952928E+002
 70
0
  0
SEQEND
  0
LINE
  8
1
  6
CENTERLINE
 62
1
 10
1.2611721E+002
 20
1.991927E+002
 11
1.1964891E+002
 21
1.991927E+002
  0
POLYLINE
  8
1
  6
CONTINUOUS
 62
3
 66
1
 40
5.0E-001
 41
5.0E-001
 70
0
  0
VERTEX
  8
1
 42
0.0
 10
1.2445671E+002
 20
2.029427E+002
 70
0
  0
VERTEX
  8
1
 42
0.0
 10
1.2045671E+002
 20
2.029427E+002
 70
0
  0
SEQEND
  0
POLYLINE
  8
1
  6
CONTINUOUS
 62
3
 66
1
 40
5.0E-001
 41
5.0E-001
 70
0
  0
VERTEX
  8
1
 42
0.0
 10
1.4155671E+002
 20
1.952928E+002
 70
0
  0
VERTEX
  8
1
 42
0.0
 10
1.4155671E+002
 20
1.942927E+002
 70
0
  0
SEQEND
  0
POLYLINE
  8
1
  6
CONTINUOUS
 62
3
 66
1
 40
5.0E-001
 41
5.0E-001
 70
0
  0
VERTEX
  8
1
 42
0.0
 10
1.4155671E+002
 20
1.540928E+002
 70
0
  0
VERTEX
  8
1
 42
0.0
 10
1.4155671E+002
 20
1.530928E+002
 70
0
  0
SEQEND
  0
POLYLINE
  8
1
  6
CONTINUOUS
 62
3
 66
1
 40
5.0E-001
 41
5.0E-001
 70
0
  0
VERTEX
  8
1
 42
0.0
 10
1.2045671E+002
 20
1.560041E+002
 70
0
  0
VERTEX
  8
1
 42
0.0
 10
1.2045671E+002
 20
1.530928E+002
 70
0
  0
SEQEND
  0
POLYLINE
  8
1
  6
CONTINUOUS
 62
3
 66
1
 40
5.0E-001
 41
5.0E-001
 70
0
  0
VERTEX
  8
1
 42
0.0
 10
1.2495671E+002
 20
2.024427E+002
 70
0
  0
VERTEX
  8
1
 42
0.0
 10
1.2495671E+002
 20
1.952928E+002
 70
0
  0
SEQEND
  0
POLYLINE
  8
1
  6
CONTINUOUS
 62
3
 66
1
 40
5.0E-001
 41
5.0E-001
 70
0
  0
VERTEX
  8
1
 42
0.0
 10
1.2245671E+002
 20
1.962928E+002
 70
0
  0
VERTEX
  8
1
 42
0.0
 10
1.2045671E+002
 20
1.962928E+002
 70
0
  0
SEQEND
  0
POLYLINE
  8
1
  6
CONTINUOUS
 62
3
 66
1
 40
5.0E-001
 41
5.0E-001
 70
0
  0
VERTEX
  8
1
 42
0.0
 10
1.2045671E+002
 20
2.029427E+002
 70
0
  0
VERTEX
  8
1
 42
0.0
 10
1.2045671E+002
 20
1.962928E+002
 70
0
  0
SEQEND
  0
POLYLINE
  8
1
  6
CONTINUOUS
 62
3
 66
1
 40
5.0E-001
 41
5.0E-001
 70
0
  0
VERTEX
  8
1
 42
0.0
 10
1.2255501E+002
 20
1.916927E+002
 70
0
  0
VERTEX
  8
1
 42
0.0
 10
1.2255501E+002
 20
1.905987E+002
 70
0
  0
SEQEND
  0
POLYLINE
  8
1
  6
CONTINUOUS
 62
3
 66
1
 40
5.0E-001
 41
5.0E-001
 70
0
  0
VERTEX
  8
1
 42
0.0
 10
1.2345671E+002
 20
1.884928E+002
 70
0
  0
VERTEX
  8
1
 42
0.0
 10
1.2345671E+002
 20
1.916928E+002
 70
0
  0
SEQEND
  0
POLYLINE
  8
1
  6
CONTINUOUS
 62
3
 66
1
 40
5.0E-001
 41
5.0E-001
 70
0
  0
VERTEX
  8
1
 42
0.0
 10
1.2345671E+002
 20
1.598928E+002
 70
0
  0
VERTEX
  8
1
 42
0.0
 10
1.2345671E+002
 20
1.566928E+002
 70
0
  0
SEQEND
  0
POLYLINE
  8
1
  6
CONTINUOUS
 62
3
 66
1
 40
5.0E-001
 41
5.0E-001
 70
0
  0
VERTEX
  8
1
 42
0.0
 10
1.2216451E+002
 20
1.898927E+002
 70
0
  0
VERTEX
  8
1
 42
0.0
 10
1.2045671E+002
 20
1.898927E+002
 70
0
  0
SEQEND
  0
POLYLINE
  8
1
  6
CONTINUOUS
 62
3
 66
1
 40
5.0E-001
 41
5.0E-001
 70
0
  0
VERTEX
  8
1
 42
0.0
 10
1.2045671E+002
 20
1.952928E+002
 70
0
  0
VERTEX
  8
1
 42
0.0
 10
1.2045671E+002
 20
1.898927E+002
 70
0
  0
SEQEND
  0
POLYLINE
  8
1
  6
CONTINUOUS
 62
3
 66
1
 40
5.0E-001
 41
5.0E-001
 70
0
  0
VERTEX
  8
1
 42
1.6286034E-001
 10
1.2055739E+002
 20
1.5630501E+002
 70
0
  0
VERTEX
  8
1
 42
0.0
 10
1.2045671E+002
 20
1.560041E+002
 70
0
  0
SEQEND
  0
POLYLINE
  8
1
  6
CONTINUOUS
 62
3
 66
1
 40
5.0E-001
 41
5.0E-001
 70
0
  0
VERTEX
  8
1
 42
0.0
 10
1.2255501E+002
 20
1.562928E+002
 70
0
  0
VERTEX
  8
1
 42
0.0
 10
1.2345671E+002
 20
1.562928E+002
 70
0
  0
SEQEND
  0
POLYLINE
  8
1
  6
CONTINUOUS
 62
3
 66
1
 40
5.0E-001
 41
5.0E-001
 70
0
  0
VERTEX
  8
1
 42
0.0
 10
1.2345481E+002
 20
1.566928E+002
 70
0
  0
VERTEX
  8
1
 42
0.0
 10
1.2255501E+002
 20
1.566928E+002
 70
0
  0
SEQEND
  0
POLYLINE
  8
1
  6
CONTINUOUS
 62
3
 66
1
 40
5.0E-001
 41
5.0E-001
 70
0
  0
VERTEX
  8
1
 42
0.0
 10
1.2345671E+002
 20
1.916927E+002
 70
0
  0
VERTEX
  8
1
 42
0.0
 10
1.2045671E+002
 20
1.916927E+002
 70
0
  0
SEQEND
  0
POLYLINE
  8
1
  6
CONTINUOUS
 62
3
 66
1
 40
5.0E-001
 41
5.0E-001
 70
0
  0
VERTEX
  8
1
 42
0.0
 10
1.2255501E+002
 20
1.566928E+002
 70
0
  0
VERTEX
  8
1
 42
0.0
 10
1.2217981E+002
 20
1.581928E+002
 70
0
  0
SEQEND
  0
POLYLINE
  8
1
  6
CONTINUOUS
 62
3
 66
1
 40
5.0E-001
 41
5.0E-001
 70
0
  0
VERTEX
  8
1
 42
0.0
 10
1.2345671E+002
 20
1.581928E+002
 70
0
  0
VERTEX
  8
1
 42
0.0
 10
1.2345371E+002
 20
1.581928E+002
 70
0
  0
SEQEND
  0
POLYLINE
  8
1
  6
CONTINUOUS
 62
3
 66
1
 40
5.0E-001
 41
5.0E-001
 70
0
  0
VERTEX
  8
1
 42
0.0
 10
1.2345671E+002
 20
1.916927E+002
 70
0
  0
VERTEX
  8
1
 42
0.0
 10
1.2345671E+002
 20
1.562928E+002
 70
0
  0
SEQEND
  0
POLYLINE
  8
1
  6
CONTINUOUS
 62
3
 66
1
 40
5.0E-001
 41
5.0E-001
 70
0
  0
VERTEX
  8
1
 42
0.0
 10
1.2345671E+002
 20
1.952928E+002
 70
0
  0
VERTEX
  8
1
 42
0.0
 10
1.2345671E+002
 20
1.991927E+002
 70
0
  0
SEQEND
  0
POLYLINE
  8
1
  6
CONTINUOUS
 62
3
 66
1
 40
5.0E-001
 41
5.0E-001
 70
0
  0
VERTEX
  8
1
 42
0.0
 10
1.3625331E+002
 20
1.952928E+002
 70
0
  0
VERTEX
  8
1
 42
0.0
 10
1.3625341E+002
 20
1.952927E+002
 70
0
  0
SEQEND
  0
POLYLINE
  8
1
  6
CONTINUOUS
 62
3
 66
1
 40
5.0E-001
 41
5.0E-001
 70
0
  0
VERTEX
  8
1
 42
0.0
 10
1.3271781E+002
 20
1.952928E+002
 70
0
  0
VERTEX
  8
1
 42
0.0
 10
1.3271781E+002
 20
1.952927E+002
 70
0
  0
SEQEND
  0
POLYLINE
  8
1
  6
CONTINUOUS
 62
3
 66
1
 40
5.0E-001
 41
5.0E-001
 70
0
  0
VERTEX
  8
1
 42
0.0
 10
1.3625331E+002
 20
1.952928E+002
 70
0
  0
VERTEX
  8
1
 42
0.0
 10
1.3625341E+002
 20
1.952927E+002
 70
0
  0
SEQEND
  0
POLYLINE
  8
1
  6
CONTINUOUS
 62
3
 66
1
 40
5.0E-001
 41
5.0E-001
 70
0
  0
VERTEX
  8
1
 42
0.0
 10
1.2345661E+002
 20
1.906321E+002
 70
0
  0
VERTEX
  8
1
 42
0.0
 10
1.2345671E+002
 20
1.906321E+002
 70
0
  0
SEQEND
  0
POLYLINE
  8
1
  6
CONTINUOUS
 62
3
 66
1
 40
5.0E-001
 41
5.0E-001
 70
0
  0
VERTEX
  8
1
 42
0.0
 10
1.2197991E+002
 20
1.581928E+002
 70
0
  0
VERTEX
  8
1
 42
0.0
 10
1.2055731E+002
 20
1.56305E+002
 70
0
  0
SEQEND
  0
POLYLINE
  8
1
  6
CONTINUOUS
 62
3
 66
1
 40
5.0E-001
 41
5.0E-001
 70
0
  0
VERTEX
  8
1
 42
0.0
 10
1.2345471E+002
 20
1.566927E+002
 70
0
  0
VERTEX
  8
1
 42
0.0
 10
1.2345481E+002
 20
1.566927E+002
 70
0
  0
SEQEND
  0
POLYLINE
  8
1
  6
CONTINUOUS
 62
3
 66
1
 40
5.0E-001
 41
5.0E-001
 70
0
  0
VERTEX
  8
1
 42
0.0
 10
1.2345671E+002
 20
1.530928E+002
 70
0
  0
VERTEX
  8
1
 42
0.0
 10
1.2045671E+002
 20
1.530928E+002
 70
0
  0
SEQEND
  0
POLYLINE
  8
1
  6
CONTINUOUS
 62
3
 66
1
 40
5.0E-001
 41
5.0E-001
 70
0
  0
VERTEX
  8
1
 42
0.0
 10
1.2217981E+002
 20
1.581928E+002
 70
0
  0
VERTEX
  8
1
 42
0.0
 10
1.2197991E+002
 20
1.581928E+002
 70
0
  0
SEQEND
  0
LINE
  8
1
  6
CENTERLINE
 62
1
 10
3.6567959E+001
 20
1.741928E+002
 11
8.6238539E+001
 21
1.741928E+002
  0
TEXT
  8
1
  6
CONTINUOUS
 62
4
 10
1.3762318E+002
 20
2.3330942E+001
 40
3.5
  1
1:1
 41
6.2085333E-001
  0
TEXT
  8
1
  6
CONTINUOUS
 62
4
 10
3.3859492E+001
 20
1.9077858E+001
 40
2.2
  1
ohne KAE 16.4.92
 41
7.0E-001
  0
TEXT
  8
1
  6
CONTINUOUS
 62
4
 10
5.2730748E+001
 20
2.3056899E+002
 40
3.0
  1
52,5
 41
8.0E-001
  0
DIMENSION
  8
1
  6
CONTINUOUS
 62
4
  1
       
  2
*D1328
  3
DSTYLE1
 10
3.2647849E+001
 20
2.2920917E+002
 11
5.6139357E+001
 21
2.3221017E+002
 70
128
 13
8.5147879E+001
 23
1.933929E+002
 14
3.2647849E+001
 24
1.491929E+002
 40
1.25E-001
 50
0.0
  0
TEXT
  8
1
  6
CONTINUOUS
 62
4
 10
1.9566117E+002
 20
1.6812724E+002
 40
3.0
  1
25,4
 41
8.0E-001
 50
9.0E+001
  0
DIMENSION
  8
1
  6
CONTINUOUS
 62
4
  1
       
  2
*D1330
  3
DSTYLE1
 10
1.9693921E+002
 20
1.614928E+002
 11
1.9393821E+002
 21
1.744402E+002
 70
128
 13
1.7955021E+002
 23
1.868928E+002
 14
1.7955021E+002
 24
1.614928E+002
 40
1.25E-001
 50
9.0E+001
  0
TEXT
  8
1
  6
CONTINUOUS
 62
4
 10
2.5394282E+001
 20
7.3664405E+001
 40
3.0
  1
weight : ca. 190g
 41
7.8898782E-001
  0
TEXT
  8
1
  6
CONTINUOUS
 62
4
 10
1.8780675E+002
 20
1.9075608E+002
 40
3.0
  1
1x0,3
 41
8.0E-001
 50
9.0E+001
  0
DIMENSION
  8
1
  6
CONTINUOUS
 62
4
  1
        
  2
*D1334
  3
DSTYLE1
 10
1.8969511E+002
 20
1.873928E+002
 11
1.8669411E+002
 21
1.901023E+002
 70
128
 13
1.7945681E+002
 23
1.863928E+002
 14
1.7945681E+002
 24
1.873928E+002
 40
1.25E-001
 50
9.0E+001
  0
LINE
  8
1
  6
CONTINUOUS
 62
4
 10
7.7108526E+001
 20
2.412752E+002
 11
1.1742602E+002
 21
2.412752E+002
  0
POLYLINE
  8
1
  6
CONTINUOUS
 62
3
 66
1
 40
5.0E-001
 41
5.0E-001
 70
0
  0
VERTEX
  8
1
 42
0.0
 10
1.5715671E+002
 20
1.765928E+002
 70
0
  0
VERTEX
  8
1
 42
0.0
 10
1.6385671E+002
 20
1.765928E+002
 70
0
  0
SEQEND
  0
POLYLINE
  8
1
  6
CONTINUOUS
 62
3
 66
1
 40
5.0E-001
 41
5.0E-001
 70
0
  0
VERTEX
  8
1
 42
0.0
 10
1.6495671E+002
 20
1.540928E+002
 70
0
  0
VERTEX
  8
1
 42
0.0
 10
1.6395671E+002
 20
1.530928E+002
 70
0
  0
SEQEND
  0
POLYLINE
  8
1
  6
CONTINUOUS
 62
3
 66
1
 40
5.0E-001
 41
5.0E-001
 70
0
  0
VERTEX
  8
1
 42
0.0
 10
1.4195671E+002
 20
1.941428E+002
 70
0
  0
VERTEX
  8
1
 42
0.0
 10
1.3195671E+002
 20
1.941428E+002
 70
0
  0
SEQEND
  0
POLYLINE
  8
1
  6
CONTINUOUS
 62
3
 66
1
 40
5.0E-001
 41
5.0E-001
 70
0
  0
VERTEX
  8
1
 42
0.0
 10
1.4195671E+002
 20
1.952928E+002
 70
0
  0
VERTEX
  8
1
 42
0.0
 10
1.4195671E+002
 20
1.941428E+002
 70
0
  0
SEQEND
  0
POLYLINE
  8
1
  6
CONTINUOUS
 62
3
 66
1
 40
5.0E-001
 41
5.0E-001
 70
0
  0
VERTEX
  8
1
 42
0.0
 10
1.4195671E+002
 20
1.542428E+002
 70
0
  0
VERTEX
  8
1
 42
0.0
 10
1.4195671E+002
 20
1.530928E+002
 70
0
  0
SEQEND
  0
POLYLINE
  8
1
  6
CONTINUOUS
 62
3
 66
1
 40
5.0E-001
 41
5.0E-001
 70
0
  0
VERTEX
  8
1
 42
0.0
 10
1.3345671E+002
 20
1.716428E+002
 70
0
  0
VERTEX
  8
1
 42
0.0
 10
1.3395671E+002
 20
1.721428E+002
 70
0
  0
SEQEND
  0
POLYLINE
  8
1
  6
CONTINUOUS
 62
3
 66
1
 40
5.0E-001
 41
5.0E-001
 70
0
  0
VERTEX
  8
1
 42
0.0
 10
1.3345671E+002
 20
1.767428E+002
 70
0
  0
VERTEX
  8
1
 42
0.0
 10
1.3395671E+002
 20
1.762428E+002
 70
0
  0
SEQEND
  0
POLYLINE
  8
1
  6
CONTINUOUS
 62
3
 66
1
 40
5.0E-001
 41
5.0E-001
 70
0
  0
VERTEX
  8
1
 42
0.0
 10
1.3195671E+002
 20
1.941428E+002
 70
0
  0
VERTEX
  8
1
 42
0.0
 10
1.3145671E+002
 20
1.936428E+002
 70
0
  0
SEQEND
  0
DIMENSION
  8
1
  6
CONTINUOUS
 62
4
  2
*D1344
  3
DSTYLE1
 10
1.2045671E+002
 20
2.174972E+002
 11
1.4904381E+002
 21
2.204982E+002
 70
128
 13
1.7645671E+002
 23
1.981354E+002
 14
1.2045671E+002
 24
2.029429E+002
 40
1.25E-001
 50
0.0
  0
POLYLINE
  8
1
  6
CONTINUOUS
 62
3
 66
1
 40
5.0E-001
 41
5.0E-001
 70
0
  0
VERTEX
  8
1
 42
0.0
 10
1.5695671E+002
 20
1.767428E+002
 70
0
  0
VERTEX
  8
1
 42
0.0
 10
1.5695671E+002
 20
1.741928E+002
 70
0
  0
SEQEND
  0
POLYLINE
  8
1
  6
CONTINUOUS
 62
3
 66
1
 40
5.0E-001
 41
5.0E-001
 70
0
  0
VERTEX
  8
1
 42
0.0
 10
1.6495671E+002
 20
1.767428E+002
 70
0
  0
VERTEX
  8
1
 42
0.0
 10
1.5695671E+002
 20
1.767428E+002
 70
0
  0
SEQEND
  0
POLYLINE
  8
1
  6
CONTINUOUS
 62
3
 66
1
 40
5.0E-001
 41
5.0E-001
 70
0
  0
VERTEX
  8
1
 42
0.0
 10
1.4195671E+002
 20
1.542428E+002
 70
0
  0
VERTEX
  8
1
 42
0.0
 10
1.3195671E+002
 20
1.542428E+002
 70
0
  0
SEQEND
  0
POLYLINE
  8
1
  6
CONTINUOUS
 62
3
 66
1
 40
5.0E-001
 41
5.0E-001
 70
0
  0
VERTEX
  8
1
 42
0.0
 10
1.3145671E+002
 20
1.716428E+002
 70
0
  0
VERTEX
  8
1
 42
0.0
 10
1.3145671E+002
 20
1.545928E+002
 70
0
  0
SEQEND
  0
POLYLINE
  8
1
  6
CONTINUOUS
 62
3
 66
1
 40
5.0E-001
 41
5.0E-001
 70
0
  0
VERTEX
  8
1
 42
0.0
 10
1.6495671E+002
 20
1.942928E+002
 70
0
  0
VERTEX
  8
1
 42
0.0
 10
1.6395671E+002
 20
1.952928E+002
 70
0
  0
SEQEND
  0
POLYLINE
  8
1
  6
CONTINUOUS
 62
3
 66
1
 40
5.0E-001
 41
5.0E-001
 70
0
  0
VERTEX
  8
1
 42
0.0
 10
1.3345671E+002
 20
1.716428E+002
 70
0
  0
VERTEX
  8
1
 42
0.0
 10
1.3145671E+002
 20
1.716428E+002
 70
0
  0
SEQEND
  0
POLYLINE
  8
1
  6
CONTINUOUS
 62
3
 66
1
 40
5.0E-001
 41
5.0E-001
 70
0
  0
VERTEX
  8
1
 42
0.0
 10
1.3395671E+002
 20
1.762428E+002
 70
0
  0
VERTEX
  8
1
 42
0.0
 10
1.3395671E+002
 20
1.721428E+002
 70
0
  0
SEQEND
  0
POLYLINE
  8
1
  6
CONTINUOUS
 62
3
 66
1
 40
5.0E-001
 41
5.0E-001
 70
0
  0
VERTEX
  8
1
 42
0.0
 10
1.3345671E+002
 20
1.767428E+002
 70
0
  0
VERTEX
  8
1
 42
0.0
 10
1.3145671E+002
 20
1.767428E+002
 70
0
  0
SEQEND
  0
POLYLINE
  8
1
  6
CONTINUOUS
 62
3
 66
1
 40
5.0E-001
 41
5.0E-001
 70
0
  0
VERTEX
  8
1
 42
0.0
 10
1.3145671E+002
 20
1.937927E+002
 70
0
  0
VERTEX
  8
1
 42
0.0
 10
1.3145671E+002
 20
1.767428E+002
 70
0
  0
SEQEND
  0
POLYLINE
  8
1
  6
CONTINUOUS
 62
3
 66
1
 40
5.0E-001
 41
5.0E-001
 70
0
  0
VERTEX
  8
1
 42
0.0
 10
1.6395671E+002
 20
1.952928E+002
 70
0
  0
VERTEX
  8
1
 42
0.0
 10
1.3905671E+002
 20
1.952928E+002
 70
0
  0
SEQEND
  0
POLYLINE
  8
1
  6
CONTINUOUS
 62
3
 66
1
 40
5.0E-001
 41
5.0E-001
 70
0
  0
VERTEX
  8
1
 42
0.0
 10
1.6395671E+002
 20
1.530928E+002
 70
0
  0
VERTEX
  8
1
 42
0.0
 10
1.3905671E+002
 20
1.530928E+002
 70
0
  0
SEQEND
  0
POLYLINE
  8
1
  6
CONTINUOUS
 62
3
 66
1
 40
5.0E-001
 41
5.0E-001
 70
0
  0
VERTEX
  8
1
 42
0.0
 10
1.3195671E+002
 20
1.542428E+002
 70
0
  0
VERTEX
  8
1
 42
0.0
 10
1.3145671E+002
 20
1.547428E+002
 70
0
  0
SEQEND
  0
POLYLINE
  8
1
  6
CONTINUOUS
 62
3
 66
1
 40
5.0E-001
 41
5.0E-001
 70
0
  0
VERTEX
  8
1
 42
4.1421356E-001
 10
1.6435671E+002
 20
1.748428E+002
 70
0
  0
VERTEX
  8
1
 42
0.0
 10
1.6385671E+002
 20
1.753428E+002
 70
0
  0
SEQEND
  0
POLYLINE
  8
1
  6
CONTINUOUS
 62
3
 66
1
 40
5.0E-001
 41
5.0E-001
 70
0
  0
VERTEX
  8
1
 42
0.0
 10
1.5715671E+002
 20
1.767428E+002
 70
0
  0
VERTEX
  8
1
 42
0.0
 10
1.5715671E+002
 20
1.716427E+002
 70
0
  0
SEQEND
  0
POLYLINE
  8
1
  6
HIDDEN
 62
3
 66
1
 40
5.0E-001
 41
5.0E-001
 70
0
  0
VERTEX
  8
1
 42
0.0
 10
9.1147859E+001
 20
1.721928E+002
 70
0
  0
VERTEX
  8
1
 42
0.0
 10
9.1147859E+001
 20
1.761928E+002
 70
0
  0
SEQEND
  0
TEXT
  8
1
  6
CONTINUOUS
 62
4
 10
1.2746479E+002
 20
6.8147621E+001
 40
3.0
  1
Massaenderungen vorbehalten !
 41
8.3323629E-001
  0
TEXT
  8
1
  6
CONTINUOUS
 62
4
 10
9.3545456E+001
 20
2.0392947E+002
 40
3.0
  1
4,5
 41
8.0E-001
 50
9.0E+001
  0
DIMENSION
  8
1
  6
CONTINUOUS
 62
4
  1
      
  2
*D1362
  3
DSTYLE1
 10
9.5596009E+001
 20
2.014428E+002
 11
9.2595009E+001
 21
2.0179437E+002
 70
128
 13
8.1397969E+001
 23
1.969428E+002
 14
8.1397969E+001
 24
2.014428E+002
 40
1.25E-001
 50
9.0E+001
  0
POLYLINE
  8
1
  6
CONTINUOUS
 62
3
 66
1
 40
5.0E-001
 41
5.0E-001
 70
0
  0
VERTEX
  8
1
 42
4.1421356E-001
 10
1.6435671E+002
 20
1.760928E+002
 70
0
  0
VERTEX
  8
1
 42
0.0
 10
1.6385671E+002
 20
1.765928E+002
 70
0
  0
SEQEND
  0
POLYLINE
  8
1
  6
CONTINUOUS
 62
3
 66
1
 40
5.0E-001
 41
5.0E-001
 70
0
  0
VERTEX
  8
1
 42
4.1421356E-001
 10
1.6385671E+002
 20
1.730428E+002
 70
0
  0
VERTEX
  8
1
 42
0.0
 10
1.6435671E+002
 20
1.735428E+002
 70
0
  0
SEQEND
  0
TEXT
  8
1
  6
CONTINUOUS
 62
4
 10
1.2874475E+002
 20
1.3577112E+002
 40
3.0
  1
4,5
 41
8.0E-001
  0
DIMENSION
  8
1
  6
CONTINUOUS
 62
4
  1
      
  2
*D1366
  3
DSTYLE1
 10
1.2045671E+002
 20
1.3376183E+002
 11
1.2643075E+002
 21
1.3676283E+002
 70
128
 13
1.2495671E+002
 23
1.459427E+002
 14
1.2045671E+002
 24
1.454427E+002
 40
1.25E-001
 50
0.0
  0
TEXT
  8
1
  6
CONTINUOUS
 62
4
 10
1.0733857E+002
 20
1.6971567E+002
 40
3.0
  1
57,5
 41
8.0E-001
 50
9.0E+001
  0
DIMENSION
  8
1
  6
CONTINUOUS
 62
4
  1
       
  2
*D1368
  3
DSTYLE1
 10
1.0861949E+002
 20
2.029428E+002
 11
1.0561849E+002
 21
1.75947E+002
 70
128
 13
4.6397939E+001
 23
1.454428E+002
 14
8.1397969E+001
 24
2.029428E+002
 40
1.25E-001
 50
9.0E+001
  0
POLYLINE
  8
1
  6
CONTINUOUS
 62
3
 66
1
 40
5.0E-001
 41
5.0E-001
 70
0
  0
VERTEX
  8
1
 42
4.1421356E-001
 10
1.6385671E+002
 20
1.717928E+002
 70
0
  0
VERTEX
  8
1
 42
0.0
 10
1.6435671E+002
 20
1.722928E+002
 70
0
  0
SEQEND
  0
LINE
  8
1
  6
CONTINUOUS
 62
4
 10
1.7731371E+002
 20
1.514579E+002
 11
1.697678E+002
 21
1.3674337E+002
  0
DIMENSION
  8
1
  6
CONTINUOUS
 62
4
  2
*D1371
  3
DSTYLE1
 10
4.6397839E+001
 20
1.331086E+002
 11
6.2723909E+001
 21
1.361096E+002
 70
128
 13
8.1397879E+001
 23
1.942695E+002
 14
4.6397839E+001
 24
1.446015E+002
 40
1.25E-001
 50
0.0
  0
TEXT
  8
1
  6
CONTINUOUS
 62
4
 10
1.0994851E+002
 20
2.7690736E+001
 40
2.4
  1
14.2.85  Dietzel
 41
6.0E-001
  0
TEXT
  8
1
  6
CONTINUOUS
 62
4
 10
1.5178265E+002
 20
7.240637
 40
5.0
  1
GJL 120 0418
 41
8.0E-001
  0
TEXT
  8
1
  6
CONTINUOUS
 62
4
 10
1.7109101E+002
 20
2.3170039E+001
 40
2.5
  1
X
 41
1.066667
  0
TEXT
  8
1
  6
CONTINUOUS
 62
4
 10
7.6963956E+001
 20
1.5067018E+001
 40
2.5
  1
STO/CLD
 41
1.083333
  0
POLYLINE
  8
1
  6
HIDDEN
 62
3
 66
1
 40
5.0E-001
 41
5.0E-001
 70
0
  0
VERTEX
  8
1
 42
0.0
 10
9.1147859E+001
 20
1.761928E+002
 70
0
  0
VERTEX
  8
1
 42
0.0
 10
8.5147859E+001
 20
1.761928E+002
 70
0
  0
SEQEND
  0
POLYLINE
  8
1
  6
HIDDEN
 62
3
 66
1
 40
5.0E-001
 41
5.0E-001
 70
0
  0
VERTEX
  8
1
 42
0.0
 10
9.1147859E+001
 20
1.721928E+002
 70
0
  0
VERTEX
  8
1
 42
0.0
 10
8.5147859E+001
 20
1.721928E+002
 70
0
  0
SEQEND
  0
TEXT
  8
1
  6
CONTINUOUS
 62
4
 10
1.1035573E+002
 20
2.341496E+001
 40
2.4
  1
2.8.04 SteFei
 41
6.0E-001
  0
TEXT
  8
1
  6
CONTINUOUS
 62
4
 10
1.0071584E+002
 20
1.6787067E+002
 40
3.0
  1
45,5
 41
8.0E-001
 50
9.0E+001
  0
DIMENSION
  8
1
  6
CONTINUOUS
 62
4
  1
       
  2
*D1380
  3
DSTYLE1
 10
1.0198811E+002
 20
1.515927E+002
 11
9.8987109E+001
 21
1.743469E+002
 70
128
 13
7.0397969E+001
 23
1.967928E+002
 14
7.0397969E+001
 24
1.515927E+002
 40
1.25E-001
 50
9.0E+001
  0
TEXT
  8
1
  6
CONTINUOUS
 62
4
 10
1.1096655E+002
 20
1.486341E+001
 40
2.4
  1
2.8.04 GuNi
 41
6.0E-001
  0
POLYLINE
  8
1
  6
CONTINUOUS
 62
3
 66
1
 40
5.0E-001
 41
5.0E-001
 70
0
  0
VERTEX
  8
1
 42
0.0
 10
1.5715671E+002
 20
1.717928E+002
 70
0
  0
VERTEX
  8
1
 42
0.0
 10
1.6385671E+002
 20
1.717928E+002
 70
0
  0
SEQEND
  0
POLYLINE
  8
1
  6
CONTINUOUS
 62
3
 66
1
 40
5.0E-001
 41
5.0E-001
 70
0
  0
VERTEX
  8
1
 42
0.0
 10
1.6495671E+002
 20
1.942928E+002
 70
0
  0
VERTEX
  8
1
 42
0.0
 10
1.6495671E+002
 20
1.540928E+002
 70
0
  0
SEQEND
  0
POLYLINE
  8
1
  6
CONTINUOUS
 62
3
 66
1
 40
5.0E-001
 41
5.0E-001
 70
0
  0
VERTEX
  8
1
 42
4.1421356E-001
 10
1.2245671E+002
 20
1.520928E+002
 70
0
  0
VERTEX
  8
1
 42
0.0
 10
1.2345671E+002
 20
1.530928E+002
 70
0
  0
SEQEND
  0
POLYLINE
  8
1
  6
CONTINUOUS
 62
3
 66
1
 40
5.0E-001
 41
5.0E-001
 70
0
  0
VERTEX
  8
1
 42
0.0
 10
1.2495671E+002
 20
1.520928E+002
 70
0
  0
VERTEX
  8
1
 42
0.0
 10
1.2045671E+002
 20
1.520928E+002
 70
0
  0
SEQEND
  0
POLYLINE
  8
1
  6
CONTINUOUS
 62
3
 66
1
 40
5.0E-001
 41
5.0E-001
 70
0
  0
VERTEX
  8
1
 42
0.0
 10
1.2045671E+002
 20
1.454428E+002
 70
0
  0
VERTEX
  8
1
 42
0.0
 10
1.2045671E+002
 20
1.520928E+002
 70
0
  0
SEQEND
  0
POLYLINE
  8
1
  6
CONTINUOUS
 62
3
 66
1
 40
5.0E-001
 41
5.0E-001
 70
0
  0
VERTEX
  8
1
 42
0.0
 10
1.2445671E+002
 20
1.454428E+002
 70
0
  0
VERTEX
  8
1
 42
0.0
 10
1.2045671E+002
 20
1.454428E+002
 70
0
  0
SEQEND
  0
INSERT
  2
*E1388
  8
1
 10
1.2445671E+002
 20
1.459428E+002
 41
1.0
 42
1.0
 43
1.0
 50
2.7E+002
 62
3
  0
POLYLINE
  8
1
  6
CONTINUOUS
 62
3
 66
1
 40
5.0E-001
 41
5.0E-001
 70
0
  0
VERTEX
  8
1
 42
0.0
 10
1.2495671E+002
 20
1.459428E+002
 70
0
  0
VERTEX
  8
1
 42
0.0
 10
1.2495671E+002
 20
1.530928E+002
 70
0
  0
SEQEND
  0
LINE
  8
1
  6
CENTERLINE
 62
1
 10
1.2611721E+002
 20
1.491928E+002
 11
1.1964891E+002
 21
1.491928E+002
  0
TEXT
  8
1
  6
CONTINUOUS
 62
4
 10
4.212298E+001
 20
2.1211978E+002
 40
2.7
  1
10,16
 41
7.0E-001
  0
DIMENSION
  8
1
  6
CONTINUOUS
 62
4
  1
       
  2
*D1392
  3
DSTYLE1
 10
5.2297859E+001
 20
2.106172E+002
 11
4.6984589E+001
 21
2.136182E+002
 70
128
 13
4.2137849E+001
 23
1.889141E+002
 14
5.2297859E+001
 24
1.889141E+002
 40
1.25E-001
 50
0.0
  0
TEXT
  8
1
  6
CONTINUOUS
 62
4
 10
5.2899417E+001
 20
2.245639E+002
 40
3.0
  1
47,5
 41
8.0E-001
  0
DIMENSION
  8
1
  6
CONTINUOUS
 62
4
  1
       
  2
*D1394
  3
DSTYLE1
 10
3.7647859E+001
 20
2.2328047E+002
 11
5.356002E+001
 21
2.2628147E+002
 70
128
 13
8.5147869E+001
 23
1.956929E+002
 14
3.7647859E+001
 24
1.956929E+002
 40
1.25E-001
 50
0.0
  0
TEXT
  8
1
  6
CONTINUOUS
 62
4
 10
1.6619219E+002
 20
2.0508278E+002
 40
3.0
  1
11,5
 41
8.0E-001
  0
DIMENSION
  8
1
  6
CONTINUOUS
 62
4
  1
      
  2
*D1396
  3
DSTYLE1
 10
1.7645671E+002
 20
2.037372E+002
 11
1.7059261E+002
 21
2.067382E+002
 70
128
 13
1.6495671E+002
 23
1.961929E+002
 14
1.7645671E+002
 24
1.981354E+002
 40
1.25E-001
 50
0.0
  0
DIMENSION
  8
1
  6
CONTINUOUS
 62
4
  2
*D1397
  3
DSTYLE1
 10
2.6380629E+001
 20
1.491928E+002
 11
2.3379629E+001
 21
1.743469E+002
 70
128
 13
7.6801259E+001
 23
1.991928E+002
 14
3.1522449E+001
 24
1.491928E+002
 40
1.25E-001
 50
9.0E+001
  0
TEXT
  8
1
  6
CONTINUOUS
 62
4
 10
3.9819493E+001
 20
2.1861848E+002
 40
2.7
  1
14,65
 41
7.0E-001
  0
DIMENSION
  8
1
  6
CONTINUOUS
 62
4
  1
        
  2
*D1399
  3
DSTYLE1
 10
5.2297859E+001
 20
2.174972E+002
 11
4.5500672E+001
 21
2.204982E+002
 70
128
 13
3.7647859E+001
 23
1.944929E+002
 14
5.2297859E+001
 24
1.889141E+002
 40
1.25E-001
 50
0.0
  0
POLYLINE
  8
1
  6
CONTINUOUS
 62
3
 66
1
 40
5.0E-001
 41
5.0E-001
 70
0
  0
VERTEX
  8
1
 42
0.0
 10
1.6495671E+002
 20
1.716427E+002
 70
0
  0
VERTEX
  8
1
 42
0.0
 10
1.5695671E+002
 20
1.716427E+002
 70
0
  0
SEQEND
  0
POLYLINE
  8
1
  6
CONTINUOUS
 62
3
 66
1
 40
5.0E-001
 41
5.0E-001
 70
0
  0
VERTEX
  8
1
 42
0.0
 10
1.5695671E+002
 20
1.716427E+002
 70
0
  0
VERTEX
  8
1
 42
0.0
 10
1.5695671E+002
 20
1.741928E+002
 70
0
  0
SEQEND
  0
DIMENSION
  8
1
  6
CONTINUOUS
 62
4
  2
*D1402
  3
DSTYLE1
 10
3.6397849E+001
 20
1.171086E+002
 11
5.8723909E+001
 21
1.201096E+002
 70
128
 13
8.1397879E+001
 23
1.942695E+002
 14
3.6397849E+001
 24
1.447788E+002
 40
1.25E-001
 50
0.0
  0
DIMENSION
  8
1
  6
CONTINUOUS
 62
4
  2
*D1403
  3
DSTYLE1
 10
8.1397879E+001
 20
1.251086E+002
 11
6.0723909E+001
 21
1.281096E+002
 70
128
 13
4.1397839E+001
 23
1.447788E+002
 14
8.1397879E+001
 24
1.942695E+002
 40
1.25E-001
 50
0.0
  0
TEXT
  8
1
  6
CONTINUOUS
 62
4
 10
2.6713242E+001
 20
2.7761678E+001
 40
2.5
  1
a
 41
8.666667E-001
  0
TEXT
  8
1
  6
CONTINUOUS
 62
4
 10
2.6713242E+001
 20
2.3217808E+001
 40
2.5
  1
b
 41
8.666667E-001
  0
TEXT
  8
1
  6
CONTINUOUS
 62
4
 10
1.2784001E+002
 20
4.8272375E+001
 40
3.0
  1
Befestigungsaugen abbrechbar
 41
8.307072E-001
  0
POLYLINE
  8
1
  6
CONTINUOUS
 62
3
 66
1
 40
5.0E-001
 41
5.0E-001
 70
0
  0
VERTEX
  8
1
 42
0.0
 10
1.6385671E+002
 20
1.753428E+002
 70
0
  0
VERTEX
  8
1
 42
0.0
 10
1.5715671E+002
 20
1.753428E+002
 70
0
  0
SEQEND
  0
POLYLINE
  8
1
  6
CONTINUOUS
 62
3
 66
1
 40
5.0E-001
 41
5.0E-001
 70
0
  0
VERTEX
  8
1
 42
0.0
 10
1.5715671E+002
 20
1.730428E+002
 70
0
  0
VERTEX
  8
1
 42
0.0
 10
1.6385671E+002
 20
1.730428E+002
 70
0
  0
SEQEND
  0
POLYLINE
  8
1
  6
CONTINUOUS
 62
3
 66
1
 40
5.0E-001
 41
5.0E-001
 70
0
  0
VERTEX
  8
1
 42
0.0
 10
1.6435671E+002
 20
1.722928E+002
 70
0
  0
VERTEX
  8
1
 42
0.0
 10
1.6435671E+002
 20
1.760928E+002
 70
0
  0
SEQEND
  0
TEXT
  8
1
  6
CONTINUOUS
 62
4
 10
3.3839882E+001
 20
2.7862648E+001
 40
2.2
  1
JL 121 015
 41
6.8088345E-001
  0
TEXT
  8
1
  6
CONTINUOUS
 62
4
 10
7.7939936E+001
 20
2.4287965E+002
 40
3.0
  1
Handbetaetigung
 41
8.0E-001
  0
POLYLINE
  8
1
  6
CONTINUOUS
 62
3
 66
1
 40
5.0E-001
 41
5.0E-001
 70
0
  0
VERTEX
  8
1
 42
0.0
 10
1.2255501E+002
 20
1.566928E+002
 70
0
  0
VERTEX
  8
1
 42
0.0
 10
1.2345671E+002
 20
1.566928E+002
 70
0
  0
SEQEND
  0
POLYLINE
  8
1
  6
CONTINUOUS
 62
3
 66
1
 40
5.0E-001
 41
5.0E-001
 70
0
  0
VERTEX
  8
1
 42
0.0
 10
1.2345671E+002
 20
1.916928E+002
 70
0
  0
VERTEX
  8
1
 42
0.0
 10
1.2255501E+002
 20
1.916928E+002
 70
0
  0
SEQEND
  0
TEXT
  8
1
  6
CONTINUOUS
 62
4
 10
3.3842642E+001
 20
2.3520738E+001
 40
2.2
  1
JL 121 031
 41
6.8621326E-001
  0
TEXT
  8
1
  6
CONTINUOUS
 62
4
 10
1.4536139E+002
 20
1.2632462E+002
 40
3.0
  1
Leiterplatte
 41
7.7358733E-001
  0
TEXT
  8
1
  6
CONTINUOUS
 62
4
 10
7.3408293E+001
 20
7.198191
 40
4.5
  1
Massbild
 41
8.0E-001
 72
1
 11
5.9008293E+001
 21
7.198191
  0
POLYLINE
  8
1
  6
CONTINUOUS
 62
3
 66
1
 40
5.0E-001
 41
5.0E-001
 70
0
  0
VERTEX
  8
1
 42
0.0
 10
8.5147859E+001
 20
1.538928E+002
 70
0
  0
VERTEX
  8
1
 42
0.0
 10
8.5147859E+001
 20
1.741928E+002
 70
0
  0
SEQEND
  0
POLYLINE
  8
1
  6
CONTINUOUS
 62
3
 66
1
 40
5.0E-001
 41
5.0E-001
 70
0
  0
VERTEX
  8
1
 42
0.0
 10
3.7647849E+001
 20
1.540928E+002
 70
0
  0
VERTEX
  8
1
 42
0.0
 10
3.7647859E+001
 20
1.741928E+002
 70
0
  0
SEQEND
  0
INSERT
  2
*E1419
  8
1
 10
8.1397879E+001
 20
1.991928E+002
 41
2.25
 42
2.25
 43
2.25
 50
2.7E+002
 62
3
  0
INSERT
  2
*E1420
  8
1
 10
3.6397849E+001
 20
1.491928E+002
 41
1.0
 42
1.0
 43
1.0
 50
2.7E+002
 62
3
  0
INSERT
  2
*E1421
  8
1
 10
8.1397879E+001
 20
1.991928E+002
 41
1.0
 42
1.0
 43
1.0
 50
2.7E+002
 62
3
  0
INSERT
  2
*E1422
  8
1
 10
4.6397839E+001
 20
1.491928E+002
 41
1.0
 42
1.0
 43
1.0
 50
2.7E+002
 62
3
  0
INSERT
  2
*E1423
  8
1
 10
3.6397849E+001
 20
1.491928E+002
 41
1.0
 42
1.0
 43
1.0
 50
2.7E+002
 62
3
  0
INSERT
  2
*E1424
  8
1
 10
4.1397839E+001
 20
1.491928E+002
 41
1.0
 42
1.0
 43
1.0
 50
2.7E+002
 62
3
  0
INSERT
  2
*E1425
  8
1
 10
4.6397839E+001
 20
1.491928E+002
 41
1.0
 42
1.0
 43
1.0
 50
2.7E+002
 62
3
  0
POLYLINE
  8
1
  6
CONTINUOUS
 62
3
 66
1
 40
5.0E-001
 41
5.0E-001
 70
0
  0
VERTEX
  8
1
 42
0.0
 10
3.7647859E+001
 20
1.520928E+002
 70
0
  0
VERTEX
  8
1
 42
0.0
 10
3.4020349E+001
 20
1.520928E+002
 70
0
  0
SEQEND
  0
POLYLINE
  8
1
  6
CONTINUOUS
 62
3
 66
1
 40
5.0E-001
 41
5.0E-001
 70
0
  0
VERTEX
  8
1
 42
0.0
 10
7.7647879E+001
 20
1.991928E+002
 70
0
  0
VERTEX
  8
1
 42
0.0
 10
7.7647879E+001
 20
1.961928E+002
 70
0
  0
SEQEND
  0
POLYLINE
  8
1
  6
CONTINUOUS
 62
3
 66
1
 40
5.0E-001
 41
5.0E-001
 70
0
  0
VERTEX
  8
1
 42
0.0
 10
5.0147839E+001
 20
1.491928E+002
 70
0
  0
VERTEX
  8
1
 42
0.0
 10
5.0147839E+001
 20
1.520928E+002
 70
0
  0
SEQEND
  0
POLYLINE
  8
1
  6
CONTINUOUS
 62
3
 66
1
 40
5.0E-001
 41
5.0E-001
 70
0
  0
VERTEX
  8
1
 42
0.0
 10
4.6397839E+001
 20
1.454428E+002
 70
0
  0
VERTEX
  8
1
 42
0.0
 10
3.6397849E+001
 20
1.454428E+002
 70
0
  0
SEQEND
  0
POLYLINE
  8
1
  6
CONTINUOUS
 62
3
 66
1
 40
5.0E-001
 41
5.0E-001
 70
0
  0
VERTEX
  8
1
 42
0.0
 10
3.7647859E+001
 20
1.538928E+002
 70
0
  0
VERTEX
  8
1
 42
0.0
 10
3.7647859E+001
 20
1.520928E+002
 70
0
  0
SEQEND
  0
POLYLINE
  8
1
  6
CONTINUOUS
 62
3
 66
1
 40
5.0E-001
 41
5.0E-001
 70
0
  0
VERTEX
  8
1
 42
0.0
 10
4.0367079E+001
 20
1.471928E+002
 70
0
  0
VERTEX
  8
1
 42
0.0
 10
3.7428639E+001
 20
1.471928E+002
 70
0
  0
SEQEND
  0
POLYLINE
  8
1
  6
CONTINUOUS
 62
3
 66
1
 40
5.0E-001
 41
5.0E-001
 70
0
  0
VERTEX
  8
1
 42
0.0
 10
4.2428639E+001
 20
1.511928E+002
 70
0
  0
VERTEX
  8
1
 42
0.0
 10
3.5367089E+001
 20
1.511928E+002
 70
0
  0
SEQEND
  0
POLYLINE
  8
1
  6
CONTINUOUS
 62
3
 66
1
 40
5.0E-001
 41
5.0E-001
 70
0
  0
VERTEX
  8
1
 42
0.0
 10
4.7428639E+001
 20
1.511928E+002
 70
0
  0
VERTEX
  8
1
 42
0.0
 10
4.5367079E+001
 20
1.511928E+002
 70
0
  0
SEQEND
  0
POLYLINE
  8
1
  6
CONTINUOUS
 62
3
 66
1
 40
5.0E-001
 41
5.0E-001
 70
0
  0
VERTEX
  8
1
 42
0.0
 10
5.0147839E+001
 20
1.520928E+002
 70
0
  0
VERTEX
  8
1
 42
0.0
 10
4.5147839E+001
 20
1.520928E+002
 70
0
  0
SEQEND
  0
POLYLINE
  8
1
  6
CONTINUOUS
 62
3
 66
1
 40
5.0E-001
 41
5.0E-001
 70
0
  0
VERTEX
  8
1
 42
0.0
 10
4.5147839E+001
 20
1.520928E+002
 70
0
  0
VERTEX
  8
1
 42
0.0
 10
4.5147839E+001
 20
1.521927E+002
 70
0
  0
SEQEND
  0
POLYLINE
  8
1
  6
CONTINUOUS
 62
3
 66
1
 40
5.0E-001
 41
5.0E-001
 70
0
  0
VERTEX
  8
1
 42
0.0
 10
3.7647859E+001
 20
1.944928E+002
 70
0
  0
VERTEX
  8
1
 42
0.0
 10
3.7647859E+001
 20
1.538928E+002
 70
0
  0
SEQEND
  0
POLYLINE
  8
1
  6
CONTINUOUS
 62
3
 66
1
 40
5.0E-001
 41
5.0E-001
 70
0
  0
VERTEX
  8
1
 42
0.0
 10
8.5147879E+001
 20
1.933928E+002
 70
0
  0
VERTEX
  8
1
 42
0.0
 10
8.5147859E+001
 20
1.549928E+002
 70
0
  0
SEQEND
  0
POLYLINE
  8
1
  6
CONTINUOUS
 62
3
 66
1
 40
5.0E-001
 41
5.0E-001
 70
0
  0
VERTEX
  8
1
 42
0.0
 10
3.7647859E+001
 20
1.709928E+002
 70
0
  0
VERTEX
  8
1
 42
0.0
 10
3.7647859E+001
 20
1.549928E+002
 70
0
  0
SEQEND
  0
LINE
  8
1
  6
CENTERLINE
 62
1
 10
8.1397879E+001
 20
1.942696E+002
 11
8.1397879E+001
 21
2.035962E+002
  0
LINE
  8
1
  6
CENTERLINE
 62
1
 10
8.6127889E+001
 20
1.991928E+002
 11
7.6801359E+001
 21
1.991928E+002
  0
LINE
  8
1
  6
CENTERLINE
 62
1
 10
5.1529469E+001
 20
1.491928E+002
 11
3.1522549E+001
 21
1.491928E+002
  0
LINE
  8
1
  6
CENTERLINE
 62
1
 10
4.6397839E+001
 20
1.446016E+002
 11
4.6397839E+001
 21
1.528403E+002
  0
LINE
  8
1
  6
CENTERLINE
 62
1
 10
4.1397839E+001
 20
1.447789E+002
 11
4.1397859E+001
 21
1.535037E+002
  0
LINE
  8
1
  6
CENTERLINE
 62
1
 10
3.6397859E+001
 20
1.530524E+002
 11
3.6397849E+001
 21
1.447789E+002
  0
TEXT
  8
1
  6
CONTINUOUS
 62
4
 10
2.6713242E+001
 20
1.8875908E+001
 40
2.5
  1
c
 41
8.666667E-001
  0
POLYLINE
  8
1
  6
CONTINUOUS
 62
3
 66
1
 40
5.0E-001
 41
5.0E-001
 70
0
  0
VERTEX
  8
1
 42
0.0
 10
5.2397869E+001
 20
1.967928E+002
 70
0
  0
VERTEX
  8
1
 42
0.0
 10
5.8897869E+001
 20
1.967928E+002
 70
0
  0
SEQEND
  0
POLYLINE
  8
1
  6
CONTINUOUS
 62
3
 66
1
 40
5.0E-001
 41
5.0E-001
 70
0
  0
VERTEX
  8
1
 42
0.0
 10
5.2397869E+001
 20
1.515927E+002
 70
0
  0
VERTEX
  8
1
 42
0.0
 10
5.8897869E+001
 20
1.515927E+002
 70
0
  0
SEQEND
  0
POLYLINE
  8
1
  6
CONTINUOUS
 62
3
 66
1
 40
5.0E-001
 41
5.0E-001
 70
0
  0
VERTEX
  8
1
 42
0.0
 10
3.8147859E+001
 20
1.961928E+002
 70
0
  0
VERTEX
  8
1
 42
0.0
 10
5.1897869E+001
 20
1.961928E+002
 70
0
  0
SEQEND
  0
POLYLINE
  8
1
  6
CONTINUOUS
 62
3
 66
1
 40
5.0E-001
 41
5.0E-001
 70
0
  0
VERTEX
  8
1
 42
0.0
 10
3.8147859E+001
 20
1.521927E+002
 70
0
  0
VERTEX
  8
1
 42
0.0
 10
5.1897869E+001
 20
1.521927E+002
 70
0
  0
SEQEND
  0
POLYLINE
  8
1
  6
CONTINUOUS
 62
3
 66
1
 40
5.0E-001
 41
5.0E-001
 70
0
  0
VERTEX
  8
1
 42
0.0
 10
7.0897869E+001
 20
1.520927E+002
 70
0
  0
VERTEX
  8
1
 42
0.0
 10
7.0897869E+001
 20
1.521927E+002
 70
0
  0
SEQEND
  0
POLYLINE
  8
1
  6
CONTINUOUS
 62
3
 66
1
 40
5.0E-001
 41
5.0E-001
 70
0
  0
VERTEX
  8
1
 42
0.0
 10
5.1897869E+001
 20
1.962928E+002
 70
0
  0
VERTEX
  8
1
 42
0.0
 10
5.1897869E+001
 20
1.961928E+002
 70
0
  0
SEQEND
  0
POLYLINE
  8
1
  6
CONTINUOUS
 62
3
 66
1
 40
5.0E-001
 41
5.0E-001
 70
0
  0
VERTEX
  8
1
 42
0.0
 10
7.0897869E+001
 20
1.961928E+002
 70
0
  0
VERTEX
  8
1
 42
0.0
 10
7.0897869E+001
 20
1.962928E+002
 70
0
  0
SEQEND
  0
POLYLINE
  8
1
  6
CONTINUOUS
 62
3
 66
1
 40
5.0E-001
 41
5.0E-001
 70
0
  0
VERTEX
  8
1
 42
0.0
 10
5.1897869E+001
 20
1.521927E+002
 70
0
  0
VERTEX
  8
1
 42
0.0
 10
5.1897869E+001
 20
1.520927E+002
 70
0
  0
SEQEND
  0
POLYLINE
  8
1
  6
CONTINUOUS
 62
3
 66
1
 40
5.0E-001
 41
5.0E-001
 70
0
  0
VERTEX
  8
1
 42
0.0
 10
7.0897869E+001
 20
1.521927E+002
 70
0
  0
VERTEX
  8
1
 42
0.0
 10
8.4647869E+001
 20
1.521927E+002
 70
0
  0
SEQEND
  0
POLYLINE
  8
1
  6
CONTINUOUS
 62
3
 66
1
 40
5.0E-001
 41
5.0E-001
 70
0
  0
VERTEX
  8
1
 42
0.0
 10
7.0897869E+001
 20
1.961928E+002
 70
0
  0
VERTEX
  8
1
 42
0.0
 10
8.4647869E+001
 20
1.961928E+002
 70
0
  0
SEQEND
  0
POLYLINE
  8
1
  6
CONTINUOUS
 62
3
 66
1
 40
5.0E-001
 41
5.0E-001
 70
0
  0
VERTEX
  8
1
 42
4.1421356E-001
 10
8.5147869E+001
 20
1.956928E+002
 70
0
  0
VERTEX
  8
1
 42
0.0
 10
8.4647869E+001
 20
1.961928E+002
 70
0
  0
SEQEND
  0
POLYLINE
  8
1
  6
CONTINUOUS
 62
3
 66
1
 40
5.0E-001
 41
5.0E-001
 70
0
  0
VERTEX
  8
1
 42
4.1421356E-001
 10
3.8147859E+001
 20
1.961928E+002
 70
0
  0
VERTEX
  8
1
 42
0.0
 10
3.7647859E+001
 20
1.956928E+002
 70
0
  0
SEQEND
  0
POLYLINE
  8
1
  6
CONTINUOUS
 62
3
 66
1
 40
5.0E-001
 41
5.0E-001
 70
0
  0
VERTEX
  8
1
 42
4.1421356E-001
 10
3.7647859E+001
 20
1.526927E+002
 70
0
  0
VERTEX
  8
1
 42
0.0
 10
3.8147859E+001
 20
1.521927E+002
 70
0
  0
SEQEND
  0
POLYLINE
  8
1
  6
CONTINUOUS
 62
3
 66
1
 40
5.0E-001
 41
5.0E-001
 70
0
  0
VERTEX
  8
1
 42
4.1421356E-001
 10
8.4647869E+001
 20
1.521927E+002
 70
0
  0
VERTEX
  8
1
 42
0.0
 10
8.5147869E+001
 20
1.526927E+002
 70
0
  0
SEQEND
  0
POLYLINE
  8
1
  6
CONTINUOUS
 62
3
 66
1
 40
5.0E-001
 41
5.0E-001
 70
0
  0
VERTEX
  8
1
 42
4.1421356E-001
 10
7.0397869E+001
 20
1.515927E+002
 70
0
  0
VERTEX
  8
1
 42
0.0
 10
7.0897869E+001
 20
1.520927E+002
 70
0
  0
SEQEND
  0
POLYLINE
  8
1
  6
CONTINUOUS
 62
3
 66
1
 40
5.0E-001
 41
5.0E-001
 70
0
  0
VERTEX
  8
1
 42
4.1421356E-001
 10
5.1897869E+001
 20
1.520927E+002
 70
0
  0
VERTEX
  8
1
 42
0.0
 10
5.2397869E+001
 20
1.515927E+002
 70
0
  0
SEQEND
  0
POLYLINE
  8
1
  6
CONTINUOUS
 62
3
 66
1
 40
5.0E-001
 41
5.0E-001
 70
0
  0
VERTEX
  8
1
 42
4.1421356E-001
 10
5.2397869E+001
 20
1.967928E+002
 70
0
  0
VERTEX
  8
1
 42
0.0
 10
5.1897869E+001
 20
1.962928E+002
 70
0
  0
SEQEND
  0
POLYLINE
  8
1
  6
CONTINUOUS
 62
3
 66
1
 40
5.0E-001
 41
5.0E-001
 70
0
  0
VERTEX
  8
1
 42
4.1421356E-001
 10
7.0897869E+001
 20
1.962928E+002
 70
0
  0
VERTEX
  8
1
 42
0.0
 10
7.0397869E+001
 20
1.967928E+002
 70
0
  0
SEQEND
  0
POLYLINE
  8
1
  6
CONTINUOUS
 62
3
 66
1
 40
5.0E-001
 41
5.0E-001
 70
0
  0
VERTEX
  8
1
 42
0.0
 10
3.7647859E+001
 20
1.851928E+002
 70
0
  0
VERTEX
  8
1
 42
0.0
 10
3.8647859E+001
 20
1.851928E+002
 70
0
  0
SEQEND
  0
POLYLINE
  8
1
  6
CONTINUOUS
 62
3
 66
1
 40
5.0E-001
 41
5.0E-001
 70
0
  0
VERTEX
  8
1
 42
0.0
 10
3.7647859E+001
 20
1.885928E+002
 70
0
  0
VERTEX
  8
1
 42
0.0
 10
3.8647859E+001
 20
1.885928E+002
 70
0
  0
SEQEND
  0
POLYLINE
  8
1
  6
CONTINUOUS
 62
3
 66
1
 40
5.0E-001
 41
5.0E-001
 70
0
  0
VERTEX
  8
1
 42
0.0
 10
3.8647859E+001
 20
1.861428E+002
 70
0
  0
VERTEX
  8
1
 42
0.0
 10
4.0147859E+001
 20
1.861428E+002
 70
0
  0
SEQEND
  0
POLYLINE
  8
1
  6
CONTINUOUS
 62
3
 66
1
 40
5.0E-001
 41
5.0E-001
 70
0
  0
VERTEX
  8
1
 42
0.0
 10
3.8647859E+001
 20
1.876428E+002
 70
0
  0
VERTEX
  8
1
 42
0.0
 10
4.0147859E+001
 20
1.876428E+002
 70
0
  0
SEQEND
  0
POLYLINE
  8
1
  6
CONTINUOUS
 62
3
 66
1
 40
5.0E-001
 41
5.0E-001
 70
0
  0
VERTEX
  8
1
 42
1.0
 10
6.3147869E+001
 20
1.741928E+002
 70
0
  0
VERTEX
  8
1
 42
1.0
 10
5.9647869E+001
 20
1.741928E+002
 70
0
  0
VERTEX
  8
1
 42
0.0
 10
6.3147869E+001
 20
1.741928E+002
 70
0
  0
SEQEND
  0
POLYLINE
  8
1
  6
CONTINUOUS
 62
3
 66
1
 40
5.0E-001
 41
5.0E-001
 70
0
  0
VERTEX
  8
1
 42
1.0
 10
6.4647869E+001
 20
1.741928E+002
 70
0
  0
VERTEX
  8
1
 42
1.0
 10
5.8147869E+001
 20
1.741928E+002
 70
0
  0
VERTEX
  8
1
 42
0.0
 10
6.4647869E+001
 20
1.741928E+002
 70
0
  0
SEQEND
  0
POLYLINE
  8
1
  6
CONTINUOUS
 62
3
 66
1
 40
5.0E-001
 41
5.0E-001
 70
0
  0
VERTEX
  8
1
 42
0.0
 10
3.7847849E+001
 20
1.756928E+002
 70
0
  0
VERTEX
  8
1
 42
0.0
 10
3.7647859E+001
 20
1.756928E+002
 70
0
  0
SEQEND
  0
POLYLINE
  8
1
  6
CONTINUOUS
 62
3
 66
1
 40
5.0E-001
 41
5.0E-001
 70
0
  0
VERTEX
  8
1
 42
0.0
 10
3.7847849E+001
 20
1.726927E+002
 70
0
  0
VERTEX
  8
1
 42
0.0
 10
3.7647859E+001
 20
1.726927E+002
 70
0
  0
SEQEND
  0
POLYLINE
  8
1
  6
CONTINUOUS
 62
3
 66
1
 40
5.0E-001
 41
5.0E-001
 70
0
  0
VERTEX
  8
1
 42
0.0
 10
3.9147859E+001
 20
1.721678E+002
 70
0
  0
VERTEX
  8
1
 42
0.0
 10
3.9147859E+001
 20
1.762178E+002
 70
0
  0
SEQEND
  0
POLYLINE
  8
1
  6
CONTINUOUS
 62
3
 66
1
 40
5.0E-001
 41
5.0E-001
 70
0
  0
VERTEX
  8
1
 42
0.0
 10
3.8947849E+001
 20
1.762178E+002
 70
0
  0
VERTEX
  8
1
 42
0.0
 10
3.9147859E+001
 20
1.762178E+002
 70
0
  0
SEQEND
  0
POLYLINE
  8
1
  6
CONTINUOUS
 62
3
 66
1
 40
5.0E-001
 41
5.0E-001
 70
0
  0
VERTEX
  8
1
 42
0.0
 10
3.9147859E+001
 20
1.721678E+002
 70
0
  0
VERTEX
  8
1
 42
0.0
 10
3.8947849E+001
 20
1.721678E+002
 70
0
  0
SEQEND
  0
POLYLINE
  8
1
  6
CONTINUOUS
 62
3
 66
1
 40
5.0E-001
 41
5.0E-001
 70
0
  0
VERTEX
  8
1
 42
0.0
 10
3.7847849E+001
 20
1.756928E+002
 70
0
  0
VERTEX
  8
1
 42
0.0
 10
3.8947849E+001
 20
1.762178E+002
 70
0
  0
SEQEND
  0
POLYLINE
  8
1
  6
CONTINUOUS
 62
3
 66
1
 40
5.0E-001
 41
5.0E-001
 70
0
  0
VERTEX
  8
1
 42
0.0
 10
3.7847849E+001
 20
1.726927E+002
 70
0
  0
VERTEX
  8
1
 42
0.0
 10
3.8947849E+001
 20
1.721678E+002
 70
0
  0
SEQEND
  0
POLYLINE
  8
1
  6
CONTINUOUS
 62
3
 66
1
 40
5.0E-001
 41
5.0E-001
 70
0
  0
VERTEX
  8
1
 42
0.0
 10
4.0647859E+001
 20
1.851928E+002
 70
0
  0
VERTEX
  8
1
 42
0.0
 10
4.0647859E+001
 20
1.856428E+002
 70
0
  0
SEQEND
  0
POLYLINE
  8
1
  6
CONTINUOUS
 62
3
 66
1
 40
5.0E-001
 41
5.0E-001
 70
0
  0
VERTEX
  8
1
 42
0.0
 10
4.5447859E+001
 20
1.851928E+002
 70
0
  0
VERTEX
  8
1
 42
0.0
 10
4.5447859E+001
 20
1.856428E+002
 70
0
  0
SEQEND
  0
POLYLINE
  8
1
  6
CONTINUOUS
 62
3
 66
1
 40
5.0E-001
 41
5.0E-001
 70
0
  0
VERTEX
  8
1
 42
0.0
 10
5.0047859E+001
 20
1.885928E+002
 70
0
  0
VERTEX
  8
1
 42
0.0
 10
5.0047859E+001
 20
1.851928E+002
 70
0
  0
SEQEND
  0
POLYLINE
  8
1
  6
CONTINUOUS
 62
3
 66
1
 40
5.0E-001
 41
5.0E-001
 70
0
  0
VERTEX
  8
1
 42
0.0
 10
5.4547859E+001
 20
1.851928E+002
 70
0
  0
VERTEX
  8
1
 42
0.0
 10
5.4547859E+001
 20
1.856428E+002
 70
0
  0
SEQEND
  0
POLYLINE
  8
1
  6
CONTINUOUS
 62
3
 66
1
 40
5.0E-001
 41
5.0E-001
 70
0
  0
VERTEX
  8
1
 42
0.0
 10
5.9147869E+001
 20
1.851928E+002
 70
0
  0
VERTEX
  8
1
 42
0.0
 10
5.9147869E+001
 20
1.885928E+002
 70
0
  0
SEQEND
  0
POLYLINE
  8
1
  6
CONTINUOUS
 62
3
 66
1
 40
5.0E-001
 41
5.0E-001
 70
0
  0
VERTEX
  8
1
 42
0.0
 10
6.4147869E+001
 20
1.851928E+002
 70
0
  0
VERTEX
  8
1
 42
0.0
 10
6.4147869E+001
 20
1.856428E+002
 70
0
  0
SEQEND
  0
POLYLINE
  8
1
  6
CONTINUOUS
 62
3
 66
1
 40
5.0E-001
 41
5.0E-001
 70
0
  0
VERTEX
  8
1
 42
0.0
 10
6.8247869E+001
 20
1.851928E+002
 70
0
  0
VERTEX
  8
1
 42
0.0
 10
6.8247869E+001
 20
1.885928E+002
 70
0
  0
SEQEND
  0
POLYLINE
  8
1
  6
CONTINUOUS
 62
3
 66
1
 40
5.0E-001
 41
5.0E-001
 70
0
  0
VERTEX
  8
1
 42
0.0
 10
7.5147869E+001
 20
1.851928E+002
 70
0
  0
VERTEX
  8
1
 42
0.0
 10
7.5147869E+001
 20
1.885928E+002
 70
0
  0
SEQEND
  0
POLYLINE
  8
1
  6
CONTINUOUS
 62
3
 66
1
 40
5.0E-001
 41
5.0E-001
 70
0
  0
VERTEX
  8
1
 42
0.0
 10
7.7347879E+001
 20
1.851928E+002
 70
0
  0
VERTEX
  8
1
 42
0.0
 10
7.7347879E+001
 20
1.885928E+002
 70
0
  0
SEQEND
  0
POLYLINE
  8
1
  6
CONTINUOUS
 62
3
 66
1
 40
5.0E-001
 41
5.0E-001
 70
0
  0
VERTEX
  8
1
 42
0.0
 10
8.1747869E+001
 20
1.851928E+002
 70
0
  0
VERTEX
  8
1
 42
0.0
 10
8.1747869E+001
 20
1.856428E+002
 70
0
  0
SEQEND
  0
POLYLINE
  8
1
  6
CONTINUOUS
 62
3
 66
1
 40
5.0E-001
 41
5.0E-001
 70
0
  0
VERTEX
  8
1
 42
0.0
 10
3.8647859E+001
 20
1.851928E+002
 70
0
  0
VERTEX
  8
1
 42
0.0
 10
3.8647859E+001
 20
1.885928E+002
 70
0
  0
SEQEND
  0
POLYLINE
  8
1
  6
CONTINUOUS
 62
3
 66
1
 40
5.0E-001
 41
5.0E-001
 70
0
  0
VERTEX
  8
1
 42
0.0
 10
4.0647859E+001
 20
1.885928E+002
 70
0
  0
VERTEX
  8
1
 42
0.0
 10
4.5447859E+001
 20
1.885928E+002
 70
0
  0
SEQEND
  0
POLYLINE
  8
1
  6
CONTINUOUS
 62
3
 66
1
 40
5.0E-001
 41
5.0E-001
 70
0
  0
VERTEX
  8
1
 42
0.0
 10
4.0647859E+001
 20
1.851928E+002
 70
0
  0
VERTEX
  8
1
 42
0.0
 10
4.5447859E+001
 20
1.851928E+002
 70
0
  0
SEQEND
  0
POLYLINE
  8
1
  6
CONTINUOUS
 62
3
 66
1
 40
5.0E-001
 41
5.0E-001
 70
0
  0
VERTEX
  8
1
 42
0.0
 10
5.0047859E+001
 20
1.885928E+002
 70
0
  0
VERTEX
  8
1
 42
0.0
 10
5.4547859E+001
 20
1.885928E+002
 70
0
  0
SEQEND
  0
POLYLINE
  8
1
  6
CONTINUOUS
 62
3
 66
1
 40
5.0E-001
 41
5.0E-001
 70
0
  0
VERTEX
  8
1
 42
0.0
 10
5.0047859E+001
 20
1.851928E+002
 70
0
  0
VERTEX
  8
1
 42
0.0
 10
5.4547859E+001
 20
1.851928E+002
 70
0
  0
SEQEND
  0
POLYLINE
  8
1
  6
CONTINUOUS
 62
3
 66
1
 40
5.0E-001
 41
5.0E-001
 70
0
  0
VERTEX
  8
1
 42
0.0
 10
4.5947859E+001
 20
1.876428E+002
 70
0
  0
VERTEX
  8
1
 42
0.0
 10
4.9547859E+001
 20
1.876428E+002
 70
0
  0
SEQEND
  0
POLYLINE
  8
1
  6
CONTINUOUS
 62
3
 66
1
 40
5.0E-001
 41
5.0E-001
 70
0
  0
VERTEX
  8
1
 42
0.0
 10
4.5947859E+001
 20
1.861428E+002
 70
0
  0
VERTEX
  8
1
 42
0.0
 10
4.9547859E+001
 20
1.861428E+002
 70
0
  0
SEQEND
  0
POLYLINE
  8
1
  6
CONTINUOUS
 62
3
 66
1
 40
5.0E-001
 41
5.0E-001
 70
0
  0
VERTEX
  8
1
 42
0.0
 10
5.5047859E+001
 20
1.876428E+002
 70
0
  0
VERTEX
  8
1
 42
0.0
 10
5.8647869E+001
 20
1.876428E+002
 70
0
  0
SEQEND
  0
POLYLINE
  8
1
  6
CONTINUOUS
 62
3
 66
1
 40
5.0E-001
 41
5.0E-001
 70
0
  0
VERTEX
  8
1
 42
0.0
 10
5.5047859E+001
 20
1.861428E+002
 70
0
  0
VERTEX
  8
1
 42
0.0
 10
5.8647869E+001
 20
1.861428E+002
 70
0
  0
SEQEND
  0
POLYLINE
  8
1
  6
CONTINUOUS
 62
3
 66
1
 40
5.0E-001
 41
5.0E-001
 70
0
  0
VERTEX
  8
1
 42
0.0
 10
5.9147869E+001
 20
1.885928E+002
 70
0
  0
VERTEX
  8
1
 42
0.0
 10
6.4147869E+001
 20
1.885928E+002
 70
0
  0
SEQEND
  0
POLYLINE
  8
1
  6
CONTINUOUS
 62
3
 66
1
 40
5.0E-001
 41
5.0E-001
 70
0
  0
VERTEX
  8
1
 42
0.0
 10
5.9147869E+001
 20
1.851928E+002
 70
0
  0
VERTEX
  8
1
 42
0.0
 10
6.4147869E+001
 20
1.851928E+002
 70
0
  0
SEQEND
  0
POLYLINE
  8
1
  6
CONTINUOUS
 62
3
 66
1
 40
5.0E-001
 41
5.0E-001
 70
0
  0
VERTEX
  8
1
 42
0.0
 10
6.4647869E+001
 20
1.876428E+002
 70
0
  0
VERTEX
  8
1
 42
0.0
 10
6.7747869E+001
 20
1.876428E+002
 70
0
  0
SEQEND
  0
POLYLINE
  8
1
  6
CONTINUOUS
 62
3
 66
1
 40
5.0E-001
 41
5.0E-001
 70
0
  0
VERTEX
  8
1
 42
0.0
 10
6.4647869E+001
 20
1.861428E+002
 70
0
  0
VERTEX
  8
1
 42
0.0
 10
6.7747869E+001
 20
1.861428E+002
 70
0
  0
SEQEND
  0
POLYLINE
  8
1
  6
CONTINUOUS
 62
3
 66
1
 40
5.0E-001
 41
5.0E-001
 70
0
  0
VERTEX
  8
1
 42
0.0
 10
6.8247869E+001
 20
1.885928E+002
 70
0
  0
VERTEX
  8
1
 42
0.0
 10
7.5147869E+001
 20
1.885928E+002
 70
0
  0
SEQEND
  0
POLYLINE
  8
1
  6
CONTINUOUS
 62
3
 66
1
 40
5.0E-001
 41
5.0E-001
 70
0
  0
VERTEX
  8
1
 42
0.0
 10
6.8247869E+001
 20
1.851928E+002
 70
0
  0
VERTEX
  8
1
 42
0.0
 10
7.5147869E+001
 20
1.851928E+002
 70
0
  0
SEQEND
  0
POLYLINE
  8
1
  6
CONTINUOUS
 62
3
 66
1
 40
5.0E-001
 41
5.0E-001
 70
0
  0
VERTEX
  8
1
 42
0.0
 10
7.5647869E+001
 20
1.876428E+002
 70
0
  0
VERTEX
  8
1
 42
0.0
 10
7.6847879E+001
 20
1.876428E+002
 70
0
  0
SEQEND
  0
POLYLINE
  8
1
  6
CONTINUOUS
 62
3
 66
1
 40
5.0E-001
 41
5.0E-001
 70
0
  0
VERTEX
  8
1
 42
0.0
 10
7.5647869E+001
 20
1.861428E+002
 70
0
  0
VERTEX
  8
1
 42
0.0
 10
7.6847879E+001
 20
1.861428E+002
 70
0
  0
SEQEND
  0
POLYLINE
  8
1
  6
CONTINUOUS
 62
3
 66
1
 40
5.0E-001
 41
5.0E-001
 70
0
  0
VERTEX
  8
1
 42
0.0
 10
7.7347879E+001
 20
1.885928E+002
 70
0
  0
VERTEX
  8
1
 42
0.0
 10
8.1747869E+001
 20
1.885928E+002
 70
0
  0
SEQEND
  0
POLYLINE
  8
1
  6
CONTINUOUS
 62
3
 66
1
 40
5.0E-001
 41
5.0E-001
 70
0
  0
VERTEX
  8
1
 42
0.0
 10
7.7347879E+001
 20
1.851928E+002
 70
0
  0
VERTEX
  8
1
 42
0.0
 10
8.1747869E+001
 20
1.851928E+002
 70
0
  0
SEQEND
  0
POLYLINE
  8
1
  6
CONTINUOUS
 62
3
 66
1
 40
5.0E-001
 41
5.0E-001
 70
0
  0
VERTEX
  8
1
 42
0.0
 10
8.2247869E+001
 20
1.876428E+002
 70
0
  0
VERTEX
  8
1
 42
0.0
 10
8.5147869E+001
 20
1.876428E+002
 70
0
  0
SEQEND
  0
POLYLINE
  8
1
  6
CONTINUOUS
 62
3
 66
1
 40
5.0E-001
 41
5.0E-001
 70
0
  0
VERTEX
  8
1
 42
0.0
 10
8.2247869E+001
 20
1.861428E+002
 70
0
  0
VERTEX
  8
1
 42
0.0
 10
8.5147869E+001
 20
1.861428E+002
 70
0
  0
SEQEND
  0
POLYLINE
  8
1
  6
CONTINUOUS
 62
3
 66
1
 40
5.0E-001
 41
5.0E-001
 70
0
  0
VERTEX
  8
1
 42
0.0
 10
8.1747869E+001
 20
1.881428E+002
 70
0
  0
VERTEX
  8
1
 42
0.0
 10
8.1747869E+001
 20
1.885928E+002
 70
0
  0
SEQEND
  0
POLYLINE
  8
1
  6
CONTINUOUS
 62
3
 66
1
 40
5.0E-001
 41
5.0E-001
 70
0
  0
VERTEX
  8
1
 42
0.0
 10
6.4147869E+001
 20
1.881428E+002
 70
0
  0
VERTEX
  8
1
 42
0.0
 10
6.4147869E+001
 20
1.885928E+002
 70
0
  0
SEQEND
  0
POLYLINE
  8
1
  6
CONTINUOUS
 62
3
 66
1
 40
5.0E-001
 41
5.0E-001
 70
0
  0
VERTEX
  8
1
 42
0.0
 10
5.4547859E+001
 20
1.881428E+002
 70
0
  0
VERTEX
  8
1
 42
0.0
 10
5.4547859E+001
 20
1.885928E+002
 70
0
  0
SEQEND
  0
POLYLINE
  8
1
  6
CONTINUOUS
 62
3
 66
1
 40
5.0E-001
 41
5.0E-001
 70
0
  0
VERTEX
  8
1
 42
0.0
 10
4.0647859E+001
 20
1.881428E+002
 70
0
  0
VERTEX
  8
1
 42
0.0
 10
4.0647859E+001
 20
1.885928E+002
 70
0
  0
SEQEND
  0
POLYLINE
  8
1
  6
CONTINUOUS
 62
3
 66
1
 40
5.0E-001
 41
5.0E-001
 70
0
  0
VERTEX
  8
1
 42
0.0
 10
4.5447859E+001
 20
1.881428E+002
 70
0
  0
VERTEX
  8
1
 42
0.0
 10
4.5447859E+001
 20
1.885928E+002
 70
0
  0
SEQEND
  0
POLYLINE
  8
1
  6
CONTINUOUS
 62
3
 66
1
 40
5.0E-001
 41
5.0E-001
 70
0
  0
VERTEX
  8
1
 42
0.0
 10
5.1047859E+001
 20
1.851928E+002
 70
0
  0
VERTEX
  8
1
 42
0.0
 10
5.1047859E+001
 20
1.885928E+002
 70
0
  0
SEQEND
  0
POLYLINE
  8
1
  6
CONTINUOUS
 62
3
 66
1
 40
5.0E-001
 41
5.0E-001
 70
0
  0
VERTEX
  8
1
 42
0.0
 10
6.0147869E+001
 20
1.885928E+002
 70
0
  0
VERTEX
  8
1
 42
0.0
 10
6.0147869E+001
 20
1.851928E+002
 70
0
  0
SEQEND
  0
POLYLINE
  8
1
  6
CONTINUOUS
 62
3
 66
1
 40
5.0E-001
 41
5.0E-001
 70
0
  0
VERTEX
  8
1
 42
0.0
 10
6.9247869E+001
 20
1.885928E+002
 70
0
  0
VERTEX
  8
1
 42
0.0
 10
6.9247869E+001
 20
1.851928E+002
 70
0
  0
SEQEND
  0
POLYLINE
  8
1
  6
CONTINUOUS
 62
3
 66
1
 40
5.0E-001
 41
5.0E-001
 70
0
  0
VERTEX
  8
1
 42
0.0
 10
7.8347879E+001
 20
1.851928E+002
 70
0
  0
VERTEX
  8
1
 42
0.0
 10
7.8347879E+001
 20
1.885928E+002
 70
0
  0
SEQEND
  0
POLYLINE
  8
1
  6
CONTINUOUS
 62
3
 66
1
 40
5.0E-001
 41
5.0E-001
 70
0
  0
VERTEX
  8
1
 42
0.0
 10
7.4147869E+001
 20
1.885928E+002
 70
0
  0
VERTEX
  8
1
 42
0.0
 10
7.4147869E+001
 20
1.851928E+002
 70
0
  0
SEQEND
  0
POLYLINE
  8
1
  6
CONTINUOUS
 62
3
 66
1
 40
5.0E-001
 41
5.0E-001
 70
0
  0
VERTEX
  8
1
 42
0.0
 10
6.0147869E+001
 20
1.931928E+002
 70
0
  0
VERTEX
  8
1
 42
0.0
 10
6.0147869E+001
 20
1.951928E+002
 70
0
  0
SEQEND
  0
POLYLINE
  8
1
  6
CONTINUOUS
 62
3
 66
1
 40
5.0E-001
 41
5.0E-001
 70
0
  0
VERTEX
  8
1
 42
0.0
 10
6.2647869E+001
 20
1.931928E+002
 70
0
  0
VERTEX
  8
1
 42
0.0
 10
6.2647869E+001
 20
1.951928E+002
 70
0
  0
SEQEND
  0
POLYLINE
  8
1
  6
CONTINUOUS
 62
3
 66
1
 40
5.0E-001
 41
5.0E-001
 70
0
  0
VERTEX
  8
1
 42
0.0
 10
5.8897869E+001
 20
1.951928E+002
 70
0
  0
VERTEX
  8
1
 42
0.0
 10
6.0147869E+001
 20
1.951928E+002
 70
0
  0
SEQEND
  0
POLYLINE
  8
1
  6
CONTINUOUS
 62
3
 66
1
 40
5.0E-001
 41
5.0E-001
 70
0
  0
VERTEX
  8
1
 42
0.0
 10
5.8897869E+001
 20
1.951928E+002
 70
0
  0
VERTEX
  8
1
 42
0.0
 10
5.8897869E+001
 20
1.967928E+002
 70
0
  0
SEQEND
  0
POLYLINE
  8
1
  6
CONTINUOUS
 62
3
 66
1
 40
5.0E-001
 41
5.0E-001
 70
0
  0
VERTEX
  8
1
 42
0.0
 10
6.3897869E+001
 20
1.967928E+002
 70
0
  0
VERTEX
  8
1
 42
0.0
 10
6.3897869E+001
 20
1.951928E+002
 70
0
  0
SEQEND
  0
POLYLINE
  8
1
  6
CONTINUOUS
 62
3
 66
1
 40
5.0E-001
 41
5.0E-001
 70
0
  0
VERTEX
  8
1
 42
0.0
 10
6.0397869E+001
 20
1.967928E+002
 70
0
  0
VERTEX
  8
1
 42
0.0
 10
6.0397869E+001
 20
1.951928E+002
 70
0
  0
SEQEND
  0
POLYLINE
  8
1
  6
CONTINUOUS
 62
3
 66
1
 40
5.0E-001
 41
5.0E-001
 70
0
  0
VERTEX
  8
1
 42
0.0
 10
6.0647869E+001
 20
1.921928E+002
 70
0
  0
VERTEX
  8
1
 42
0.0
 10
6.2147869E+001
 20
1.921928E+002
 70
0
  0
SEQEND
  0
POLYLINE
  8
1
  6
CONTINUOUS
 62
3
 66
1
 40
5.0E-001
 41
5.0E-001
 70
0
  0
VERTEX
  8
1
 42
0.0
 10
6.0147869E+001
 20
1.931928E+002
 70
0
  0
VERTEX
  8
1
 42
0.0
 10
6.2647869E+001
 20
1.931928E+002
 70
0
  0
SEQEND
  0
POLYLINE
  8
1
  6
CONTINUOUS
 62
3
 66
1
 40
5.0E-001
 41
5.0E-001
 70
0
  0
VERTEX
  8
1
 42
0.0
 10
6.0647869E+001
 20
1.931928E+002
 70
0
  0
VERTEX
  8
1
 42
0.0
 10
6.0647869E+001
 20
1.921928E+002
 70
0
  0
SEQEND
  0
POLYLINE
  8
1
  6
CONTINUOUS
 62
3
 66
1
 40
5.0E-001
 41
5.0E-001
 70
0
  0
VERTEX
  8
1
 42
0.0
 10
6.2147869E+001
 20
1.921928E+002
 70
0
  0
VERTEX
  8
1
 42
0.0
 10
6.2147869E+001
 20
1.931928E+002
 70
0
  0
SEQEND
  0
POLYLINE
  8
1
  6
CONTINUOUS
 62
3
 66
1
 40
5.0E-001
 41
5.0E-001
 70
0
  0
VERTEX
  8
1
 42
0.0
 10
6.0647869E+001
 20
1.926428E+002
 70
0
  0
VERTEX
  8
1
 42
0.0
 10
6.2147869E+001
 20
1.926428E+002
 70
0
  0
SEQEND
  0
POLYLINE
  8
1
  6
CONTINUOUS
 62
3
 66
1
 40
5.0E-001
 41
5.0E-001
 70
0
  0
VERTEX
  8
1
 42
0.0
 10
6.2647869E+001
 20
1.951928E+002
 70
0
  0
VERTEX
  8
1
 42
0.0
 10
6.3897869E+001
 20
1.951928E+002
 70
0
  0
SEQEND
  0
POLYLINE
  8
1
  6
CONTINUOUS
 62
3
 66
1
 40
5.0E-001
 41
5.0E-001
 70
0
  0
VERTEX
  8
1
 42
0.0
 10
6.0147869E+001
 20
1.951928E+002
 70
0
  0
VERTEX
  8
1
 42
0.0
 10
6.2647869E+001
 20
1.951928E+002
 70
0
  0
SEQEND
  0
POLYLINE
  8
1
  6
CONTINUOUS
 62
3
 66
1
 40
5.0E-001
 41
5.0E-001
 70
0
  0
VERTEX
  8
1
 42
0.0
 10
5.2047859E+001
 20
1.862928E+002
 70
0
  0
VERTEX
  8
1
 42
0.0
 10
5.2047859E+001
 20
1.874928E+002
 70
0
  0
SEQEND
  0
POLYLINE
  8
1
  6
CONTINUOUS
 62
3
 66
1
 40
5.0E-001
 41
5.0E-001
 70
0
  0
VERTEX
  8
1
 42
0.0
 10
5.2547859E+001
 20
1.862928E+002
 70
0
  0
VERTEX
  8
1
 42
0.0
 10
5.2547859E+001
 20
1.874928E+002
 70
0
  0
SEQEND
  0
POLYLINE
  8
1
  6
CONTINUOUS
 62
3
 66
1
 40
5.0E-001
 41
5.0E-001
 70
0
  0
VERTEX
  8
1
 42
0.0
 10
5.2047859E+001
 20
1.874928E+002
 70
0
  0
VERTEX
  8
1
 42
0.0
 10
5.2547859E+001
 20
1.874928E+002
 70
0
  0
SEQEND
  0
POLYLINE
  8
1
  6
CONTINUOUS
 62
3
 66
1
 40
5.0E-001
 41
5.0E-001
 70
0
  0
VERTEX
  8
1
 42
0.0
 10
5.2047859E+001
 20
1.862928E+002
 70
0
  0
VERTEX
  8
1
 42
0.0
 10
5.2547859E+001
 20
1.862928E+002
 70
0
  0
SEQEND
  0
POLYLINE
  8
1
  6
CONTINUOUS
 62
3
 66
1
 40
5.0E-001
 41
5.0E-001
 70
0
  0
VERTEX
  8
1
 42
0.0
 10
4.1887849E+001
 20
1.862928E+002
 70
0
  0
VERTEX
  8
1
 42
0.0
 10
4.1887849E+001
 20
1.874928E+002
 70
0
  0
SEQEND
  0
POLYLINE
  8
1
  6
CONTINUOUS
 62
3
 66
1
 40
5.0E-001
 41
5.0E-001
 70
0
  0
VERTEX
  8
1
 42
0.0
 10
4.1387849E+001
 20
1.874928E+002
 70
0
  0
VERTEX
  8
1
 42
0.0
 10
4.2387849E+001
 20
1.874928E+002
 70
0
  0
SEQEND
  0
POLYLINE
  8
1
  6
CONTINUOUS
 62
3
 66
1
 40
5.0E-001
 41
5.0E-001
 70
0
  0
VERTEX
  8
1
 42
0.0
 10
4.2387849E+001
 20
1.862928E+002
 70
0
  0
VERTEX
  8
1
 42
0.0
 10
4.2387849E+001
 20
1.874928E+002
 70
0
  0
SEQEND
  0
POLYLINE
  8
1
  6
CONTINUOUS
 62
3
 66
1
 40
5.0E-001
 41
5.0E-001
 70
0
  0
VERTEX
  8
1
 42
0.0
 10
4.1387849E+001
 20
1.862928E+002
 70
0
  0
VERTEX
  8
1
 42
0.0
 10
4.2387849E+001
 20
1.862928E+002
 70
0
  0
SEQEND
  0
POLYLINE
  8
1
  6
CONTINUOUS
 62
3
 66
1
 40
5.0E-001
 41
5.0E-001
 70
0
  0
VERTEX
  8
1
 42
0.0
 10
4.1387849E+001
 20
1.862928E+002
 70
0
  0
VERTEX
  8
1
 42
0.0
 10
4.1387849E+001
 20
1.874928E+002
 70
0
  0
SEQEND
  0
POLYLINE
  8
1
  6
CONTINUOUS
 62
3
 66
1
 40
5.0E-001
 41
5.0E-001
 70
0
  0
VERTEX
  8
1
 42
0.0
 10
6.2207869E+001
 20
1.874928E+002
 70
0
  0
VERTEX
  8
1
 42
0.0
 10
6.3207869E+001
 20
1.874928E+002
 70
0
  0
SEQEND
  0
POLYLINE
  8
1
  6
CONTINUOUS
 62
3
 66
1
 40
5.0E-001
 41
5.0E-001
 70
0
  0
VERTEX
  8
1
 42
0.0
 10
6.2207869E+001
 20
1.862928E+002
 70
0
  0
VERTEX
  8
1
 42
0.0
 10
6.2207869E+001
 20
1.874928E+002
 70
0
  0
SEQEND
  0
POLYLINE
  8
1
  6
CONTINUOUS
 62
3
 66
1
 40
5.0E-001
 41
5.0E-001
 70
0
  0
VERTEX
  8
1
 42
0.0
 10
6.2207869E+001
 20
1.862928E+002
 70
0
  0
VERTEX
  8
1
 42
0.0
 10
6.3207869E+001
 20
1.862928E+002
 70
0
  0
SEQEND
  0
POLYLINE
  8
1
  6
CONTINUOUS
 62
3
 66
1
 40
5.0E-001
 41
5.0E-001
 70
0
  0
VERTEX
  8
1
 42
0.0
 10
6.2707869E+001
 20
1.862928E+002
 70
0
  0
VERTEX
  8
1
 42
0.0
 10
6.2707869E+001
 20
1.874928E+002
 70
0
  0
SEQEND
  0
POLYLINE
  8
1
  6
CONTINUOUS
 62
3
 66
1
 40
5.0E-001
 41
5.0E-001
 70
0
  0
VERTEX
  8
1
 42
0.0
 10
6.3207869E+001
 20
1.862928E+002
 70
0
  0
VERTEX
  8
1
 42
0.0
 10
6.3207869E+001
 20
1.874928E+002
 70
0
  0
SEQEND
  0
POLYLINE
  8
1
  6
CONTINUOUS
 62
3
 66
1
 40
5.0E-001
 41
5.0E-001
 70
0
  0
VERTEX
  8
1
 42
0.0
 10
7.2867869E+001
 20
1.862928E+002
 70
0
  0
VERTEX
  8
1
 42
0.0
 10
7.2867869E+001
 20
1.874928E+002
 70
0
  0
SEQEND
  0
POLYLINE
  8
1
  6
CONTINUOUS
 62
3
 66
1
 40
5.0E-001
 41
5.0E-001
 70
0
  0
VERTEX
  8
1
 42
0.0
 10
7.2367869E+001
 20
1.862928E+002
 70
0
  0
VERTEX
  8
1
 42
0.0
 10
7.2367869E+001
 20
1.874928E+002
 70
0
  0
SEQEND
  0
POLYLINE
  8
1
  6
CONTINUOUS
 62
3
 66
1
 40
5.0E-001
 41
5.0E-001
 70
0
  0
VERTEX
  8
1
 42
0.0
 10
7.2367869E+001
 20
1.874928E+002
 70
0
  0
VERTEX
  8
1
 42
0.0
 10
7.3367869E+001
 20
1.874928E+002
 70
0
  0
SEQEND
  0
POLYLINE
  8
1
  6
CONTINUOUS
 62
3
 66
1
 40
5.0E-001
 41
5.0E-001
 70
0
  0
VERTEX
  8
1
 42
0.0
 10
7.2367869E+001
 20
1.862928E+002
 70
0
  0
VERTEX
  8
1
 42
0.0
 10
7.3367869E+001
 20
1.862928E+002
 70
0
  0
SEQEND
  0
POLYLINE
  8
1
  6
CONTINUOUS
 62
3
 66
1
 40
5.0E-001
 41
5.0E-001
 70
0
  0
VERTEX
  8
1
 42
0.0
 10
7.3367869E+001
 20
1.862928E+002
 70
0
  0
VERTEX
  8
1
 42
0.0
 10
7.3367869E+001
 20
1.874928E+002
 70
0
  0
SEQEND
  0
POLYLINE
  8
1
  6
CONTINUOUS
 62
3
 66
1
 40
5.0E-001
 41
5.0E-001
 70
0
  0
VERTEX
  8
1
 42
0.0
 10
8.0487859E+001
 20
1.862928E+002
 70
0
  0
VERTEX
  8
1
 42
0.0
 10
8.0487859E+001
 20
1.874928E+002
 70
0
  0
SEQEND
  0
POLYLINE
  8
1
  6
CONTINUOUS
 62
3
 66
1
 40
5.0E-001
 41
5.0E-001
 70
0
  0
VERTEX
  8
1
 42
0.0
 10
7.9987859E+001
 20
1.862928E+002
 70
0
  0
VERTEX
  8
1
 42
0.0
 10
7.9987859E+001
 20
1.874928E+002
 70
0
  0
SEQEND
  0
POLYLINE
  8
1
  6
CONTINUOUS
 62
3
 66
1
 40
5.0E-001
 41
5.0E-001
 70
0
  0
VERTEX
  8
1
 42
0.0
 10
7.9987859E+001
 20
1.874928E+002
 70
0
  0
VERTEX
  8
1
 42
0.0
 10
8.0987859E+001
 20
1.874928E+002
 70
0
  0
SEQEND
  0
POLYLINE
  8
1
  6
CONTINUOUS
 62
3
 66
1
 40
5.0E-001
 41
5.0E-001
 70
0
  0
VERTEX
  8
1
 42
0.0
 10
7.9987859E+001
 20
1.862928E+002
 70
0
  0
VERTEX
  8
1
 42
0.0
 10
8.0987859E+001
 20
1.862928E+002
 70
0
  0
SEQEND
  0
POLYLINE
  8
1
  6
CONTINUOUS
 62
3
 66
1
 40
5.0E-001
 41
5.0E-001
 70
0
  0
VERTEX
  8
1
 42
0.0
 10
8.0987859E+001
 20
1.862928E+002
 70
0
  0
VERTEX
  8
1
 42
0.0
 10
8.0987859E+001
 20
1.874928E+002
 70
0
  0
SEQEND
  0
POLYLINE
  8
1
  6
CONTINUOUS
 62
3
 66
1
 40
5.0E-001
 41
5.0E-001
 70
0
  0
VERTEX
  8
1
 42
4.1421356E-001
 10
8.1747869E+001
 20
1.881428E+002
 70
0
  0
VERTEX
  8
1
 42
0.0
 10
8.2247869E+001
 20
1.876428E+002
 70
0
  0
SEQEND
  0
POLYLINE
  8
1
  6
CONTINUOUS
 62
3
 66
1
 40
5.0E-001
 41
5.0E-001
 70
0
  0
VERTEX
  8
1
 42
4.1421356E-001
 10
8.2247869E+001
 20
1.861428E+002
 70
0
  0
VERTEX
  8
1
 42
0.0
 10
8.1747869E+001
 20
1.856428E+002
 70
0
  0
SEQEND
  0
POLYLINE
  8
1
  6
CONTINUOUS
 62
3
 66
1
 40
5.0E-001
 41
5.0E-001
 70
0
  0
VERTEX
  8
1
 42
4.1421356E-001
 10
6.4647869E+001
 20
1.861428E+002
 70
0
  0
VERTEX
  8
1
 42
0.0
 10
6.4147869E+001
 20
1.856428E+002
 70
0
  0
SEQEND
  0
POLYLINE
  8
1
  6
CONTINUOUS
 62
3
 66
1
 40
5.0E-001
 41
5.0E-001
 70
0
  0
VERTEX
  8
1
 42
4.1421356E-001
 10
6.4147869E+001
 20
1.881428E+002
 70
0
  0
VERTEX
  8
1
 42
0.0
 10
6.4647869E+001
 20
1.876428E+002
 70
0
  0
SEQEND
  0
POLYLINE
  8
1
  6
CONTINUOUS
 62
3
 66
1
 40
5.0E-001
 41
5.0E-001
 70
0
  0
VERTEX
  8
1
 42
4.1421356E-001
 10
5.4547859E+001
 20
1.881428E+002
 70
0
  0
VERTEX
  8
1
 42
0.0
 10
5.5047859E+001
 20
1.876428E+002
 70
0
  0
SEQEND
  0
POLYLINE
  8
1
  6
CONTINUOUS
 62
3
 66
1
 40
5.0E-001
 41
5.0E-001
 70
0
  0
VERTEX
  8
1
 42
4.1421356E-001
 10
5.5047859E+001
 20
1.861428E+002
 70
0
  0
VERTEX
  8
1
 42
0.0
 10
5.4547859E+001
 20
1.856428E+002
 70
0
  0
SEQEND
  0
POLYLINE
  8
1
  6
CONTINUOUS
 62
3
 66
1
 40
5.0E-001
 41
5.0E-001
 70
0
  0
VERTEX
  8
1
 42
4.1421356E-001
 10
4.5447859E+001
 20
1.881428E+002
 70
0
  0
VERTEX
  8
1
 42
0.0
 10
4.5947859E+001
 20
1.876428E+002
 70
0
  0
SEQEND
  0
POLYLINE
  8
1
  6
CONTINUOUS
 62
3
 66
1
 40
5.0E-001
 41
5.0E-001
 70
0
  0
VERTEX
  8
1
 42
4.1421356E-001
 10
4.5947859E+001
 20
1.861428E+002
 70
0
  0
VERTEX
  8
1
 42
0.0
 10
4.5447859E+001
 20
1.856428E+002
 70
0
  0
SEQEND
  0
POLYLINE
  8
1
  6
CONTINUOUS
 62
3
 66
1
 40
5.0E-001
 41
5.0E-001
 70
0
  0
VERTEX
  8
1
 42
4.1421356E-001
 10
4.0647859E+001
 20
1.856428E+002
 70
0
  0
VERTEX
  8
1
 42
0.0
 10
4.0147859E+001
 20
1.861428E+002
 70
0
  0
SEQEND
  0
POLYLINE
  8
1
  6
CONTINUOUS
 62
3
 66
1
 40
5.0E-001
 41
5.0E-001
 70
0
  0
VERTEX
  8
1
 42
4.1421356E-001
 10
4.0147859E+001
 20
1.876428E+002
 70
0
  0
VERTEX
  8
1
 42
0.0
 10
4.0647859E+001
 20
1.881428E+002
 70
0
  0
SEQEND
  0
POLYLINE
  8
1
  6
CONTINUOUS
 62
3
 66
1
 40
5.0E-001
 41
5.0E-001
 70
0
  0
VERTEX
  8
1
 42
4.1421356E-001
 10
4.9547859E+001
 20
1.876428E+002
 70
0
  0
VERTEX
  8
1
 42
0.0
 10
5.0047859E+001
 20
1.881428E+002
 70
0
  0
SEQEND
  0
POLYLINE
  8
1
  6
CONTINUOUS
 62
3
 66
1
 40
5.0E-001
 41
5.0E-001
 70
0
  0
VERTEX
  8
1
 42
4.1421356E-001
 10
5.0047859E+001
 20
1.856428E+002
 70
0
  0
VERTEX
  8
1
 42
0.0
 10
4.9547859E+001
 20
1.861428E+002
 70
0
  0
SEQEND
  0
POLYLINE
  8
1
  6
CONTINUOUS
 62
3
 66
1
 40
5.0E-001
 41
5.0E-001
 70
0
  0
VERTEX
  8
1
 42
4.1421356E-001
 10
5.8647869E+001
 20
1.876428E+002
 70
0
  0
VERTEX
  8
1
 42
0.0
 10
5.9147869E+001
 20
1.881428E+002
 70
0
  0
SEQEND
  0
POLYLINE
  8
1
  6
CONTINUOUS
 62
3
 66
1
 40
5.0E-001
 41
5.0E-001
 70
0
  0
VERTEX
  8
1
 42
4.1421356E-001
 10
5.9147869E+001
 20
1.856428E+002
 70
0
  0
VERTEX
  8
1
 42
0.0
 10
5.8647869E+001
 20
1.861428E+002
 70
0
  0
SEQEND
  0
POLYLINE
  8
1
  6
CONTINUOUS
 62
3
 66
1
 40
5.0E-001
 41
5.0E-001
 70
0
  0
VERTEX
  8
1
 42
4.1421356E-001
 10
6.7747869E+001
 20
1.876428E+002
 70
0
  0
VERTEX
  8
1
 42
0.0
 10
6.8247869E+001
 20
1.881428E+002
 70
0
  0
SEQEND
  0
POLYLINE
  8
1
  6
CONTINUOUS
 62
3
 66
1
 40
5.0E-001
 41
5.0E-001
 70
0
  0
VERTEX
  8
1
 42
4.1421356E-001
 10
6.8247869E+001
 20
1.856428E+002
 70
0
  0
VERTEX
  8
1
 42
0.0
 10
6.7747869E+001
 20
1.861428E+002
 70
0
  0
SEQEND
  0
POLYLINE
  8
1
  6
CONTINUOUS
 62
3
 66
1
 40
5.0E-001
 41
5.0E-001
 70
0
  0
VERTEX
  8
1
 42
4.1421356E-001
 10
7.6847879E+001
 20
1.876428E+002
 70
0
  0
VERTEX
  8
1
 42
0.0
 10
7.7347879E+001
 20
1.881428E+002
 70
0
  0
SEQEND
  0
POLYLINE
  8
1
  6
CONTINUOUS
 62
3
 66
1
 40
5.0E-001
 41
5.0E-001
 70
0
  0
VERTEX
  8
1
 42
4.1421356E-001
 10
7.7347879E+001
 20
1.856428E+002
 70
0
  0
VERTEX
  8
1
 42
0.0
 10
7.6847879E+001
 20
1.861428E+002
 70
0
  0
SEQEND
  0
POLYLINE
  8
1
  6
CONTINUOUS
 62
3
 66
1
 40
5.0E-001
 41
5.0E-001
 70
0
  0
VERTEX
  8
1
 42
4.1421356E-001
 10
7.5147869E+001
 20
1.881428E+002
 70
0
  0
VERTEX
  8
1
 42
0.0
 10
7.5647869E+001
 20
1.876428E+002
 70
0
  0
SEQEND
  0
POLYLINE
  8
1
  6
CONTINUOUS
 62
3
 66
1
 40
5.0E-001
 41
5.0E-001
 70
0
  0
VERTEX
  8
1
 42
4.1421356E-001
 10
7.5647869E+001
 20
1.861428E+002
 70
0
  0
VERTEX
  8
1
 42
0.0
 10
7.5147869E+001
 20
1.856428E+002
 70
0
  0
SEQEND
  0
POLYLINE
  8
1
  6
CONTINUOUS
 62
3
 66
1
 40
5.0E-001
 41
5.0E-001
 70
0
  0
VERTEX
  8
1
 42
0.0
 10
6.0147869E+001
 20
1.832428E+002
 70
0
  0
VERTEX
  8
1
 42
0.0
 10
6.0147869E+001
 20
1.812428E+002
 70
0
  0
SEQEND
  0
POLYLINE
  8
1
  6
CONTINUOUS
 62
3
 66
1
 40
5.0E-001
 41
5.0E-001
 70
0
  0
VERTEX
  8
1
 42
0.0
 10
6.0147869E+001
 20
1.812428E+002
 70
0
  0
VERTEX
  8
1
 42
0.0
 10
6.2647869E+001
 20
1.812428E+002
 70
0
  0
SEQEND
  0
POLYLINE
  8
1
  6
CONTINUOUS
 62
3
 66
1
 40
5.0E-001
 41
5.0E-001
 70
0
  0
VERTEX
  8
1
 42
0.0
 10
6.2647869E+001
 20
1.832428E+002
 70
0
  0
VERTEX
  8
1
 42
0.0
 10
6.2647869E+001
 20
1.812428E+002
 70
0
  0
SEQEND
  0
POLYLINE
  8
1
  6
CONTINUOUS
 62
3
 66
1
 40
5.0E-001
 41
5.0E-001
 70
0
  0
VERTEX
  8
1
 42
0.0
 10
6.0147869E+001
 20
1.832428E+002
 70
0
  0
VERTEX
  8
1
 42
0.0
 10
6.2647869E+001
 20
1.832428E+002
 70
0
  0
SEQEND
  0
POLYLINE
  8
1
  6
CONTINUOUS
 62
3
 66
1
 40
5.0E-001
 41
5.0E-001
 70
0
  0
VERTEX
  8
1
 42
0.0
 10
6.2147869E+001
 20
1.842428E+002
 70
0
  0
VERTEX
  8
1
 42
0.0
 10
6.2147869E+001
 20
1.832428E+002
 70
0
  0
SEQEND
  0
POLYLINE
  8
1
  6
CONTINUOUS
 62
3
 66
1
 40
5.0E-001
 41
5.0E-001
 70
0
  0
VERTEX
  8
1
 42
0.0
 10
6.0647869E+001
 20
1.832428E+002
 70
0
  0
VERTEX
  8
1
 42
0.0
 10
6.0647869E+001
 20
1.842428E+002
 70
0
  0
SEQEND
  0
POLYLINE
  8
1
  6
CONTINUOUS
 62
3
 66
1
 40
5.0E-001
 41
5.0E-001
 70
0
  0
VERTEX
  8
1
 42
0.0
 10
6.0647869E+001
 20
1.837928E+002
 70
0
  0
VERTEX
  8
1
 42
0.0
 10
6.2147869E+001
 20
1.837928E+002
 70
0
  0
SEQEND
  0
POLYLINE
  8
1
  6
CONTINUOUS
 62
3
 66
1
 40
5.0E-001
 41
5.0E-001
 70
0
  0
VERTEX
  8
1
 42
0.0
 10
6.0647869E+001
 20
1.842428E+002
 70
0
  0
VERTEX
  8
1
 42
0.0
 10
6.2147869E+001
 20
1.842428E+002
 70
0
  0
SEQEND
  0
POLYLINE
  8
1
  6
CONTINUOUS
 62
3
 66
1
 40
5.0E-001
 41
5.0E-001
 70
0
  0
VERTEX
  8
1
 42
0.0
 10
6.9247869E+001
 20
1.951928E+002
 70
0
  0
VERTEX
  8
1
 42
0.0
 10
7.1747869E+001
 20
1.951928E+002
 70
0
  0
SEQEND
  0
POLYLINE
  8
1
  6
CONTINUOUS
 62
3
 66
1
 40
5.0E-001
 41
5.0E-001
 70
0
  0
VERTEX
  8
1
 42
0.0
 10
6.9247869E+001
 20
1.931928E+002
 70
0
  0
VERTEX
  8
1
 42
0.0
 10
6.9247869E+001
 20
1.951928E+002
 70
0
  0
SEQEND
  0
POLYLINE
  8
1
  6
CONTINUOUS
 62
3
 66
1
 40
5.0E-001
 41
5.0E-001
 70
0
  0
VERTEX
  8
1
 42
0.0
 10
7.1747869E+001
 20
1.931928E+002
 70
0
  0
VERTEX
  8
1
 42
0.0
 10
7.1747869E+001
 20
1.951928E+002
 70
0
  0
SEQEND
  0
POLYLINE
  8
1
  6
CONTINUOUS
 62
3
 66
1
 40
5.0E-001
 41
5.0E-001
 70
0
  0
VERTEX
  8
1
 42
0.0
 10
6.9247869E+001
 20
1.931928E+002
 70
0
  0
VERTEX
  8
1
 42
0.0
 10
7.1747869E+001
 20
1.931928E+002
 70
0
  0
SEQEND
  0
POLYLINE
  8
1
  6
CONTINUOUS
 62
3
 66
1
 40
5.0E-001
 41
5.0E-001
 70
0
  0
VERTEX
  8
1
 42
0.0
 10
7.1247869E+001
 20
1.921928E+002
 70
0
  0
VERTEX
  8
1
 42
0.0
 10
7.1247869E+001
 20
1.931928E+002
 70
0
  0
SEQEND
  0
POLYLINE
  8
1
  6
CONTINUOUS
 62
3
 66
1
 40
5.0E-001
 41
5.0E-001
 70
0
  0
VERTEX
  8
1
 42
0.0
 10
6.9747869E+001
 20
1.926428E+002
 70
0
  0
VERTEX
  8
1
 42
0.0
 10
7.1247869E+001
 20
1.926428E+002
 70
0
  0
SEQEND
  0
POLYLINE
  8
1
  6
CONTINUOUS
 62
3
 66
1
 40
5.0E-001
 41
5.0E-001
 70
0
  0
VERTEX
  8
1
 42
0.0
 10
6.9747869E+001
 20
1.921928E+002
 70
0
  0
VERTEX
  8
1
 42
0.0
 10
7.1247869E+001
 20
1.921928E+002
 70
0
  0
SEQEND
  0
POLYLINE
  8
1
  6
CONTINUOUS
 62
3
 66
1
 40
5.0E-001
 41
5.0E-001
 70
0
  0
VERTEX
  8
1
 42
0.0
 10
6.9747869E+001
 20
1.931928E+002
 70
0
  0
VERTEX
  8
1
 42
0.0
 10
6.9747869E+001
 20
1.921928E+002
 70
0
  0
SEQEND
  0
POLYLINE
  8
1
  6
CONTINUOUS
 62
3
 66
1
 40
5.0E-001
 41
5.0E-001
 70
0
  0
VERTEX
  8
1
 42
0.0
 10
6.9747869E+001
 20
1.842428E+002
 70
0
  0
VERTEX
  8
1
 42
0.0
 10
7.1247869E+001
 20
1.842428E+002
 70
0
  0
SEQEND
  0
POLYLINE
  8
1
  6
CONTINUOUS
 62
3
 66
1
 40
5.0E-001
 41
5.0E-001
 70
0
  0
VERTEX
  8
1
 42
0.0
 10
6.9747869E+001
 20
1.837928E+002
 70
0
  0
VERTEX
  8
1
 42
0.0
 10
7.1247869E+001
 20
1.837928E+002
 70
0
  0
SEQEND
  0
POLYLINE
  8
1
  6
CONTINUOUS
 62
3
 66
1
 40
5.0E-001
 41
5.0E-001
 70
0
  0
VERTEX
  8
1
 42
0.0
 10
6.9747869E+001
 20
1.832428E+002
 70
0
  0
VERTEX
  8
1
 42
0.0
 10
6.9747869E+001
 20
1.842428E+002
 70
0
  0
SEQEND
  0
POLYLINE
  8
1
  6
CONTINUOUS
 62
3
 66
1
 40
5.0E-001
 41
5.0E-001
 70
0
  0
VERTEX
  8
1
 42
0.0
 10
7.1247869E+001
 20
1.842428E+002
 70
0
  0
VERTEX
  8
1
 42
0.0
 10
7.1247869E+001
 20
1.832428E+002
 70
0
  0
SEQEND
  0
POLYLINE
  8
1
  6
CONTINUOUS
 62
3
 66
1
 40
5.0E-001
 41
5.0E-001
 70
0
  0
VERTEX
  8
1
 42
0.0
 10
6.9247869E+001
 20
1.832428E+002
 70
0
  0
VERTEX
  8
1
 42
0.0
 10
7.1747869E+001
 20
1.832428E+002
 70
0
  0
SEQEND
  0
POLYLINE
  8
1
  6
CONTINUOUS
 62
3
 66
1
 40
5.0E-001
 41
5.0E-001
 70
0
  0
VERTEX
  8
1
 42
0.0
 10
7.1747869E+001
 20
1.832428E+002
 70
0
  0
VERTEX
  8
1
 42
0.0
 10
7.1747869E+001
 20
1.812428E+002
 70
0
  0
SEQEND
  0
POLYLINE
  8
1
  6
CONTINUOUS
 62
3
 66
1
 40
5.0E-001
 41
5.0E-001
 70
0
  0
VERTEX
  8
1
 42
0.0
 10
6.9247869E+001
 20
1.812428E+002
 70
0
  0
VERTEX
  8
1
 42
0.0
 10
7.1747869E+001
 20
1.812428E+002
 70
0
  0
SEQEND
  0
POLYLINE
  8
1
  6
CONTINUOUS
 62
3
 66
1
 40
5.0E-001
 41
5.0E-001
 70
0
  0
VERTEX
  8
1
 42
0.0
 10
6.9247869E+001
 20
1.832428E+002
 70
0
  0
VERTEX
  8
1
 42
0.0
 10
6.9247869E+001
 20
1.812428E+002
 70
0
  0
SEQEND
  0
POLYLINE
  8
1
  6
CONTINUOUS
 62
3
 66
1
 40
5.0E-001
 41
5.0E-001
 70
0
  0
VERTEX
  8
1
 42
0.0
 10
7.8847879E+001
 20
1.931928E+002
 70
0
  0
VERTEX
  8
1
 42
0.0
 10
7.8847879E+001
 20
1.921928E+002
 70
0
  0
SEQEND
  0
POLYLINE
  8
1
  6
CONTINUOUS
 62
3
 66
1
 40
5.0E-001
 41
5.0E-001
 70
0
  0
VERTEX
  8
1
 42
0.0
 10
7.8847879E+001
 20
1.921928E+002
 70
0
  0
VERTEX
  8
1
 42
0.0
 10
8.0347879E+001
 20
1.921928E+002
 70
0
  0
SEQEND
  0
POLYLINE
  8
1
  6
CONTINUOUS
 62
3
 66
1
 40
5.0E-001
 41
5.0E-001
 70
0
  0
VERTEX
  8
1
 42
0.0
 10
7.8847879E+001
 20
1.926428E+002
 70
0
  0
VERTEX
  8
1
 42
0.0
 10
8.0347879E+001
 20
1.926428E+002
 70
0
  0
SEQEND
  0
POLYLINE
  8
1
  6
CONTINUOUS
 62
3
 66
1
 40
5.0E-001
 41
5.0E-001
 70
0
  0
VERTEX
  8
1
 42
0.0
 10
8.0347879E+001
 20
1.921928E+002
 70
0
  0
VERTEX
  8
1
 42
0.0
 10
8.0347879E+001
 20
1.931928E+002
 70
0
  0
SEQEND
  0
POLYLINE
  8
1
  6
CONTINUOUS
 62
3
 66
1
 40
5.0E-001
 41
5.0E-001
 70
0
  0
VERTEX
  8
1
 42
0.0
 10
7.8347879E+001
 20
1.931928E+002
 70
0
  0
VERTEX
  8
1
 42
0.0
 10
8.0847879E+001
 20
1.931928E+002
 70
0
  0
SEQEND
  0
POLYLINE
  8
1
  6
CONTINUOUS
 62
3
 66
1
 40
5.0E-001
 41
5.0E-001
 70
0
  0
VERTEX
  8
1
 42
0.0
 10
8.0847879E+001
 20
1.931928E+002
 70
0
  0
VERTEX
  8
1
 42
0.0
 10
8.0847879E+001
 20
1.951928E+002
 70
0
  0
SEQEND
  0
POLYLINE
  8
1
  6
CONTINUOUS
 62
3
 66
1
 40
5.0E-001
 41
5.0E-001
 70
0
  0
VERTEX
  8
1
 42
0.0
 10
7.8347879E+001
 20
1.931928E+002
 70
0
  0
VERTEX
  8
1
 42
0.0
 10
7.8347879E+001
 20
1.951928E+002
 70
0
  0
SEQEND
  0
POLYLINE
  8
1
  6
CONTINUOUS
 62
3
 66
1
 40
5.0E-001
 41
5.0E-001
 70
0
  0
VERTEX
  8
1
 42
0.0
 10
7.8347879E+001
 20
1.951928E+002
 70
0
  0
VERTEX
  8
1
 42
0.0
 10
8.0847879E+001
 20
1.951928E+002
 70
0
  0
SEQEND
  0
POLYLINE
  8
1
  6
CONTINUOUS
 62
3
 66
1
 40
5.0E-001
 41
5.0E-001
 70
0
  0
VERTEX
  8
1
 42
0.0
 10
7.8347879E+001
 20
1.832428E+002
 70
0
  0
VERTEX
  8
1
 42
0.0
 10
7.8347879E+001
 20
1.812428E+002
 70
0
  0
SEQEND
  0
POLYLINE
  8
1
  6
CONTINUOUS
 62
3
 66
1
 40
5.0E-001
 41
5.0E-001
 70
0
  0
VERTEX
  8
1
 42
0.0
 10
7.8347879E+001
 20
1.812428E+002
 70
0
  0
VERTEX
  8
1
 42
0.0
 10
8.0847879E+001
 20
1.812428E+002
 70
0
  0
SEQEND
  0
POLYLINE
  8
1
  6
CONTINUOUS
 62
3
 66
1
 40
5.0E-001
 41
5.0E-001
 70
0
  0
VERTEX
  8
1
 42
0.0
 10
8.0847879E+001
 20
1.832428E+002
 70
0
  0
VERTEX
  8
1
 42
0.0
 10
8.0847879E+001
 20
1.812428E+002
 70
0
  0
SEQEND
  0
POLYLINE
  8
1
  6
CONTINUOUS
 62
3
 66
1
 40
5.0E-001
 41
5.0E-001
 70
0
  0
VERTEX
  8
1
 42
0.0
 10
7.8347879E+001
 20
1.832428E+002
 70
0
  0
VERTEX
  8
1
 42
0.0
 10
8.0847879E+001
 20
1.832428E+002
 70
0
  0
SEQEND
  0
POLYLINE
  8
1
  6
CONTINUOUS
 62
3
 66
1
 40
5.0E-001
 41
5.0E-001
 70
0
  0
VERTEX
  8
1
 42
0.0
 10
8.0347879E+001
 20
1.842428E+002
 70
0
  0
VERTEX
  8
1
 42
0.0
 10
8.0347879E+001
 20
1.832428E+002
 70
0
  0
SEQEND
  0
POLYLINE
  8
1
  6
CONTINUOUS
 62
3
 66
1
 40
5.0E-001
 41
5.0E-001
 70
0
  0
VERTEX
  8
1
 42
0.0
 10
7.8847879E+001
 20
1.832428E+002
 70
0
  0
VERTEX
  8
1
 42
0.0
 10
7.8847879E+001
 20
1.842428E+002
 70
0
  0
SEQEND
  0
POLYLINE
  8
1
  6
CONTINUOUS
 62
3
 66
1
 40
5.0E-001
 41
5.0E-001
 70
0
  0
VERTEX
  8
1
 42
0.0
 10
7.8847879E+001
 20
1.837928E+002
 70
0
  0
VERTEX
  8
1
 42
0.0
 10
8.0347879E+001
 20
1.837928E+002
 70
0
  0
SEQEND
  0
POLYLINE
  8
1
  6
CONTINUOUS
 62
3
 66
1
 40
5.0E-001
 41
5.0E-001
 70
0
  0
VERTEX
  8
1
 42
0.0
 10
7.8847879E+001
 20
1.842428E+002
 70
0
  0
VERTEX
  8
1
 42
0.0
 10
8.0347879E+001
 20
1.842428E+002
 70
0
  0
SEQEND
  0
POLYLINE
  8
1
  6
CONTINUOUS
 62
3
 66
1
 40
5.0E-001
 41
5.0E-001
 70
0
  0
VERTEX
  8
1
 42
0.0
 10
6.9747869E+001
 20
1.931928E+002
 70
0
  0
VERTEX
  8
1
 42
0.0
 10
6.9747869E+001
 20
1.921928E+002
 70
0
  0
SEQEND
  0
POLYLINE
  8
1
  6
CONTINUOUS
 62
3
 66
1
 40
5.0E-001
 41
5.0E-001
 70
0
  0
VERTEX
  8
1
 42
0.0
 10
6.9747869E+001
 20
1.921928E+002
 70
0
  0
VERTEX
  8
1
 42
0.0
 10
7.1247869E+001
 20
1.921928E+002
 70
0
  0
SEQEND
  0
POLYLINE
  8
1
  6
CONTINUOUS
 62
3
 66
1
 40
5.0E-001
 41
5.0E-001
 70
0
  0
VERTEX
  8
1
 42
0.0
 10
6.9747869E+001
 20
1.926428E+002
 70
0
  0
VERTEX
  8
1
 42
0.0
 10
7.1247869E+001
 20
1.926428E+002
 70
0
  0
SEQEND
  0
POLYLINE
  8
1
  6
CONTINUOUS
 62
3
 66
1
 40
5.0E-001
 41
5.0E-001
 70
0
  0
VERTEX
  8
1
 42
0.0
 10
7.1247869E+001
 20
1.921928E+002
 70
0
  0
VERTEX
  8
1
 42
0.0
 10
7.1247869E+001
 20
1.931928E+002
 70
0
  0
SEQEND
  0
POLYLINE
  8
1
  6
CONTINUOUS
 62
3
 66
1
 40
5.0E-001
 41
5.0E-001
 70
0
  0
VERTEX
  8
1
 42
0.0
 10
6.9247869E+001
 20
1.931928E+002
 70
0
  0
VERTEX
  8
1
 42
0.0
 10
7.1747869E+001
 20
1.931928E+002
 70
0
  0
SEQEND
  0
POLYLINE
  8
1
  6
CONTINUOUS
 62
3
 66
1
 40
5.0E-001
 41
5.0E-001
 70
0
  0
VERTEX
  8
1
 42
0.0
 10
7.1747869E+001
 20
1.931928E+002
 70
0
  0
VERTEX
  8
1
 42
0.0
 10
7.1747869E+001
 20
1.951928E+002
 70
0
  0
SEQEND
  0
POLYLINE
  8
1
  6
CONTINUOUS
 62
3
 66
1
 40
5.0E-001
 41
5.0E-001
 70
0
  0
VERTEX
  8
1
 42
0.0
 10
6.9247869E+001
 20
1.931928E+002
 70
0
  0
VERTEX
  8
1
 42
0.0
 10
6.9247869E+001
 20
1.951928E+002
 70
0
  0
SEQEND
  0
POLYLINE
  8
1
  6
CONTINUOUS
 62
3
 66
1
 40
5.0E-001
 41
5.0E-001
 70
0
  0
VERTEX
  8
1
 42
0.0
 10
6.9247869E+001
 20
1.951928E+002
 70
0
  0
VERTEX
  8
1
 42
0.0
 10
7.1747869E+001
 20
1.951928E+002
 70
0
  0
SEQEND
  0
POLYLINE
  8
1
  6
CONTINUOUS
 62
3
 66
1
 40
5.0E-001
 41
5.0E-001
 70
0
  0
VERTEX
  8
1
 42
0.0
 10
6.9247869E+001
 20
1.832428E+002
 70
0
  0
VERTEX
  8
1
 42
0.0
 10
6.9247869E+001
 20
1.812428E+002
 70
0
  0
SEQEND
  0
POLYLINE
  8
1
  6
CONTINUOUS
 62
3
 66
1
 40
5.0E-001
 41
5.0E-001
 70
0
  0
VERTEX
  8
1
 42
0.0
 10
6.9247869E+001
 20
1.812428E+002
 70
0
  0
VERTEX
  8
1
 42
0.0
 10
7.1747869E+001
 20
1.812428E+002
 70
0
  0
SEQEND
  0
POLYLINE
  8
1
  6
CONTINUOUS
 62
3
 66
1
 40
5.0E-001
 41
5.0E-001
 70
0
  0
VERTEX
  8
1
 42
0.0
 10
7.1747869E+001
 20
1.832428E+002
 70
0
  0
VERTEX
  8
1
 42
0.0
 10
7.1747869E+001
 20
1.812428E+002
 70
0
  0
SEQEND
  0
POLYLINE
  8
1
  6
CONTINUOUS
 62
3
 66
1
 40
5.0E-001
 41
5.0E-001
 70
0
  0
VERTEX
  8
1
 42
0.0
 10
6.9247869E+001
 20
1.832428E+002
 70
0
  0
VERTEX
  8
1
 42
0.0
 10
7.1747869E+001
 20
1.832428E+002
 70
0
  0
SEQEND
  0
POLYLINE
  8
1
  6
CONTINUOUS
 62
3
 66
1
 40
5.0E-001
 41
5.0E-001
 70
0
  0
VERTEX
  8
1
 42
0.0
 10
7.1247869E+001
 20
1.842428E+002
 70
0
  0
VERTEX
  8
1
 42
0.0
 10
7.1247869E+001
 20
1.832428E+002
 70
0
  0
SEQEND
  0
POLYLINE
  8
1
  6
CONTINUOUS
 62
3
 66
1
 40
5.0E-001
 41
5.0E-001
 70
0
  0
VERTEX
  8
1
 42
0.0
 10
6.9747869E+001
 20
1.832428E+002
 70
0
  0
VERTEX
  8
1
 42
0.0
 10
6.9747869E+001
 20
1.842428E+002
 70
0
  0
SEQEND
  0
POLYLINE
  8
1
  6
CONTINUOUS
 62
3
 66
1
 40
5.0E-001
 41
5.0E-001
 70
0
  0
VERTEX
  8
1
 42
0.0
 10
6.9747869E+001
 20
1.837928E+002
 70
0
  0
VERTEX
  8
1
 42
0.0
 10
7.1247869E+001
 20
1.837928E+002
 70
0
  0
SEQEND
  0
POLYLINE
  8
1
  6
CONTINUOUS
 62
3
 66
1
 40
5.0E-001
 41
5.0E-001
 70
0
  0
VERTEX
  8
1
 42
0.0
 10
6.9747869E+001
 20
1.842428E+002
 70
0
  0
VERTEX
  8
1
 42
0.0
 10
7.1247869E+001
 20
1.842428E+002
 70
0
  0
SEQEND
  0
POLYLINE
  8
1
  6
CONTINUOUS
 62
3
 66
1
 40
5.0E-001
 41
5.0E-001
 70
0
  0
VERTEX
  8
1
 42
0.0
 10
5.1547859E+001
 20
1.931928E+002
 70
0
  0
VERTEX
  8
1
 42
0.0
 10
5.1547859E+001
 20
1.921928E+002
 70
0
  0
SEQEND
  0
POLYLINE
  8
1
  6
CONTINUOUS
 62
3
 66
1
 40
5.0E-001
 41
5.0E-001
 70
0
  0
VERTEX
  8
1
 42
0.0
 10
5.1547859E+001
 20
1.921928E+002
 70
0
  0
VERTEX
  8
1
 42
0.0
 10
5.3047859E+001
 20
1.921928E+002
 70
0
  0
SEQEND
  0
POLYLINE
  8
1
  6
CONTINUOUS
 62
3
 66
1
 40
5.0E-001
 41
5.0E-001
 70
0
  0
VERTEX
  8
1
 42
0.0
 10
5.1547859E+001
 20
1.926428E+002
 70
0
  0
VERTEX
  8
1
 42
0.0
 10
5.3047859E+001
 20
1.926428E+002
 70
0
  0
SEQEND
  0
POLYLINE
  8
1
  6
CONTINUOUS
 62
3
 66
1
 40
5.0E-001
 41
5.0E-001
 70
0
  0
VERTEX
  8
1
 42
0.0
 10
5.3047859E+001
 20
1.921928E+002
 70
0
  0
VERTEX
  8
1
 42
0.0
 10
5.3047859E+001
 20
1.931928E+002
 70
0
  0
SEQEND
  0
POLYLINE
  8
1
  6
CONTINUOUS
 62
3
 66
1
 40
5.0E-001
 41
5.0E-001
 70
0
  0
VERTEX
  8
1
 42
0.0
 10
5.1047859E+001
 20
1.931928E+002
 70
0
  0
VERTEX
  8
1
 42
0.0
 10
5.3547859E+001
 20
1.931928E+002
 70
0
  0
SEQEND
  0
POLYLINE
  8
1
  6
CONTINUOUS
 62
3
 66
1
 40
5.0E-001
 41
5.0E-001
 70
0
  0
VERTEX
  8
1
 42
0.0
 10
5.3547859E+001
 20
1.931928E+002
 70
0
  0
VERTEX
  8
1
 42
0.0
 10
5.3547859E+001
 20
1.951928E+002
 70
0
  0
SEQEND
  0
POLYLINE
  8
1
  6
CONTINUOUS
 62
3
 66
1
 40
5.0E-001
 41
5.0E-001
 70
0
  0
VERTEX
  8
1
 42
0.0
 10
5.1047859E+001
 20
1.931928E+002
 70
0
  0
VERTEX
  8
1
 42
0.0
 10
5.1047859E+001
 20
1.951928E+002
 70
0
  0
SEQEND
  0
POLYLINE
  8
1
  6
CONTINUOUS
 62
3
 66
1
 40
5.0E-001
 41
5.0E-001
 70
0
  0
VERTEX
  8
1
 42
0.0
 10
5.1047859E+001
 20
1.951928E+002
 70
0
  0
VERTEX
  8
1
 42
0.0
 10
5.3547859E+001
 20
1.951928E+002
 70
0
  0
SEQEND
  0
POLYLINE
  8
1
  6
CONTINUOUS
 62
3
 66
1
 40
5.0E-001
 41
5.0E-001
 70
0
  0
VERTEX
  8
1
 42
0.0
 10
5.1047859E+001
 20
1.951928E+002
 70
0
  0
VERTEX
  8
1
 42
0.0
 10
5.3547859E+001
 20
1.951928E+002
 70
0
  0
SEQEND
  0
POLYLINE
  8
1
  6
CONTINUOUS
 62
3
 66
1
 40
5.0E-001
 41
5.0E-001
 70
0
  0
VERTEX
  8
1
 42
0.0
 10
5.1047859E+001
 20
1.931928E+002
 70
0
  0
VERTEX
  8
1
 42
0.0
 10
5.1047859E+001
 20
1.951928E+002
 70
0
  0
SEQEND
  0
POLYLINE
  8
1
  6
CONTINUOUS
 62
3
 66
1
 40
5.0E-001
 41
5.0E-001
 70
0
  0
VERTEX
  8
1
 42
0.0
 10
5.3547859E+001
 20
1.931928E+002
 70
0
  0
VERTEX
  8
1
 42
0.0
 10
5.3547859E+001
 20
1.951928E+002
 70
0
  0
SEQEND
  0
POLYLINE
  8
1
  6
CONTINUOUS
 62
3
 66
1
 40
5.0E-001
 41
5.0E-001
 70
0
  0
VERTEX
  8
1
 42
0.0
 10
5.1047859E+001
 20
1.931928E+002
 70
0
  0
VERTEX
  8
1
 42
0.0
 10
5.3547859E+001
 20
1.931928E+002
 70
0
  0
SEQEND
  0
POLYLINE
  8
1
  6
CONTINUOUS
 62
3
 66
1
 40
5.0E-001
 41
5.0E-001
 70
0
  0
VERTEX
  8
1
 42
0.0
 10
5.3047859E+001
 20
1.921928E+002
 70
0
  0
VERTEX
  8
1
 42
0.0
 10
5.3047859E+001
 20
1.931928E+002
 70
0
  0
SEQEND
  0
POLYLINE
  8
1
  6
CONTINUOUS
 62
3
 66
1
 40
5.0E-001
 41
5.0E-001
 70
0
  0
VERTEX
  8
1
 42
0.0
 10
5.1547859E+001
 20
1.926428E+002
 70
0
  0
VERTEX
  8
1
 42
0.0
 10
5.3047859E+001
 20
1.926428E+002
 70
0
  0
SEQEND
  0
POLYLINE
  8
1
  6
CONTINUOUS
 62
3
 66
1
 40
5.0E-001
 41
5.0E-001
 70
0
  0
VERTEX
  8
1
 42
0.0
 10
5.1547859E+001
 20
1.921928E+002
 70
0
  0
VERTEX
  8
1
 42
0.0
 10
5.3047859E+001
 20
1.921928E+002
 70
0
  0
SEQEND
  0
POLYLINE
  8
1
  6
CONTINUOUS
 62
3
 66
1
 40
5.0E-001
 41
5.0E-001
 70
0
  0
VERTEX
  8
1
 42
0.0
 10
5.1547859E+001
 20
1.931928E+002
 70
0
  0
VERTEX
  8
1
 42
0.0
 10
5.1547859E+001
 20
1.921928E+002
 70
0
  0
SEQEND
  0
POLYLINE
  8
1
  6
CONTINUOUS
 62
3
 66
1
 40
5.0E-001
 41
5.0E-001
 70
0
  0
VERTEX
  8
1
 42
0.0
 10
5.1047859E+001
 20
1.832428E+002
 70
0
  0
VERTEX
  8
1
 42
0.0
 10
5.1047859E+001
 20
1.812428E+002
 70
0
  0
SEQEND
  0
POLYLINE
  8
1
  6
CONTINUOUS
 62
3
 66
1
 40
5.0E-001
 41
5.0E-001
 70
0
  0
VERTEX
  8
1
 42
0.0
 10
5.1047859E+001
 20
1.812428E+002
 70
0
  0
VERTEX
  8
1
 42
0.0
 10
5.3547859E+001
 20
1.812428E+002
 70
0
  0
SEQEND
  0
POLYLINE
  8
1
  6
CONTINUOUS
 62
3
 66
1
 40
5.0E-001
 41
5.0E-001
 70
0
  0
VERTEX
  8
1
 42
0.0
 10
5.3547859E+001
 20
1.832428E+002
 70
0
  0
VERTEX
  8
1
 42
0.0
 10
5.3547859E+001
 20
1.812428E+002
 70
0
  0
SEQEND
  0
POLYLINE
  8
1
  6
CONTINUOUS
 62
3
 66
1
 40
5.0E-001
 41
5.0E-001
 70
0
  0
VERTEX
  8
1
 42
0.0
 10
5.1047859E+001
 20
1.832428E+002
 70
0
  0
VERTEX
  8
1
 42
0.0
 10
5.3547859E+001
 20
1.832428E+002
 70
0
  0
SEQEND
  0
POLYLINE
  8
1
  6
CONTINUOUS
 62
3
 66
1
 40
5.0E-001
 41
5.0E-001
 70
0
  0
VERTEX
  8
1
 42
0.0
 10
5.3047859E+001
 20
1.842428E+002
 70
0
  0
VERTEX
  8
1
 42
0.0
 10
5.3047859E+001
 20
1.832428E+002
 70
0
  0
SEQEND
  0
POLYLINE
  8
1
  6
CONTINUOUS
 62
3
 66
1
 40
5.0E-001
 41
5.0E-001
 70
0
  0
VERTEX
  8
1
 42
0.0
 10
5.1547859E+001
 20
1.832428E+002
 70
0
  0
VERTEX
  8
1
 42
0.0
 10
5.1547859E+001
 20
1.842428E+002
 70
0
  0
SEQEND
  0
POLYLINE
  8
1
  6
CONTINUOUS
 62
3
 66
1
 40
5.0E-001
 41
5.0E-001
 70
0
  0
VERTEX
  8
1
 42
0.0
 10
5.1547859E+001
 20
1.837928E+002
 70
0
  0
VERTEX
  8
1
 42
0.0
 10
5.3047859E+001
 20
1.837928E+002
 70
0
  0
SEQEND
  0
POLYLINE
  8
1
  6
CONTINUOUS
 62
3
 66
1
 40
5.0E-001
 41
5.0E-001
 70
0
  0
VERTEX
  8
1
 42
0.0
 10
5.1547859E+001
 20
1.842428E+002
 70
0
  0
VERTEX
  8
1
 42
0.0
 10
5.3047859E+001
 20
1.842428E+002
 70
0
  0
SEQEND
  0
POLYLINE
  8
1
  6
CONTINUOUS
 62
3
 66
1
 40
5.0E-001
 41
5.0E-001
 70
0
  0
VERTEX
  8
1
 42
0.0
 10
5.1547859E+001
 20
1.842428E+002
 70
0
  0
VERTEX
  8
1
 42
0.0
 10
5.3047859E+001
 20
1.842428E+002
 70
0
  0
SEQEND
  0
POLYLINE
  8
1
  6
CONTINUOUS
 62
3
 66
1
 40
5.0E-001
 41
5.0E-001
 70
0
  0
VERTEX
  8
1
 42
0.0
 10
5.1547859E+001
 20
1.837928E+002
 70
0
  0
VERTEX
  8
1
 42
0.0
 10
5.3047859E+001
 20
1.837928E+002
 70
0
  0
SEQEND
  0
POLYLINE
  8
1
  6
CONTINUOUS
 62
3
 66
1
 40
5.0E-001
 41
5.0E-001
 70
0
  0
VERTEX
  8
1
 42
0.0
 10
5.1547859E+001
 20
1.832428E+002
 70
0
  0
VERTEX
  8
1
 42
0.0
 10
5.1547859E+001
 20
1.842428E+002
 70
0
  0
SEQEND
  0
POLYLINE
  8
1
  6
CONTINUOUS
 62
3
 66
1
 40
5.0E-001
 41
5.0E-001
 70
0
  0
VERTEX
  8
1
 42
0.0
 10
5.3047859E+001
 20
1.842428E+002
 70
0
  0
VERTEX
  8
1
 42
0.0
 10
5.3047859E+001
 20
1.832428E+002
 70
0
  0
SEQEND
  0
POLYLINE
  8
1
  6
CONTINUOUS
 62
3
 66
1
 40
5.0E-001
 41
5.0E-001
 70
0
  0
VERTEX
  8
1
 42
0.0
 10
5.1047859E+001
 20
1.832428E+002
 70
0
  0
VERTEX
  8
1
 42
0.0
 10
5.3547859E+001
 20
1.832428E+002
 70
0
  0
SEQEND
  0
POLYLINE
  8
1
  6
CONTINUOUS
 62
3
 66
1
 40
5.0E-001
 41
5.0E-001
 70
0
  0
VERTEX
  8
1
 42
0.0
 10
5.3547859E+001
 20
1.832428E+002
 70
0
  0
VERTEX
  8
1
 42
0.0
 10
5.3547859E+001
 20
1.812428E+002
 70
0
  0
SEQEND
  0
POLYLINE
  8
1
  6
CONTINUOUS
 62
3
 66
1
 40
5.0E-001
 41
5.0E-001
 70
0
  0
VERTEX
  8
1
 42
0.0
 10
5.1047859E+001
 20
1.812428E+002
 70
0
  0
VERTEX
  8
1
 42
0.0
 10
5.3547859E+001
 20
1.812428E+002
 70
0
  0
SEQEND
  0
POLYLINE
  8
1
  6
CONTINUOUS
 62
3
 66
1
 40
5.0E-001
 41
5.0E-001
 70
0
  0
VERTEX
  8
1
 42
0.0
 10
5.1047859E+001
 20
1.832428E+002
 70
0
  0
VERTEX
  8
1
 42
0.0
 10
5.1047859E+001
 20
1.812428E+002
 70
0
  0
SEQEND
  0
POLYLINE
  8
1
  6
CONTINUOUS
 62
3
 66
1
 40
5.0E-001
 41
5.0E-001
 70
0
  0
VERTEX
  8
1
 42
0.0
 10
4.2447849E+001
 20
1.931928E+002
 70
0
  0
VERTEX
  8
1
 42
0.0
 10
4.2447849E+001
 20
1.921928E+002
 70
0
  0
SEQEND
  0
POLYLINE
  8
1
  6
CONTINUOUS
 62
3
 66
1
 40
5.0E-001
 41
5.0E-001
 70
0
  0
VERTEX
  8
1
 42
0.0
 10
4.2447849E+001
 20
1.921928E+002
 70
0
  0
VERTEX
  8
1
 42
0.0
 10
4.3947849E+001
 20
1.921928E+002
 70
0
  0
SEQEND
  0
POLYLINE
  8
1
  6
CONTINUOUS
 62
3
 66
1
 40
5.0E-001
 41
5.0E-001
 70
0
  0
VERTEX
  8
1
 42
0.0
 10
4.2447849E+001
 20
1.926428E+002
 70
0
  0
VERTEX
  8
1
 42
0.0
 10
4.3947849E+001
 20
1.926428E+002
 70
0
  0
SEQEND
  0
POLYLINE
  8
1
  6
CONTINUOUS
 62
3
 66
1
 40
5.0E-001
 41
5.0E-001
 70
0
  0
VERTEX
  8
1
 42
0.0
 10
4.3947849E+001
 20
1.921928E+002
 70
0
  0
VERTEX
  8
1
 42
0.0
 10
4.3947849E+001
 20
1.931928E+002
 70
0
  0
SEQEND
  0
POLYLINE
  8
1
  6
CONTINUOUS
 62
3
 66
1
 40
5.0E-001
 41
5.0E-001
 70
0
  0
VERTEX
  8
1
 42
0.0
 10
4.1947849E+001
 20
1.931928E+002
 70
0
  0
VERTEX
  8
1
 42
0.0
 10
4.4447849E+001
 20
1.931928E+002
 70
0
  0
SEQEND
  0
POLYLINE
  8
1
  6
CONTINUOUS
 62
3
 66
1
 40
5.0E-001
 41
5.0E-001
 70
0
  0
VERTEX
  8
1
 42
0.0
 10
4.4447849E+001
 20
1.931928E+002
 70
0
  0
VERTEX
  8
1
 42
0.0
 10
4.4447849E+001
 20
1.951928E+002
 70
0
  0
SEQEND
  0
POLYLINE
  8
1
  6
CONTINUOUS
 62
3
 66
1
 40
5.0E-001
 41
5.0E-001
 70
0
  0
VERTEX
  8
1
 42
0.0
 10
4.1947849E+001
 20
1.931928E+002
 70
0
  0
VERTEX
  8
1
 42
0.0
 10
4.1947849E+001
 20
1.951928E+002
 70
0
  0
SEQEND
  0
POLYLINE
  8
1
  6
CONTINUOUS
 62
3
 66
1
 40
5.0E-001
 41
5.0E-001
 70
0
  0
VERTEX
  8
1
 42
0.0
 10
4.1947849E+001
 20
1.951928E+002
 70
0
  0
VERTEX
  8
1
 42
0.0
 10
4.4447849E+001
 20
1.951928E+002
 70
0
  0
SEQEND
  0
POLYLINE
  8
1
  6
CONTINUOUS
 62
3
 66
1
 40
5.0E-001
 41
5.0E-001
 70
0
  0
VERTEX
  8
1
 42
0.0
 10
4.1947849E+001
 20
1.951928E+002
 70
0
  0
VERTEX
  8
1
 42
0.0
 10
4.4447849E+001
 20
1.951928E+002
 70
0
  0
SEQEND
  0
POLYLINE
  8
1
  6
CONTINUOUS
 62
3
 66
1
 40
5.0E-001
 41
5.0E-001
 70
0
  0
VERTEX
  8
1
 42
0.0
 10
4.1947849E+001
 20
1.931928E+002
 70
0
  0
VERTEX
  8
1
 42
0.0
 10
4.1947849E+001
 20
1.951928E+002
 70
0
  0
SEQEND
  0
POLYLINE
  8
1
  6
CONTINUOUS
 62
3
 66
1
 40
5.0E-001
 41
5.0E-001
 70
0
  0
VERTEX
  8
1
 42
0.0
 10
4.4447849E+001
 20
1.931928E+002
 70
0
  0
VERTEX
  8
1
 42
0.0
 10
4.4447849E+001
 20
1.951928E+002
 70
0
  0
SEQEND
  0
POLYLINE
  8
1
  6
CONTINUOUS
 62
3
 66
1
 40
5.0E-001
 41
5.0E-001
 70
0
  0
VERTEX
  8
1
 42
0.0
 10
4.1947849E+001
 20
1.931928E+002
 70
0
  0
VERTEX
  8
1
 42
0.0
 10
4.4447849E+001
 20
1.931928E+002
 70
0
  0
SEQEND
  0
POLYLINE
  8
1
  6
CONTINUOUS
 62
3
 66
1
 40
5.0E-001
 41
5.0E-001
 70
0
  0
VERTEX
  8
1
 42
0.0
 10
4.3947849E+001
 20
1.921928E+002
 70
0
  0
VERTEX
  8
1
 42
0.0
 10
4.3947849E+001
 20
1.931928E+002
 70
0
  0
SEQEND
  0
POLYLINE
  8
1
  6
CONTINUOUS
 62
3
 66
1
 40
5.0E-001
 41
5.0E-001
 70
0
  0
VERTEX
  8
1
 42
0.0
 10
4.2447849E+001
 20
1.926428E+002
 70
0
  0
VERTEX
  8
1
 42
0.0
 10
4.3947849E+001
 20
1.926428E+002
 70
0
  0
SEQEND
  0
POLYLINE
  8
1
  6
CONTINUOUS
 62
3
 66
1
 40
5.0E-001
 41
5.0E-001
 70
0
  0
VERTEX
  8
1
 42
0.0
 10
4.2447849E+001
 20
1.921928E+002
 70
0
  0
VERTEX
  8
1
 42
0.0
 10
4.3947849E+001
 20
1.921928E+002
 70
0
  0
SEQEND
  0
POLYLINE
  8
1
  6
CONTINUOUS
 62
3
 66
1
 40
5.0E-001
 41
5.0E-001
 70
0
  0
VERTEX
  8
1
 42
0.0
 10
4.2447849E+001
 20
1.931928E+002
 70
0
  0
VERTEX
  8
1
 42
0.0
 10
4.2447849E+001
 20
1.921928E+002
 70
0
  0
SEQEND
  0
POLYLINE
  8
1
  6
CONTINUOUS
 62
3
 66
1
 40
5.0E-001
 41
5.0E-001
 70
0
  0
VERTEX
  8
1
 42
0.0
 10
4.1947849E+001
 20
1.832428E+002
 70
0
  0
VERTEX
  8
1
 42
0.0
 10
4.1947849E+001
 20
1.812428E+002
 70
0
  0
SEQEND
  0
POLYLINE
  8
1
  6
CONTINUOUS
 62
3
 66
1
 40
5.0E-001
 41
5.0E-001
 70
0
  0
VERTEX
  8
1
 42
0.0
 10
4.1947849E+001
 20
1.812428E+002
 70
0
  0
VERTEX
  8
1
 42
0.0
 10
4.4447849E+001
 20
1.812428E+002
 70
0
  0
SEQEND
  0
POLYLINE
  8
1
  6
CONTINUOUS
 62
3
 66
1
 40
5.0E-001
 41
5.0E-001
 70
0
  0
VERTEX
  8
1
 42
0.0
 10
4.4447849E+001
 20
1.832428E+002
 70
0
  0
VERTEX
  8
1
 42
0.0
 10
4.4447849E+001
 20
1.812428E+002
 70
0
  0
SEQEND
  0
POLYLINE
  8
1
  6
CONTINUOUS
 62
3
 66
1
 40
5.0E-001
 41
5.0E-001
 70
0
  0
VERTEX
  8
1
 42
0.0
 10
4.1947849E+001
 20
1.832428E+002
 70
0
  0
VERTEX
  8
1
 42
0.0
 10
4.4447849E+001
 20
1.832428E+002
 70
0
  0
SEQEND
  0
POLYLINE
  8
1
  6
CONTINUOUS
 62
3
 66
1
 40
5.0E-001
 41
5.0E-001
 70
0
  0
VERTEX
  8
1
 42
0.0
 10
4.3947849E+001
 20
1.842428E+002
 70
0
  0
VERTEX
  8
1
 42
0.0
 10
4.3947849E+001
 20
1.832428E+002
 70
0
  0
SEQEND
  0
POLYLINE
  8
1
  6
CONTINUOUS
 62
3
 66
1
 40
5.0E-001
 41
5.0E-001
 70
0
  0
VERTEX
  8
1
 42
0.0
 10
4.2447849E+001
 20
1.832428E+002
 70
0
  0
VERTEX
  8
1
 42
0.0
 10
4.2447849E+001
 20
1.842428E+002
 70
0
  0
SEQEND
  0
POLYLINE
  8
1
  6
CONTINUOUS
 62
3
 66
1
 40
5.0E-001
 41
5.0E-001
 70
0
  0
VERTEX
  8
1
 42
0.0
 10
4.2447849E+001
 20
1.837928E+002
 70
0
  0
VERTEX
  8
1
 42
0.0
 10
4.3947849E+001
 20
1.837928E+002
 70
0
  0
SEQEND
  0
POLYLINE
  8
1
  6
CONTINUOUS
 62
3
 66
1
 40
5.0E-001
 41
5.0E-001
 70
0
  0
VERTEX
  8
1
 42
0.0
 10
4.2447849E+001
 20
1.842428E+002
 70
0
  0
VERTEX
  8
1
 42
0.0
 10
4.3947849E+001
 20
1.842428E+002
 70
0
  0
SEQEND
  0
POLYLINE
  8
1
  6
CONTINUOUS
 62
3
 66
1
 40
5.0E-001
 41
5.0E-001
 70
0
  0
VERTEX
  8
1
 42
0.0
 10
4.2447849E+001
 20
1.842428E+002
 70
0
  0
VERTEX
  8
1
 42
0.0
 10
4.3947849E+001
 20
1.842428E+002
 70
0
  0
SEQEND
  0
POLYLINE
  8
1
  6
CONTINUOUS
 62
3
 66
1
 40
5.0E-001
 41
5.0E-001
 70
0
  0
VERTEX
  8
1
 42
0.0
 10
4.2447849E+001
 20
1.837928E+002
 70
0
  0
VERTEX
  8
1
 42
0.0
 10
4.3947849E+001
 20
1.837928E+002
 70
0
  0
SEQEND
  0
POLYLINE
  8
1
  6
CONTINUOUS
 62
3
 66
1
 40
5.0E-001
 41
5.0E-001
 70
0
  0
VERTEX
  8
1
 42
0.0
 10
4.2447849E+001
 20
1.832428E+002
 70
0
  0
VERTEX
  8
1
 42
0.0
 10
4.2447849E+001
 20
1.842428E+002
 70
0
  0
SEQEND
  0
POLYLINE
  8
1
  6
CONTINUOUS
 62
3
 66
1
 40
5.0E-001
 41
5.0E-001
 70
0
  0
VERTEX
  8
1
 42
0.0
 10
4.3947849E+001
 20
1.842428E+002
 70
0
  0
VERTEX
  8
1
 42
0.0
 10
4.3947849E+001
 20
1.832428E+002
 70
0
  0
SEQEND
  0
POLYLINE
  8
1
  6
CONTINUOUS
 62
3
 66
1
 40
5.0E-001
 41
5.0E-001
 70
0
  0
VERTEX
  8
1
 42
0.0
 10
4.1947849E+001
 20
1.832428E+002
 70
0
  0
VERTEX
  8
1
 42
0.0
 10
4.4447849E+001
 20
1.832428E+002
 70
0
  0
SEQEND
  0
POLYLINE
  8
1
  6
CONTINUOUS
 62
3
 66
1
 40
5.0E-001
 41
5.0E-001
 70
0
  0
VERTEX
  8
1
 42
0.0
 10
4.4447849E+001
 20
1.832428E+002
 70
0
  0
VERTEX
  8
1
 42
0.0
 10
4.4447849E+001
 20
1.812428E+002
 70
0
  0
SEQEND
  0
POLYLINE
  8
1
  6
CONTINUOUS
 62
3
 66
1
 40
5.0E-001
 41
5.0E-001
 70
0
  0
VERTEX
  8
1
 42
0.0
 10
4.1947849E+001
 20
1.812428E+002
 70
0
  0
VERTEX
  8
1
 42
0.0
 10
4.4447849E+001
 20
1.812428E+002
 70
0
  0
SEQEND
  0
POLYLINE
  8
1
  6
CONTINUOUS
 62
3
 66
1
 40
5.0E-001
 41
5.0E-001
 70
0
  0
VERTEX
  8
1
 42
0.0
 10
4.1947849E+001
 20
1.832428E+002
 70
0
  0
VERTEX
  8
1
 42
0.0
 10
4.1947849E+001
 20
1.812428E+002
 70
0
  0
SEQEND
  0
POLYLINE
  8
1
  6
CONTINUOUS
 62
3
 66
1
 40
5.0E-001
 41
5.0E-001
 70
0
  0
VERTEX
  8
1
 42
0.0
 10
3.8647859E+001
 20
1.631927E+002
 70
0
  0
VERTEX
  8
1
 42
0.0
 10
3.8647859E+001
 20
1.597928E+002
 70
0
  0
SEQEND
  0
POLYLINE
  8
1
  6
CONTINUOUS
 62
3
 66
1
 40
5.0E-001
 41
5.0E-001
 70
0
  0
VERTEX
  8
1
 42
0.0
 10
3.7647859E+001
 20
1.597928E+002
 70
0
  0
VERTEX
  8
1
 42
0.0
 10
3.8647859E+001
 20
1.597928E+002
 70
0
  0
SEQEND
  0
POLYLINE
  8
1
  6
CONTINUOUS
 62
3
 66
1
 40
5.0E-001
 41
5.0E-001
 70
0
  0
VERTEX
  8
1
 42
0.0
 10
3.7647859E+001
 20
1.631927E+002
 70
0
  0
VERTEX
  8
1
 42
0.0
 10
3.8647859E+001
 20
1.631927E+002
 70
0
  0
SEQEND
  0
POLYLINE
  8
1
  6
CONTINUOUS
 62
3
 66
1
 40
5.0E-001
 41
5.0E-001
 70
0
  0
VERTEX
  8
1
 42
0.0
 10
4.0647859E+001
 20
1.597928E+002
 70
0
  0
VERTEX
  8
1
 42
0.0
 10
4.5447859E+001
 20
1.597928E+002
 70
0
  0
SEQEND
  0
POLYLINE
  8
1
  6
CONTINUOUS
 62
3
 66
1
 40
5.0E-001
 41
5.0E-001
 70
0
  0
VERTEX
  8
1
 42
0.0
 10
4.0647859E+001
 20
1.631927E+002
 70
0
  0
VERTEX
  8
1
 42
0.0
 10
4.5447859E+001
 20
1.631927E+002
 70
0
  0
SEQEND
  0
POLYLINE
  8
1
  6
CONTINUOUS
 62
3
 66
1
 40
5.0E-001
 41
5.0E-001
 70
0
  0
VERTEX
  8
1
 42
0.0
 10
5.0047859E+001
 20
1.597928E+002
 70
0
  0
VERTEX
  8
1
 42
0.0
 10
5.0047859E+001
 20
1.631927E+002
 70
0
  0
SEQEND
  0
POLYLINE
  8
1
  6
CONTINUOUS
 62
3
 66
1
 40
5.0E-001
 41
5.0E-001
 70
0
  0
VERTEX
  8
1
 42
0.0
 10
5.0047859E+001
 20
1.597928E+002
 70
0
  0
VERTEX
  8
1
 42
0.0
 10
5.4547859E+001
 20
1.597928E+002
 70
0
  0
SEQEND
  0
POLYLINE
  8
1
  6
CONTINUOUS
 62
3
 66
1
 40
5.0E-001
 41
5.0E-001
 70
0
  0
VERTEX
  8
1
 42
0.0
 10
5.0047859E+001
 20
1.631927E+002
 70
0
  0
VERTEX
  8
1
 42
0.0
 10
5.4547859E+001
 20
1.631927E+002
 70
0
  0
SEQEND
  0
POLYLINE
  8
1
  6
CONTINUOUS
 62
3
 66
1
 40
5.0E-001
 41
5.0E-001
 70
0
  0
VERTEX
  8
1
 42
0.0
 10
5.9147869E+001
 20
1.631927E+002
 70
0
  0
VERTEX
  8
1
 42
0.0
 10
5.9147869E+001
 20
1.597928E+002
 70
0
  0
SEQEND
  0
POLYLINE
  8
1
  6
CONTINUOUS
 62
3
 66
1
 40
5.0E-001
 41
5.0E-001
 70
0
  0
VERTEX
  8
1
 42
0.0
 10
5.9147869E+001
 20
1.597928E+002
 70
0
  0
VERTEX
  8
1
 42
0.0
 10
6.4147869E+001
 20
1.597928E+002
 70
0
  0
SEQEND
  0
POLYLINE
  8
1
  6
CONTINUOUS
 62
3
 66
1
 40
5.0E-001
 41
5.0E-001
 70
0
  0
VERTEX
  8
1
 42
0.0
 10
5.9147869E+001
 20
1.631927E+002
 70
0
  0
VERTEX
  8
1
 42
0.0
 10
6.4147869E+001
 20
1.631927E+002
 70
0
  0
SEQEND
  0
POLYLINE
  8
1
  6
CONTINUOUS
 62
3
 66
1
 40
5.0E-001
 41
5.0E-001
 70
0
  0
VERTEX
  8
1
 42
0.0
 10
6.8247869E+001
 20
1.631927E+002
 70
0
  0
VERTEX
  8
1
 42
0.0
 10
6.8247869E+001
 20
1.597928E+002
 70
0
  0
SEQEND
  0
POLYLINE
  8
1
  6
CONTINUOUS
 62
3
 66
1
 40
5.0E-001
 41
5.0E-001
 70
0
  0
VERTEX
  8
1
 42
0.0
 10
7.5147869E+001
 20
1.631927E+002
 70
0
  0
VERTEX
  8
1
 42
0.0
 10
7.5147869E+001
 20
1.597928E+002
 70
0
  0
SEQEND
  0
POLYLINE
  8
1
  6
CONTINUOUS
 62
3
 66
1
 40
5.0E-001
 41
5.0E-001
 70
0
  0
VERTEX
  8
1
 42
0.0
 10
6.8247869E+001
 20
1.597928E+002
 70
0
  0
VERTEX
  8
1
 42
0.0
 10
7.5147869E+001
 20
1.597928E+002
 70
0
  0
SEQEND
  0
POLYLINE
  8
1
  6
CONTINUOUS
 62
3
 66
1
 40
5.0E-001
 41
5.0E-001
 70
0
  0
VERTEX
  8
1
 42
0.0
 10
6.8247869E+001
 20
1.631927E+002
 70
0
  0
VERTEX
  8
1
 42
0.0
 10
7.5147869E+001
 20
1.631927E+002
 70
0
  0
SEQEND
  0
POLYLINE
  8
1
  6
CONTINUOUS
 62
3
 66
1
 40
5.0E-001
 41
5.0E-001
 70
0
  0
VERTEX
  8
1
 42
0.0
 10
7.7347879E+001
 20
1.631927E+002
 70
0
  0
VERTEX
  8
1
 42
0.0
 10
7.7347879E+001
 20
1.597928E+002
 70
0
  0
SEQEND
  0
POLYLINE
  8
1
  6
CONTINUOUS
 62
3
 66
1
 40
5.0E-001
 41
5.0E-001
 70
0
  0
VERTEX
  8
1
 42
0.0
 10
7.7347879E+001
 20
1.631927E+002
 70
0
  0
VERTEX
  8
1
 42
0.0
 10
8.1747869E+001
 20
1.631927E+002
 70
0
  0
SEQEND
  0
POLYLINE
  8
1
  6
CONTINUOUS
 62
3
 66
1
 40
5.0E-001
 41
5.0E-001
 70
0
  0
VERTEX
  8
1
 42
0.0
 10
7.7347879E+001
 20
1.597928E+002
 70
0
  0
VERTEX
  8
1
 42
0.0
 10
8.1747869E+001
 20
1.597928E+002
 70
0
  0
SEQEND
  0
POLYLINE
  8
1
  6
CONTINUOUS
 62
3
 66
1
 40
5.0E-001
 41
5.0E-001
 70
0
  0
VERTEX
  8
1
 42
0.0
 10
7.8347879E+001
 20
1.631927E+002
 70
0
  0
VERTEX
  8
1
 42
0.0
 10
7.8347879E+001
 20
1.597928E+002
 70
0
  0
SEQEND
  0
POLYLINE
  8
1
  6
CONTINUOUS
 62
3
 66
1
 40
5.0E-001
 41
5.0E-001
 70
0
  0
VERTEX
  8
1
 42
0.0
 10
7.4147869E+001
 20
1.597928E+002
 70
0
  0
VERTEX
  8
1
 42
0.0
 10
7.4147869E+001
 20
1.631927E+002
 70
0
  0
SEQEND
  0
POLYLINE
  8
1
  6
CONTINUOUS
 62
3
 66
1
 40
5.0E-001
 41
5.0E-001
 70
0
  0
VERTEX
  8
1
 42
0.0
 10
6.9247869E+001
 20
1.597928E+002
 70
0
  0
VERTEX
  8
1
 42
0.0
 10
6.9247869E+001
 20
1.631927E+002
 70
0
  0
SEQEND
  0
POLYLINE
  8
1
  6
CONTINUOUS
 62
3
 66
1
 40
5.0E-001
 41
5.0E-001
 70
0
  0
VERTEX
  8
1
 42
0.0
 10
6.0147869E+001
 20
1.597928E+002
 70
0
  0
VERTEX
  8
1
 42
0.0
 10
6.0147869E+001
 20
1.631927E+002
 70
0
  0
SEQEND
  0
POLYLINE
  8
1
  6
CONTINUOUS
 62
3
 66
1
 40
5.0E-001
 41
5.0E-001
 70
0
  0
VERTEX
  8
1
 42
0.0
 10
5.1047859E+001
 20
1.631927E+002
 70
0
  0
VERTEX
  8
1
 42
0.0
 10
5.1047859E+001
 20
1.597928E+002
 70
0
  0
SEQEND
  0
POLYLINE
  8
1
  6
CONTINUOUS
 62
3
 66
1
 40
5.0E-001
 41
5.0E-001
 70
0
  0
VERTEX
  8
1
 42
0.0
 10
6.2647869E+001
 20
1.551927E+002
 70
0
  0
VERTEX
  8
1
 42
0.0
 10
6.2647869E+001
 20
1.531927E+002
 70
0
  0
SEQEND
  0
POLYLINE
  8
1
  6
CONTINUOUS
 62
3
 66
1
 40
5.0E-001
 41
5.0E-001
 70
0
  0
VERTEX
  8
1
 42
0.0
 10
6.0147869E+001
 20
1.551927E+002
 70
0
  0
VERTEX
  8
1
 42
0.0
 10
6.2647869E+001
 20
1.551927E+002
 70
0
  0
SEQEND
  0
POLYLINE
  8
1
  6
CONTINUOUS
 62
3
 66
1
 40
5.0E-001
 41
5.0E-001
 70
0
  0
VERTEX
  8
1
 42
0.0
 10
6.0147869E+001
 20
1.551927E+002
 70
0
  0
VERTEX
  8
1
 42
0.0
 10
6.0147869E+001
 20
1.531927E+002
 70
0
  0
SEQEND
  0
POLYLINE
  8
1
  6
CONTINUOUS
 62
3
 66
1
 40
5.0E-001
 41
5.0E-001
 70
0
  0
VERTEX
  8
1
 42
0.0
 10
6.2147869E+001
 20
1.561927E+002
 70
0
  0
VERTEX
  8
1
 42
0.0
 10
6.2147869E+001
 20
1.551927E+002
 70
0
  0
SEQEND
  0
POLYLINE
  8
1
  6
CONTINUOUS
 62
3
 66
1
 40
5.0E-001
 41
5.0E-001
 70
0
  0
VERTEX
  8
1
 42
0.0
 10
6.0647869E+001
 20
1.551927E+002
 70
0
  0
VERTEX
  8
1
 42
0.0
 10
6.0647869E+001
 20
1.561927E+002
 70
0
  0
SEQEND
  0
POLYLINE
  8
1
  6
CONTINUOUS
 62
3
 66
1
 40
5.0E-001
 41
5.0E-001
 70
0
  0
VERTEX
  8
1
 42
0.0
 10
6.0647869E+001
 20
1.561927E+002
 70
0
  0
VERTEX
  8
1
 42
0.0
 10
6.2147869E+001
 20
1.561927E+002
 70
0
  0
SEQEND
  0
POLYLINE
  8
1
  6
CONTINUOUS
 62
3
 66
1
 40
5.0E-001
 41
5.0E-001
 70
0
  0
VERTEX
  8
1
 42
0.0
 10
6.0647869E+001
 20
1.557428E+002
 70
0
  0
VERTEX
  8
1
 42
0.0
 10
6.2147869E+001
 20
1.557428E+002
 70
0
  0
SEQEND
  0
POLYLINE
  8
1
  6
CONTINUOUS
 62
3
 66
1
 40
5.0E-001
 41
5.0E-001
 70
0
  0
VERTEX
  8
1
 42
0.0
 10
6.2647869E+001
 20
1.531927E+002
 70
0
  0
VERTEX
  8
1
 42
0.0
 10
6.3897869E+001
 20
1.531927E+002
 70
0
  0
SEQEND
  0
POLYLINE
  8
1
  6
CONTINUOUS
 62
3
 66
1
 40
5.0E-001
 41
5.0E-001
 70
0
  0
VERTEX
  8
1
 42
0.0
 10
6.0147869E+001
 20
1.531927E+002
 70
0
  0
VERTEX
  8
1
 42
0.0
 10
6.2647869E+001
 20
1.531927E+002
 70
0
  0
SEQEND
  0
POLYLINE
  8
1
  6
CONTINUOUS
 62
3
 66
1
 40
5.0E-001
 41
5.0E-001
 70
0
  0
VERTEX
  8
1
 42
0.0
 10
5.8897869E+001
 20
1.531927E+002
 70
0
  0
VERTEX
  8
1
 42
0.0
 10
6.0147869E+001
 20
1.531927E+002
 70
0
  0
SEQEND
  0
POLYLINE
  8
1
  6
CONTINUOUS
 62
3
 66
1
 40
5.0E-001
 41
5.0E-001
 70
0
  0
VERTEX
  8
1
 42
0.0
 10
5.2047859E+001
 20
1.608928E+002
 70
0
  0
VERTEX
  8
1
 42
0.0
 10
5.2547859E+001
 20
1.608928E+002
 70
0
  0
SEQEND
  0
POLYLINE
  8
1
  6
CONTINUOUS
 62
3
 66
1
 40
5.0E-001
 41
5.0E-001
 70
0
  0
VERTEX
  8
1
 42
0.0
 10
5.2047859E+001
 20
1.620928E+002
 70
0
  0
VERTEX
  8
1
 42
0.0
 10
5.2047859E+001
 20
1.608928E+002
 70
0
  0
SEQEND
  0
POLYLINE
  8
1
  6
CONTINUOUS
 62
3
 66
1
 40
5.0E-001
 41
5.0E-001
 70
0
  0
VERTEX
  8
1
 42
0.0
 10
5.2047859E+001
 20
1.620928E+002
 70
0
  0
VERTEX
  8
1
 42
0.0
 10
5.2547859E+001
 20
1.620928E+002
 70
0
  0
SEQEND
  0
POLYLINE
  8
1
  6
CONTINUOUS
 62
3
 66
1
 40
5.0E-001
 41
5.0E-001
 70
0
  0
VERTEX
  8
1
 42
0.0
 10
5.2547859E+001
 20
1.620928E+002
 70
0
  0
VERTEX
  8
1
 42
0.0
 10
5.2547859E+001
 20
1.608928E+002
 70
0
  0
SEQEND
  0
POLYLINE
  8
1
  6
CONTINUOUS
 62
3
 66
1
 40
5.0E-001
 41
5.0E-001
 70
0
  0
VERTEX
  8
1
 42
0.0
 10
4.2387849E+001
 20
1.620928E+002
 70
0
  0
VERTEX
  8
1
 42
0.0
 10
4.2387849E+001
 20
1.608928E+002
 70
0
  0
SEQEND
  0
POLYLINE
  8
1
  6
CONTINUOUS
 62
3
 66
1
 40
5.0E-001
 41
5.0E-001
 70
0
  0
VERTEX
  8
1
 42
0.0
 10
4.1887849E+001
 20
1.620928E+002
 70
0
  0
VERTEX
  8
1
 42
0.0
 10
4.1887849E+001
 20
1.608928E+002
 70
0
  0
SEQEND
  0
POLYLINE
  8
1
  6
CONTINUOUS
 62
3
 66
1
 40
5.0E-001
 41
5.0E-001
 70
0
  0
VERTEX
  8
1
 42
0.0
 10
4.1387849E+001
 20
1.608928E+002
 70
0
  0
VERTEX
  8
1
 42
0.0
 10
4.2387849E+001
 20
1.608928E+002
 70
0
  0
SEQEND
  0
POLYLINE
  8
1
  6
CONTINUOUS
 62
3
 66
1
 40
5.0E-001
 41
5.0E-001
 70
0
  0
VERTEX
  8
1
 42
0.0
 10
4.1387849E+001
 20
1.620928E+002
 70
0
  0
VERTEX
  8
1
 42
0.0
 10
4.2387849E+001
 20
1.620928E+002
 70
0
  0
SEQEND
  0
POLYLINE
  8
1
  6
CONTINUOUS
 62
3
 66
1
 40
5.0E-001
 41
5.0E-001
 70
0
  0
VERTEX
  8
1
 42
0.0
 10
4.1387849E+001
 20
1.620928E+002
 70
0
  0
VERTEX
  8
1
 42
0.0
 10
4.1387849E+001
 20
1.608928E+002
 70
0
  0
SEQEND
  0
POLYLINE
  8
1
  6
CONTINUOUS
 62
3
 66
1
 40
5.0E-001
 41
5.0E-001
 70
0
  0
VERTEX
  8
1
 42
0.0
 10
6.2707869E+001
 20
1.620928E+002
 70
0
  0
VERTEX
  8
1
 42
0.0
 10
6.2707869E+001
 20
1.608928E+002
 70
0
  0
SEQEND
  0
POLYLINE
  8
1
  6
CONTINUOUS
 62
3
 66
1
 40
5.0E-001
 41
5.0E-001
 70
0
  0
VERTEX
  8
1
 42
0.0
 10
6.2207869E+001
 20
1.620928E+002
 70
0
  0
VERTEX
  8
1
 42
0.0
 10
6.2207869E+001
 20
1.608928E+002
 70
0
  0
SEQEND
  0
POLYLINE
  8
1
  6
CONTINUOUS
 62
3
 66
1
 40
5.0E-001
 41
5.0E-001
 70
0
  0
VERTEX
  8
1
 42
0.0
 10
6.2207869E+001
 20
1.608928E+002
 70
0
  0
VERTEX
  8
1
 42
0.0
 10
6.3207869E+001
 20
1.608928E+002
 70
0
  0
SEQEND
  0
POLYLINE
  8
1
  6
CONTINUOUS
 62
3
 66
1
 40
5.0E-001
 41
5.0E-001
 70
0
  0
VERTEX
  8
1
 42
0.0
 10
6.2207869E+001
 20
1.620928E+002
 70
0
  0
VERTEX
  8
1
 42
0.0
 10
6.3207869E+001
 20
1.620928E+002
 70
0
  0
SEQEND
  0
POLYLINE
  8
1
  6
CONTINUOUS
 62
3
 66
1
 40
5.0E-001
 41
5.0E-001
 70
0
  0
VERTEX
  8
1
 42
0.0
 10
6.3207869E+001
 20
1.620928E+002
 70
0
  0
VERTEX
  8
1
 42
0.0
 10
6.3207869E+001
 20
1.608928E+002
 70
0
  0
SEQEND
  0
POLYLINE
  8
1
  6
CONTINUOUS
 62
3
 66
1
 40
5.0E-001
 41
5.0E-001
 70
0
  0
VERTEX
  8
1
 42
0.0
 10
8.0987859E+001
 20
1.620928E+002
 70
0
  0
VERTEX
  8
1
 42
0.0
 10
8.0987859E+001
 20
1.608928E+002
 70
0
  0
SEQEND
  0
POLYLINE
  8
1
  6
CONTINUOUS
 62
3
 66
1
 40
5.0E-001
 41
5.0E-001
 70
0
  0
VERTEX
  8
1
 42
0.0
 10
7.9987859E+001
 20
1.620928E+002
 70
0
  0
VERTEX
  8
1
 42
0.0
 10
8.0987859E+001
 20
1.620928E+002
 70
0
  0
SEQEND
  0
POLYLINE
  8
1
  6
CONTINUOUS
 62
3
 66
1
 40
5.0E-001
 41
5.0E-001
 70
0
  0
VERTEX
  8
1
 42
0.0
 10
7.9987859E+001
 20
1.608928E+002
 70
0
  0
VERTEX
  8
1
 42
0.0
 10
8.0987859E+001
 20
1.608928E+002
 70
0
  0
SEQEND
  0
POLYLINE
  8
1
  6
CONTINUOUS
 62
3
 66
1
 40
5.0E-001
 41
5.0E-001
 70
0
  0
VERTEX
  8
1
 42
0.0
 10
7.9987859E+001
 20
1.620928E+002
 70
0
  0
VERTEX
  8
1
 42
0.0
 10
7.9987859E+001
 20
1.608928E+002
 70
0
  0
SEQEND
  0
POLYLINE
  8
1
  6
CONTINUOUS
 62
3
 66
1
 40
5.0E-001
 41
5.0E-001
 70
0
  0
VERTEX
  8
1
 42
0.0
 10
8.0487859E+001
 20
1.620928E+002
 70
0
  0
VERTEX
  8
1
 42
0.0
 10
8.0487859E+001
 20
1.608928E+002
 70
0
  0
SEQEND
  0
POLYLINE
  8
1
  6
CONTINUOUS
 62
3
 66
1
 40
5.0E-001
 41
5.0E-001
 70
0
  0
VERTEX
  8
1
 42
0.0
 10
7.3367869E+001
 20
1.620928E+002
 70
0
  0
VERTEX
  8
1
 42
0.0
 10
7.3367869E+001
 20
1.608928E+002
 70
0
  0
SEQEND
  0
POLYLINE
  8
1
  6
CONTINUOUS
 62
3
 66
1
 40
5.0E-001
 41
5.0E-001
 70
0
  0
VERTEX
  8
1
 42
0.0
 10
7.2367869E+001
 20
1.620928E+002
 70
0
  0
VERTEX
  8
1
 42
0.0
 10
7.3367869E+001
 20
1.620928E+002
 70
0
  0
SEQEND
  0
POLYLINE
  8
1
  6
CONTINUOUS
 62
3
 66
1
 40
5.0E-001
 41
5.0E-001
 70
0
  0
VERTEX
  8
1
 42
0.0
 10
7.2367869E+001
 20
1.608928E+002
 70
0
  0
VERTEX
  8
1
 42
0.0
 10
7.3367869E+001
 20
1.608928E+002
 70
0
  0
SEQEND
  0
POLYLINE
  8
1
  6
CONTINUOUS
 62
3
 66
1
 40
5.0E-001
 41
5.0E-001
 70
0
  0
VERTEX
  8
1
 42
0.0
 10
7.2367869E+001
 20
1.620928E+002
 70
0
  0
VERTEX
  8
1
 42
0.0
 10
7.2367869E+001
 20
1.608928E+002
 70
0
  0
SEQEND
  0
POLYLINE
  8
1
  6
CONTINUOUS
 62
3
 66
1
 40
5.0E-001
 41
5.0E-001
 70
0
  0
VERTEX
  8
1
 42
0.0
 10
7.2867869E+001
 20
1.620928E+002
 70
0
  0
VERTEX
  8
1
 42
0.0
 10
7.2867869E+001
 20
1.608928E+002
 70
0
  0
SEQEND
  0
INSERT
  2
*E1758
  8
1
 10
8.2247869E+001
 20
1.602428E+002
 41
1.0
 42
1.0
 43
1.0
 50
2.7E+002
 62
3
  0
POLYLINE
  8
1
  6
CONTINUOUS
 62
3
 66
1
 40
5.0E-001
 41
5.0E-001
 70
0
  0
VERTEX
  8
1
 42
0.0
 10
8.1747869E+001
 20
1.602428E+002
 70
0
  0
VERTEX
  8
1
 42
0.0
 10
8.1747869E+001
 20
1.597928E+002
 70
0
  0
SEQEND
  0
POLYLINE
  8
1
  6
CONTINUOUS
 62
3
 66
1
 40
5.0E-001
 41
5.0E-001
 70
0
  0
VERTEX
  8
1
 42
0.0
 10
8.2247869E+001
 20
1.607428E+002
 70
0
  0
VERTEX
  8
1
 42
0.0
 10
8.5147869E+001
 20
1.607428E+002
 70
0
  0
SEQEND
  0
INSERT
  2
*E1761
  8
1
 10
8.2247869E+001
 20
1.627428E+002
 41
1.0
 42
1.0
 43
1.0
 50
2.7E+002
 62
3
  0
POLYLINE
  8
1
  6
CONTINUOUS
 62
3
 66
1
 40
5.0E-001
 41
5.0E-001
 70
0
  0
VERTEX
  8
1
 42
0.0
 10
8.2247869E+001
 20
1.622428E+002
 70
0
  0
VERTEX
  8
1
 42
0.0
 10
8.5147869E+001
 20
1.622428E+002
 70
0
  0
SEQEND
  0
POLYLINE
  8
1
  6
CONTINUOUS
 62
3
 66
1
 40
5.0E-001
 41
5.0E-001
 70
0
  0
VERTEX
  8
1
 42
0.0
 10
8.1747869E+001
 20
1.631927E+002
 70
0
  0
VERTEX
  8
1
 42
0.0
 10
8.1747869E+001
 20
1.627428E+002
 70
0
  0
SEQEND
  0
INSERT
  2
*E1764
  8
1
 10
6.4647869E+001
 20
1.627428E+002
 41
1.0
 42
1.0
 43
1.0
 50
2.7E+002
 62
3
  0
POLYLINE
  8
1
  6
CONTINUOUS
 62
3
 66
1
 40
5.0E-001
 41
5.0E-001
 70
0
  0
VERTEX
  8
1
 42
0.0
 10
6.4147869E+001
 20
1.631927E+002
 70
0
  0
VERTEX
  8
1
 42
0.0
 10
6.4147869E+001
 20
1.627428E+002
 70
0
  0
SEQEND
  0
INSERT
  2
*E1766
  8
1
 10
6.4647869E+001
 20
1.602428E+002
 41
1.0
 42
1.0
 43
1.0
 50
2.7E+002
 62
3
  0
POLYLINE
  8
1
  6
CONTINUOUS
 62
3
 66
1
 40
5.0E-001
 41
5.0E-001
 70
0
  0
VERTEX
  8
1
 42
0.0
 10
6.4147869E+001
 20
1.602428E+002
 70
0
  0
VERTEX
  8
1
 42
0.0
 10
6.4147869E+001
 20
1.597928E+002
 70
0
  0
SEQEND
  0
INSERT
  2
*E1768
  8
1
 10
5.5047859E+001
 20
1.602428E+002
 41
1.0
 42
1.0
 43
1.0
 50
2.7E+002
 62
3
  0
POLYLINE
  8
1
  6
CONTINUOUS
 62
3
 66
1
 40
5.0E-001
 41
5.0E-001
 70
0
  0
VERTEX
  8
1
 42
0.0
 10
5.4547859E+001
 20
1.602428E+002
 70
0
  0
VERTEX
  8
1
 42
0.0
 10
5.4547859E+001
 20
1.597928E+002
 70
0
  0
SEQEND
  0
INSERT
  2
*E1770
  8
1
 10
5.5047859E+001
 20
1.627428E+002
 41
1.0
 42
1.0
 43
1.0
 50
2.7E+002
 62
3
  0
POLYLINE
  8
1
  6
CONTINUOUS
 62
3
 66
1
 40
5.0E-001
 41
5.0E-001
 70
0
  0
VERTEX
  8
1
 42
0.0
 10
5.4547859E+001
 20
1.631927E+002
 70
0
  0
VERTEX
  8
1
 42
0.0
 10
5.4547859E+001
 20
1.627428E+002
 70
0
  0
SEQEND
  0
INSERT
  2
*E1772
  8
1
 10
4.5947859E+001
 20
1.602428E+002
 41
1.0
 42
1.0
 43
1.0
 50
2.7E+002
 62
3
  0
POLYLINE
  8
1
  6
CONTINUOUS
 62
3
 66
1
 40
5.0E-001
 41
5.0E-001
 70
0
  0
VERTEX
  8
1
 42
0.0
 10
4.5447859E+001
 20
1.602428E+002
 70
0
  0
VERTEX
  8
1
 42
0.0
 10
4.5447859E+001
 20
1.597928E+002
 70
0
  0
SEQEND
  0
INSERT
  2
*E1774
  8
1
 10
4.5947859E+001
 20
1.627428E+002
 41
1.0
 42
1.0
 43
1.0
 50
2.7E+002
 62
3
  0
POLYLINE
  8
1
  6
CONTINUOUS
 62
3
 66
1
 40
5.0E-001
 41
5.0E-001
 70
0
  0
VERTEX
  8
1
 42
0.0
 10
4.5447859E+001
 20
1.631927E+002
 70
0
  0
VERTEX
  8
1
 42
0.0
 10
4.5447859E+001
 20
1.627428E+002
 70
0
  0
SEQEND
  0
INSERT
  2
*E1776
  8
1
 10
4.0147859E+001
 20
1.627428E+002
 41
1.0
 42
1.0
 43
1.0
 50
2.7E+002
 62
3
  0
POLYLINE
  8
1
  6
CONTINUOUS
 62
3
 66
1
 40
5.0E-001
 41
5.0E-001
 70
0
  0
VERTEX
  8
1
 42
0.0
 10
4.0647859E+001
 20
1.631927E+002
 70
0
  0
VERTEX
  8
1
 42
0.0
 10
4.0647859E+001
 20
1.627428E+002
 70
0
  0
SEQEND
  0
POLYLINE
  8
1
  6
CONTINUOUS
 62
3
 66
1
 40
5.0E-001
 41
5.0E-001
 70
0
  0
VERTEX
  8
1
 42
0.0
 10
3.8647859E+001
 20
1.622428E+002
 70
0
  0
VERTEX
  8
1
 42
0.0
 10
4.0147859E+001
 20
1.622428E+002
 70
0
  0
SEQEND
  0
INSERT
  2
*E1779
  8
1
 10
4.0147859E+001
 20
1.602428E+002
 41
1.0
 42
1.0
 43
1.0
 50
2.7E+002
 62
3
  0
POLYLINE
  8
1
  6
CONTINUOUS
 62
3
 66
1
 40
5.0E-001
 41
5.0E-001
 70
0
  0
VERTEX
  8
1
 42
0.0
 10
4.0647859E+001
 20
1.602428E+002
 70
0
  0
VERTEX
  8
1
 42
0.0
 10
4.0647859E+001
 20
1.597928E+002
 70
0
  0
SEQEND
  0
POLYLINE
  8
1
  6
CONTINUOUS
 62
3
 66
1
 40
5.0E-001
 41
5.0E-001
 70
0
  0
VERTEX
  8
1
 42
0.0
 10
3.8647859E+001
 20
1.607428E+002
 70
0
  0
VERTEX
  8
1
 42
0.0
 10
4.0147859E+001
 20
1.607428E+002
 70
0
  0
SEQEND
  0
INSERT
  2
*E1782
  8
1
 10
4.9547859E+001
 20
1.602428E+002
 41
1.0
 42
1.0
 43
1.0
 50
2.7E+002
 62
3
  0
INSERT
  2
*E1783
  8
1
 10
4.9547859E+001
 20
1.627428E+002
 41
1.0
 42
1.0
 43
1.0
 50
2.7E+002
 62
3
  0
POLYLINE
  8
1
  6
CONTINUOUS
 62
3
 66
1
 40
5.0E-001
 41
5.0E-001
 70
0
  0
VERTEX
  8
1
 42
0.0
 10
4.5947859E+001
 20
1.622428E+002
 70
0
  0
VERTEX
  8
1
 42
0.0
 10
4.9547859E+001
 20
1.622428E+002
 70
0
  0
SEQEND
  0
POLYLINE
  8
1
  6
CONTINUOUS
 62
3
 66
1
 40
5.0E-001
 41
5.0E-001
 70
0
  0
VERTEX
  8
1
 42
0.0
 10
4.5947859E+001
 20
1.607428E+002
 70
0
  0
VERTEX
  8
1
 42
0.0
 10
4.9547859E+001
 20
1.607428E+002
 70
0
  0
SEQEND
  0
INSERT
  2
*E1786
  8
1
 10
5.8647869E+001
 20
1.602428E+002
 41
1.0
 42
1.0
 43
1.0
 50
2.7E+002
 62
3
  0
POLYLINE
  8
1
  6
CONTINUOUS
 62
3
 66
1
 40
5.0E-001
 41
5.0E-001
 70
0
  0
VERTEX
  8
1
 42
0.0
 10
5.5047859E+001
 20
1.607428E+002
 70
0
  0
VERTEX
  8
1
 42
0.0
 10
5.8647869E+001
 20
1.607428E+002
 70
0
  0
SEQEND
  0
INSERT
  2
*E1788
  8
1
 10
5.8647869E+001
 20
1.627428E+002
 41
1.0
 42
1.0
 43
1.0
 50
2.7E+002
 62
3
  0
POLYLINE
  8
1
  6
CONTINUOUS
 62
3
 66
1
 40
5.0E-001
 41
5.0E-001
 70
0
  0
VERTEX
  8
1
 42
0.0
 10
5.5047859E+001
 20
1.622428E+002
 70
0
  0
VERTEX
  8
1
 42
0.0
 10
5.8647869E+001
 20
1.622428E+002
 70
0
  0
SEQEND
  0
INSERT
  2
*E1790
  8
1
 10
6.7747869E+001
 20
1.602428E+002
 41
1.0
 42
1.0
 43
1.0
 50
2.7E+002
 62
3
  0
POLYLINE
  8
1
  6
CONTINUOUS
 62
3
 66
1
 40
5.0E-001
 41
5.0E-001
 70
0
  0
VERTEX
  8
1
 42
0.0
 10
6.4647869E+001
 20
1.607428E+002
 70
0
  0
VERTEX
  8
1
 42
0.0
 10
6.7747869E+001
 20
1.607428E+002
 70
0
  0
SEQEND
  0
INSERT
  2
*E1792
  8
1
 10
6.7747869E+001
 20
1.627428E+002
 41
1.0
 42
1.0
 43
1.0
 50
2.7E+002
 62
3
  0
POLYLINE
  8
1
  6
CONTINUOUS
 62
3
 66
1
 40
5.0E-001
 41
5.0E-001
 70
0
  0
VERTEX
  8
1
 42
0.0
 10
6.4647869E+001
 20
1.622428E+002
 70
0
  0
VERTEX
  8
1
 42
0.0
 10
6.7747869E+001
 20
1.622428E+002
 70
0
  0
SEQEND
  0
INSERT
  2
*E1794
  8
1
 10
7.6847879E+001
 20
1.602428E+002
 41
1.0
 42
1.0
 43
1.0
 50
2.7E+002
 62
3
  0
INSERT
  2
*E1795
  8
1
 10
7.6847879E+001
 20
1.627428E+002
 41
1.0
 42
1.0
 43
1.0
 50
2.7E+002
 62
3
  0
INSERT
  2
*E1796
  8
1
 10
7.5647869E+001
 20
1.602428E+002
 41
1.0
 42
1.0
 43
1.0
 50
2.7E+002
 62
3
  0
POLYLINE
  8
1
  6
CONTINUOUS
 62
3
 66
1
 40
5.0E-001
 41
5.0E-001
 70
0
  0
VERTEX
  8
1
 42
0.0
 10
7.5647869E+001
 20
1.607428E+002
 70
0
  0
VERTEX
  8
1
 42
0.0
 10
7.6847879E+001
 20
1.607428E+002
 70
0
  0
SEQEND
  0
INSERT
  2
*E1798
  8
1
 10
7.5647869E+001
 20
1.627428E+002
 41
1.0
 42
1.0
 43
1.0
 50
2.7E+002
 62
3
  0
POLYLINE
  8
1
  6
CONTINUOUS
 62
3
 66
1
 40
5.0E-001
 41
5.0E-001
 70
0
  0
VERTEX
  8
1
 42
0.0
 10
7.5647869E+001
 20
1.622428E+002
 70
0
  0
VERTEX
  8
1
 42
0.0
 10
7.6847879E+001
 20
1.622428E+002
 70
0
  0
SEQEND
  0
POLYLINE
  8
1
  6
CONTINUOUS
 62
3
 66
1
 40
5.0E-001
 41
5.0E-001
 70
0
  0
VERTEX
  8
1
 42
0.0
 10
6.0647869E+001
 20
1.641428E+002
 70
0
  0
VERTEX
  8
1
 42
0.0
 10
6.2147869E+001
 20
1.641428E+002
 70
0
  0
SEQEND
  0
POLYLINE
  8
1
  6
CONTINUOUS
 62
3
 66
1
 40
5.0E-001
 41
5.0E-001
 70
0
  0
VERTEX
  8
1
 42
0.0
 10
6.0647869E+001
 20
1.645927E+002
 70
0
  0
VERTEX
  8
1
 42
0.0
 10
6.2147869E+001
 20
1.645927E+002
 70
0
  0
SEQEND
  0
POLYLINE
  8
1
  6
CONTINUOUS
 62
3
 66
1
 40
5.0E-001
 41
5.0E-001
 70
0
  0
VERTEX
  8
1
 42
0.0
 10
6.0647869E+001
 20
1.651428E+002
 70
0
  0
VERTEX
  8
1
 42
0.0
 10
6.0647869E+001
 20
1.641428E+002
 70
0
  0
SEQEND
  0
POLYLINE
  8
1
  6
CONTINUOUS
 62
3
 66
1
 40
5.0E-001
 41
5.0E-001
 70
0
  0
VERTEX
  8
1
 42
0.0
 10
6.2147869E+001
 20
1.641428E+002
 70
0
  0
VERTEX
  8
1
 42
0.0
 10
6.2147869E+001
 20
1.651428E+002
 70
0
  0
SEQEND
  0
POLYLINE
  8
1
  6
CONTINUOUS
 62
3
 66
1
 40
5.0E-001
 41
5.0E-001
 70
0
  0
VERTEX
  8
1
 42
0.0
 10
6.0147869E+001
 20
1.651428E+002
 70
0
  0
VERTEX
  8
1
 42
0.0
 10
6.2647869E+001
 20
1.651428E+002
 70
0
  0
SEQEND
  0
POLYLINE
  8
1
  6
CONTINUOUS
 62
3
 66
1
 40
5.0E-001
 41
5.0E-001
 70
0
  0
VERTEX
  8
1
 42
0.0
 10
6.2647869E+001
 20
1.651428E+002
 70
0
  0
VERTEX
  8
1
 42
0.0
 10
6.2647869E+001
 20
1.671428E+002
 70
0
  0
SEQEND
  0
POLYLINE
  8
1
  6
CONTINUOUS
 62
3
 66
1
 40
5.0E-001
 41
5.0E-001
 70
0
  0
VERTEX
  8
1
 42
0.0
 10
6.0147869E+001
 20
1.671428E+002
 70
0
  0
VERTEX
  8
1
 42
0.0
 10
6.2647869E+001
 20
1.671428E+002
 70
0
  0
SEQEND
  0
POLYLINE
  8
1
  6
CONTINUOUS
 62
3
 66
1
 40
5.0E-001
 41
5.0E-001
 70
0
  0
VERTEX
  8
1
 42
0.0
 10
6.0147869E+001
 20
1.651428E+002
 70
0
  0
VERTEX
  8
1
 42
0.0
 10
6.0147869E+001
 20
1.671428E+002
 70
0
  0
SEQEND
  0
POLYLINE
  8
1
  6
CONTINUOUS
 62
3
 66
1
 40
5.0E-001
 41
5.0E-001
 70
0
  0
VERTEX
  8
1
 42
0.0
 10
6.9247869E+001
 20
1.651428E+002
 70
0
  0
VERTEX
  8
1
 42
0.0
 10
6.9247869E+001
 20
1.671428E+002
 70
0
  0
SEQEND
  0
POLYLINE
  8
1
  6
CONTINUOUS
 62
3
 66
1
 40
5.0E-001
 41
5.0E-001
 70
0
  0
VERTEX
  8
1
 42
0.0
 10
6.9247869E+001
 20
1.671428E+002
 70
0
  0
VERTEX
  8
1
 42
0.0
 10
7.1747869E+001
 20
1.671428E+002
 70
0
  0
SEQEND
  0
POLYLINE
  8
1
  6
CONTINUOUS
 62
3
 66
1
 40
5.0E-001
 41
5.0E-001
 70
0
  0
VERTEX
  8
1
 42
0.0
 10
7.1747869E+001
 20
1.651428E+002
 70
0
  0
VERTEX
  8
1
 42
0.0
 10
7.1747869E+001
 20
1.671428E+002
 70
0
  0
SEQEND
  0
POLYLINE
  8
1
  6
CONTINUOUS
 62
3
 66
1
 40
5.0E-001
 41
5.0E-001
 70
0
  0
VERTEX
  8
1
 42
0.0
 10
6.9247869E+001
 20
1.651428E+002
 70
0
  0
VERTEX
  8
1
 42
0.0
 10
7.1747869E+001
 20
1.651428E+002
 70
0
  0
SEQEND
  0
POLYLINE
  8
1
  6
CONTINUOUS
 62
3
 66
1
 40
5.0E-001
 41
5.0E-001
 70
0
  0
VERTEX
  8
1
 42
0.0
 10
7.1247869E+001
 20
1.641428E+002
 70
0
  0
VERTEX
  8
1
 42
0.0
 10
7.1247869E+001
 20
1.651428E+002
 70
0
  0
SEQEND
  0
POLYLINE
  8
1
  6
CONTINUOUS
 62
3
 66
1
 40
5.0E-001
 41
5.0E-001
 70
0
  0
VERTEX
  8
1
 42
0.0
 10
6.9747869E+001
 20
1.651428E+002
 70
0
  0
VERTEX
  8
1
 42
0.0
 10
6.9747869E+001
 20
1.641428E+002
 70
0
  0
SEQEND
  0
POLYLINE
  8
1
  6
CONTINUOUS
 62
3
 66
1
 40
5.0E-001
 41
5.0E-001
 70
0
  0
VERTEX
  8
1
 42
0.0
 10
6.9747869E+001
 20
1.645927E+002
 70
0
  0
VERTEX
  8
1
 42
0.0
 10
7.1247869E+001
 20
1.645927E+002
 70
0
  0
SEQEND
  0
POLYLINE
  8
1
  6
CONTINUOUS
 62
3
 66
1
 40
5.0E-001
 41
5.0E-001
 70
0
  0
VERTEX
  8
1
 42
0.0
 10
6.9747869E+001
 20
1.641428E+002
 70
0
  0
VERTEX
  8
1
 42
0.0
 10
7.1247869E+001
 20
1.641428E+002
 70
0
  0
SEQEND
  0
POLYLINE
  8
1
  6
CONTINUOUS
 62
3
 66
1
 40
5.0E-001
 41
5.0E-001
 70
0
  0
VERTEX
  8
1
 42
0.0
 10
6.9747869E+001
 20
1.551927E+002
 70
0
  0
VERTEX
  8
1
 42
0.0
 10
6.9747869E+001
 20
1.561927E+002
 70
0
  0
SEQEND
  0
POLYLINE
  8
1
  6
CONTINUOUS
 62
3
 66
1
 40
5.0E-001
 41
5.0E-001
 70
0
  0
VERTEX
  8
1
 42
0.0
 10
6.9747869E+001
 20
1.561927E+002
 70
0
  0
VERTEX
  8
1
 42
0.0
 10
7.1247869E+001
 20
1.561927E+002
 70
0
  0
SEQEND
  0
POLYLINE
  8
1
  6
CONTINUOUS
 62
3
 66
1
 40
5.0E-001
 41
5.0E-001
 70
0
  0
VERTEX
  8
1
 42
0.0
 10
6.9747869E+001
 20
1.557428E+002
 70
0
  0
VERTEX
  8
1
 42
0.0
 10
7.1247869E+001
 20
1.557428E+002
 70
0
  0
SEQEND
  0
POLYLINE
  8
1
  6
CONTINUOUS
 62
3
 66
1
 40
5.0E-001
 41
5.0E-001
 70
0
  0
VERTEX
  8
1
 42
0.0
 10
7.1247869E+001
 20
1.561927E+002
 70
0
  0
VERTEX
  8
1
 42
0.0
 10
7.1247869E+001
 20
1.551927E+002
 70
0
  0
SEQEND
  0
POLYLINE
  8
1
  6
CONTINUOUS
 62
3
 66
1
 40
5.0E-001
 41
5.0E-001
 70
0
  0
VERTEX
  8
1
 42
0.0
 10
6.9247869E+001
 20
1.551927E+002
 70
0
  0
VERTEX
  8
1
 42
0.0
 10
7.1747869E+001
 20
1.551927E+002
 70
0
  0
SEQEND
  0
POLYLINE
  8
1
  6
CONTINUOUS
 62
3
 66
1
 40
5.0E-001
 41
5.0E-001
 70
0
  0
VERTEX
  8
1
 42
0.0
 10
7.1747869E+001
 20
1.551927E+002
 70
0
  0
VERTEX
  8
1
 42
0.0
 10
7.1747869E+001
 20
1.531927E+002
 70
0
  0
SEQEND
  0
POLYLINE
  8
1
  6
CONTINUOUS
 62
3
 66
1
 40
5.0E-001
 41
5.0E-001
 70
0
  0
VERTEX
  8
1
 42
0.0
 10
6.9247869E+001
 20
1.551927E+002
 70
0
  0
VERTEX
  8
1
 42
0.0
 10
6.9247869E+001
 20
1.531927E+002
 70
0
  0
SEQEND
  0
POLYLINE
  8
1
  6
CONTINUOUS
 62
3
 66
1
 40
5.0E-001
 41
5.0E-001
 70
0
  0
VERTEX
  8
1
 42
0.0
 10
6.9247869E+001
 20
1.531927E+002
 70
0
  0
VERTEX
  8
1
 42
0.0
 10
7.1747869E+001
 20
1.531927E+002
 70
0
  0
SEQEND
  0
POLYLINE
  8
1
  6
CONTINUOUS
 62
3
 66
1
 40
5.0E-001
 41
5.0E-001
 70
0
  0
VERTEX
  8
1
 42
0.0
 10
7.8847879E+001
 20
1.641428E+002
 70
0
  0
VERTEX
  8
1
 42
0.0
 10
8.0347879E+001
 20
1.641428E+002
 70
0
  0
SEQEND
  0
POLYLINE
  8
1
  6
CONTINUOUS
 62
3
 66
1
 40
5.0E-001
 41
5.0E-001
 70
0
  0
VERTEX
  8
1
 42
0.0
 10
7.8847879E+001
 20
1.645927E+002
 70
0
  0
VERTEX
  8
1
 42
0.0
 10
8.0347879E+001
 20
1.645927E+002
 70
0
  0
SEQEND
  0
POLYLINE
  8
1
  6
CONTINUOUS
 62
3
 66
1
 40
5.0E-001
 41
5.0E-001
 70
0
  0
VERTEX
  8
1
 42
0.0
 10
7.8847879E+001
 20
1.651428E+002
 70
0
  0
VERTEX
  8
1
 42
0.0
 10
7.8847879E+001
 20
1.641428E+002
 70
0
  0
SEQEND
  0
POLYLINE
  8
1
  6
CONTINUOUS
 62
3
 66
1
 40
5.0E-001
 41
5.0E-001
 70
0
  0
VERTEX
  8
1
 42
0.0
 10
8.0347879E+001
 20
1.641428E+002
 70
0
  0
VERTEX
  8
1
 42
0.0
 10
8.0347879E+001
 20
1.651428E+002
 70
0
  0
SEQEND
  0
POLYLINE
  8
1
  6
CONTINUOUS
 62
3
 66
1
 40
5.0E-001
 41
5.0E-001
 70
0
  0
VERTEX
  8
1
 42
0.0
 10
7.8347879E+001
 20
1.651428E+002
 70
0
  0
VERTEX
  8
1
 42
0.0
 10
8.0847879E+001
 20
1.651428E+002
 70
0
  0
SEQEND
  0
POLYLINE
  8
1
  6
CONTINUOUS
 62
3
 66
1
 40
5.0E-001
 41
5.0E-001
 70
0
  0
VERTEX
  8
1
 42
0.0
 10
8.0847879E+001
 20
1.651428E+002
 70
0
  0
VERTEX
  8
1
 42
0.0
 10
8.0847879E+001
 20
1.671428E+002
 70
0
  0
SEQEND
  0
POLYLINE
  8
1
  6
CONTINUOUS
 62
3
 66
1
 40
5.0E-001
 41
5.0E-001
 70
0
  0
VERTEX
  8
1
 42
0.0
 10
7.8347879E+001
 20
1.671428E+002
 70
0
  0
VERTEX
  8
1
 42
0.0
 10
8.0847879E+001
 20
1.671428E+002
 70
0
  0
SEQEND
  0
POLYLINE
  8
1
  6
CONTINUOUS
 62
3
 66
1
 40
5.0E-001
 41
5.0E-001
 70
0
  0
VERTEX
  8
1
 42
0.0
 10
7.8347879E+001
 20
1.651428E+002
 70
0
  0
VERTEX
  8
1
 42
0.0
 10
7.8347879E+001
 20
1.671428E+002
 70
0
  0
SEQEND
  0
POLYLINE
  8
1
  6
CONTINUOUS
 62
3
 66
1
 40
5.0E-001
 41
5.0E-001
 70
0
  0
VERTEX
  8
1
 42
0.0
 10
7.8347879E+001
 20
1.531927E+002
 70
0
  0
VERTEX
  8
1
 42
0.0
 10
8.0847879E+001
 20
1.531927E+002
 70
0
  0
SEQEND
  0
POLYLINE
  8
1
  6
CONTINUOUS
 62
3
 66
1
 40
5.0E-001
 41
5.0E-001
 70
0
  0
VERTEX
  8
1
 42
0.0
 10
7.8347879E+001
 20
1.551927E+002
 70
0
  0
VERTEX
  8
1
 42
0.0
 10
7.8347879E+001
 20
1.531927E+002
 70
0
  0
SEQEND
  0
POLYLINE
  8
1
  6
CONTINUOUS
 62
3
 66
1
 40
5.0E-001
 41
5.0E-001
 70
0
  0
VERTEX
  8
1
 42
0.0
 10
8.0847879E+001
 20
1.551927E+002
 70
0
  0
VERTEX
  8
1
 42
0.0
 10
8.0847879E+001
 20
1.531927E+002
 70
0
  0
SEQEND
  0
POLYLINE
  8
1
  6
CONTINUOUS
 62
3
 66
1
 40
5.0E-001
 41
5.0E-001
 70
0
  0
VERTEX
  8
1
 42
0.0
 10
7.8347879E+001
 20
1.551927E+002
 70
0
  0
VERTEX
  8
1
 42
0.0
 10
8.0847879E+001
 20
1.551927E+002
 70
0
  0
SEQEND
  0
POLYLINE
  8
1
  6
CONTINUOUS
 62
3
 66
1
 40
5.0E-001
 41
5.0E-001
 70
0
  0
VERTEX
  8
1
 42
0.0
 10
8.0347879E+001
 20
1.561927E+002
 70
0
  0
VERTEX
  8
1
 42
0.0
 10
8.0347879E+001
 20
1.551927E+002
 70
0
  0
SEQEND
  0
POLYLINE
  8
1
  6
CONTINUOUS
 62
3
 66
1
 40
5.0E-001
 41
5.0E-001
 70
0
  0
VERTEX
  8
1
 42
0.0
 10
7.8847879E+001
 20
1.557428E+002
 70
0
  0
VERTEX
  8
1
 42
0.0
 10
8.0347879E+001
 20
1.557428E+002
 70
0
  0
SEQEND
  0
POLYLINE
  8
1
  6
CONTINUOUS
 62
3
 66
1
 40
5.0E-001
 41
5.0E-001
 70
0
  0
VERTEX
  8
1
 42
0.0
 10
7.8847879E+001
 20
1.561927E+002
 70
0
  0
VERTEX
  8
1
 42
0.0
 10
8.0347879E+001
 20
1.561927E+002
 70
0
  0
SEQEND
  0
POLYLINE
  8
1
  6
CONTINUOUS
 62
3
 66
1
 40
5.0E-001
 41
5.0E-001
 70
0
  0
VERTEX
  8
1
 42
0.0
 10
7.8847879E+001
 20
1.551927E+002
 70
0
  0
VERTEX
  8
1
 42
0.0
 10
7.8847879E+001
 20
1.561927E+002
 70
0
  0
SEQEND
  0
POLYLINE
  8
1
  6
CONTINUOUS
 62
3
 66
1
 40
5.0E-001
 41
5.0E-001
 70
0
  0
VERTEX
  8
1
 42
0.0
 10
6.9747869E+001
 20
1.641428E+002
 70
0
  0
VERTEX
  8
1
 42
0.0
 10
7.1247869E+001
 20
1.641428E+002
 70
0
  0
SEQEND
  0
POLYLINE
  8
1
  6
CONTINUOUS
 62
3
 66
1
 40
5.0E-001
 41
5.0E-001
 70
0
  0
VERTEX
  8
1
 42
0.0
 10
6.9747869E+001
 20
1.645927E+002
 70
0
  0
VERTEX
  8
1
 42
0.0
 10
7.1247869E+001
 20
1.645927E+002
 70
0
  0
SEQEND
  0
POLYLINE
  8
1
  6
CONTINUOUS
 62
3
 66
1
 40
5.0E-001
 41
5.0E-001
 70
0
  0
VERTEX
  8
1
 42
0.0
 10
6.9747869E+001
 20
1.651428E+002
 70
0
  0
VERTEX
  8
1
 42
0.0
 10
6.9747869E+001
 20
1.641428E+002
 70
0
  0
SEQEND
  0
POLYLINE
  8
1
  6
CONTINUOUS
 62
3
 66
1
 40
5.0E-001
 41
5.0E-001
 70
0
  0
VERTEX
  8
1
 42
0.0
 10
7.1247869E+001
 20
1.641428E+002
 70
0
  0
VERTEX
  8
1
 42
0.0
 10
7.1247869E+001
 20
1.651428E+002
 70
0
  0
SEQEND
  0
POLYLINE
  8
1
  6
CONTINUOUS
 62
3
 66
1
 40
5.0E-001
 41
5.0E-001
 70
0
  0
VERTEX
  8
1
 42
0.0
 10
6.9247869E+001
 20
1.651428E+002
 70
0
  0
VERTEX
  8
1
 42
0.0
 10
7.1747869E+001
 20
1.651428E+002
 70
0
  0
SEQEND
  0
POLYLINE
  8
1
  6
CONTINUOUS
 62
3
 66
1
 40
5.0E-001
 41
5.0E-001
 70
0
  0
VERTEX
  8
1
 42
0.0
 10
7.1747869E+001
 20
1.651428E+002
 70
0
  0
VERTEX
  8
1
 42
0.0
 10
7.1747869E+001
 20
1.671428E+002
 70
0
  0
SEQEND
  0
POLYLINE
  8
1
  6
CONTINUOUS
 62
3
 66
1
 40
5.0E-001
 41
5.0E-001
 70
0
  0
VERTEX
  8
1
 42
0.0
 10
6.9247869E+001
 20
1.671428E+002
 70
0
  0
VERTEX
  8
1
 42
0.0
 10
7.1747869E+001
 20
1.671428E+002
 70
0
  0
SEQEND
  0
POLYLINE
  8
1
  6
CONTINUOUS
 62
3
 66
1
 40
5.0E-001
 41
5.0E-001
 70
0
  0
VERTEX
  8
1
 42
0.0
 10
6.9247869E+001
 20
1.651428E+002
 70
0
  0
VERTEX
  8
1
 42
0.0
 10
6.9247869E+001
 20
1.671428E+002
 70
0
  0
SEQEND
  0
POLYLINE
  8
1
  6
CONTINUOUS
 62
3
 66
1
 40
5.0E-001
 41
5.0E-001
 70
0
  0
VERTEX
  8
1
 42
0.0
 10
6.9247869E+001
 20
1.531927E+002
 70
0
  0
VERTEX
  8
1
 42
0.0
 10
7.1747869E+001
 20
1.531927E+002
 70
0
  0
SEQEND
  0
POLYLINE
  8
1
  6
CONTINUOUS
 62
3
 66
1
 40
5.0E-001
 41
5.0E-001
 70
0
  0
VERTEX
  8
1
 42
0.0
 10
6.9247869E+001
 20
1.551927E+002
 70
0
  0
VERTEX
  8
1
 42
0.0
 10
6.9247869E+001
 20
1.531927E+002
 70
0
  0
SEQEND
  0
POLYLINE
  8
1
  6
CONTINUOUS
 62
3
 66
1
 40
5.0E-001
 41
5.0E-001
 70
0
  0
VERTEX
  8
1
 42
0.0
 10
7.1747869E+001
 20
1.551927E+002
 70
0
  0
VERTEX
  8
1
 42
0.0
 10
7.1747869E+001
 20
1.531927E+002
 70
0
  0
SEQEND
  0
POLYLINE
  8
1
  6
CONTINUOUS
 62
3
 66
1
 40
5.0E-001
 41
5.0E-001
 70
0
  0
VERTEX
  8
1
 42
0.0
 10
6.9247869E+001
 20
1.551927E+002
 70
0
  0
VERTEX
  8
1
 42
0.0
 10
7.1747869E+001
 20
1.551927E+002
 70
0
  0
SEQEND
  0
POLYLINE
  8
1
  6
CONTINUOUS
 62
3
 66
1
 40
5.0E-001
 41
5.0E-001
 70
0
  0
VERTEX
  8
1
 42
0.0
 10
7.1247869E+001
 20
1.561927E+002
 70
0
  0
VERTEX
  8
1
 42
0.0
 10
7.1247869E+001
 20
1.551927E+002
 70
0
  0
SEQEND
  0
POLYLINE
  8
1
  6
CONTINUOUS
 62
3
 66
1
 40
5.0E-001
 41
5.0E-001
 70
0
  0
VERTEX
  8
1
 42
0.0
 10
6.9747869E+001
 20
1.557428E+002
 70
0
  0
VERTEX
  8
1
 42
0.0
 10
7.1247869E+001
 20
1.557428E+002
 70
0
  0
SEQEND
  0
POLYLINE
  8
1
  6
CONTINUOUS
 62
3
 66
1
 40
5.0E-001
 41
5.0E-001
 70
0
  0
VERTEX
  8
1
 42
0.0
 10
6.9747869E+001
 20
1.561927E+002
 70
0
  0
VERTEX
  8
1
 42
0.0
 10
7.1247869E+001
 20
1.561927E+002
 70
0
  0
SEQEND
  0
POLYLINE
  8
1
  6
CONTINUOUS
 62
3
 66
1
 40
5.0E-001
 41
5.0E-001
 70
0
  0
VERTEX
  8
1
 42
0.0
 10
6.9747869E+001
 20
1.551927E+002
 70
0
  0
VERTEX
  8
1
 42
0.0
 10
6.9747869E+001
 20
1.561927E+002
 70
0
  0
SEQEND
  0
POLYLINE
  8
1
  6
CONTINUOUS
 62
3
 66
1
 40
5.0E-001
 41
5.0E-001
 70
0
  0
VERTEX
  8
1
 42
0.0
 10
5.1047859E+001
 20
1.651428E+002
 70
0
  0
VERTEX
  8
1
 42
0.0
 10
5.1047859E+001
 20
1.671428E+002
 70
0
  0
SEQEND
  0
POLYLINE
  8
1
  6
CONTINUOUS
 62
3
 66
1
 40
5.0E-001
 41
5.0E-001
 70
0
  0
VERTEX
  8
1
 42
0.0
 10
5.1047859E+001
 20
1.671428E+002
 70
0
  0
VERTEX
  8
1
 42
0.0
 10
5.3547859E+001
 20
1.671428E+002
 70
0
  0
SEQEND
  0
POLYLINE
  8
1
  6
CONTINUOUS
 62
3
 66
1
 40
5.0E-001
 41
5.0E-001
 70
0
  0
VERTEX
  8
1
 42
0.0
 10
5.3547859E+001
 20
1.651428E+002
 70
0
  0
VERTEX
  8
1
 42
0.0
 10
5.3547859E+001
 20
1.671428E+002
 70
0
  0
SEQEND
  0
POLYLINE
  8
1
  6
CONTINUOUS
 62
3
 66
1
 40
5.0E-001
 41
5.0E-001
 70
0
  0
VERTEX
  8
1
 42
0.0
 10
5.1047859E+001
 20
1.651428E+002
 70
0
  0
VERTEX
  8
1
 42
0.0
 10
5.3547859E+001
 20
1.651428E+002
 70
0
  0
SEQEND
  0
POLYLINE
  8
1
  6
CONTINUOUS
 62
3
 66
1
 40
5.0E-001
 41
5.0E-001
 70
0
  0
VERTEX
  8
1
 42
0.0
 10
5.3047859E+001
 20
1.641428E+002
 70
0
  0
VERTEX
  8
1
 42
0.0
 10
5.3047859E+001
 20
1.651428E+002
 70
0
  0
SEQEND
  0
POLYLINE
  8
1
  6
CONTINUOUS
 62
3
 66
1
 40
5.0E-001
 41
5.0E-001
 70
0
  0
VERTEX
  8
1
 42
0.0
 10
5.1547859E+001
 20
1.651428E+002
 70
0
  0
VERTEX
  8
1
 42
0.0
 10
5.1547859E+001
 20
1.641428E+002
 70
0
  0
SEQEND
  0
POLYLINE
  8
1
  6
CONTINUOUS
 62
3
 66
1
 40
5.0E-001
 41
5.0E-001
 70
0
  0
VERTEX
  8
1
 42
0.0
 10
5.1547859E+001
 20
1.645927E+002
 70
0
  0
VERTEX
  8
1
 42
0.0
 10
5.3047859E+001
 20
1.645927E+002
 70
0
  0
SEQEND
  0
POLYLINE
  8
1
  6
CONTINUOUS
 62
3
 66
1
 40
5.0E-001
 41
5.0E-001
 70
0
  0
VERTEX
  8
1
 42
0.0
 10
5.1547859E+001
 20
1.641428E+002
 70
0
  0
VERTEX
  8
1
 42
0.0
 10
5.3047859E+001
 20
1.641428E+002
 70
0
  0
SEQEND
  0
POLYLINE
  8
1
  6
CONTINUOUS
 62
3
 66
1
 40
5.0E-001
 41
5.0E-001
 70
0
  0
VERTEX
  8
1
 42
0.0
 10
5.1547859E+001
 20
1.641428E+002
 70
0
  0
VERTEX
  8
1
 42
0.0
 10
5.3047859E+001
 20
1.641428E+002
 70
0
  0
SEQEND
  0
POLYLINE
  8
1
  6
CONTINUOUS
 62
3
 66
1
 40
5.0E-001
 41
5.0E-001
 70
0
  0
VERTEX
  8
1
 42
0.0
 10
5.1547859E+001
 20
1.645927E+002
 70
0
  0
VERTEX
  8
1
 42
0.0
 10
5.3047859E+001
 20
1.645927E+002
 70
0
  0
SEQEND
  0
POLYLINE
  8
1
  6
CONTINUOUS
 62
3
 66
1
 40
5.0E-001
 41
5.0E-001
 70
0
  0
VERTEX
  8
1
 42
0.0
 10
5.1547859E+001
 20
1.651428E+002
 70
0
  0
VERTEX
  8
1
 42
0.0
 10
5.1547859E+001
 20
1.641428E+002
 70
0
  0
SEQEND
  0
POLYLINE
  8
1
  6
CONTINUOUS
 62
3
 66
1
 40
5.0E-001
 41
5.0E-001
 70
0
  0
VERTEX
  8
1
 42
0.0
 10
5.3047859E+001
 20
1.641428E+002
 70
0
  0
VERTEX
  8
1
 42
0.0
 10
5.3047859E+001
 20
1.651428E+002
 70
0
  0
SEQEND
  0
POLYLINE
  8
1
  6
CONTINUOUS
 62
3
 66
1
 40
5.0E-001
 41
5.0E-001
 70
0
  0
VERTEX
  8
1
 42
0.0
 10
5.1047859E+001
 20
1.651428E+002
 70
0
  0
VERTEX
  8
1
 42
0.0
 10
5.3547859E+001
 20
1.651428E+002
 70
0
  0
SEQEND
  0
POLYLINE
  8
1
  6
CONTINUOUS
 62
3
 66
1
 40
5.0E-001
 41
5.0E-001
 70
0
  0
VERTEX
  8
1
 42
0.0
 10
5.3547859E+001
 20
1.651428E+002
 70
0
  0
VERTEX
  8
1
 42
0.0
 10
5.3547859E+001
 20
1.671428E+002
 70
0
  0
SEQEND
  0
POLYLINE
  8
1
  6
CONTINUOUS
 62
3
 66
1
 40
5.0E-001
 41
5.0E-001
 70
0
  0
VERTEX
  8
1
 42
0.0
 10
5.1047859E+001
 20
1.671428E+002
 70
0
  0
VERTEX
  8
1
 42
0.0
 10
5.3547859E+001
 20
1.671428E+002
 70
0
  0
SEQEND
  0
POLYLINE
  8
1
  6
CONTINUOUS
 62
3
 66
1
 40
5.0E-001
 41
5.0E-001
 70
0
  0
VERTEX
  8
1
 42
0.0
 10
5.1047859E+001
 20
1.651428E+002
 70
0
  0
VERTEX
  8
1
 42
0.0
 10
5.1047859E+001
 20
1.671428E+002
 70
0
  0
SEQEND
  0
POLYLINE
  8
1
  6
CONTINUOUS
 62
3
 66
1
 40
5.0E-001
 41
5.0E-001
 70
0
  0
VERTEX
  8
1
 42
0.0
 10
5.1547859E+001
 20
1.551927E+002
 70
0
  0
VERTEX
  8
1
 42
0.0
 10
5.1547859E+001
 20
1.561927E+002
 70
0
  0
SEQEND
  0
POLYLINE
  8
1
  6
CONTINUOUS
 62
3
 66
1
 40
5.0E-001
 41
5.0E-001
 70
0
  0
VERTEX
  8
1
 42
0.0
 10
5.1547859E+001
 20
1.561927E+002
 70
0
  0
VERTEX
  8
1
 42
0.0
 10
5.3047859E+001
 20
1.561927E+002
 70
0
  0
SEQEND
  0
POLYLINE
  8
1
  6
CONTINUOUS
 62
3
 66
1
 40
5.0E-001
 41
5.0E-001
 70
0
  0
VERTEX
  8
1
 42
0.0
 10
5.1547859E+001
 20
1.557428E+002
 70
0
  0
VERTEX
  8
1
 42
0.0
 10
5.3047859E+001
 20
1.557428E+002
 70
0
  0
SEQEND
  0
POLYLINE
  8
1
  6
CONTINUOUS
 62
3
 66
1
 40
5.0E-001
 41
5.0E-001
 70
0
  0
VERTEX
  8
1
 42
0.0
 10
5.3047859E+001
 20
1.561927E+002
 70
0
  0
VERTEX
  8
1
 42
0.0
 10
5.3047859E+001
 20
1.551927E+002
 70
0
  0
SEQEND
  0
POLYLINE
  8
1
  6
CONTINUOUS
 62
3
 66
1
 40
5.0E-001
 41
5.0E-001
 70
0
  0
VERTEX
  8
1
 42
0.0
 10
5.1047859E+001
 20
1.551927E+002
 70
0
  0
VERTEX
  8
1
 42
0.0
 10
5.3547859E+001
 20
1.551927E+002
 70
0
  0
SEQEND
  0
POLYLINE
  8
1
  6
CONTINUOUS
 62
3
 66
1
 40
5.0E-001
 41
5.0E-001
 70
0
  0
VERTEX
  8
1
 42
0.0
 10
5.3547859E+001
 20
1.551927E+002
 70
0
  0
VERTEX
  8
1
 42
0.0
 10
5.3547859E+001
 20
1.531927E+002
 70
0
  0
SEQEND
  0
POLYLINE
  8
1
  6
CONTINUOUS
 62
3
 66
1
 40
5.0E-001
 41
5.0E-001
 70
0
  0
VERTEX
  8
1
 42
0.0
 10
5.1047859E+001
 20
1.551927E+002
 70
0
  0
VERTEX
  8
1
 42
0.0
 10
5.1047859E+001
 20
1.531927E+002
 70
0
  0
SEQEND
  0
POLYLINE
  8
1
  6
CONTINUOUS
 62
3
 66
1
 40
5.0E-001
 41
5.0E-001
 70
0
  0
VERTEX
  8
1
 42
0.0
 10
5.1047859E+001
 20
1.531927E+002
 70
0
  0
VERTEX
  8
1
 42
0.0
 10
5.3547859E+001
 20
1.531927E+002
 70
0
  0
SEQEND
  0
POLYLINE
  8
1
  6
CONTINUOUS
 62
3
 66
1
 40
5.0E-001
 41
5.0E-001
 70
0
  0
VERTEX
  8
1
 42
0.0
 10
5.1047859E+001
 20
1.531927E+002
 70
0
  0
VERTEX
  8
1
 42
0.0
 10
5.3547859E+001
 20
1.531927E+002
 70
0
  0
SEQEND
  0
POLYLINE
  8
1
  6
CONTINUOUS
 62
3
 66
1
 40
5.0E-001
 41
5.0E-001
 70
0
  0
VERTEX
  8
1
 42
0.0
 10
5.1047859E+001
 20
1.551927E+002
 70
0
  0
VERTEX
  8
1
 42
0.0
 10
5.1047859E+001
 20
1.531927E+002
 70
0
  0
SEQEND
  0
POLYLINE
  8
1
  6
CONTINUOUS
 62
3
 66
1
 40
5.0E-001
 41
5.0E-001
 70
0
  0
VERTEX
  8
1
 42
0.0
 10
5.3547859E+001
 20
1.551927E+002
 70
0
  0
VERTEX
  8
1
 42
0.0
 10
5.3547859E+001
 20
1.531927E+002
 70
0
  0
SEQEND
  0
POLYLINE
  8
1
  6
CONTINUOUS
 62
3
 66
1
 40
5.0E-001
 41
5.0E-001
 70
0
  0
VERTEX
  8
1
 42
0.0
 10
5.1047859E+001
 20
1.551927E+002
 70
0
  0
VERTEX
  8
1
 42
0.0
 10
5.3547859E+001
 20
1.551927E+002
 70
0
  0
SEQEND
  0
POLYLINE
  8
1
  6
CONTINUOUS
 62
3
 66
1
 40
5.0E-001
 41
5.0E-001
 70
0
  0
VERTEX
  8
1
 42
0.0
 10
5.3047859E+001
 20
1.561927E+002
 70
0
  0
VERTEX
  8
1
 42
0.0
 10
5.3047859E+001
 20
1.551927E+002
 70
0
  0
SEQEND
  0
POLYLINE
  8
1
  6
CONTINUOUS
 62
3
 66
1
 40
5.0E-001
 41
5.0E-001
 70
0
  0
VERTEX
  8
1
 42
0.0
 10
5.1547859E+001
 20
1.557428E+002
 70
0
  0
VERTEX
  8
1
 42
0.0
 10
5.3047859E+001
 20
1.557428E+002
 70
0
  0
SEQEND
  0
POLYLINE
  8
1
  6
CONTINUOUS
 62
3
 66
1
 40
5.0E-001
 41
5.0E-001
 70
0
  0
VERTEX
  8
1
 42
0.0
 10
5.1547859E+001
 20
1.561927E+002
 70
0
  0
VERTEX
  8
1
 42
0.0
 10
5.3047859E+001
 20
1.561927E+002
 70
0
  0
SEQEND
  0
POLYLINE
  8
1
  6
CONTINUOUS
 62
3
 66
1
 40
5.0E-001
 41
5.0E-001
 70
0
  0
VERTEX
  8
1
 42
0.0
 10
5.1547859E+001
 20
1.551927E+002
 70
0
  0
VERTEX
  8
1
 42
0.0
 10
5.1547859E+001
 20
1.561927E+002
 70
0
  0
SEQEND
  0
POLYLINE
  8
1
  6
CONTINUOUS
 62
3
 66
1
 40
5.0E-001
 41
5.0E-001
 70
0
  0
VERTEX
  8
1
 42
0.0
 10
4.1947849E+001
 20
1.651428E+002
 70
0
  0
VERTEX
  8
1
 42
0.0
 10
4.1947849E+001
 20
1.671428E+002
 70
0
  0
SEQEND
  0
POLYLINE
  8
1
  6
CONTINUOUS
 62
3
 66
1
 40
5.0E-001
 41
5.0E-001
 70
0
  0
VERTEX
  8
1
 42
0.0
 10
4.1947849E+001
 20
1.671428E+002
 70
0
  0
VERTEX
  8
1
 42
0.0
 10
4.4447849E+001
 20
1.671428E+002
 70
0
  0
SEQEND
  0
POLYLINE
  8
1
  6
CONTINUOUS
 62
3
 66
1
 40
5.0E-001
 41
5.0E-001
 70
0
  0
VERTEX
  8
1
 42
0.0
 10
4.4447849E+001
 20
1.651428E+002
 70
0
  0
VERTEX
  8
1
 42
0.0
 10
4.4447849E+001
 20
1.671428E+002
 70
0
  0
SEQEND
  0
POLYLINE
  8
1
  6
CONTINUOUS
 62
3
 66
1
 40
5.0E-001
 41
5.0E-001
 70
0
  0
VERTEX
  8
1
 42
0.0
 10
4.1947849E+001
 20
1.651428E+002
 70
0
  0
VERTEX
  8
1
 42
0.0
 10
4.4447849E+001
 20
1.651428E+002
 70
0
  0
SEQEND
  0
POLYLINE
  8
1
  6
CONTINUOUS
 62
3
 66
1
 40
5.0E-001
 41
5.0E-001
 70
0
  0
VERTEX
  8
1
 42
0.0
 10
4.3947849E+001
 20
1.641428E+002
 70
0
  0
VERTEX
  8
1
 42
0.0
 10
4.3947849E+001
 20
1.651428E+002
 70
0
  0
SEQEND
  0
POLYLINE
  8
1
  6
CONTINUOUS
 62
3
 66
1
 40
5.0E-001
 41
5.0E-001
 70
0
  0
VERTEX
  8
1
 42
0.0
 10
4.2447849E+001
 20
1.651428E+002
 70
0
  0
VERTEX
  8
1
 42
0.0
 10
4.2447849E+001
 20
1.641428E+002
 70
0
  0
SEQEND
  0
POLYLINE
  8
1
  6
CONTINUOUS
 62
3
 66
1
 40
5.0E-001
 41
5.0E-001
 70
0
  0
VERTEX
  8
1
 42
0.0
 10
4.2447849E+001
 20
1.645927E+002
 70
0
  0
VERTEX
  8
1
 42
0.0
 10
4.3947849E+001
 20
1.645927E+002
 70
0
  0
SEQEND
  0
POLYLINE
  8
1
  6
CONTINUOUS
 62
3
 66
1
 40
5.0E-001
 41
5.0E-001
 70
0
  0
VERTEX
  8
1
 42
0.0
 10
4.2447849E+001
 20
1.641428E+002
 70
0
  0
VERTEX
  8
1
 42
0.0
 10
4.3947849E+001
 20
1.641428E+002
 70
0
  0
SEQEND
  0
POLYLINE
  8
1
  6
CONTINUOUS
 62
3
 66
1
 40
5.0E-001
 41
5.0E-001
 70
0
  0
VERTEX
  8
1
 42
0.0
 10
4.2447849E+001
 20
1.641428E+002
 70
0
  0
VERTEX
  8
1
 42
0.0
 10
4.3947849E+001
 20
1.641428E+002
 70
0
  0
SEQEND
  0
POLYLINE
  8
1
  6
CONTINUOUS
 62
3
 66
1
 40
5.0E-001
 41
5.0E-001
 70
0
  0
VERTEX
  8
1
 42
0.0
 10
4.2447849E+001
 20
1.645927E+002
 70
0
  0
VERTEX
  8
1
 42
0.0
 10
4.3947849E+001
 20
1.645927E+002
 70
0
  0
SEQEND
  0
POLYLINE
  8
1
  6
CONTINUOUS
 62
3
 66
1
 40
5.0E-001
 41
5.0E-001
 70
0
  0
VERTEX
  8
1
 42
0.0
 10
4.2447849E+001
 20
1.651428E+002
 70
0
  0
VERTEX
  8
1
 42
0.0
 10
4.2447849E+001
 20
1.641428E+002
 70
0
  0
SEQEND
  0
POLYLINE
  8
1
  6
CONTINUOUS
 62
3
 66
1
 40
5.0E-001
 41
5.0E-001
 70
0
  0
VERTEX
  8
1
 42
0.0
 10
4.3947849E+001
 20
1.641428E+002
 70
0
  0
VERTEX
  8
1
 42
0.0
 10
4.3947849E+001
 20
1.651428E+002
 70
0
  0
SEQEND
  0
POLYLINE
  8
1
  6
CONTINUOUS
 62
3
 66
1
 40
5.0E-001
 41
5.0E-001
 70
0
  0
VERTEX
  8
1
 42
0.0
 10
4.1947849E+001
 20
1.651428E+002
 70
0
  0
VERTEX
  8
1
 42
0.0
 10
4.4447849E+001
 20
1.651428E+002
 70
0
  0
SEQEND
  0
POLYLINE
  8
1
  6
CONTINUOUS
 62
3
 66
1
 40
5.0E-001
 41
5.0E-001
 70
0
  0
VERTEX
  8
1
 42
0.0
 10
4.4447849E+001
 20
1.651428E+002
 70
0
  0
VERTEX
  8
1
 42
0.0
 10
4.4447849E+001
 20
1.671428E+002
 70
0
  0
SEQEND
  0
POLYLINE
  8
1
  6
CONTINUOUS
 62
3
 66
1
 40
5.0E-001
 41
5.0E-001
 70
0
  0
VERTEX
  8
1
 42
0.0
 10
4.1947849E+001
 20
1.671428E+002
 70
0
  0
VERTEX
  8
1
 42
0.0
 10
4.4447849E+001
 20
1.671428E+002
 70
0
  0
SEQEND
  0
POLYLINE
  8
1
  6
CONTINUOUS
 62
3
 66
1
 40
5.0E-001
 41
5.0E-001
 70
0
  0
VERTEX
  8
1
 42
0.0
 10
4.1947849E+001
 20
1.651428E+002
 70
0
  0
VERTEX
  8
1
 42
0.0
 10
4.1947849E+001
 20
1.671428E+002
 70
0
  0
SEQEND
  0
POLYLINE
  8
1
  6
CONTINUOUS
 62
3
 66
1
 40
5.0E-001
 41
5.0E-001
 70
0
  0
VERTEX
  8
1
 42
0.0
 10
4.2447849E+001
 20
1.551927E+002
 70
0
  0
VERTEX
  8
1
 42
0.0
 10
4.2447849E+001
 20
1.561927E+002
 70
0
  0
SEQEND
  0
POLYLINE
  8
1
  6
CONTINUOUS
 62
3
 66
1
 40
5.0E-001
 41
5.0E-001
 70
0
  0
VERTEX
  8
1
 42
0.0
 10
4.2447849E+001
 20
1.561927E+002
 70
0
  0
VERTEX
  8
1
 42
0.0
 10
4.3947849E+001
 20
1.561927E+002
 70
0
  0
SEQEND
  0
POLYLINE
  8
1
  6
CONTINUOUS
 62
3
 66
1
 40
5.0E-001
 41
5.0E-001
 70
0
  0
VERTEX
  8
1
 42
0.0
 10
4.2447849E+001
 20
1.557428E+002
 70
0
  0
VERTEX
  8
1
 42
0.0
 10
4.3947849E+001
 20
1.557428E+002
 70
0
  0
SEQEND
  0
POLYLINE
  8
1
  6
CONTINUOUS
 62
3
 66
1
 40
5.0E-001
 41
5.0E-001
 70
0
  0
VERTEX
  8
1
 42
0.0
 10
4.3947849E+001
 20
1.561927E+002
 70
0
  0
VERTEX
  8
1
 42
0.0
 10
4.3947849E+001
 20
1.551927E+002
 70
0
  0
SEQEND
  0
POLYLINE
  8
1
  6
CONTINUOUS
 62
3
 66
1
 40
5.0E-001
 41
5.0E-001
 70
0
  0
VERTEX
  8
1
 42
0.0
 10
4.1947849E+001
 20
1.551927E+002
 70
0
  0
VERTEX
  8
1
 42
0.0
 10
4.4447849E+001
 20
1.551927E+002
 70
0
  0
SEQEND
  0
POLYLINE
  8
1
  6
CONTINUOUS
 62
3
 66
1
 40
5.0E-001
 41
5.0E-001
 70
0
  0
VERTEX
  8
1
 42
0.0
 10
4.4447849E+001
 20
1.551927E+002
 70
0
  0
VERTEX
  8
1
 42
0.0
 10
4.4447849E+001
 20
1.531927E+002
 70
0
  0
SEQEND
  0
POLYLINE
  8
1
  6
CONTINUOUS
 62
3
 66
1
 40
5.0E-001
 41
5.0E-001
 70
0
  0
VERTEX
  8
1
 42
0.0
 10
4.1947849E+001
 20
1.551927E+002
 70
0
  0
VERTEX
  8
1
 42
0.0
 10
4.1947849E+001
 20
1.531927E+002
 70
0
  0
SEQEND
  0
POLYLINE
  8
1
  6
CONTINUOUS
 62
3
 66
1
 40
5.0E-001
 41
5.0E-001
 70
0
  0
VERTEX
  8
1
 42
0.0
 10
4.1947849E+001
 20
1.531927E+002
 70
0
  0
VERTEX
  8
1
 42
0.0
 10
4.4447849E+001
 20
1.531927E+002
 70
0
  0
SEQEND
  0
POLYLINE
  8
1
  6
CONTINUOUS
 62
3
 66
1
 40
5.0E-001
 41
5.0E-001
 70
0
  0
VERTEX
  8
1
 42
0.0
 10
4.1947849E+001
 20
1.531927E+002
 70
0
  0
VERTEX
  8
1
 42
0.0
 10
4.4447849E+001
 20
1.531927E+002
 70
0
  0
SEQEND
  0
POLYLINE
  8
1
  6
CONTINUOUS
 62
3
 66
1
 40
5.0E-001
 41
5.0E-001
 70
0
  0
VERTEX
  8
1
 42
0.0
 10
4.1947849E+001
 20
1.551927E+002
 70
0
  0
VERTEX
  8
1
 42
0.0
 10
4.1947849E+001
 20
1.531927E+002
 70
0
  0
SEQEND
  0
POLYLINE
  8
1
  6
CONTINUOUS
 62
3
 66
1
 40
5.0E-001
 41
5.0E-001
 70
0
  0
VERTEX
  8
1
 42
0.0
 10
4.4447849E+001
 20
1.551927E+002
 70
0
  0
VERTEX
  8
1
 42
0.0
 10
4.4447849E+001
 20
1.531927E+002
 70
0
  0
SEQEND
  0
POLYLINE
  8
1
  6
CONTINUOUS
 62
3
 66
1
 40
5.0E-001
 41
5.0E-001
 70
0
  0
VERTEX
  8
1
 42
0.0
 10
4.1947849E+001
 20
1.551927E+002
 70
0
  0
VERTEX
  8
1
 42
0.0
 10
4.4447849E+001
 20
1.551927E+002
 70
0
  0
SEQEND
  0
POLYLINE
  8
1
  6
CONTINUOUS
 62
3
 66
1
 40
5.0E-001
 41
5.0E-001
 70
0
  0
VERTEX
  8
1
 42
0.0
 10
4.3947849E+001
 20
1.561927E+002
 70
0
  0
VERTEX
  8
1
 42
0.0
 10
4.3947849E+001
 20
1.551927E+002
 70
0
  0
SEQEND
  0
POLYLINE
  8
1
  6
CONTINUOUS
 62
3
 66
1
 40
5.0E-001
 41
5.0E-001
 70
0
  0
VERTEX
  8
1
 42
0.0
 10
4.2447849E+001
 20
1.557428E+002
 70
0
  0
VERTEX
  8
1
 42
0.0
 10
4.3947849E+001
 20
1.557428E+002
 70
0
  0
SEQEND
  0
POLYLINE
  8
1
  6
CONTINUOUS
 62
3
 66
1
 40
5.0E-001
 41
5.0E-001
 70
0
  0
VERTEX
  8
1
 42
0.0
 10
4.2447849E+001
 20
1.561927E+002
 70
0
  0
VERTEX
  8
1
 42
0.0
 10
4.3947849E+001
 20
1.561927E+002
 70
0
  0
SEQEND
  0
POLYLINE
  8
1
  6
CONTINUOUS
 62
3
 66
1
 40
5.0E-001
 41
5.0E-001
 70
0
  0
VERTEX
  8
1
 42
0.0
 10
4.2447849E+001
 20
1.551927E+002
 70
0
  0
VERTEX
  8
1
 42
0.0
 10
4.2447849E+001
 20
1.561927E+002
 70
0
  0
SEQEND
  0
POLYLINE
  8
1
  6
CONTINUOUS
 62
3
 66
1
 40
5.0E-001
 41
5.0E-001
 70
0
  0
VERTEX
  8
1
 42
0.0
 10
6.3897869E+001
 20
1.515927E+002
 70
0
  0
VERTEX
  8
1
 42
0.0
 10
6.3897869E+001
 20
1.531927E+002
 70
0
  0
SEQEND
  0
POLYLINE
  8
1
  6
CONTINUOUS
 62
3
 66
1
 40
5.0E-001
 41
5.0E-001
 70
0
  0
VERTEX
  8
1
 42
0.0
 10
6.0397869E+001
 20
1.515927E+002
 70
0
  0
VERTEX
  8
1
 42
0.0
 10
6.0397869E+001
 20
1.531927E+002
 70
0
  0
SEQEND
  0
POLYLINE
  8
1
  6
CONTINUOUS
 62
3
 66
1
 40
5.0E-001
 41
5.0E-001
 70
0
  0
VERTEX
  8
1
 42
0.0
 10
5.8897869E+001
 20
1.531927E+002
 70
0
  0
VERTEX
  8
1
 42
0.0
 10
5.8897869E+001
 20
1.515927E+002
 70
0
  0
SEQEND
  0
POLYLINE
  8
1
  6
CONTINUOUS
 62
3
 66
1
 40
5.0E-001
 41
5.0E-001
 70
0
  0
VERTEX
  8
1
 42
0.0
 10
1.5345671E+002
 20
1.521928E+002
 70
0
  0
VERTEX
  8
1
 42
0.0
 10
1.7145671E+002
 20
1.521928E+002
 70
0
  0
SEQEND
  0
POLYLINE
  8
1
  6
CONTINUOUS
 62
3
 66
1
 40
5.0E-001
 41
5.0E-001
 70
0
  0
VERTEX
  8
1
 42
0.0
 10
1.3545671E+002
 20
1.515928E+002
 70
0
  0
VERTEX
  8
1
 42
0.0
 10
1.7145671E+002
 20
1.515928E+002
 70
0
  0
SEQEND
  0
POLYLINE
  8
1
  6
CONTINUOUS
 62
3
 66
1
 40
5.0E-001
 41
5.0E-001
 70
0
  0
VERTEX
  8
1
 42
0.0
 10
1.7545671E+002
 20
1.597928E+002
 70
0
  0
VERTEX
  8
1
 42
0.0
 10
1.7545671E+002
 20
1.631928E+002
 70
0
  0
SEQEND
  0
POLYLINE
  8
1
  6
CONTINUOUS
 62
3
 66
1
 40
5.0E-001
 41
5.0E-001
 70
0
  0
VERTEX
  8
1
 42
0.0
 10
1.7645671E+002
 20
1.631928E+002
 70
0
  0
VERTEX
  8
1
 42
0.0
 10
1.7145671E+002
 20
1.631928E+002
 70
0
  0
SEQEND
  0
POLYLINE
  8
1
  6
CONTINUOUS
 62
3
 66
1
 40
5.0E-001
 41
5.0E-001
 70
0
  0
VERTEX
  8
1
 42
0.0
 10
1.7245671E+002
 20
1.709428E+002
 70
0
  0
VERTEX
  8
1
 42
0.0
 10
1.7645671E+002
 20
1.709428E+002
 70
0
  0
SEQEND
  0
POLYLINE
  8
1
  6
CONTINUOUS
 62
3
 66
1
 40
5.0E-001
 41
5.0E-001
 70
0
  0
VERTEX
  8
1
 42
0.0
 10
1.7545671E+002
 20
1.607428E+002
 70
0
  0
VERTEX
  8
1
 42
0.0
 10
1.7145671E+002
 20
1.607428E+002
 70
0
  0
SEQEND
  0
POLYLINE
  8
1
  6
CONTINUOUS
 62
3
 66
1
 40
5.0E-001
 41
5.0E-001
 70
0
  0
VERTEX
  8
1
 42
0.0
 10
1.7145671E+002
 20
1.622428E+002
 70
0
  0
VERTEX
  8
1
 42
0.0
 10
1.7545671E+002
 20
1.622428E+002
 70
0
  0
SEQEND
  0
POLYLINE
  8
1
  6
CONTINUOUS
 62
3
 66
1
 40
5.0E-001
 41
5.0E-001
 70
0
  0
VERTEX
  8
1
 42
0.0
 10
1.8045671E+002
 20
1.617248E+002
 70
0
  0
VERTEX
  8
1
 42
0.0
 10
1.8045671E+002
 20
1.612607E+002
 70
0
  0
SEQEND
  0
POLYLINE
  8
1
  6
CONTINUOUS
 62
3
 66
1
 40
5.0E-001
 41
5.0E-001
 70
0
  0
VERTEX
  8
1
 42
0.0
 10
1.7945671E+002
 20
1.609928E+002
 70
0
  0
VERTEX
  8
1
 42
0.0
 10
1.7795671E+002
 20
1.609928E+002
 70
0
  0
SEQEND
  0
POLYLINE
  8
1
  6
CONTINUOUS
 62
3
 66
1
 40
5.0E-001
 41
5.0E-001
 70
0
  0
VERTEX
  8
1
 42
0.0
 10
1.7945671E+002
 20
1.619928E+002
 70
0
  0
VERTEX
  8
1
 42
0.0
 10
1.7795671E+002
 20
1.619928E+002
 70
0
  0
SEQEND
  0
POLYLINE
  8
1
  6
CONTINUOUS
 62
3
 66
1
 40
5.0E-001
 41
5.0E-001
 70
0
  0
VERTEX
  8
1
 42
0.0
 10
1.7945671E+002
 20
1.619928E+002
 70
0
  0
VERTEX
  8
1
 42
0.0
 10
1.8045671E+002
 20
1.617248E+002
 70
0
  0
SEQEND
  0
POLYLINE
  8
1
  6
CONTINUOUS
 62
3
 66
1
 40
5.0E-001
 41
5.0E-001
 70
0
  0
VERTEX
  8
1
 42
0.0
 10
1.6495671E+002
 20
1.741928E+002
 70
0
  0
VERTEX
  8
1
 42
0.0
 10
1.6495671E+002
 20
1.651928E+002
 70
0
  0
SEQEND
  0
POLYLINE
  8
1
  6
CONTINUOUS
 62
3
 66
1
 40
5.0E-001
 41
5.0E-001
 70
0
  0
VERTEX
  8
1
 42
0.0
 10
1.6895671E+002
 20
1.651928E+002
 70
0
  0
VERTEX
  8
1
 42
0.0
 10
1.6495671E+002
 20
1.651928E+002
 70
0
  0
SEQEND
  0
POLYLINE
  8
1
  6
CONTINUOUS
 62
3
 66
1
 40
5.0E-001
 41
5.0E-001
 70
0
  0
VERTEX
  8
1
 42
0.0
 10
1.6495671E+002
 20
1.696928E+002
 70
0
  0
VERTEX
  8
1
 42
0.0
 10
1.6995671E+002
 20
1.696928E+002
 70
0
  0
SEQEND
  0
POLYLINE
  8
1
  6
CONTINUOUS
 62
3
 66
1
 40
5.0E-001
 41
5.0E-001
 70
0
  0
VERTEX
  8
1
 42
0.0
 10
1.6995171E+002
 20
1.626928E+002
 70
0
  0
VERTEX
  8
1
 42
0.0
 10
1.6495671E+002
 20
1.626928E+002
 70
0
  0
SEQEND
  0
POLYLINE
  8
1
  6
CONTINUOUS
 62
3
 66
1
 40
5.0E-001
 41
5.0E-001
 70
0
  0
VERTEX
  8
1
 42
0.0
 10
1.6995671E+002
 20
1.696928E+002
 70
0
  0
VERTEX
  8
1
 42
0.0
 10
1.6995671E+002
 20
1.626928E+002
 70
0
  0
SEQEND
  0
POLYLINE
  8
1
  6
CONTINUOUS
 62
3
 66
1
 40
5.0E-001
 41
5.0E-001
 70
0
  0
VERTEX
  8
1
 42
0.0
 10
1.6295671E+002
 20
1.530928E+002
 70
0
  0
VERTEX
  8
1
 42
0.0
 10
1.6295671E+002
 20
1.527928E+002
 70
0
  0
SEQEND
  0
POLYLINE
  8
1
  6
CONTINUOUS
 62
3
 66
1
 40
5.0E-001
 41
5.0E-001
 70
0
  0
VERTEX
  8
1
 42
0.0
 10
1.5345671E+002
 20
1.521928E+002
 70
0
  0
VERTEX
  8
1
 42
0.0
 10
1.5345671E+002
 20
1.528928E+002
 70
0
  0
SEQEND
  0
POLYLINE
  8
1
  6
CONTINUOUS
 62
3
 66
1
 40
5.0E-001
 41
5.0E-001
 70
0
  0
VERTEX
  8
1
 42
4.1421356E-001
 10
1.7245671E+002
 20
1.709428E+002
 70
0
  0
VERTEX
  8
1
 42
0.0
 10
1.7145671E+002
 20
1.699428E+002
 70
0
  0
SEQEND
  0
POLYLINE
  8
1
  6
CONTINUOUS
 62
3
 66
1
 40
5.0E-001
 41
5.0E-001
 70
0
  0
VERTEX
  8
1
 42
0.0
 10
1.6895671E+002
 20
1.696928E+002
 70
0
  0
VERTEX
  8
1
 42
0.0
 10
1.6895671E+002
 20
1.626928E+002
 70
0
  0
SEQEND
  0
POLYLINE
  8
1
  6
CONTINUOUS
 62
3
 66
1
 40
5.0E-001
 41
5.0E-001
 70
0
  0
VERTEX
  8
1
 42
0.0
 10
1.3845671E+002
 20
1.530928E+002
 70
0
  0
VERTEX
  8
1
 42
0.0
 10
1.3845671E+002
 20
1.515928E+002
 70
0
  0
SEQEND
  0
POLYLINE
  8
1
  6
CONTINUOUS
 62
3
 66
1
 40
5.0E-001
 41
5.0E-001
 70
0
  0
VERTEX
  8
1
 42
0.0
 10
1.6295671E+002
 20
1.527928E+002
 70
0
  0
VERTEX
  8
1
 42
0.0
 10
1.5346291E+002
 20
1.527928E+002
 70
0
  0
SEQEND
  0
TEXT
  8
1
  6
CONTINUOUS
 62
4
 10
5.2837216E+001
 20
2.1212456E+002
 40
2.7
  1
10,16
 41
7.0E-001
  0
DIMENSION
  8
1
  6
CONTINUOUS
 62
4
  1
       
  2
*D1946
  3
DSTYLE1
 10
6.2457869E+001
 20
2.106172E+002
 11
5.7206639E+001
 21
2.136182E+002
 70
128
 13
5.2297859E+001
 23
1.889141E+002
 14
6.2457869E+001
 24
1.889141E+002
 40
1.25E-001
 50
0.0
  0
POLYLINE
  8
1
  6
CONTINUOUS
 62
3
 66
1
 40
5.0E-001
 41
5.0E-001
 70
0
  0
VERTEX
  8
1
 42
6.3253294E-002
 10
1.5348211E+002
 20
1.530928E+002
 70
0
  0
VERTEX
  8
1
 42
0.0
 10
1.5345671E+002
 20
1.528928E+002
 70
0
  0
SEQEND
  0
TEXT
  8
1
  6
CONTINUOUS
 62
4
 10
7.6585007E+001
 20
2.1215577E+002
 40
2.7
  1
7,62
 41
7.0E-001
  0
DIMENSION
  8
1
  6
CONTINUOUS
 62
4
  1
       
  2
*D1949
  3
DSTYLE1
 10
8.0237859E+001
 20
2.106172E+002
 11
7.6666953E+001
 21
2.136182E+002
 70
128
 13
7.2617869E+001
 23
1.889141E+002
 14
8.0237859E+001
 24
1.889141E+002
 40
1.25E-001
 50
0.0
  0
DIMENSION
  8
1
  6
CONTINUOUS
 62
4
  2
*D1950
  3
DSTYLE1
 10
1.8045671E+002
 20
2.174972E+002
 11
1.8357371E+002
 21
2.204982E+002
 70
128
 13
1.7645671E+002
 23
1.981354E+002
 14
1.8045671E+002
 24
1.866608E+002
 40
1.25E-001
 50
0.0
  0
POLYLINE
  8
1
  6
CONTINUOUS
 62
3
 66
1
 40
5.0E-001
 41
5.0E-001
 70
0
  0
VERTEX
  8
1
 42
0.0
 10
1.3545671E+002
 20
1.520928E+002
 70
0
  0
VERTEX
  8
1
 42
0.0
 10
1.3818401E+002
 20
1.530928E+002
 70
0
  0
SEQEND
  0
TEXT
  8
1
  6
CONTINUOUS
 62
4
 10
6.2938311E+001
 20
2.12131E+002
 40
2.7
  1
10,16
 41
7.0E-001
  0
DIMENSION
  8
1
  6
CONTINUOUS
 62
4
  1
       
  2
*D1953
  3
DSTYLE1
 10
7.2617869E+001
 20
2.106172E+002
 11
6.7133579E+001
 21
2.136182E+002
 70
128
 13
6.2457869E+001
 23
1.889141E+002
 14
7.2617869E+001
 24
1.889141E+002
 40
1.25E-001
 50
0.0
  0
POLYLINE
  8
1
  6
CONTINUOUS
 62
3
 66
1
 40
5.0E-001
 41
5.0E-001
 70
0
  0
VERTEX
  8
1
 42
0.0
 10
1.7145671E+002
 20
1.885928E+002
 70
0
  0
VERTEX
  8
1
 42
0.0
 10
1.7645671E+002
 20
1.885928E+002
 70
0
  0
SEQEND
  0
POLYLINE
  8
1
  6
CONTINUOUS
 62
3
 66
1
 40
5.0E-001
 41
5.0E-001
 70
0
  0
VERTEX
  8
1
 42
0.0
 10
1.7645671E+002
 20
1.851928E+002
 70
0
  0
VERTEX
  8
1
 42
0.0
 10
1.7145671E+002
 20
1.851928E+002
 70
0
  0
SEQEND
  0
POLYLINE
  8
1
  6
CONTINUOUS
 62
3
 66
1
 40
5.0E-001
 41
5.0E-001
 70
0
  0
VERTEX
  8
1
 42
0.0
 10
1.7545671E+002
 20
1.885928E+002
 70
0
  0
VERTEX
  8
1
 42
0.0
 10
1.7545671E+002
 20
1.851928E+002
 70
0
  0
SEQEND
  0
POLYLINE
  8
1
  6
CONTINUOUS
 62
3
 66
1
 40
5.0E-001
 41
5.0E-001
 70
0
  0
VERTEX
  8
1
 42
0.0
 10
1.7545671E+002
 20
1.876428E+002
 70
0
  0
VERTEX
  8
1
 42
0.0
 10
1.7145671E+002
 20
1.876428E+002
 70
0
  0
SEQEND
  0
POLYLINE
  8
1
  6
CONTINUOUS
 62
3
 66
1
 40
5.0E-001
 41
5.0E-001
 70
0
  0
VERTEX
  8
1
 42
0.0
 10
1.7145671E+002
 20
1.861428E+002
 70
0
  0
VERTEX
  8
1
 42
0.0
 10
1.7545671E+002
 20
1.861428E+002
 70
0
  0
SEQEND
  0
POLYLINE
  8
1
  6
CONTINUOUS
 62
3
 66
1
 40
5.0E-001
 41
5.0E-001
 70
0
  0
VERTEX
  8
1
 42
0.0
 10
1.7945671E+002
 20
1.873928E+002
 70
0
  0
VERTEX
  8
1
 42
0.0
 10
1.8045671E+002
 20
1.871248E+002
 70
0
  0
SEQEND
  0
POLYLINE
  8
1
  6
CONTINUOUS
 62
3
 66
1
 40
5.0E-001
 41
5.0E-001
 70
0
  0
VERTEX
  8
1
 42
0.0
 10
1.7945671E+002
 20
1.863928E+002
 70
0
  0
VERTEX
  8
1
 42
0.0
 10
1.8045671E+002
 20
1.866607E+002
 70
0
  0
SEQEND
  0
POLYLINE
  8
1
  6
CONTINUOUS
 62
3
 66
1
 40
5.0E-001
 41
5.0E-001
 70
0
  0
VERTEX
  8
1
 42
0.0
 10
1.8045671E+002
 20
1.866607E+002
 70
0
  0
VERTEX
  8
1
 42
0.0
 10
1.8045671E+002
 20
1.8685376E+002
 70
0
  0
SEQEND
  0
LINE
  8
1
  6
CONTINUOUS
 62
4
 10
1.7645671E+002
 20
1.873928E+002
 11
1.7645671E+002
 21
1.885928E+002
  0
POLYLINE
  8
1
  6
CONTINUOUS
 62
3
 66
1
 40
5.0E-001
 41
5.0E-001
 70
0
  0
VERTEX
  8
1
 42
0.0
 10
1.7645671E+002
 20
1.851928E+002
 70
0
  0
VERTEX
  8
1
 42
0.0
 10
1.7645671E+002
 20
1.863928E+002
 70
0
  0
SEQEND
  0
POLYLINE
  8
1
  6
CONTINUOUS
 62
3
 66
1
 40
5.0E-001
 41
5.0E-001
 70
0
  0
VERTEX
  8
1
 42
0.0
 10
1.6995671E+002
 20
1.786928E+002
 70
0
  0
VERTEX
  8
1
 42
0.0
 10
1.6995671E+002
 20
1.856928E+002
 70
0
  0
SEQEND
  0
POLYLINE
  8
1
  6
CONTINUOUS
 62
3
 66
1
 40
5.0E-001
 41
5.0E-001
 70
0
  0
VERTEX
  8
1
 42
0.0
 10
1.6995171E+002
 20
1.856928E+002
 70
0
  0
VERTEX
  8
1
 42
0.0
 10
1.6495671E+002
 20
1.856928E+002
 70
0
  0
SEQEND
  0
POLYLINE
  8
1
  6
CONTINUOUS
 62
3
 66
1
 40
5.0E-001
 41
5.0E-001
 70
0
  0
VERTEX
  8
1
 42
0.0
 10
1.6495671E+002
 20
1.786928E+002
 70
0
  0
VERTEX
  8
1
 42
0.0
 10
1.6995671E+002
 20
1.786928E+002
 70
0
  0
SEQEND
  0
POLYLINE
  8
1
  6
CONTINUOUS
 62
3
 66
1
 40
5.0E-001
 41
5.0E-001
 70
0
  0
VERTEX
  8
1
 42
0.0
 10
1.6495671E+002
 20
1.741928E+002
 70
0
  0
VERTEX
  8
1
 42
0.0
 10
1.6495671E+002
 20
1.831928E+002
 70
0
  0
SEQEND
  0
LINE
  8
1
  6
CONTINUOUS
 62
4
 10
1.7645671E+002
 20
1.741928E+002
 11
1.7645671E+002
 21
1.774428E+002
  0
INSERT
  2
*E1969
  8
1
 10
1.7245671E+002
 20
1.784428E+002
 41
1.0
 42
1.0
 43
1.0
 50
2.7E+002
 62
3
  0
POLYLINE
  8
1
  6
CONTINUOUS
 62
3
 66
1
 40
5.0E-001
 41
5.0E-001
 70
0
  0
VERTEX
  8
1
 42
0.0
 10
1.7245671E+002
 20
1.774428E+002
 70
0
  0
VERTEX
  8
1
 42
0.0
 10
1.7645671E+002
 20
1.774428E+002
 70
0
  0
SEQEND
  0
POLYLINE
  8
1
  6
CONTINUOUS
 62
3
 66
1
 40
5.0E-001
 41
5.0E-001
 70
0
  0
VERTEX
  8
1
 42
0.0
 10
1.3545671E+002
 20
1.967928E+002
 70
0
  0
VERTEX
  8
1
 42
0.0
 10
1.7145671E+002
 20
1.967928E+002
 70
0
  0
SEQEND
  0
POLYLINE
  8
1
  6
CONTINUOUS
 62
3
 66
1
 40
5.0E-001
 41
5.0E-001
 70
0
  0
VERTEX
  8
1
 42
0.0
 10
1.5345671E+002
 20
1.961928E+002
 70
0
  0
VERTEX
  8
1
 42
0.0
 10
1.7145671E+002
 20
1.961928E+002
 70
0
  0
SEQEND
  0
POLYLINE
  8
1
  6
CONTINUOUS
 62
3
 66
1
 40
5.0E-001
 41
5.0E-001
 70
0
  0
VERTEX
  8
1
 42
0.0
 10
1.3545671E+002
 20
1.967928E+002
 70
0
  0
VERTEX
  8
1
 42
0.0
 10
1.3545671E+002
 20
1.962928E+002
 70
0
  0
SEQEND
  0
POLYLINE
  8
1
  6
CONTINUOUS
 62
3
 66
1
 40
5.0E-001
 41
5.0E-001
 70
0
  0
VERTEX
  8
1
 42
0.0
 10
1.6895671E+002
 20
1.786928E+002
 70
0
  0
VERTEX
  8
1
 42
0.0
 10
1.6895671E+002
 20
1.856928E+002
 70
0
  0
SEQEND
  0
POLYLINE
  8
1
  6
CONTINUOUS
 62
3
 66
1
 40
5.0E-001
 41
5.0E-001
 70
0
  0
VERTEX
  8
1
 42
0.0
 10
1.6895671E+002
 20
1.831928E+002
 70
0
  0
VERTEX
  8
1
 42
0.0
 10
1.6495671E+002
 20
1.831928E+002
 70
0
  0
SEQEND
  0
POLYLINE
  8
1
  6
CONTINUOUS
 62
3
 66
1
 40
5.0E-001
 41
5.0E-001
 70
0
  0
VERTEX
  8
1
 42
0.0
 10
1.7145671E+002
 20
1.741928E+002
 70
0
  0
VERTEX
  8
1
 42
0.0
 10
1.7145671E+002
 20
1.967928E+002
 70
0
  0
SEQEND
  0
POLYLINE
  8
1
  6
CONTINUOUS
 62
3
 66
1
 40
5.0E-001
 41
5.0E-001
 70
0
  0
VERTEX
  8
1
 42
0.0
 10
1.6495671E+002
 20
1.856928E+002
 70
0
  0
VERTEX
  8
1
 42
0.0
 10
1.6495671E+002
 20
1.961928E+002
 70
0
  0
SEQEND
  0
POLYLINE
  8
1
  6
CONTINUOUS
 62
3
 66
1
 40
5.0E-001
 41
5.0E-001
 70
0
  0
VERTEX
  8
1
 42
0.0
 10
1.6295671E+002
 20
1.955928E+002
 70
0
  0
VERTEX
  8
1
 42
0.0
 10
1.5346291E+002
 20
1.955928E+002
 70
0
  0
SEQEND
  0
POLYLINE
  8
1
  6
CONTINUOUS
 62
3
 66
1
 40
5.0E-001
 41
5.0E-001
 70
0
  0
VERTEX
  8
1
 42
0.0
 10
1.6295671E+002
 20
1.952928E+002
 70
0
  0
VERTEX
  8
1
 42
0.0
 10
1.6295671E+002
 20
1.955928E+002
 70
0
  0
SEQEND
  0
INSERT
  2
*E1980
  8
1
 10
1.5425671E+002
 20
1.954928E+002
 41
1.0
 42
1.0
 43
1.0
 50
2.7E+002
 62
3
  0
POLYLINE
  8
1
  6
CONTINUOUS
 62
3
 66
1
 40
5.0E-001
 41
5.0E-001
 70
0
  0
VERTEX
  8
1
 42
0.0
 10
1.5345671E+002
 20
1.961928E+002
 70
0
  0
VERTEX
  8
1
 42
0.0
 10
1.5345671E+002
 20
1.954928E+002
 70
0
  0
SEQEND
  0
POLYLINE
  8
1
  6
CONTINUOUS
 62
3
 66
1
 40
5.0E-001
 41
5.0E-001
 70
0
  0
VERTEX
  8
1
 42
0.0
 10
1.3845671E+002
 20
1.951928E+002
 70
0
  0
VERTEX
  8
1
 42
0.0
 10
1.3845671E+002
 20
1.967928E+002
 70
0
  0
SEQEND
  0
POLYLINE
  8
1
  6
CONTINUOUS
 62
3
 66
1
 40
5.0E-001
 41
5.0E-001
 70
0
  0
VERTEX
  8
1
 42
0.0
 10
1.3545671E+002
 20
1.962928E+002
 70
0
  0
VERTEX
  8
1
 42
0.0
 10
1.3818411E+002
 20
1.952928E+002
 70
0
  0
SEQEND
  0
DIMENSION
  8
1
  6
CONTINUOUS
 62
4
  2
*D1984
  3
DSTYLE1
 10
1.2345671E+002
 20
2.106172E+002
 11
1.4813521E+002
 21
2.136182E+002
 70
128
 13
1.7645671E+002
 23
1.981354E+002
 14
1.2345671E+002
 24
1.916929E+002
 40
1.25E-001
 50
0.0
  0
LINE
  8
1
  6
CENTERLINE
 62
1
 10
6.1397869E+001
 20
1.981206E+002
 11
6.1397869E+001
 21
1.501191E+002
  0
LINE
  8
1
  6
CENTERLINE
 62
1
 10
8.0237859E+001
 20
1.635052E+002
 11
8.0237859E+001
 21
1.594715E+002
  0
LINE
  8
1
  6
CENTERLINE
 62
1
 10
7.2617869E+001
 20
1.635052E+002
 11
7.2617869E+001
 21
1.594715E+002
  0
LINE
  8
1
  6
CENTERLINE
 62
1
 10
6.2457869E+001
 20
1.635052E+002
 11
6.2457869E+001
 21
1.594715E+002
  0
LINE
  8
1
  6
CENTERLINE
 62
1
 10
5.2297859E+001
 20
1.635052E+002
 11
5.2297859E+001
 21
1.594715E+002
  0
LINE
  8
1
  6
CENTERLINE
 62
1
 10
4.2137849E+001
 20
1.635052E+002
 11
4.2137849E+001
 21
1.594715E+002
  0
LINE
  8
1
  6
CENTERLINE
 62
1
 10
1.6763491E+002
 20
1.614928E+002
 11
1.7955011E+002
 21
1.614928E+002
  0
LINE
  8
1
  6
CENTERLINE
 62
1
 10
1.2140891E+002
 20
1.741928E+002
 11
1.7994641E+002
 21
1.741928E+002
  0
LINE
  8
1
  6
CENTERLINE
 62
1
 10
3.7965309E+001
 20
1.614928E+002
 11
8.4112649E+001
 21
1.614928E+002
  0
POLYLINE
  8
1
  6
CONTINUOUS
 62
3
 66
1
 40
5.0E-001
 41
5.0E-001
 70
0
  0
VERTEX
  8
1
 42
0.0
 10
6.0397869E+001
 20
1.967928E+002
 70
0
  0
VERTEX
  8
1
 42
0.0
 10
7.0397869E+001
 20
1.967928E+002
 70
0
  0
SEQEND
  0
POLYLINE
  8
1
  6
CONTINUOUS
 62
3
 66
1
 40
5.0E-001
 41
5.0E-001
 70
0
  0
VERTEX
  8
1
 42
0.0
 10
6.0397869E+001
 20
1.515927E+002
 70
0
  0
VERTEX
  8
1
 42
0.0
 10
7.0397869E+001
 20
1.515927E+002
 70
0
  0
SEQEND
  0
POLYLINE
  8
1
  6
CONTINUOUS
 62
3
 66
1
 40
5.0E-001
 41
5.0E-001
 70
0
  0
VERTEX
  8
1
 42
0.0
 10
8.5147869E+001
 20
1.526927E+002
 70
0
  0
VERTEX
  8
1
 42
0.0
 10
8.5147869E+001
 20
1.956928E+002
 70
0
  0
SEQEND
  0
POLYLINE
  8
1
  6
CONTINUOUS
 62
3
 66
1
 40
5.0E-001
 41
5.0E-001
 70
0
  0
VERTEX
  8
1
 42
0.0
 10
3.7647859E+001
 20
1.526927E+002
 70
0
  0
VERTEX
  8
1
 42
0.0
 10
3.7647859E+001
 20
1.726927E+002
 70
0
  0
SEQEND
  0
POLYLINE
  8
1
  6
CONTINUOUS
 62
3
 66
1
 40
5.0E-001
 41
5.0E-001
 70
0
  0
VERTEX
  8
1
 42
0.0
 10
3.7647859E+001
 20
1.756928E+002
 70
0
  0
VERTEX
  8
1
 42
0.0
 10
3.7647859E+001
 20
1.956928E+002
 70
0
  0
SEQEND
  0
LINE
  8
1
  6
CENTERLINE
 62
1
 10
4.2137849E+001
 20
1.848803E+002
 11
4.2137849E+001
 21
1.88914E+002
  0
LINE
  8
1
  6
CENTERLINE
 62
1
 10
5.2297859E+001
 20
1.848803E+002
 11
5.2297859E+001
 21
1.88914E+002
  0
LINE
  8
1
  6
CENTERLINE
 62
1
 10
6.2457869E+001
 20
1.848803E+002
 11
6.2457869E+001
 21
1.88914E+002
  0
LINE
  8
1
  6
CENTERLINE
 62
1
 10
7.2617869E+001
 20
1.848803E+002
 11
7.2617869E+001
 21
1.88914E+002
  0
LINE
  8
1
  6
CENTERLINE
 62
1
 10
8.0237859E+001
 20
1.848803E+002
 11
8.0237859E+001
 21
1.88914E+002
  0
LINE
  8
1
  6
CONTINUOUS
 62
4
 10
1.7645671E+002
 20
1.631928E+002
 11
1.7645671E+002
 21
1.619928E+002
  0
POLYLINE
  8
1
  6
CONTINUOUS
 62
3
 66
1
 40
5.0E-001
 41
5.0E-001
 70
0
  0
VERTEX
  8
1
 42
0.0
 10
1.7145671E+002
 20
1.741928E+002
 70
0
  0
VERTEX
  8
1
 42
0.0
 10
1.7145671E+002
 20
1.515928E+002
 70
0
  0
SEQEND
  0
POLYLINE
  8
1
  6
CONTINUOUS
 62
3
 66
1
 40
5.0E-001
 41
5.0E-001
 70
0
  0
VERTEX
  8
1
 42
0.0
 10
1.6495671E+002
 20
1.626928E+002
 70
0
  0
VERTEX
  8
1
 42
0.0
 10
1.6495671E+002
 20
1.521928E+002
 70
0
  0
SEQEND
  0
POLYLINE
  8
1
  6
CONTINUOUS
 62
3
 66
1
 40
5.0E-001
 41
5.0E-001
 70
0
  0
VERTEX
  8
1
 42
0.0
 10
1.7145671E+002
 20
1.597928E+002
 70
0
  0
VERTEX
  8
1
 42
0.0
 10
1.7645671E+002
 20
1.597928E+002
 70
0
  0
SEQEND
  0
POLYLINE
  8
1
  6
CONTINUOUS
 62
3
 66
1
 40
5.0E-001
 41
5.0E-001
 70
0
  0
VERTEX
  8
1
 42
0.0
 10
1.7945671E+002
 20
1.609928E+002
 70
0
  0
VERTEX
  8
1
 42
0.0
 10
1.8045671E+002
 20
1.612607E+002
 70
0
  0
SEQEND
  0
LINE
  8
1
  6
CONTINUOUS
 62
4
 10
1.7645671E+002
 20
1.609928E+002
 11
1.7645671E+002
 21
1.597928E+002
  0
POLYLINE
  8
1
  6
CONTINUOUS
 62
3
 66
1
 40
5.0E-001
 41
5.0E-001
 70
0
  0
VERTEX
  8
1
 42
0.0
 10
1.3545671E+002
 20
1.515928E+002
 70
0
  0
VERTEX
  8
1
 42
0.0
 10
1.3545671E+002
 20
1.520928E+002
 70
0
  0
SEQEND
  0
POLYLINE
  8
1
  6
CONTINUOUS
 62
3
 66
1
 40
5.0E-001
 41
5.0E-001
 70
0
  0
VERTEX
  8
1
 42
0.0
 10
1.7945671E+002
 20
1.863928E+002
 70
0
  0
VERTEX
  8
1
 42
0.0
 10
1.7795671E+002
 20
1.863928E+002
 70
0
  0
SEQEND
  0
POLYLINE
  8
1
  6
CONTINUOUS
 62
3
 66
1
 40
5.0E-001
 41
5.0E-001
 70
0
  0
VERTEX
  8
1
 42
0.0
 10
1.7945671E+002
 20
1.873928E+002
 70
0
  0
VERTEX
  8
1
 42
0.0
 10
1.7795671E+002
 20
1.873928E+002
 70
0
  0
SEQEND
  0
POLYLINE
  8
1
  6
CONTINUOUS
 62
3
 66
1
 40
5.0E-001
 41
5.0E-001
 70
0
  0
VERTEX
  8
1
 42
0.0
 10
1.7945671E+002
 20
1.609928E+002
 70
0
  0
VERTEX
  8
1
 42
0.0
 10
1.7945671E+002
 20
1.619928E+002
 70
0
  0
SEQEND
  0
POLYLINE
  8
1
  6
CONTINUOUS
 62
3
 66
1
 40
5.0E-001
 41
5.0E-001
 70
0
  0
VERTEX
  8
1
 42
0.0
 10
1.7945671E+002
 20
1.863928E+002
 70
0
  0
VERTEX
  8
1
 42
0.0
 10
1.7945671E+002
 20
1.873928E+002
 70
0
  0
SEQEND
  0
LINE
  8
1
  6
CENTERLINE
 62
1
 10
1.6763491E+002
 20
1.868928E+002
 11
1.7955011E+002
 21
1.868928E+002
  0
POLYLINE
  8
1
  6
CONTINUOUS
 62
3
 66
1
 40
5.0E-001
 41
5.0E-001
 70
0
  0
VERTEX
  8
1
 42
0.0
 10
1.7645671E+002
 20
1.619928E+002
 70
0
  0
VERTEX
  8
1
 42
0.0
 10
1.7545671E+002
 20
1.619928E+002
 70
0
  0
SEQEND
  0
POLYLINE
  8
1
  6
CONTINUOUS
 62
3
 66
1
 40
5.0E-001
 41
5.0E-001
 70
0
  0
VERTEX
  8
1
 42
0.0
 10
1.7645671E+002
 20
1.609928E+002
 70
0
  0
VERTEX
  8
1
 42
0.0
 10
1.7545671E+002
 20
1.609928E+002
 70
0
  0
SEQEND
  0
POLYLINE
  8
1
  6
CONTINUOUS
 62
3
 66
1
 40
5.0E-001
 41
5.0E-001
 70
0
  0
VERTEX
  8
1
 42
0.0
 10
1.7645671E+002
 20
1.863928E+002
 70
0
  0
VERTEX
  8
1
 42
0.0
 10
1.7545671E+002
 20
1.863928E+002
 70
0
  0
SEQEND
  0
POLYLINE
  8
1
  6
CONTINUOUS
 62
3
 66
1
 40
5.0E-001
 41
5.0E-001
 70
0
  0
VERTEX
  8
1
 42
0.0
 10
1.7645671E+002
 20
1.873928E+002
 70
0
  0
VERTEX
  8
1
 42
0.0
 10
1.7545671E+002
 20
1.873928E+002
 70
0
  0
SEQEND
  0
LINE
  8
1
  6
CONTINUOUS
 62
4
 10
1.7795671E+002
 20
1.741928E+002
 11
1.7795671E+002
 21
1.500871E+002
  0
LINE
  8
1
  6
CONTINUOUS
 62
4
 10
1.7795671E+002
 20
1.741928E+002
 11
1.7795671E+002
 21
1.982985E+002
  0
LINE
  8
1
  6
CONTINUOUS
 62
4
 10
1.7645671E+002
 20
1.981353E+002
 11
1.7645671E+002
 21
1.741928E+002
  0
LINE
  8
1
  6
CONTINUOUS
 62
4
 10
1.7645671E+002
 20
1.502503E+002
 11
1.7645671E+002
 21
1.741928E+002
  0
POLYLINE
  8
1
  6
CONTINUOUS
 62
4
 66
1
 40
0.0
 41
0.0
 70
2
  0
VERTEX
  8
1
 42
0.0
 10
1.7645671E+002
 20
1.981353E+002
 70
0
  0
VERTEX
  8
1
 42
1.621422E-004
 10
1.7646468E+002
 20
1.9813367E+002
 70
1
  0
VERTEX
  8
1
 42
1.649657E-004
 10
1.7647265E+002
 20
1.9813205E+002
 70
0
  0
VERTEX
  8
1
 42
1.622153E-004
 10
1.7648062E+002
 20
1.9813043E+002
 70
1
  0
VERTEX
  8
1
 42
1.531884E-004
 10
1.764886E+002
 20
1.9812882E+002
 70
0
  0
VERTEX
  8
1
 42
1.465349E-004
 10
1.7649657E+002
 20
1.9812721E+002
 70
1
  0
VERTEX
  8
1
 42
1.40556E-004
 10
1.7650455E+002
 20
1.981256E+002
 70
0
  0
VERTEX
  8
1
 42
1.348306E-004
 10
1.7651252E+002
 20
1.9812401E+002
 70
1
  0
VERTEX
  8
1
 42
1.27897E-004
 10
1.765205E+002
 20
1.9812241E+002
 70
0
  0
VERTEX
  8
1
 42
1.221727E-004
 10
1.7652848E+002
 20
1.9812082E+002
 70
1
  0
VERTEX
  8
1
 42
1.161961E-004
 10
1.7653646E+002
 20
1.9811923E+002
 70
0
  0
VERTEX
  8
1
 42
1.09536E-004
 10
1.7654444E+002
 20
1.9811765E+002
 70
1
  0
VERTEX
  8
1
 42
1.00492E-004
 10
1.7655242E+002
 20
1.9811607E+002
 70
0
  0
VERTEX
  8
1
 42
1.023934E-004
 10
1.765604E+002
 20
1.9811449E+002
 70
1
  0
VERTEX
  8
1
 42
1.157262E-004
 10
1.7656838E+002
 20
1.9811292E+002
 70
0
  0
VERTEX
  8
1
 42
1.311618E-004
 10
1.7657636E+002
 20
1.9811135E+002
 70
1
  0
VERTEX
  8
1
 42
1.526403E-004
 10
1.7658434E+002
 20
1.9810978E+002
 70
0
  0
VERTEX
  8
1
 42
1.70824E-004
 10
1.7659233E+002
 20
1.9810822E+002
 70
1
  0
VERTEX
  8
1
 42
1.903544E-004
 10
1.7660031E+002
 20
1.9810667E+002
 70
0
  0
VERTEX
  8
1
 42
2.07946E-004
 10
1.766083E+002
 20
1.9810512E+002
 70
1
  0
VERTEX
  8
1
 42
2.28089E-004
 10
1.7661629E+002
 20
1.9810358E+002
 70
0
  0
VERTEX
  8
1
 42
2.456776E-004
 10
1.7662428E+002
 20
1.9810205E+002
 70
1
  0
VERTEX
  8
1
 42
2.652011E-004
 10
1.7663227E+002
 20
1.9810052E+002
 70
0
  0
VERTEX
  8
1
 42
2.833983E-004
 10
1.7664026E+002
 20
1.9809901E+002
 70
1
  0
VERTEX
  8
1
 42
3.049133E-004
 10
1.7664826E+002
 20
1.980975E+002
 70
0
  0
VERTEX
  8
1
 42
3.197597E-004
 10
1.7665625E+002
 20
1.98096E+002
 70
1
  0
VERTEX
  8
1
 42
3.317271E-004
 10
1.7666425E+002
 20
1.9809452E+002
 70
0
  0
VERTEX
  8
1
 42
3.37441E-004
 10
1.7667225E+002
 20
1.9809304E+002
 70
1
  0
VERTEX
  8
1
 42
3.383606E-004
 10
1.7668025E+002
 20
1.9809158E+002
 70
0
  0
VERTEX
  8
1
 42
3.401174E-004
 10
1.7668826E+002
 20
1.9809012E+002
 70
1
  0
VERTEX
  8
1
 42
3.4316E-004
 10
1.7669626E+002
 20
1.9808868E+002
 70
0
  0
VERTEX
  8
1
 42
3.455916E-004
 10
1.7670427E+002
 20
1.9808725E+002
 70
1
  0
VERTEX
  8
1
 42
3.480329E-004
 10
1.7671228E+002
 20
1.9808583E+002
 70
0
  0
VERTEX
  8
1
 42
3.503797E-004
 10
1.7672029E+002
 20
1.9808442E+002
 70
1
  0
VERTEX
  8
1
 42
3.53231E-004
 10
1.7672831E+002
 20
1.9808302E+002
 70
0
  0
VERTEX
  8
1
 42
3.552657E-004
 10
1.7673632E+002
 20
1.9808164E+002
 70
1
  0
VERTEX
  8
1
 42
3.57003E-004
 10
1.7674434E+002
 20
1.9808026E+002
 70
0
  0
VERTEX
  8
1
 42
3.605491E-004
 10
1.7675236E+002
 20
1.980789E+002
 70
1
  0
VERTEX
  8
1
 42
3.668102E-004
 10
1.7676039E+002
 20
1.9807755E+002
 70
0
  0
VERTEX
  8
1
 42
3.789452E-004
 10
1.7676841E+002
 20
1.9807621E+002
 70
1
  0
VERTEX
  8
1
 42
4.000536E-004
 10
1.7677644E+002
 20
1.9807488E+002
 70
0
  0
VERTEX
  8
1
 42
4.179704E-004
 10
1.7678446E+002
 20
1.9807357E+002
 70
1
  0
VERTEX
  8
1
 42
4.372687E-004
 10
1.767925E+002
 20
1.9807227E+002
 70
0
  0
VERTEX
  8
1
 42
4.545911E-004
 10
1.7680053E+002
 20
1.9807098E+002
 70
1
  0
VERTEX
  8
1
 42
4.743588E-004
 10
1.7680856E+002
 20
1.9806971E+002
 70
0
  0
VERTEX
  8
1
 42
4.918296E-004
 10
1.768166E+002
 20
1.9806846E+002
 70
1
  0
VERTEX
  8
1
 42
5.114619E-004
 10
1.7682464E+002
 20
1.9806722E+002
 70
0
  0
VERTEX
  8
1
 42
5.289232E-004
 10
1.7683268E+002
 20
1.98066E+002
 70
1
  0
VERTEX
  8
1
 42
5.486698E-004
 10
1.7684073E+002
 20
1.9806479E+002
 70
0
  0
VERTEX
  8
1
 42
5.660288E-004
 10
1.7684878E+002
 20
1.9806361E+002
 70
1
  0
VERTEX
  8
1
 42
5.854323E-004
 10
1.7685683E+002
 20
1.9806244E+002
 70
0
  0
VERTEX
  8
1
 42
6.007297E-004
 10
1.7686488E+002
 20
1.9806129E+002
 70
1
  0
VERTEX
  8
1
 42
6.15836E-004
 10
1.7687294E+002
 20
1.9806016E+002
 70
0
  0
VERTEX
  8
1
 42
6.293066E-004
 10
1.76881E+002
 20
1.9805905E+002
 70
1
  0
VERTEX
  8
1
 42
6.445803E-004
 10
1.7688906E+002
 20
1.9805796E+002
 70
0
  0
VERTEX
  8
1
 42
6.581147E-004
 10
1.7689713E+002
 20
1.980569E+002
 70
1
  0
VERTEX
  8
1
 42
6.733638E-004
 10
1.769052E+002
 20
1.9805585E+002
 70
0
  0
VERTEX
  8
1
 42
6.868966E-004
 10
1.7691327E+002
 20
1.9805483E+002
 70
1
  0
VERTEX
  8
1
 42
7.021664E-004
 10
1.7692134E+002
 20
1.9805383E+002
 70
0
  0
VERTEX
  8
1
 42
7.157119E-004
 10
1.7692942E+002
 20
1.9805285E+002
 70
1
  0
VERTEX
  8
1
 42
7.309896E-004
 10
1.769375E+002
 20
1.980519E+002
 70
0
  0
VERTEX
  8
1
 42
7.445378E-004
 10
1.7694558E+002
 20
1.9805097E+002
 70
1
  0
VERTEX
  8
1
 42
7.59815E-004
 10
1.7695366E+002
 20
1.9805006E+002
 70
0
  0
VERTEX
  8
1
 42
7.736199E-004
 10
1.7696175E+002
 20
1.9804918E+002
 70
1
  0
VERTEX
  8
1
 42
7.894889E-004
 10
1.7696984E+002
 20
1.9804832E+002
 70
0
  0
VERTEX
  8
1
 42
8.035836E-004
 10
1.7697793E+002
 20
1.9804749E+002
 70
1
  0
VERTEX
  8
1
 42
8.195029E-004
 10
1.7698603E+002
 20
1.9804669E+002
 70
0
  0
VERTEX
  8
1
 42
8.3363E-004
 10
1.7699413E+002
 20
1.9804592E+002
 70
1
  0
VERTEX
  8
1
 42
8.4957E-004
 10
1.7700223E+002
 20
1.9804517E+002
 70
0
  0
VERTEX
  8
1
 42
8.637086E-004
 10
1.7701033E+002
 20
1.9804445E+002
 70
1
  0
VERTEX
  8
1
 42
8.796536E-004
 10
1.7701844E+002
 20
1.9804375E+002
 70
0
  0
VERTEX
  8
1
 42
8.938274E-004
 10
1.7702655E+002
 20
1.9804309E+002
 70
1
  0
VERTEX
  8
1
 42
9.098483E-004
 10
1.7703466E+002
 20
1.9804246E+002
 70
0
  0
VERTEX
  8
1
 42
9.2395E-004
 10
1.7704277E+002
 20
1.9804185E+002
 70
1
  0
VERTEX
  8
1
 42
9.39734E-004
 10
1.7705089E+002
 20
1.9804128E+002
 70
0
  0
VERTEX
  8
1
 42
9.568368E-004
 10
1.7705901E+002
 20
1.9804073E+002
 70
1
  0
VERTEX
  8
1
 42
9.79653E-004
 10
1.7706713E+002
 20
1.9804022E+002
 70
0
  0
VERTEX
  8
1
 42
1.0001501E-003
 10
1.7707525E+002
 20
1.9803974E+002
 70
1
  0
VERTEX
  8
1
 42
1.023564E-003
 10
1.7708337E+002
 20
1.980393E+002
 70
0
  0
VERTEX
  8
1
 42
1.0442923E-003
 10
1.770915E+002
 20
1.9803889E+002
 70
1
  0
VERTEX
  8
1
 42
1.0676224E-003
 10
1.7709962E+002
 20
1.9803851E+002
 70
0
  0
VERTEX
  8
1
 42
1.0883504E-003
 10
1.7710775E+002
 20
1.9803817E+002
 70
1
  0
VERTEX
  8
1
 42
1.1117613E-003
 10
1.7711588E+002
 20
1.9803786E+002
 70
0
  0
VERTEX
  8
1
 42
1.1325323E-003
 10
1.7712401E+002
 20
1.9803759E+002
 70
1
  0
VERTEX
  8
1
 42
1.1559602E-003
 10
1.7713215E+002
 20
1.9803736E+002
 70
0
  0
VERTEX
  8
1
 42
1.1767602E-003
 10
1.7714028E+002
 20
1.9803716E+002
 70
1
  0
VERTEX
  8
1
 42
1.2002413E-003
 10
1.7714842E+002
 20
1.9803701E+002
 70
0
  0
VERTEX
  8
1
 42
1.21788E-003
 10
1.7715655E+002
 20
1.9803689E+002
 70
1
  0
VERTEX
  8
1
 42
1.2342214E-003
 10
1.7716469E+002
 20
1.9803681E+002
 70
0
  0
VERTEX
  8
1
 42
1.2486416E-003
 10
1.7717282E+002
 20
1.9803678E+002
 70
1
  0
VERTEX
  8
1
 42
1.2648268E-003
 10
1.7718096E+002
 20
1.9803679E+002
 70
0
  0
VERTEX
  8
1
 42
1.2792442E-003
 10
1.771891E+002
 20
1.9803683E+002
 70
1
  0
VERTEX
  8
1
 42
1.2955733E-003
 10
1.7719723E+002
 20
1.9803692E+002
 70
0
  0
VERTEX
  8
1
 42
1.3100872E-003
 10
1.7720537E+002
 20
1.9803706E+002
 70
1
  0
VERTEX
  8
1
 42
1.3264889E-003
 10
1.772135E+002
 20
1.9803723E+002
 70
0
  0
VERTEX
  8
1
 42
1.341041E-003
 10
1.7722163E+002
 20
1.9803745E+002
 70
1
  0
VERTEX
  8
1
 42
1.3574568E-003
 10
1.7722977E+002
 20
1.9803771E+002
 70
0
  0
VERTEX
  8
1
 42
1.3721308E-003
 10
1.772379E+002
 20
1.9803802E+002
 70
1
  0
VERTEX
  8
1
 42
1.3888181E-003
 10
1.7724603E+002
 20
1.9803837E+002
 70
0
  0
VERTEX
  8
1
 42
1.4045467E-003
 10
1.7725415E+002
 20
1.9803877E+002
 70
1
  0
VERTEX
  8
1
 42
1.423383E-003
 10
1.7726228E+002
 20
1.9803922E+002
 70
0
  0
VERTEX
  8
1
 42
1.4400961E-003
 10
1.772704E+002
 20
1.9803971E+002
 70
1
  0
VERTEX
  8
1
 42
1.4589504E-003
 10
1.7727852E+002
 20
1.9804025E+002
 70
0
  0
VERTEX
  8
1
 42
1.4757704E-003
 10
1.7728663E+002
 20
1.9804083E+002
 70
1
  0
VERTEX
  8
1
 42
1.494843E-003
 10
1.7729475E+002
 20
1.9804147E+002
 70
0
  0
VERTEX
  8
1
 42
1.5117057E-003
 10
1.7730285E+002
 20
1.9804215E+002
 70
1
  0
VERTEX
  8
1
 42
1.5306534E-003
 10
1.7731096E+002
 20
1.9804289E+002
 70
0
  0
VERTEX
  8
1
 42
1.5479132E-003
 10
1.7731906E+002
 20
1.9804367E+002
 70
1
  0
VERTEX
  8
1
 42
1.5678802E-003
 10
1.7732715E+002
 20
1.9804451E+002
 70
0
  0
VERTEX
  8
1
 42
1.5838912E-003
 10
1.7733524E+002
 20
1.9804539E+002
 70
1
  0
VERTEX
  8
1
 42
1.6000466E-003
 10
1.7734332E+002
 20
1.9804633E+002
 70
0
  0
VERTEX
  8
1
 42
1.6097701E-003
 10
1.773514E+002
 20
1.9804732E+002
 70
1
  0
VERTEX
  8
1
 42
1.6155902E-003
 10
1.7735947E+002
 20
1.9804836E+002
 70
0
  0
VERTEX
  8
1
 42
1.6214606E-003
 10
1.7736753E+002
 20
1.9804946E+002
 70
1
  0
VERTEX
  8
1
 42
1.62888E-003
 10
1.7737559E+002
 20
1.980506E+002
 70
0
  0
VERTEX
  8
1
 42
1.6353684E-003
 10
1.7738363E+002
 20
1.9805181E+002
 70
1
  0
VERTEX
  8
1
 42
1.6425846E-003
 10
1.7739167E+002
 20
1.9805306E+002
 70
0
  0
VERTEX
  8
1
 42
1.6491043E-003
 10
1.7739971E+002
 20
1.9805436E+002
 70
1
  0
VERTEX
  8
1
 42
1.656591E-003
 10
1.7740773E+002
 20
1.9805572E+002
 70
0
  0
VERTEX
  8
1
 42
1.6632461E-003
 10
1.7741574E+002
 20
1.9805714E+002
 70
1
  0
VERTEX
  8
1
 42
1.6707652E-003
 10
1.7742375E+002
 20
1.980586E+002
 70
0
  0
VERTEX
  8
1
 42
1.677709E-003
 10
1.7743174E+002
 20
1.9806013E+002
 70
1
  0
VERTEX
  8
1
 42
1.6858651E-003
 10
1.7743972E+002
 20
1.980617E+002
 70
0
  0
VERTEX
  8
1
 42
1.6933804E-003
 10
1.7744769E+002
 20
1.9806333E+002
 70
1
  0
VERTEX
  8
1
 42
1.7021876E-003
 10
1.7745566E+002
 20
1.9806501E+002
 70
0
  0
VERTEX
  8
1
 42
1.710036E-003
 10
1.7746361E+002
 20
1.9806675E+002
 70
1
  0
VERTEX
  8
1
 42
1.7189244E-003
 10
1.7747154E+002
 20
1.9806854E+002
 70
0
  0
VERTEX
  8
1
 42
1.7269011E-003
 10
1.7747947E+002
 20
1.9807039E+002
 70
1
  0
VERTEX
  8
1
 42
1.7359993E-003
 10
1.7748738E+002
 20
1.9807229E+002
 70
0
  0
VERTEX
  8
1
 42
1.744111E-003
 10
1.7749528E+002
 20
1.9807425E+002
 70
1
  0
VERTEX
  8
1
 42
1.7533074E-003
 10
1.7750316E+002
 20
1.9807627E+002
 70
0
  0
VERTEX
  8
1
 42
1.7616259E-003
 10
1.7751103E+002
 20
1.9807834E+002
 70
1
  0
VERTEX
  8
1
 42
1.7711898E-003
 10
1.7751889E+002
 20
1.9808046E+002
 70
0
  0
VERTEX
  8
1
 42
1.7789956E-003
 10
1.7752673E+002
 20
1.9808264E+002
 70
1
  0
VERTEX
  8
1
 42
1.7870921E-003
 10
1.7753455E+002
 20
1.9808488E+002
 70
0
  0
VERTEX
  8
1
 42
1.7941292E-003
 10
1.7754236E+002
 20
1.9808717E+002
 70
1
  0
VERTEX
  8
1
 42
1.8019266E-003
 10
1.7755015E+002
 20
1.9808952E+002
 70
0
  0
VERTEX
  8
1
 42
1.8090059E-003
 10
1.7755792E+002
 20
1.9809193E+002
 70
1
  0
VERTEX
  8
1
 42
1.817167E-003
 10
1.7756568E+002
 20
1.9809439E+002
 70
0
  0
VERTEX
  8
1
 42
1.8245289E-003
 10
1.7757342E+002
 20
1.9809691E+002
 70
1
  0
VERTEX
  8
1
 42
1.8329588E-003
 10
1.7758113E+002
 20
1.9809949E+002
 70
0
  0
VERTEX
  8
1
 42
1.8404432E-003
 10
1.7758883E+002
 20
1.9810212E+002
 70
1
  0
VERTEX
  8
1
 42
1.8488731E-003
 10
1.7759651E+002
 20
1.9810481E+002
 70
0
  0
VERTEX
  8
1
 42
1.8568731E-003
 10
1.7760417E+002
 20
1.9810756E+002
 70
1
  0
VERTEX
  8
1
 42
1.866465E-003
 10
1.7761181E+002
 20
1.9811037E+002
 70
0
  0
VERTEX
  8
1
 42
1.860377E-003
 10
1.7761943E+002
 20
1.9811323E+002
 70
1
  0
VERTEX
  8
1
 42
1.837E-003
 10
1.7762702E+002
 20
1.9811615E+002
 70
0
  0
VERTEX
  8
1
 42
1.8153383E-003
 10
1.776346E+002
 20
1.9811912E+002
 70
1
  0
VERTEX
  8
1
 42
1.7898741E-003
 10
1.7764215E+002
 20
1.9812215E+002
 70
0
  0
VERTEX
  8
1
 42
1.7676061E-003
 10
1.7764968E+002
 20
1.9812523E+002
 70
1
  0
VERTEX
  8
1
 42
1.7428763E-003
 10
1.7765719E+002
 20
1.9812837E+002
 70
0
  0
VERTEX
  8
1
 42
1.7209264E-003
 10
1.7766468E+002
 20
1.9813156E+002
 70
1
  0
VERTEX
  8
1
 42
1.6961799E-003
 10
1.7767214E+002
 20
1.981348E+002
 70
0
  0
VERTEX
  8
1
 42
1.6744453E-003
 10
1.7767958E+002
 20
1.9813809E+002
 70
1
  0
VERTEX
  8
1
 42
1.6501962E-003
 10
1.77687E+002
 20
1.9814143E+002
 70
0
  0
VERTEX
  8
1
 42
1.6283511E-003
 10
1.776944E+002
 20
1.9814482E+002
 70
1
  0
VERTEX
  8
1
 42
1.6033299E-003
 10
1.7770178E+002
 20
1.9814825E+002
 70
0
  0
VERTEX
  8
1
 42
1.5750733E-003
 10
1.7770913E+002
 20
1.9815174E+002
 70
1
  0
VERTEX
  8
1
 42
1.5362998E-003
 10
1.7771646E+002
 20
1.9815527E+002
 70
0
  0
VERTEX
  8
1
 42
1.502289E-003
 10
1.7772377E+002
 20
1.9815884E+002
 70
1
  0
VERTEX
  8
1
 42
1.4643283E-003
 10
1.7773106E+002
 20
1.9816246E+002
 70
0
  0
VERTEX
  8
1
 42
1.4302206E-003
 10
1.7773833E+002
 20
1.9816612E+002
 70
1
  0
VERTEX
  8
1
 42
1.3913738E-003
 10
1.7774558E+002
 20
1.9816982E+002
 70
0
  0
VERTEX
  8
1
 42
1.3586067E-003
 10
1.777528E+002
 20
1.9817357E+002
 70
1
  0
VERTEX
  8
1
 42
1.32309E-003
 10
1.7776001E+002
 20
1.9817734E+002
 70
0
  0
VERTEX
  8
1
 42
1.2861017E-003
 10
1.7776719E+002
 20
1.9818116E+002
 70
1
  0
VERTEX
  8
1
 42
1.239835E-003
 10
1.7777436E+002
 20
1.9818502E+002
 70
0
  0
VERTEX
  8
1
 42
1.2182881E-003
 10
1.777815E+002
 20
1.981889E+002
 70
1
  0
VERTEX
  8
1
 42
1.2096061E-003
 10
1.7778863E+002
 20
1.9819283E+002
 70
0
  0
VERTEX
  8
1
 42
1.165382E-003
 10
1.7779575E+002
 20
1.9819679E+002
 70
1
  0
VERTEX
  8
1
 42
1.0975712E-003
 10
1.7780282E+002
 20
1.9820078E+002
 70
0
  0
VERTEX
  8
1
 42
1.2285623E-003
 10
1.7780983E+002
 20
1.9820477E+002
 70
1
  0
VERTEX
  8
1
 42
1.4878177E-003
 10
1.7781694E+002
 20
1.9820886E+002
 70
0
  0
VERTEX
  8
1
 42
1.129775E-003
 10
1.7782418E+002
 20
1.9821309E+002
 70
1
  0
VERTEX
  8
1
 42
3.686987E-004
 10
1.7783097E+002
 20
1.9821708E+002
 70
0
  0
VERTEX
  8
1
 42
1.6304369E-003
 10
1.778371E+002
 20
1.982207E+002
 70
1
  0
VERTEX
  8
1
 42
2.8533529E-003
 10
1.7784493E+002
 20
1.9822544E+002
 70
0
  0
VERTEX
  8
1
 42
1.397112E-003
 10
1.7785693E+002
 20
1.9823284E+002
 70
1
  0
VERTEX
  8
1
 42
7.374407E-004
 10
1.7787261E+002
 20
1.982426E+002
 70
0
  0
SEQEND
  0
POLYLINE
  8
1
  6
CONTINUOUS
 62
4
 66
1
 40
0.0
 41
0.0
 70
2
  0
VERTEX
  8
1
 42
0.0
 10
1.7645671E+002
 20
1.502503E+002
 70
0
  0
VERTEX
  8
1
 42
-1.739241E-004
 10
1.7646468E+002
 20
1.5025193E+002
 70
1
  0
VERTEX
  8
1
 42
-1.75172E-004
 10
1.7647265E+002
 20
1.5025356E+002
 70
0
  0
VERTEX
  8
1
 42
-1.73959E-004
 10
1.7648062E+002
 20
1.5025518E+002
 70
1
  0
VERTEX
  8
1
 42
-1.699743E-004
 10
1.7648859E+002
 20
1.502568E+002
 70
0
  0
VERTEX
  8
1
 42
-1.670376E-004
 10
1.7649657E+002
 20
1.5025841E+002
 70
1
  0
VERTEX
  8
1
 42
-1.643983E-004
 10
1.7650454E+002
 20
1.5026001E+002
 70
0
  0
VERTEX
  8
1
 42
-1.61871E-004
 10
1.7651252E+002
 20
1.5026161E+002
 70
1
  0
VERTEX
  8
1
 42
-1.5881E-004
 10
1.765205E+002
 20
1.5026321E+002
 70
0
  0
VERTEX
  8
1
 42
-1.562828E-004
 10
1.7652847E+002
 20
1.502648E+002
 70
1
  0
VERTEX
  8
1
 42
-1.536442E-004
 10
1.7653645E+002
 20
1.5026638E+002
 70
0
  0
VERTEX
  8
1
 42
-1.507031E-004
 10
1.7654443E+002
 20
1.5026796E+002
 70
1
  0
VERTEX
  8
1
 42
-1.46709E-004
 10
1.7655241E+002
 20
1.5026953E+002
 70
0
  0
VERTEX
  8
1
 42
-1.475489E-004
 10
1.765604E+002
 20
1.5027111E+002
 70
1
  0
VERTEX
  8
1
 42
-1.534377E-004
 10
1.7656838E+002
 20
1.5027267E+002
 70
0
  0
VERTEX
  8
1
 42
-1.60253E-004
 10
1.7657636E+002
 20
1.5027423E+002
 70
1
  0
VERTEX
  8
1
 42
-1.697347E-004
 10
1.7658435E+002
 20
1.5027579E+002
 70
0
  0
VERTEX
  8
1
 42
-1.777721E-004
 10
1.7659233E+002
 20
1.5027734E+002
 70
1
  0
VERTEX
  8
1
 42
-1.864171E-004
 10
1.7660032E+002
 20
1.5027888E+002
 70
0
  0
VERTEX
  8
1
 42
-1.941618E-004
 10
1.7660831E+002
 20
1.5028042E+002
 70
1
  0
VERTEX
  8
1
 42
-2.029827E-004
 10
1.766163E+002
 20
1.5028195E+002
 70
0
  0
VERTEX
  8
1
 42
-2.108494E-004
 10
1.7662429E+002
 20
1.5028347E+002
 70
1
  0
VERTEX
  8
1
 42
-2.197702E-004
 10
1.7663228E+002
 20
1.5028499E+002
 70
0
  0
VERTEX
  8
1
 42
-2.274179E-004
 10
1.7664028E+002
 20
1.502865E+002
 70
1
  0
VERTEX
  8
1
 42
-2.357442E-004
 10
1.7664827E+002
 20
1.50288E+002
 70
0
  0
VERTEX
  8
1
 42
-2.4444E-004
 10
1.7665627E+002
 20
1.502895E+002
 70
1
  0
VERTEX
  8
1
 42
-2.557257E-004
 10
1.7666427E+002
 20
1.5029099E+002
 70
0
  0
VERTEX
  8
1
 42
-2.672494E-004
 10
1.7667227E+002
 20
1.5029247E+002
 70
1
  0
VERTEX
  8
1
 42
-2.819539E-004
 10
1.7668027E+002
 20
1.5029394E+002
 70
0
  0
VERTEX
  8
1
 42
-2.947058E-004
 10
1.7668827E+002
 20
1.502954E+002
 70
1
  0
VERTEX
  8
1
 42
-3.087598E-004
 10
1.7669627E+002
 20
1.5029685E+002
 70
0
  0
VERTEX
  8
1
 42
-3.212971E-004
 10
1.7670428E+002
 20
1.5029829E+002
 70
1
  0
VERTEX
  8
1
 42
-3.355179E-004
 10
1.7671229E+002
 20
1.5029972E+002
 70
0
  0
VERTEX
  8
1
 42
-3.481108E-004
 10
1.767203E+002
 20
1.5030114E+002
 70
1
  0
VERTEX
  8
1
 42
-3.622899E-004
 10
1.7672831E+002
 20
1.5030255E+002
 70
0
  0
VERTEX
  8
1
 42
-3.748697E-004
 10
1.7673633E+002
 20
1.5030394E+002
 70
1
  0
VERTEX
  8
1
 42
-3.89061E-004
 10
1.7674434E+002
 20
1.5030533E+002
 70
0
  0
VERTEX
  8
1
 42
-4.01641E-004
 10
1.7675236E+002
 20
1.503067E+002
 70
1
  0
VERTEX
  8
1
 42
-4.15822E-004
 10
1.7676038E+002
 20
1.5030805E+002
 70
0
  0
VERTEX
  8
1
 42
-4.28389E-004
 10
1.7676841E+002
 20
1.503094E+002
 70
1
  0
VERTEX
  8
1
 42
-4.425534E-004
 10
1.7677643E+002
 20
1.5031073E+002
 70
0
  0
VERTEX
  8
1
 42
-4.551187E-004
 10
1.7678446E+002
 20
1.5031204E+002
 70
1
  0
VERTEX
  8
1
 42
-4.692918E-004
 10
1.7679249E+002
 20
1.5031334E+002
 70
0
  0
VERTEX
  8
1
 42
-4.818623E-004
 10
1.7680052E+002
 20
1.5031463E+002
 70
1
  0
VERTEX
  8
1
 42
-4.960388E-004
 10
1.7680856E+002
 20
1.503159E+002
 70
0
  0
VERTEX
  8
1
 42
-5.086152E-004
 10
1.768166E+002
 20
1.5031715E+002
 70
1
  0
VERTEX
  8
1
 42
-5.228016E-004
 10
1.7682464E+002
 20
1.5031839E+002
 70
0
  0
VERTEX
  8
1
 42
-5.353733E-004
 10
1.7683268E+002
 20
1.5031961E+002
 70
1
  0
VERTEX
  8
1
 42
-5.49539E-004
 10
1.7684073E+002
 20
1.5032081E+002
 70
0
  0
VERTEX
  8
1
 42
-5.621422E-004
 10
1.7684877E+002
 20
1.5032199E+002
 70
1
  0
VERTEX
  8
1
 42
-5.764007E-004
 10
1.7685683E+002
 20
1.5032316E+002
 70
0
  0
VERTEX
  8
1
 42
-5.895753E-004
 10
1.7686488E+002
 20
1.5032431E+002
 70
1
  0
VERTEX
  8
1
 42
-6.050363E-004
 10
1.7687294E+002
 20
1.5032543E+002
 70
0
  0
VERTEX
  8
1
 42
-6.187342E-004
 10
1.76881E+002
 20
1.5032654E+002
 70
1
  0
VERTEX
  8
1
 42
-6.341657E-004
 10
1.7688906E+002
 20
1.5032763E+002
 70
0
  0
VERTEX
  8
1
 42
-6.478608E-004
 10
1.7689712E+002
 20
1.503287E+002
 70
1
  0
VERTEX
  8
1
 42
-6.633148E-004
 10
1.7690519E+002
 20
1.5032974E+002
 70
0
  0
VERTEX
  8
1
 42
-6.77021E-004
 10
1.7691326E+002
 20
1.5033076E+002
 70
1
  0
VERTEX
  8
1
 42
-6.924772E-004
 10
1.7692134E+002
 20
1.5033177E+002
 70
0
  0
VERTEX
  8
1
 42
-7.061934E-004
 10
1.7692941E+002
 20
1.5033274E+002
 70
1
  0
VERTEX
  8
1
 42
-7.21671E-004
 10
1.7693749E+002
 20
1.503337E+002
 70
0
  0
VERTEX
  8
1
 42
-7.353708E-004
 10
1.7694557E+002
 20
1.5033463E+002
 70
1
  0
VERTEX
  8
1
 42
-7.507913E-004
 10
1.7695366E+002
 20
1.5033554E+002
 70
0
  0
VERTEX
  8
1
 42
-7.667524E-004
 10
1.7696174E+002
 20
1.5033642E+002
 70
1
  0
VERTEX
  8
1
 42
-7.873462E-004
 10
1.7696983E+002
 20
1.5033728E+002
 70
0
  0
VERTEX
  8
1
 42
-8.057231E-004
 10
1.7697793E+002
 20
1.5033811E+002
 70
1
  0
VERTEX
  8
1
 42
-8.265756E-004
 10
1.7698602E+002
 20
1.5033892E+002
 70
0
  0
VERTEX
  8
1
 42
-8.45055E-004
 10
1.7699412E+002
 20
1.5033969E+002
 70
1
  0
VERTEX
  8
1
 42
-8.658762E-004
 10
1.7700222E+002
 20
1.5034044E+002
 70
0
  0
VERTEX
  8
1
 42
-8.84366E-004
 10
1.7701033E+002
 20
1.5034117E+002
 70
1
  0
VERTEX
  8
1
 42
-9.052401E-004
 10
1.7701843E+002
 20
1.5034186E+002
 70
0
  0
VERTEX
  8
1
 42
-9.23735E-004
 10
1.7702654E+002
 20
1.5034252E+002
 70
1
  0
VERTEX
  8
1
 42
-9.445682E-004
 10
1.7703465E+002
 20
1.5034315E+002
 70
0
  0
VERTEX
  8
1
 42
-9.631457E-004
 10
1.7704277E+002
 20
1.5034375E+002
 70
1
  0
VERTEX
  8
1
 42
-9.842078E-004
 10
1.7705088E+002
 20
1.5034432E+002
 70
0
  0
VERTEX
  8
1
 42
-1.000165E-003
 10
1.77059E+002
 20
1.5034486E+002
 70
1
  0
VERTEX
  8
1
 42
-1.0151147E-003
 10
1.7706712E+002
 20
1.5034536E+002
 70
0
  0
VERTEX
  8
1
 42
-1.028183E-003
 10
1.7707524E+002
 20
1.5034583E+002
 70
1
  0
VERTEX
  8
1
 42
-1.0427101E-003
 10
1.7708336E+002
 20
1.5034627E+002
 70
0
  0
VERTEX
  8
1
 42
-1.0556669E-003
 10
1.7709149E+002
 20
1.5034667E+002
 70
1
  0
VERTEX
  8
1
 42
-1.0703602E-003
 10
1.7709962E+002
 20
1.5034704E+002
 70
0
  0
VERTEX
  8
1
 42
-1.0833944E-003
 10
1.7710775E+002
 20
1.5034737E+002
 70
1
  0
VERTEX
  8
1
 42
-1.098096E-003
 10
1.7711588E+002
 20
1.5034767E+002
 70
0
  0
VERTEX
  8
1
 42
-1.1111558E-003
 10
1.7712401E+002
 20
1.5034793E+002
 70
1
  0
VERTEX
  8
1
 42
-1.125908E-003
 10
1.7713214E+002
 20
1.5034816E+002
 70
0
  0
VERTEX
  8
1
 42
-1.1389837E-003
 10
1.7714028E+002
 20
1.5034834E+002
 70
1
  0
VERTEX
  8
1
 42
-1.153725E-003
 10
1.7714841E+002
 20
1.5034849E+002
 70
0
  0
VERTEX
  8
1
 42
-1.1703587E-003
 10
1.7715655E+002
 20
1.5034861E+002
 70
1
  0
VERTEX
  8
1
 42
-1.1931719E-003
 10
1.7716468E+002
 20
1.5034868E+002
 70
0
  0
VERTEX
  8
1
 42
-1.2135674E-003
 10
1.7717282E+002
 20
1.5034871E+002
 70
1
  0
VERTEX
  8
1
 42
-1.2367537E-003
 10
1.7718095E+002
 20
1.5034871E+002
 70
0
  0
VERTEX
  8
1
 42
-1.2573349E-003
 10
1.7718909E+002
 20
1.5034866E+002
 70
1
  0
VERTEX
  8
1
 42
-1.2805576E-003
 10
1.7719723E+002
 20
1.5034857E+002
 70
0
  0
VERTEX
  8
1
 42
-1.3011623E-003
 10
1.7720536E+002
 20
1.5034844E+002
 70
1
  0
VERTEX
  8
1
 42
-1.3243993E-003
 10
1.772135E+002
 20
1.5034827E+002
 70
0
  0
VERTEX
  8
1
 42
-1.3451727E-003
 10
1.7722163E+002
 20
1.5034805E+002
 70
1
  0
VERTEX
  8
1
 42
-1.3687756E-003
 10
1.7722976E+002
 20
1.5034779E+002
 70
0
  0
VERTEX
  8
1
 42
-1.3891777E-003
 10
1.7723789E+002
 20
1.5034748E+002
 70
1
  0
VERTEX
  8
1
 42
-1.4115902E-003
 10
1.7724602E+002
 20
1.5034713E+002
 70
0
  0
VERTEX
  8
1
 42
-1.4264369E-003
 10
1.7725415E+002
 20
1.5034673E+002
 70
1
  0
VERTEX
  8
1
 42
-1.4375579E-003
 10
1.7726227E+002
 20
1.5034628E+002
 70
0
  0
VERTEX
  8
1
 42
-1.4477476E-003
 10
1.7727039E+002
 20
1.5034579E+002
 70
1
  0
VERTEX
  8
1
 42
-1.4596106E-003
 10
1.7727851E+002
 20
1.5034525E+002
 70
0
  0
VERTEX
  8
1
 42
-1.4701064E-003
 10
1.7728663E+002
 20
1.5034466E+002
 70
1
  0
VERTEX
  8
1
 42
-1.4819166E-003
 10
1.7729474E+002
 20
1.5034402E+002
 70
0
  0
VERTEX
  8
1
 42
-1.4924892E-003
 10
1.7730285E+002
 20
1.5034334E+002
 70
1
  0
VERTEX
  8
1
 42
-1.5045241E-003
 10
1.7731095E+002
 20
1.503426E+002
 70
0
  0
VERTEX
  8
1
 42
-1.5151047E-003
 10
1.7731905E+002
 20
1.5034182E+002
 70
1
  0
VERTEX
  8
1
 42
-1.5269303E-003
 10
1.7732714E+002
 20
1.5034099E+002
 70
0
  0
VERTEX
  8
1
 42
-1.5380209E-003
 10
1.7733523E+002
 20
1.5034011E+002
 70
1
  0
VERTEX
  8
1
 42
-1.5512287E-003
 10
1.7734331E+002
 20
1.5033917E+002
 70
0
  0
VERTEX
  8
1
 42
-1.56454E-003
 10
1.7735139E+002
 20
1.5033819E+002
 70
1
  0
VERTEX
  8
1
 42
-1.5813987E-003
 10
1.7735946E+002
 20
1.5033716E+002
 70
0
  0
VERTEX
  8
1
 42
-1.5962096E-003
 10
1.7736753E+002
 20
1.5033607E+002
 70
1
  0
VERTEX
  8
1
 42
-1.6127452E-003
 10
1.7737558E+002
 20
1.5033493E+002
 70
0
  0
VERTEX
  8
1
 42
-1.6275917E-003
 10
1.7738363E+002
 20
1.5033374E+002
 70
1
  0
VERTEX
  8
1
 42
-1.6445284E-003
 10
1.7739167E+002
 20
1.503325E+002
 70
0
  0
VERTEX
  8
1
 42
-1.6594119E-003
 10
1.7739971E+002
 20
1.503312E+002
 70
1
  0
VERTEX
  8
1
 42
-1.676028E-003
 10
1.7740773E+002
 20
1.5032985E+002
 70
0
  0
VERTEX
  8
1
 42
-1.6916028E-003
 10
1.7741575E+002
 20
1.5032845E+002
 70
1
  0
VERTEX
  8
1
 42
-1.7100984E-003
 10
1.7742375E+002
 20
1.5032699E+002
 70
0
  0
VERTEX
  8
1
 42
-1.7226292E-003
 10
1.7743175E+002
 20
1.5032547E+002
 70
1
  0
VERTEX
  8
1
 42
-1.7324123E-003
 10
1.7743973E+002
 20
1.503239E+002
 70
0
  0
VERTEX
  8
1
 42
-1.7373756E-003
 10
1.774477E+002
 20
1.5032228E+002
 70
1
  0
VERTEX
  8
1
 42
-1.7388143E-003
 10
1.7745566E+002
 20
1.503206E+002
 70
0
  0
VERTEX
  8
1
 42
-1.7409303E-003
 10
1.7746361E+002
 20
1.5031886E+002
 70
1
  0
VERTEX
  8
1
 42
-1.7442674E-003
 10
1.7747155E+002
 20
1.5031707E+002
 70
0
  0
VERTEX
  8
1
 42
-1.7470958E-003
 10
1.7747947E+002
 20
1.5031522E+002
 70
1
  0
VERTEX
  8
1
 42
-1.7501456E-003
 10
1.7748739E+002
 20
1.5031331E+002
 70
0
  0
VERTEX
  8
1
 42
-1.753042E-003
 10
1.7749528E+002
 20
1.5031135E+002
 70
1
  0
VERTEX
  8
1
 42
-1.756533E-003
 10
1.7750317E+002
 20
1.5030934E+002
 70
0
  0
VERTEX
  8
1
 42
-1.759421E-003
 10
1.7751104E+002
 20
1.5030727E+002
 70
1
  0
VERTEX
  8
1
 42
-1.7624488E-003
 10
1.7751889E+002
 20
1.5030514E+002
 70
0
  0
VERTEX
  8
1
 42
-1.7672878E-003
 10
1.7752673E+002
 20
1.5030296E+002
 70
1
  0
VERTEX
  8
1
 42
-1.7752143E-003
 10
1.7753455E+002
 20
1.5030072E+002
 70
0
  0
VERTEX
  8
1
 42
-1.7830604E-003
 10
1.7754236E+002
 20
1.5029842E+002
 70
1
  0
VERTEX
  8
1
 42
-1.792841E-003
 10
1.7755015E+002
 20
1.5029607E+002
 70
0
  0
VERTEX
  8
1
 42
-1.8014512E-003
 10
1.7755793E+002
 20
1.5029367E+002
 70
1
  0
VERTEX
  8
1
 42
-1.811077E-003
 10
1.7756568E+002
 20
1.502912E+002
 70
0
  0
VERTEX
  8
1
 42
-1.819795E-003
 10
1.7757342E+002
 20
1.5028868E+002
 70
1
  0
VERTEX
  8
1
 42
-1.829813E-003
 10
1.7758114E+002
 20
1.5028611E+002
 70
0
  0
VERTEX
  8
1
 42
-1.8386827E-003
 10
1.7758884E+002
 20
1.5028347E+002
 70
1
  0
VERTEX
  8
1
 42
-1.8486453E-003
 10
1.7759652E+002
 20
1.5028078E+002
 70
0
  0
VERTEX
  8
1
 42
-1.8580241E-003
 10
1.7760418E+002
 20
1.5027804E+002
 70
1
  0
VERTEX
  8
1
 42
-1.8691921E-003
 10
1.7761181E+002
 20
1.5027523E+002
 70
0
  0
VERTEX
  8
1
 42
-1.8636572E-003
 10
1.7761943E+002
 20
1.5027237E+002
 70
1
  0
VERTEX
  8
1
 42
-1.8399604E-003
 10
1.7762703E+002
 20
1.5026945E+002
 70
0
  0
VERTEX
  8
1
 42
-1.8179637E-003
 10
1.776346E+002
 20
1.5026648E+002
 70
1
  0
VERTEX
  8
1
 42
-1.7920664E-003
 10
1.7764215E+002
 20
1.5026345E+002
 70
0
  0
VERTEX
  8
1
 42
-1.769428E-003
 10
1.7764968E+002
 20
1.5026037E+002
 70
1
  0
VERTEX
  8
1
 42
-1.7442976E-003
 10
1.7765719E+002
 20
1.5025723E+002
 70
0
  0
VERTEX
  8
1
 42
-1.7219911E-003
 10
1.7766468E+002
 20
1.5025404E+002
 70
1
  0
VERTEX
  8
1
 42
-1.6968427E-003
 10
1.7767214E+002
 20
1.502508E+002
 70
0
  0
VERTEX
  8
1
 42
-1.6747503E-003
 10
1.7767959E+002
 20
1.5024751E+002
 70
1
  0
VERTEX
  8
1
 42
-1.650097E-003
 10
1.7768701E+002
 20
1.5024417E+002
 70
0
  0
VERTEX
  8
1
 42
-1.62791E-003
 10
1.776944E+002
 20
1.5024078E+002
 70
1
  0
VERTEX
  8
1
 42
-1.6025217E-003
 10
1.7770178E+002
 20
1.5023734E+002
 70
0
  0
VERTEX
  8
1
 42
-1.5741574E-003
 10
1.7770913E+002
 20
1.5023386E+002
 70
1
  0
VERTEX
  8
1
 42
-1.5355048E-003
 10
1.7771647E+002
 20
1.5023033E+002
 70
0
  0
VERTEX
  8
1
 42
-1.5015946E-003
 10
1.7772378E+002
 20
1.5022675E+002
 70
1
  0
VERTEX
  8
1
 42
-1.463739E-003
 10
1.7773106E+002
 20
1.5022314E+002
 70
0
  0
VERTEX
  8
1
 42
-1.429726E-003
 10
1.7773833E+002
 20
1.5021948E+002
 70
1
  0
VERTEX
  8
1
 42
-1.3909869E-003
 10
1.7774558E+002
 20
1.5021578E+002
 70
0
  0
VERTEX
  8
1
 42
-1.3583142E-003
 10
1.777528E+002
 20
1.5021203E+002
 70
1
  0
VERTEX
  8
1
 42
-1.322903E-003
 10
1.7776001E+002
 20
1.5020825E+002
 70
0
  0
VERTEX
  8
1
 42
-1.2860082E-003
 10
1.7776719E+002
 20
1.5020444E+002
 70
1
  0
VERTEX
  8
1
 42
-1.2398478E-003
 10
1.7777436E+002
 20
1.5020058E+002
 70
0
  0
VERTEX
  8
1
 42
-1.2183914E-003
 10
1.777815E+002
 20
1.501967E+002
 70
1
  0
VERTEX
  8
1
 42
-1.209807E-003
 10
1.7778863E+002
 20
1.5019277E+002
 70
0
  0
VERTEX
  8
1
 42
-1.1656064E-003
 10
1.7779575E+002
 20
1.501888E+002
 70
1
  0
VERTEX
  8
1
 42
-1.0977566E-003
 10
1.7780282E+002
 20
1.5018482E+002
 70
0
  0
VERTEX
  8
1
 42
-1.2287198E-003
 10
1.7780983E+002
 20
1.5018083E+002
 70
1
  0
VERTEX
  8
1
 42
-1.4879392E-003
 10
1.7781694E+002
 20
1.5017674E+002
 70
0
  0
VERTEX
  8
1
 42
-1.1298652E-003
 10
1.7782418E+002
 20
1.5017251E+002
 70
1
  0
VERTEX
  8
1
 42
-3.687826E-004
 10
1.7783097E+002
 20
1.5016852E+002
 70
0
  0
VERTEX
  8
1
 42
-1.630461E-003
 10
1.778371E+002
 20
1.501649E+002
 70
1
  0
VERTEX
  8
1
 42
-2.8532572E-003
 10
1.7784493E+002
 20
1.5016016E+002
 70
0
  0
VERTEX
  8
1
 42
-1.3970571E-003
 10
1.7785693E+002
 20
1.5015276E+002
 70
1
  0
VERTEX
  8
1
 42
-7.374189E-004
 10
1.7787261E+002
 20
1.50143E+002
 70
0
  0
SEQEND
  0
LINE
  8
1
  6
CENTERLINE
 62
1
 10
3.7965309E+001
 20
1.868928E+002
 11
8.4112649E+001
 21
1.868928E+002
  0
CIRCLE
  8
1
  6
CONTINUOUS
 62
4
 10
1.8815625E+002
 20
2.2209686E+002
 40
1.25
  0
TEXT
  8
1
  6
CONTINUOUS
 62
4
 10
1.8768205E+002
 20
2.2153716E+002
 40
1.5
  1
c
 41
8.666667E-001
  0
INSERT
  2
*XH26
  8
1
 10
-1.9263424E+001
 20
2.086155
  0
TEXT
  8
1
  6
CONTINUOUS
 62
4
 10
1.3111017E+002
 20
1.0677317E+001
 40
2.2
  1
B6-F+LB6
 41
8.0E-001
  0
TEXT
  8
1
  6
CONTINUOUS
 62
4
 10
8.0962776E+001
 20
7.198191
 40
2.8
  1
dimension drawing
 41
8.0E-001
  0
TEXT
  8
1
  6
CONTINUOUS
 62
4
 10
7.8086153E+001
 20
2.4755857E+002
 40
3.0
  1
manual operation
 41
8.0E-001
  0
POLYLINE
  8
1
  6
CONTINUOUS
 62
3
 66
1
 40
5.0E-001
 41
5.0E-001
 70
0
  0
VERTEX
  8
1
 42
0.0
 10
1.8045671E+002
 20
1.8693095E+002
 70
0
  0
VERTEX
  8
1
 42
0.0
 10
1.8045671E+002
 20
1.871248E+002
 70
0
  0
SEQEND
  0
LINE
  8
1
  6
CONTINUOUS
 62
4
 10
8.9227604E+001
 20
1.7472133E+002
 11
1.1742602E+002
 21
2.412752E+002
  0
TEXT
  8
1
  6
CONTINUOUS
 62
4
 10
1.2711229E+002
 20
7.3257574E+001
 40
3.0
  1
Changes of dimensions reserved !
 41
8.0E-001
  0
TEXT
  8
1
  6
CONTINUOUS
 62
4
 10
1.2785772E+002
 20
5.3301714E+001
 40
3.0
  1
attachment eyes breakable
 41
8.0E-001
  0
TEXT
  8
1
  6
CONTINUOUS
 62
4
 10
2.5394282E+001
 20
6.8417652E+001
 40
3.0
  1
Gewicht : ca. 190g
 41
7.8898782E-001
  0
TEXT
  8
1
  6
CONTINUOUS
 62
4
 10
1.4530116E+002
 20
1.3166462E+002
 40
3.0
  1
printed circuit board
 41
8.0E-001
  0
TEXT
  8
1
  6
CONTINUOUS
 62
4
 10
3.3839882E+001
 20
1.5112648E+001
 40
2.2
  1
L12 185  2.8.04
 41
6.8088345E-001
  0
TEXT
  8
1
  6
CONTINUOUS
 62
4
 10
2.6713242E+001
 20
1.5011678E+001
 40
2.5
  1
d
 41
8.666667E-001
  0
VIEWPORT
 67
1
  8
0
  6
CONTINUOUS
 62
3
100
AcDbViewport
 10
1.05E+002
 20
1.485E+002
 30
0.0
 40
2.97E+002
 41
2.97E+002
 68
1
 69
1
1001
ACAD
1000
MVIEW
1002
{
1070
16
1010
0.0
1020
0.0
1030
0.0
1010
0.0
1020
0.0
1030
1.0
1040
0.0
1040
2.97E+002
1040
4.2E+001
1040
1.485E+002
1040
5.0E+001
1040
0.0
1040
0.0
1070
0
1070
100
1070
1
1070
0
1070
0
1070
0
1070
0
1070
0
1040
0.0
1040
0.0
1040
0.0
1040
5.0E-001
1040
5.0E-001
1040
5.0E-001
1040
5.0E-001
1070
0
1002
{
1002
}
1002
}
  0
VIEWPORT
 67
1
  8
0
  6
CONTINUOUS
 62
3
100
AcDbViewport
 10
1.05E+002
 20
1.485E+002
 30
0.0
 40
2.1E+002
 41
2.97E+002
 68
2
 69
2
1001
ACAD
1000
MVIEW
1002
{
1070
16
1010
0.0
1020
0.0
1030
0.0
1010
0.0
1020
0.0
1030
1.0
1040
0.0
1040
2.97E+002
1040
1.05E+002
1040
1.485E+002
1040
5.0E+001
1040
0.0
1040
0.0
1070
0
1070
100
1070
1
1070
0
1070
0
1070
0
1070
0
1070
0
1040
0.0
1040
0.0
1040
0.0
1040
5.0E-001
1040
5.0E-001
1040
5.0E-001
1040
5.0E-001
1070
0
1002
{
1002
}
1002
}
  0
ENDSEC
  0
EOF
