  0
SECTION
  2
HEADER
  9
$ACADVER
  1
AC1014
999
I-DEAS 13 NX Not Encoded
  9
$EXTMIN
 10
0.0
 20
0.0
  9
$EXTMAX
 10
4.2E+002
 20
2.97E+002
  9
$TEXTSIZE
 40
1.25E-001
  9
$LTSCALE
 40
1.0
  9
$CLAYER
  8
231
  9
$CECOLOR
 62
2
  9
$DIMASZ
 40
1.25E-001
  9
$DIMEXO
 40
6.25E-002
  9
$DIMDLI
 40
2.5E-001
  9
$DIMEXE
 40
1.25E-001
  9
$DIMTP
 40
5.0E-003
  9
$DIMTM
 40
-5.0E-003
  9
$DIMTXT
 40
3.0
  9
$DIMLIM
 70
0
  9
$DIMTIH
 70
1
  9
$DIMTOH
 70
1
  9
$DIMSE1
 70
0
  9
$DIMSE2
 70
0
  9
$DIMTAD
 70
0
  9
$DIMASO
 70
1
  9
$DIMALT
 70
0
  9
$DIMALTD
 70
0
  9
$DIMTOFL
 70
1
  9
$DIMTIX
 70
0
  9
$DIMSAH
 70
0
  9
$DIMSTYLE
  2
DSTYLE1
  9
$DIMTFAC
 40
1.0
  9
$DIMGAP
 40
6.25E-002
  9
$LUNITS
 70
2
  9
$LUPREC
 70
3
  9
$FILLETRAD
 40
1.0E+001
  9
$AUNITS
 70
0
  9
$AUPREC
 70
1
  9
$CHAMFERA
 40
6.0
  9
$CHAMFERB
 40
6.0
  9
$ANGBASE
 50
0.0
  9
$ANGDIR
 70
0
  9
$PEXTMIN
 10
0.0
 20
0.0
 30
0.0
  9
$PEXTMAX
 10
4.2E+002
 20
2.97E+002
 30
0.0
  9
$PLIMMIN
 10
0.0
 20
0.0
  9
$PLIMMAX
 10
4.2E+002
 20
2.97E+002
  9
$PDMODE
 70
2
  9
$PDSIZE
 40
-1.0E-002
  9
$SPLINETYPE
 70
6
  9
$TILEMODE
 70
0
  9
$HANDLING
 70
1
  9
$HANDSEED
  5
f4240
  0
ENDSEC
  0
SECTION
  2
TABLES
  0
TABLE
  2
VPORT
  5
64
100
AcDbSymbolTable
 70
2
  0
VPORT
  5
65
100
AcDbSymbolTableRecord
100
AcDbViewportTableRecord
  2
*Active
 70
0
 10
0.0
 20
0.0
 11
4.2E+002
 21
2.97E+002
 12
2.1E+002
 22
1.485E+002
 13
0.0
 23
0.0
 14
1.0
 24
1.0
 15
0.0
 25
0.0
 16
0.0
 26
0.0
 36
1.0
 17
0.0
 27
0.0
 37
0.0
 40
2.97E+002
 41
1.4141414
 42
5.0E+001
 43
0.0
 44
0.0
 50
0.0
 51
0.0
 71
0
 72
1000
 73
1
 74
3
 75
0
 76
0
 77
0
 78
0
  0
ENDTAB
  0
TABLE
  2
LTYPE
  5
66
100
AcDbSymbolTable
 70
7
  0
LTYPE
  5
67
100
AcDbSymbolTableRecord
100
AcDbLinetypeTableRecord
  2
BYBLOCK
 70
0
  3

 72
65
 73
0
 40
0.0
  0
LTYPE
  5
68
100
AcDbSymbolTableRecord
100
AcDbLinetypeTableRecord
  2
BYLAYER
 70
0
  3

 72
65
 73
0
 40
0.0
  0
LTYPE
  5
69
100
AcDbSymbolTableRecord
100
AcDbLinetypeTableRecord
  2
CONTINUOUS
 70
0
  3

 72
65
 73
0
 40
0.0
  0
LTYPE
  5
6a
100
AcDbSymbolTableRecord
100
AcDbLinetypeTableRecord
  2
HIDDENNEW0
  3
_ 
 70
64
 72
65
 73
3
 40
4.5
 49
1.5
 74
0
 49
-1.5
 74
0
 49
1.5
 74
0
  0
LTYPE
  5
6b
100
AcDbSymbolTableRecord
100
AcDbLinetypeTableRecord
  2
HIDDENNEW1
  3
_ 
 70
64
 72
65
 73
3
 40
4.5
 49
1.5
 74
0
 49
-1.5
 74
0
 49
1.5
 74
0
  0
LTYPE
  5
6c
100
AcDbSymbolTableRecord
100
AcDbLinetypeTableRecord
  2
HIDDEN
  3
_ 
 70
64
 72
65
 73
3
 40
4.5
 49
1.5
 74
0
 49
-1.5
 74
0
 49
1.5
 74
0
  0
LTYPE
  5
6d
100
AcDbSymbolTableRecord
100
AcDbLinetypeTableRecord
  2
CENTERLINE
  3
_ 
 70
64
 72
65
 73
5
 40
3.0E+001
 49
1.2E+001
 74
0
 49
-1.5
 74
0
 49
3.0
 74
0
 49
-1.5
 74
0
 49
1.2E+001
 74
0
  0
LTYPE
  5
6e
100
AcDbSymbolTableRecord
100
AcDbLinetypeTableRecord
  2
PHANTOM
  3
_ 
 70
64
 72
65
 73
7
 40
2.95E+001
 49
9.5
 74
0
 49
-1.5
 74
0
 49
3.0
 74
0
 49
-1.5
 74
0
 49
3.0
 74
0
 49
-1.5
 74
0
 49
9.5
 74
0
  0
LTYPE
  5
6f
100
AcDbSymbolTableRecord
100
AcDbLinetypeTableRecord
  2
SHORT_DASH
  3
_ 
 70
64
 72
65
 73
3
 40
3.0
 49
7.5E-001
 74
0
 49
-1.5
 74
0
 49
7.5E-001
 74
0
  0
LTYPE
  5
70
100
AcDbSymbolTableRecord
100
AcDbLinetypeTableRecord
  2
LONG_DASH
  3
_ 
 70
64
 72
65
 73
3
 40
9.0
 49
2.25
 74
0
 49
-4.5
 74
0
 49
2.25
 74
0
  0
ENDTAB
  0
TABLE
  2
LAYER
  5
71
100
AcDbSymbolTable
 70
258
  0
LAYER
  5
72
100
AcDbSymbolTableRecord
100
AcDbLayerTableRecord
  2
0
 70
0
 62
7
  6
CONTINUOUS
  0
LAYER
  5
73
100
AcDbSymbolTableRecord
100
AcDbLayerTableRecord
  2
1
 70
0
 62
7
  6
CONTINUOUS
  0
LAYER
  5
74
100
AcDbSymbolTableRecord
100
AcDbLayerTableRecord
  2
2
 70
0
 62
7
  6
CONTINUOUS
  0
LAYER
  5
75
100
AcDbSymbolTableRecord
100
AcDbLayerTableRecord
  2
3
 70
0
 62
7
  6
CONTINUOUS
  0
LAYER
  5
76
100
AcDbSymbolTableRecord
100
AcDbLayerTableRecord
  2
4
 70
0
 62
7
  6
CONTINUOUS
  0
LAYER
  5
77
100
AcDbSymbolTableRecord
100
AcDbLayerTableRecord
  2
AM_VIEWS
 70
0
 62
3
  6
CONTINUOUS
  0
LAYER
  5
78
100
AcDbSymbolTableRecord
100
AcDbLayerTableRecord
  2
Drafting_Hidden_Entities
 70
1
 62
7
  6
CONTINUOUS
  0
ENDTAB
  0
TABLE
  2
STYLE
  5
79
100
AcDbSymbolTable
 70
1
  0
STYLE
  5
7a
100
AcDbSymbolTableRecord
100
AcDbTextStyleTableRecord
  2
STANDARD
 70
64
 40
0.0
 41
1.0
 50
0.0
 71
0
 42
1.0
  3
monotxt.shx
  4

  0
ENDTAB
  0
TABLE
  2
VIEW
  5
7b
100
AcDbSymbolTable
 70
0
  0
ENDTAB
  0
TABLE
  2
UCS
  5
7c
100
AcDbSymbolTable
 70
0
  0
ENDTAB
  0
TABLE
  2
APPID
  5
7d
100
AcDbSymbolTable
 70
1
  0
APPID
  5
7e
100
AcDbSymbolTableRecord
100
AcDbRegAppTableRecord
  2
ACAD
 70
1
  0
ENDTAB
  0
TABLE
  2
DIMSTYLE
  5
7f
100
AcDbSymbolTable
 70
1
  0
DIMSTYLE
105
80
100
AcDbSymbolTableRecord
100
AcDbDimStyleTableRecord
  2
DSTYLE1
 70
0
  3

  4

  5

  6

  7

 40
1.0
 41
3.0
 42
0.0
 43
3.8E-001
 44
3.0
 45
1.0E-001
 46
0.0
 47
1.0
 48
1.0
 71
0
 72
0
 73
0
 74
0
 75
0
 76
0
 77
1
 78
3
140
3.0
141
9.0E-002
142
0.0
143
3.9370079E-002
144
1.0
145
0.0
146
1.0
147
2.0
170
0
171
2
172
0
173
0
174
0
175
0
176
0
177
0
178
0
270
2
271
1
272
4
273
2
274
2
275
0
280
0
281
0
282
0
283
1
284
0
285
0
286
0
287
3
288
0
  0
ENDTAB
  0
TABLE
  2
BLOCK_RECORD
  5
81
100
AcDbSymbolTable
 70
0
  0
BLOCK_RECORD
  5
82
100
AcDbSymbolTableRecord
100
AcDbBlockTableRecord
  2
*MODEL_SPACE
  0
BLOCK_RECORD
  5
83
100
AcDbSymbolTableRecord
100
AcDbBlockTableRecord
  2
*PAPER_SPACE
  0
BLOCK_RECORD
  5
84
100
AcDbSymbolTableRecord
100
AcDbBlockTableRecord
  2
*D578
  0
BLOCK_RECORD
  5
85
100
AcDbSymbolTableRecord
100
AcDbBlockTableRecord
  2
*D579
  0
BLOCK_RECORD
  5
86
100
AcDbSymbolTableRecord
100
AcDbBlockTableRecord
  2
*D580
  0
BLOCK_RECORD
  5
87
100
AcDbSymbolTableRecord
100
AcDbBlockTableRecord
  2
_AH1
  0
BLOCK_RECORD
  5
88
100
AcDbSymbolTableRecord
100
AcDbBlockTableRecord
  2
_AH2
  0
BLOCK_RECORD
  5
89
100
AcDbSymbolTableRecord
100
AcDbBlockTableRecord
  2
_AH12
  3
_AH
  0
BLOCK_RECORD
  5
8a
100
AcDbSymbolTableRecord
100
AcDbBlockTableRecord
  2
_AH13
  3
_AH
  0
BLOCK_RECORD
  5
8b
100
AcDbSymbolTableRecord
100
AcDbBlockTableRecord
  2
_AH14
  3
_AH
  0
BLOCK_RECORD
  5
8c
100
AcDbSymbolTableRecord
100
AcDbBlockTableRecord
  2
_AH15
  3
_AH
  0
BLOCK_RECORD
  5
8d
100
AcDbSymbolTableRecord
100
AcDbBlockTableRecord
  2
_AH16
  3
_AH
  0
BLOCK_RECORD
  5
8e
100
AcDbSymbolTableRecord
100
AcDbBlockTableRecord
  2
_AH17
  3
_AH
  0
BLOCK_RECORD
  5
8f
100
AcDbSymbolTableRecord
100
AcDbBlockTableRecord
  2
_AH18
  3
_AH
  0
BLOCK_RECORD
  5
90
100
AcDbSymbolTableRecord
100
AcDbBlockTableRecord
  2
_AH19
  3
_AH
  0
BLOCK_RECORD
  5
91
100
AcDbSymbolTableRecord
100
AcDbBlockTableRecord
  2
_AH20
  3
_AH
  0
BLOCK_RECORD
  5
92
100
AcDbSymbolTableRecord
100
AcDbBlockTableRecord
  2
_AH21
  3
_AH
  0
BLOCK_RECORD
  5
93
100
AcDbSymbolTableRecord
100
AcDbBlockTableRecord
  2
DXF_NIMIO
  0
BLOCK_RECORD
  5
94
100
AcDbSymbolTableRecord
100
AcDbBlockTableRecord
  2
*TX37
  3
*TX
  0
BLOCK_RECORD
  5
95
100
AcDbSymbolTableRecord
100
AcDbBlockTableRecord
  2
*TX38
  3
*TX
  0
ENDTAB
  0
ENDSEC
  0
SECTION
  2
BLOCKS
  0
BLOCK
  5
96
100
AcDbEntity
100
AcDbBlockBegin
  2
*MODEL_SPACE
 70
0
 10
0.0
 20
0.0
 30
0.0
  3
*MODEL_SPACE
  1

  0
ENDBLK
  5
97
100
AcDbEntity
100
AcDbBlockEnd
  0
BLOCK
  5
98
100
AcDbEntity
100
AcDbBlockBegin
  2
*PAPER_SPACE
 70
0
 10
0.0
 20
0.0
 30
0.0
  3
*PAPER_SPACE
  1

  0
ENDBLK
  5
99
100
AcDbEntity
100
AcDbBlockEnd
  0
BLOCK
  5
9a
100
AcDbEntity
100
AcDbBlockBegin
  2
_AH12
  3
_AH
 10
0.0
 20
0.0
 70
64
  0
LINE
  5
9b
100
AcDbEntity
  8
0
100
AcDbLine
  6
CONTINUOUS
 62
0
 10
0.0
 20
0.0
 11
1.0
 21
0.0
  0
LINE
  5
9c
100
AcDbEntity
  8
0
100
AcDbLine
  6
CONTINUOUS
 62
0
 10
0.0
 20
0.0
 11
-1.0
 21
0.0
  0
ENDBLK
  5
9d
100
AcDbEntity
100
AcDbBlockEnd
  0
BLOCK
  5
9e
100
AcDbEntity
100
AcDbBlockBegin
  2
_AH13
  3
_AH
 10
0.0
 20
0.0
 70
64
  0
SOLID
  5
9f
100
AcDbEntity
  8
0
100
AcDbTrace
  6
CONTINUOUS
 62
0
 10
0.0
 20
0.0
 11
1.0
 21
-1.66667E-001
 12
1.0
 22
1.66667E-001
 13
0.0
 23
0.0
  0
ENDBLK
  5
a0
100
AcDbEntity
100
AcDbBlockEnd
  0
BLOCK
  5
a1
100
AcDbEntity
100
AcDbBlockBegin
  2
_AH14
  3
_AH
 10
0.0
 20
0.0
 70
64
  0
ENDBLK
  5
a2
100
AcDbEntity
100
AcDbBlockEnd
  0
BLOCK
  5
a3
100
AcDbEntity
100
AcDbBlockBegin
  2
_AH15
  3
_AH
 10
0.0
 20
0.0
 70
64
  0
CIRCLE
  5
a4
100
AcDbEntity
  8
0
100
AcDbCircle
  6
CONTINUOUS
 62
0
 10
0.0
 20
0.0
 40
1.66667E-001
  0
LINE
  5
a5
100
AcDbEntity
  8
0
100
AcDbLine
  6
CONTINUOUS
 62
0
 10
0.0
 20
0.0
 11
-1.0
 21
0.0
  0
ENDBLK
  5
a6
100
AcDbEntity
100
AcDbBlockEnd
  0
BLOCK
  5
a7
100
AcDbEntity
100
AcDbBlockBegin
  2
_AH16
  3
_AH
 10
0.0
 20
0.0
 70
64
  0
POLYLINE
  5
a8
100
AcDbEntity
  8
0
100
AcDb2dPolyline
  6
CONTINUOUS
 62
0
 66
1
 40
1.66667E-001
 41
1.66667E-001
 70
0
  0
VERTEX
  5
a9
100
AcDbEntity
  8
0
100
AcDbVertex
100
AcDb2dVertex
 42
1.0
 10
8.3335E-002
 20
0.0
 70
0
  0
VERTEX
  5
aa
100
AcDbEntity
  8
0
100
AcDbVertex
100
AcDb2dVertex
 42
1.0
 10
-8.3335E-002
 20
0.0
 70
0
  0
VERTEX
  5
ab
100
AcDbEntity
  8
0
100
AcDbVertex
100
AcDb2dVertex
 42
0.0
 10
8.3335E-002
 20
0.0
 70
0
  0
SEQEND
  5
ac
100
AcDbEntity
  0
LINE
  5
ad
100
AcDbEntity
  8
0
100
AcDbLine
  6
CONTINUOUS
 62
0
 10
0.0
 20
0.0
 11
-1.0
 21
0.0
  0
ENDBLK
  5
ae
100
AcDbEntity
100
AcDbBlockEnd
  0
BLOCK
  5
af
100
AcDbEntity
100
AcDbBlockBegin
  2
_AH17
  3
_AH
 10
0.0
 20
0.0
 70
64
  0
LINE
  5
b0
100
AcDbEntity
  8
0
100
AcDbLine
  6
CONTINUOUS
 62
0
 10
-1.66667E-001
 20
-1.66667E-001
 11
1.66667E-001
 21
-1.66667E-001
  0
LINE
  5
b1
100
AcDbEntity
  8
0
100
AcDbLine
  6
CONTINUOUS
 62
0
 10
1.66667E-001
 20
-1.66667E-001
 11
1.66667E-001
 21
1.66667E-001
  0
LINE
  5
b2
100
AcDbEntity
  8
0
100
AcDbLine
  6
CONTINUOUS
 62
0
 10
1.66667E-001
 20
1.66667E-001
 11
-1.66667E-001
 21
1.66667E-001
  0
LINE
  5
b3
100
AcDbEntity
  8
0
100
AcDbLine
  6
CONTINUOUS
 62
0
 10
-1.66667E-001
 20
1.66667E-001
 11
-1.66667E-001
 21
-1.66667E-001
  0
LINE
  5
b4
100
AcDbEntity
  8
0
100
AcDbLine
  6
CONTINUOUS
 62
0
 10
0.0
 20
0.0
 11
-1.0
 21
0.0
  0
ENDBLK
  5
b5
100
AcDbEntity
100
AcDbBlockEnd
  0
BLOCK
  5
b6
100
AcDbEntity
100
AcDbBlockBegin
  2
_AH18
  3
_AH
 10
0.0
 20
0.0
 70
64
  0
SOLID
  5
b7
100
AcDbEntity
  8
0
100
AcDbTrace
  6
CONTINUOUS
 62
0
 10
-1.66667E-001
 20
-1.66667E-001
 11
1.66667E-001
 21
-1.66667E-001
 12
-1.66667E-001
 22
1.66667E-001
 13
1.66667E-001
 23
1.66667E-001
  0
LINE
  5
b8
100
AcDbEntity
  8
0
100
AcDbLine
  6
CONTINUOUS
 62
0
 10
0.0
 20
0.0
 11
-1.0
 21
0.0
  0
ENDBLK
  5
b9
100
AcDbEntity
100
AcDbBlockEnd
  0
BLOCK
  5
ba
100
AcDbEntity
100
AcDbBlockBegin
  2
_AH19
  3
_AH
 10
0.0
 20
0.0
 70
64
  0
LINE
  5
bb
100
AcDbEntity
  8
0
100
AcDbLine
  6
CONTINUOUS
 62
0
 10
-5.0E-001
 20
-5.0E-001
 11
5.0E-001
 21
5.0E-001
  0
LINE
  5
bc
100
AcDbEntity
  8
0
100
AcDbLine
  6
CONTINUOUS
 62
0
 10
0.0
 20
0.0
 11
-1.0
 21
0.0
  0
ENDBLK
  5
bd
100
AcDbEntity
100
AcDbBlockEnd
  0
BLOCK
  5
be
100
AcDbEntity
100
AcDbBlockBegin
  2
_AH20
  3
_AH
 10
0.0
 20
0.0
 70
64
  0
POLYLINE
  5
bf
100
AcDbEntity
  8
0
100
AcDb2dPolyline
  6
CONTINUOUS
 62
0
 66
1
 40
5.0E-001
 41
5.0E-001
 70
0
  0
VERTEX
  5
c0
100
AcDbEntity
  8
0
100
AcDbVertex
100
AcDb2dVertex
 42
4.1421356E-001
 10
-1.66667E-001
 20
-1.66667E-001
 70
0
  0
VERTEX
  5
c1
100
AcDbEntity
  8
0
100
AcDbVertex
100
AcDb2dVertex
 42
0.0
 10
0.0
 20
0.0
 70
0
  0
SEQEND
  5
c2
100
AcDbEntity
  0
POLYLINE
  5
c3
100
AcDbEntity
  8
0
100
AcDb2dPolyline
  6
CONTINUOUS
 62
0
 66
1
 40
5.0E-001
 41
5.0E-001
 70
0
  0
VERTEX
  5
c4
100
AcDbEntity
  8
0
100
AcDbVertex
100
AcDb2dVertex
 42
4.1421356E-001
 10
1.66667E-001
 20
1.66667E-001
 70
0
  0
VERTEX
  5
c5
100
AcDbEntity
  8
0
100
AcDbVertex
100
AcDb2dVertex
 42
0.0
 10
0.0
 20
0.0
 70
0
  0
SEQEND
  5
c6
100
AcDbEntity
  0
LINE
  5
c7
100
AcDbEntity
  8
0
100
AcDbLine
  6
CONTINUOUS
 62
0
 10
0.0
 20
0.0
 11
-1.0
 21
0.0
  0
ENDBLK
  5
c8
100
AcDbEntity
100
AcDbBlockEnd
  0
BLOCK
  5
c9
100
AcDbEntity
100
AcDbBlockBegin
  2
_AH21
  3
_AH
 10
0.0
 20
0.0
 70
64
  0
LINE
  5
ca
100
AcDbEntity
  8
0
100
AcDbLine
  6
CONTINUOUS
 62
0
 10
0.0
 20
0.0
 11
-1.0
 21
-1.66667E-001
  0
LINE
  5
cb
100
AcDbEntity
  8
0
100
AcDbLine
  6
CONTINUOUS
 62
0
 10
-1.0
 20
-1.66667E-001
 11
-1.0
 21
1.66667E-001
  0
LINE
  5
cc
100
AcDbEntity
  8
0
100
AcDbLine
  6
CONTINUOUS
 62
0
 10
-1.0
 20
1.66667E-001
 11
0.0
 21
0.0
  0
ENDBLK
  5
cd
100
AcDbEntity
100
AcDbBlockEnd
  0
BLOCK
  5
ce
100
AcDbEntity
100
AcDbBlockBegin
  2
DXF_NIMIO
 10
0.0
 20
0.0
 70
0
  0
POLYLINE
  5
cf
100
AcDbEntity
  8
1
100
AcDb2dPolyline
  6
CONTINUOUS
 62
40
 66
1
 40
7.0E-001
 41
7.0E-001
 70
0
  0
VERTEX
  5
d0
100
AcDbEntity
  8
1
100
AcDbVertex
100
AcDb2dVertex
 42
0.0
 10
3.5789168E+002
 20
0.0
 70
0
  0
VERTEX
  5
d1
100
AcDbEntity
  8
1
100
AcDbVertex
100
AcDb2dVertex
 42
0.0
 10
3.5789168E+002
 20
5.7789666E+001
 70
0
  0
SEQEND
  5
d2
100
AcDbEntity
  0
POLYLINE
  5
d3
100
AcDbEntity
  8
1
100
AcDb2dPolyline
  6
CONTINUOUS
 62
40
 66
1
 40
7.0E-001
 41
7.0E-001
 70
0
  0
VERTEX
  5
d4
100
AcDbEntity
  8
1
100
AcDbVertex
100
AcDb2dVertex
 42
0.0
 10
-9.2366962E-002
 20
5.7789666E+001
 70
0
  0
VERTEX
  5
d5
100
AcDbEntity
  8
1
100
AcDbVertex
100
AcDb2dVertex
 42
0.0
 10
3.5789168E+002
 20
5.7789666E+001
 70
0
  0
SEQEND
  5
d6
100
AcDbEntity
  0
POLYLINE
  5
d7
100
AcDbEntity
  8
1
100
AcDb2dPolyline
  6
CONTINUOUS
 62
40
 66
1
 40
5.0E-001
 41
5.0E-001
 70
0
  0
VERTEX
  5
d8
100
AcDbEntity
  8
1
100
AcDbVertex
100
AcDb2dVertex
 42
0.0
 10
9.2366962E-002
 20
4.3797996E+001
 70
0
  0
VERTEX
  5
d9
100
AcDbEntity
  8
1
100
AcDbVertex
100
AcDb2dVertex
 42
0.0
 10
3.5789168E+002
 20
4.3797996E+001
 70
0
  0
SEQEND
  5
da
100
AcDbEntity
  0
POLYLINE
  5
db
100
AcDbEntity
  8
1
100
AcDb2dPolyline
  6
CONTINUOUS
 62
40
 66
1
 40
5.0E-001
 41
5.0E-001
 70
0
  0
VERTEX
  5
dc
100
AcDbEntity
  8
1
100
AcDbVertex
100
AcDb2dVertex
 42
0.0
 10
1.0690659E+002
 20
2.5792668E+001
 70
0
  0
VERTEX
  5
dd
100
AcDbEntity
  8
1
100
AcDbVertex
100
AcDb2dVertex
 42
0.0
 10
3.5789168E+002
 20
2.5792668E+001
 70
0
  0
SEQEND
  5
de
100
AcDbEntity
  0
TEXT
  5
df
100
AcDbEntity
  8
1
100
AcDbText
  6
CONTINUOUS
 62
4
 10
2.2562185E+002
 20
4.7383408E+001
 40
6.0
  1
OSS 200G1L
100
AcDbText
  0
TEXT
  5
e0
100
AcDbEntity
  8
1
100
AcDbText
  6
CONTINUOUS
 62
3
 10
3.3672804E+002
 20
2.0645986E+001
 40
2.399759
  1
REVISION
 41
1.0000004
100
AcDbText
  0
TEXT
  5
e1
100
AcDbEntity
  8
1
100
AcDbText
  6
CONTINUOUS
 62
3
 10
3.432376E+002
 20
6.73919
 40
1.0E+001
  1
A
100
AcDbText
  0
TEXT
  5
e2
100
AcDbEntity
  8
1
100
AcDbText
  6
CONTINUOUS
 62
4
 10
2.389673E+002
 20
1.6101903E+001
 40
5.0
  1
DXF_KUVAT
100
AcDbText
  0
TEXT
  5
e3
100
AcDbEntity
  8
1
100
AcDbText
  6
CONTINUOUS
 62
4
 10
2.3899681E+002
 20
5.338562
 40
5.0
  1
LIBRARY
100
AcDbText
  0
POLYLINE
  5
e4
100
AcDbEntity
  8
1
100
AcDb2dPolyline
  6
CONTINUOUS
 62
40
 66
1
 40
5.0E-001
 41
5.0E-001
 70
0
  0
VERTEX
  5
e5
100
AcDbEntity
  8
1
100
AcDbVertex
100
AcDb2dVertex
 42
0.0
 10
1.0690659E+002
 20
1.2804264E+001
 70
0
  0
VERTEX
  5
e6
100
AcDbEntity
  8
1
100
AcDbVertex
100
AcDb2dVertex
 42
0.0
 10
2.0989308E+002
 20
1.2804264E+001
 70
0
  0
SEQEND
  5
e7
100
AcDbEntity
  0
POLYLINE
  5
e8
100
AcDbEntity
  8
1
100
AcDb2dPolyline
  6
CONTINUOUS
 62
40
 66
1
 40
5.0E-001
 41
5.0E-001
 70
0
  0
VERTEX
  5
e9
100
AcDbEntity
  8
1
100
AcDbVertex
100
AcDb2dVertex
 42
0.0
 10
6.1895071E+001
 20
4.3797996E+001
 70
0
  0
VERTEX
  5
ea
100
AcDbEntity
  8
1
100
AcDbVertex
100
AcDb2dVertex
 42
0.0
 10
6.1895071E+001
 20
5.7789666E+001
 70
0
  0
SEQEND
  5
eb
100
AcDbEntity
  0
CIRCLE
  5
ec
100
AcDbEntity
  8
1
100
AcDbCircle
  6
CONTINUOUS
 62
3
 10
8.4889396E+001
 20
5.0793534E+001
 40
4.0130623
  0
CIRCLE
  5
ed
100
AcDbEntity
  8
1
100
AcDbCircle
  6
CONTINUOUS
 62
3
 10
8.4889396E+001
 20
5.0793534E+001
 40
2.0065312
  0
LINE
  5
ee
100
AcDbEntity
  8
1
100
AcDbLine
  6
CONTINUOUS
 62
3
 10
8.4889396E+001
 20
4.5355464E+001
 11
8.4889396E+001
 21
4.8866598E+001
  0
LINE
  5
ef
100
AcDbEntity
  8
1
100
AcDbLine
  6
CONTINUOUS
 62
3
 10
8.4889396E+001
 20
5.2403868E+001
 11
8.4889396E+001
 21
5.5915596E+001
  0
LINE
  5
f0
100
AcDbEntity
  8
1
100
AcDbLine
  6
CONTINUOUS
 62
3
 10
6.4904274E+001
 20
5.0793534E+001
 11
6.7729337E+001
 21
5.0793534E+001
  0
LINE
  5
f1
100
AcDbEntity
  8
1
100
AcDbLine
  6
CONTINUOUS
 62
3
 10
7.0553806E+001
 20
5.0793534E+001
 11
7.3378869E+001
 21
5.0793534E+001
  0
LINE
  5
f2
100
AcDbEntity
  8
1
100
AcDbLine
  6
CONTINUOUS
 62
3
 10
7.3378869E+001
 20
5.0793534E+001
 11
7.6203337E+001
 21
5.0793534E+001
  0
LINE
  5
f3
100
AcDbEntity
  8
1
100
AcDbLine
  6
CONTINUOUS
 62
3
 10
7.90284E+001
 20
5.0793534E+001
 11
8.1853463E+001
 21
5.0793534E+001
  0
LINE
  5
f4
100
AcDbEntity
  8
1
100
AcDbLine
  6
CONTINUOUS
 62
3
 10
8.1853463E+001
 20
5.0793534E+001
 11
8.4677932E+001
 21
5.0793534E+001
  0
LINE
  5
f5
100
AcDbEntity
  8
1
100
AcDbLine
  6
CONTINUOUS
 62
3
 10
8.7502995E+001
 20
5.0793534E+001
 11
9.0354194E+001
 21
5.0793534E+001
  0
LINE
  5
f6
100
AcDbEntity
  8
1
100
AcDbLine
  6
CONTINUOUS
 62
3
 10
7.6890001E+001
 20
4.683393E+001
 11
7.6890001E+001
 21
5.4806598E+001
  0
LINE
  5
f7
100
AcDbEntity
  8
1
100
AcDbLine
  6
CONTINUOUS
 62
3
 10
7.0897138E+001
 20
4.8787596E+001
 11
7.0897138E+001
 21
5.2800066E+001
  0
LINE
  5
f8
100
AcDbEntity
  8
1
100
AcDbLine
  6
CONTINUOUS
 62
3
 10
7.0897138E+001
 20
5.2800066E+001
 11
7.6890001E+001
 21
5.4806598E+001
  0
TEXT
  5
f9
100
AcDbEntity
  8
1
100
AcDbText
  6
CONTINUOUS
 62
3
 10
9.3706728E+001
 20
5.3407134E+001
 40
2.399759
  1
PROJ
 41
1.0000004
100
AcDbText
  0
TEXT
  5
fa
100
AcDbEntity
  8
1
100
AcDbText
  6
CONTINUOUS
 62
3
 10
1.8930089E+002
 20
2.0407464E+001
 40
2.399759
  1
CHECKED
 41
1.0000004
100
AcDbText
  0
TEXT
  5
fb
100
AcDbEntity
  8
1
100
AcDbText
  6
CONTINUOUS
 62
3
 10
1.8650256E+002
 20
7.39233
 40
2.399759
  1
APPROVED
 41
1.0000004
100
AcDbText
  0
LINE
  5
fc
100
AcDbEntity
  8
1
100
AcDbLine
  6
CONTINUOUS
 62
3
 10
7.0897138E+001
 20
4.8787596E+001
 11
7.6890001E+001
 21
4.683393E+001
  0
TEXT
  5
fd
100
AcDbEntity
  8
1
100
AcDbText
  6
CONTINUOUS
 62
3
 10
1.0790986E+002
 20
7.286598
 40
2.399759
  1
HYVÄKSYI
 41
1.0000004
100
AcDbText
  0
TEXT
  5
fe
100
AcDbEntity
  8
1
100
AcDbText
  6
CONTINUOUS
 62
3
 10
1.0790986E+002
 20
3.695868
 40
2.399759
  1
GODKÄND
 41
1.0000004
100
AcDbText
  0
TEXT
  5
ff
100
AcDbEntity
  8
1
100
AcDbText
  6
CONTINUOUS
 62
3
 10
1.0790986E+002
 20
2.0301732E+001
 40
2.399759
  1
TARKASTI
 41
1.0000004
100
AcDbText
  0
TEXT
  5
100
100
AcDbEntity
  8
1
100
AcDbText
  6
CONTINUOUS
 62
3
 10
1.0790986E+002
 20
1.6684866E+001
 40
2.399759
  1
GRANSKAD
 41
1.0000004
100
AcDbText
  0
TEXT
  5
101
100
AcDbEntity
  8
1
100
AcDbText
  6
CONTINUOUS
 62
3
 10
1.0790986E+002
 20
3.7989864E+001
 40
2.399759
  1
TEKI
 41
1.0000004
100
AcDbText
  0
TEXT
  5
102
100
AcDbEntity
  8
1
100
AcDbText
  6
CONTINUOUS
 62
3
 10
1.0790986E+002
 20
3.4399134E+001
 40
2.399759
  1
RITAD
 41
1.0000004
100
AcDbText
  0
TEXT
  5
103
100
AcDbEntity
  8
1
100
AcDbText
  6
CONTINUOUS
 62
3
 10
1.0790986E+002
 20
3.0808998E+001
 40
2.399759
  1
DRAWN
 41
1.0000004
100
AcDbText
  0
TEXT
  5
104
100
AcDbEntity
  8
1
100
AcDbText
  6
CONTINUOUS
 62
3
 10
1.0790986E+002
 20
5.348673E+001
 40
2.399759
  1
OSASTO
 41
1.0000004
100
AcDbText
  0
TEXT
  5
105
100
AcDbEntity
  8
1
100
AcDbText
  6
CONTINUOUS
 62
3
 10
1.0790986E+002
 20
4.9896E+001
 40
2.399759
  1
AVDELNING
 41
1.0000004
100
AcDbText
  0
TEXT
  5
106
100
AcDbEntity
  8
1
100
AcDbText
  6
CONTINUOUS
 62
3
 10
1.0790986E+002
 20
4.6305864E+001
 40
2.399759
  1
DEPARTMENT
 41
1.0000004
100
AcDbText
  0
TEXT
  5
107
100
AcDbEntity
  8
1
100
AcDbText
  6
CONTINUOUS
 62
3
 10
2.1073709E+002
 20
2.0343277E+001
 40
2.399759
  1
PROJECT
 41
1.0000004
100
AcDbText
  0
TEXT
  5
108
100
AcDbEntity
  8
1
100
AcDbText
  6
CONTINUOUS
 62
3
 10
2.1089635E+002
 20
9.6947065
 40
2.399759
  1
LIBRARY
 41
1.0000004
100
AcDbText
  0
TEXT
  5
109
100
AcDbEntity
  8
1
100
AcDbText
  6
CONTINUOUS
 62
3
 10
2.1089635E+002
 20
5.348673E+001
 40
2.399759
  1
LAJI
 41
1.0000004
100
AcDbText
  0
TEXT
  5
10a
100
AcDbEntity
  8
1
100
AcDbText
  6
CONTINUOUS
 62
3
 10
2.1089635E+002
 20
4.9896E+001
 40
2.399759
  1
TYP
 41
1.0000004
100
AcDbText
  0
TEXT
  5
10b
100
AcDbEntity
  8
1
100
AcDbText
  6
CONTINUOUS
 62
3
 10
2.1089635E+002
 20
4.6305864E+001
 40
2.399759
  1
TYPE
 41
1.0000004
100
AcDbText
  0
TEXT
  5
10c
100
AcDbEntity
  8
1
100
AcDbText
  6
CONTINUOUS
 62
4
 10
1.3709168E+002
 20
3.5824396E+001
 40
5.0
  1
2012-02-15
100
AcDbText
  0
TEXT
  5
10d
100
AcDbEntity
  8
1
100
AcDbText
  6
CONTINUOUS
 62
4
 10
1.5421168E+002
 20
4.7324396E+001
 40
6.0
  1
LSO
100
AcDbText
  0
TEXT
  5
10e
100
AcDbEntity
  8
1
100
AcDbText
  6
CONTINUOUS
 62
30
 10
6.5785659
 20
1.3401368E+001
 40
7.1
  1
Low Voltage Products
 41
6.35E-001
100
AcDbText
  0
POLYLINE
  5
10f
100
AcDbEntity
  8
1
100
AcDb2dPolyline
  6
CONTINUOUS
 62
40
 66
1
 40
5.0E-001
 41
5.0E-001
 70
0
  0
VERTEX
  5
110
100
AcDbEntity
  8
1
100
AcDbVertex
100
AcDb2dVertex
 42
0.0
 10
1.0690659E+002
 20
-3.95604E-001
 70
0
  0
VERTEX
  5
111
100
AcDbEntity
  8
1
100
AcDbVertex
100
AcDb2dVertex
 42
0.0
 10
1.0690659E+002
 20
5.7789666E+001
 70
0
  0
SEQEND
  5
112
100
AcDbEntity
  0
POLYLINE
  5
113
100
AcDbEntity
  8
1
100
AcDb2dPolyline
  6
CONTINUOUS
 62
40
 66
1
 40
5.0E-001
 41
5.0E-001
 70
0
  0
VERTEX
  5
114
100
AcDbEntity
  8
1
100
AcDbVertex
100
AcDb2dVertex
 42
0.0
 10
2.0989308E+002
 20
0.0
 70
0
  0
VERTEX
  5
115
100
AcDbEntity
  8
1
100
AcDbVertex
100
AcDb2dVertex
 42
0.0
 10
2.0989308E+002
 20
5.7789666E+001
 70
0
  0
SEQEND
  5
116
100
AcDbEntity
  0
POLYLINE
  5
117
100
AcDbEntity
  8
1
100
AcDb2dPolyline
  6
CONTINUOUS
 62
40
 66
1
 40
7.0E-001
 41
7.0E-001
 70
0
  0
VERTEX
  5
118
100
AcDbEntity
  8
1
100
AcDbVertex
100
AcDb2dVertex
 42
0.0
 10
3.5789168E+002
 20
0.0
 70
0
  0
VERTEX
  5
119
100
AcDbEntity
  8
1
100
AcDbVertex
100
AcDb2dVertex
 42
0.0
 10
-9.2366962E-002
 20
0.0
 70
0
  0
SEQEND
  5
11a
100
AcDbEntity
  0
POLYLINE
  5
11b
100
AcDbEntity
  8
1
100
AcDb2dPolyline
  6
CONTINUOUS
 62
40
 66
1
 40
7.0E-001
 41
7.0E-001
 70
0
  0
VERTEX
  5
11c
100
AcDbEntity
  8
1
100
AcDbVertex
100
AcDb2dVertex
 42
0.0
 10
-9.2366962E-002
 20
5.7789666E+001
 70
0
  0
VERTEX
  5
11d
100
AcDbEntity
  8
1
100
AcDbVertex
100
AcDb2dVertex
 42
0.0
 10
-9.2366962E-002
 20
0.0
 70
0
  0
SEQEND
  5
11e
100
AcDbEntity
  0
TEXT
  5
11f
100
AcDbEntity
  8
1
100
AcDbText
  6
CONTINUOUS
 62
4
 10
2.4394676E+002
 20
3.1436047E+001
 40
6.0
  1
14 OSS
100
AcDbText
  0
TEXT
  5
120
100
AcDbEntity
  8
1
100
AcDbText
  6
CONTINUOUS
 62
3
 10
2.1089635E+002
 20
3.9567435E+001
 40
2.399759
  1
KIRJAUS
 41
1.0000004
100
AcDbText
  0
TEXT
  5
121
100
AcDbEntity
  8
1
100
AcDbText
  6
CONTINUOUS
 62
30
 10
7.3515779
 20
2.3257274E+001
 40
9.0
  1
ABB Oy
 41
7.62E-001
100
AcDbText
  0
TEXT
  5
122
100
AcDbEntity
  8
1
100
AcDbText
  6
CONTINUOUS
 62
4
 10
1.3493365E+002
 20
2.7719691E+001
 40
5.0
  1
M KNUUTTILA
100
AcDbText
  0
TEXT
  5
123
100
AcDbEntity
  8
1
100
AcDbText
  6
CONTINUOUS
 62
1
 10
1.4009726E+002
 20
1.6350728E+001
 40
5.0
  1
M NÅHLS
100
AcDbText
  0
TEXT
  5
124
100
AcDbEntity
  8
1
100
AcDbText
  6
CONTINUOUS
 62
1
 10
1.3086135E+002
 20
4.344036
 40
5.0
  1
M TAIMISTO
100
AcDbText
  0
POINT
  5
125
100
AcDbEntity
  8
Drafting_Hidden_Entities
100
AcDbPoint
  6
CONTINUOUS
 62
1
 10
0.0
 20
0.0
  0
INSERT
  5
126
100
AcDbEntity
100
AcDbBlockReference
  2
*TX37
  8
1
 10
2.9378292E+002
 20
5.1262493E+001
  0
ENDBLK
  5
127
100
AcDbEntity
100
AcDbBlockEnd
  0
BLOCK
  5
128
100
AcDbEntity
100
AcDbBlockBegin
  2
*TX37
  3
*TX
 10
0.0
 20
0.0
 70
65
  0
TEXT
  5
129
100
AcDbEntity
  8
3
100
AcDbText
  6
CONTINUOUS
 62
1
 10
0.0
 20
0.0
 40
3.0
  1
DXF: 1SCC390200F0001
100
AcDbText
  0
TEXT
  5
12a
100
AcDbEntity
  8
3
100
AcDbText
  6
CONTINUOUS
 62
1
 10
0.0
 20
-4.5
 40
3.0
  1
DWG: 1SCC390210F0001
100
AcDbText
  0
ENDBLK
  5
12b
100
AcDbEntity
100
AcDbBlockEnd
  0
BLOCK
  5
12c
100
AcDbEntity
100
AcDbBlockBegin
  2
*TX38
  3
*TX
 10
0.0
 20
0.0
 70
65
  0
TEXT
  5
12d
100
AcDbEntity
  8
1
100
AcDbText
  6
CONTINUOUS
 62
1
 10
0.0
 20
0.0
 40
3.0
  1
OSS 200G1L
100
AcDbText
  0
TEXT
  5
12e
100
AcDbEntity
  8
1
100
AcDbText
  6
CONTINUOUS
 62
1
 10
0.0
 20
-4.5
 40
3.0
  1
OSS 200T1L
100
AcDbText
  0
ENDBLK
  5
12f
100
AcDbEntity
100
AcDbBlockEnd
  0
BLOCK
  5
130
100
AcDbEntity
100
AcDbBlockBegin
  2
_AH1
 70
0
 10
0.0
 20
0.0
  3
_AH1
  0
LINE
  5
131
100
AcDbEntity
  8
0
100
AcDbLine
  6
CONTINUOUS
 62
0
 10
-1.0
 20
1.66667E-001
 11
0.0
 21
0.0
  0
LINE
  5
132
100
AcDbEntity
  8
0
100
AcDbLine
  6
CONTINUOUS
 62
0
 10
0.0
 20
0.0
 11
-1.0
 21
-1.66667E-001
  0
LINE
  5
133
100
AcDbEntity
  8
0
100
AcDbLine
  6
CONTINUOUS
 62
0
 10
-1.0
 20
1.66667E-001
 11
-1.0
 21
-1.66667E-001
  0
LINE
  5
134
100
AcDbEntity
  8
0
100
AcDbLine
  6
CONTINUOUS
 62
0
 10
0.0
 20
0.0
 11
-1.0
 21
0.0
  0
ENDBLK
  5
135
100
AcDbEntity
100
AcDbBlockEnd
  0
BLOCK
  5
136
100
AcDbEntity
100
AcDbBlockBegin
  2
_AH2
 70
0
 10
0.0
 20
0.0
  3
_AH2
  0
LINE
  5
137
100
AcDbEntity
  8
0
100
AcDbLine
  6
CONTINUOUS
 62
0
 10
-1.0
 20
1.66667E-001
 11
0.0
 21
0.0
  0
LINE
  5
138
100
AcDbEntity
  8
0
100
AcDbLine
  6
CONTINUOUS
 62
0
 10
0.0
 20
0.0
 11
-1.0
 21
-1.66667E-001
  0
LINE
  5
139
100
AcDbEntity
  8
0
100
AcDbLine
  6
CONTINUOUS
 62
0
 10
0.0
 20
0.0
 11
-1.0
 21
0.0
  0
ENDBLK
  5
13a
100
AcDbEntity
100
AcDbBlockEnd
  0
BLOCK
  5
13b
100
AcDbEntity
100
AcDbBlockBegin
  2
*D578
  3
*D
 10
0.0
 20
0.0
 70
65
  0
LINE
  5
13c
100
AcDbEntity
  8
2
100
AcDbLine
  6
CONTINUOUS
 62
1
 10
3.4641661E+002
 20
6.2499024E+001
 11
3.4641661E+002
 21
4.3669806E+001
  0
LINE
  5
13d
100
AcDbEntity
  8
2
100
AcDbLine
  6
CONTINUOUS
 62
1
 10
3.0301661E+002
 20
6.2499024E+001
 11
3.0301661E+002
 21
4.3669806E+001
  0
LINE
  5
13e
100
AcDbEntity
  8
2
100
AcDbLine
  6
CONTINUOUS
 62
1
 10
3.4641661E+002
 20
4.6669806E+001
 11
3.2471661E+002
 21
4.6669806E+001
  0
LINE
  5
13f
100
AcDbEntity
  8
2
100
AcDbLine
  6
CONTINUOUS
 62
1
 10
3.0301661E+002
 20
4.6669806E+001
 11
3.2471661E+002
 21
4.6669806E+001
  0
TEXT
  5
140
100
AcDbEntity
  8
2
100
AcDbText
  6
CONTINUOUS
 62
1
 10
3.1871661E+002
 20
4.8670806E+001
 40
3.0
  1
43,4
 50
3.6E+002
100
AcDbText
  0
INSERT
  5
141
100
AcDbEntity
100
AcDbBlockReference
  2
_AH1
  8
2
 62
1
 10
3.4641661E+002
 20
4.6669806E+001
 41
3.0
 42
3.0
 43
3.0
 50
0.0
  0
INSERT
  5
142
100
AcDbEntity
100
AcDbBlockReference
  2
_AH1
  8
2
 62
1
 10
3.0301661E+002
 20
4.6669806E+001
 41
3.0
 42
3.0
 43
3.0
 50
1.8E+002
  0
ENDBLK
  5
143
100
AcDbEntity
100
AcDbBlockEnd
  0
BLOCK
  5
144
100
AcDbEntity
100
AcDbBlockBegin
  2
*D579
  3
*D
 10
0.0
 20
0.0
 70
65
  0
LINE
  5
145
100
AcDbEntity
  8
3
100
AcDbLine
  6
CONTINUOUS
 62
1
 10
1.8042322E+002
 20
1.738572E+002
 11
2.009903E+002
 21
1.738572E+002
  0
LINE
  5
146
100
AcDbEntity
  8
3
100
AcDbLine
  6
CONTINUOUS
 62
1
 10
1.8539647E+002
 20
5.9057202E+001
 11
2.009903E+002
 21
5.9057202E+001
  0
LINE
  5
147
100
AcDbEntity
  8
3
100
AcDbLine
  6
CONTINUOUS
 62
1
 10
1.979903E+002
 20
1.738572E+002
 11
1.979903E+002
 21
1.164572E+002
  0
LINE
  5
148
100
AcDbEntity
  8
3
100
AcDbLine
  6
CONTINUOUS
 62
1
 10
1.979903E+002
 20
5.9057202E+001
 11
1.979903E+002
 21
1.164572E+002
  0
TEXT
  5
149
100
AcDbEntity
  8
3
100
AcDbText
  6
CONTINUOUS
 62
1
 10
1.959893E+002
 20
1.089572E+002
 40
3.0
  1
114,8
 50
9.0E+001
100
AcDbText
  0
INSERT
  5
14a
100
AcDbEntity
100
AcDbBlockReference
  2
_AH1
  8
3
 62
1
 10
1.979903E+002
 20
1.738572E+002
 41
3.0
 42
3.0
 43
3.0
 50
9.0E+001
  0
INSERT
  5
14b
100
AcDbEntity
100
AcDbBlockReference
  2
_AH1
  8
3
 62
1
 10
1.979903E+002
 20
5.9057202E+001
 41
3.0
 42
3.0
 43
3.0
 50
2.7E+002
  0
ENDBLK
  5
14c
100
AcDbEntity
100
AcDbBlockEnd
  0
BLOCK
  5
14d
100
AcDbEntity
100
AcDbBlockBegin
  2
*D580
  3
*D
 10
0.0
 20
0.0
 70
65
  0
LINE
  5
14e
100
AcDbEntity
  8
3
100
AcDbLine
  6
CONTINUOUS
 62
1
 10
1.8537322E+002
 20
1.673572E+002
 11
1.8537322E+002
 21
1.856265E+002
  0
LINE
  5
14f
100
AcDbEntity
  8
3
100
AcDbLine
  6
CONTINUOUS
 62
1
 10
1.1067322E+002
 20
1.551072E+002
 11
1.1067322E+002
 21
1.856265E+002
  0
LINE
  5
150
100
AcDbEntity
  8
3
100
AcDbLine
  6
CONTINUOUS
 62
1
 10
1.8537322E+002
 20
1.826265E+002
 11
1.4802322E+002
 21
1.826265E+002
  0
LINE
  5
151
100
AcDbEntity
  8
3
100
AcDbLine
  6
CONTINUOUS
 62
1
 10
1.1067322E+002
 20
1.826265E+002
 11
1.4802322E+002
 21
1.826265E+002
  0
TEXT
  5
152
100
AcDbEntity
  8
3
100
AcDbText
  6
CONTINUOUS
 62
1
 10
1.4202322E+002
 20
1.846275E+002
 40
3.0
  1
74,7
 50
3.6E+002
100
AcDbText
  0
INSERT
  5
153
100
AcDbEntity
100
AcDbBlockReference
  2
_AH1
  8
3
 62
1
 10
1.8537322E+002
 20
1.826265E+002
 41
3.0
 42
3.0
 43
3.0
 50
0.0
  0
INSERT
  5
154
100
AcDbEntity
100
AcDbBlockReference
  2
_AH1
  8
3
 62
1
 10
1.1067322E+002
 20
1.826265E+002
 41
3.0
 42
3.0
 43
3.0
 50
1.8E+002
  0
ENDBLK
  5
155
100
AcDbEntity
100
AcDbBlockEnd
  0
ENDSEC
  0
SECTION
  2
ENTITIES
  0
TEXT
  5
156
100
AcDbEntity
  8
1
100
AcDbText
  6
CONTINUOUS
 62
7
 10
2.6103522E+002
 20
3.3718115E+001
 40
1.0
  1
2-FRONT
 41
3.0
100
AcDbText
  0
TEXT
  5
157
100
AcDbEntity
  8
1
100
AcDbText
  6
CONTINUOUS
 62
7
 10
6.4953662E+001
 20
3.5576293E+001
 40
1.0
  1
3-RIGHT
 41
3.0
100
AcDbText
  0
TEXT
  5
158
100
AcDbEntity
  8
1
100
AcDbText
  6
CONTINUOUS
 62
7
 10
2.6103523E+002
 20
1.6554643E+002
 40
1.0
  1
4-BOTTOM
 41
3.0
100
AcDbText
  0
INSERT
  5
159
100
AcDbEntity
100
AcDbBlockReference
  2
DXF_NIMIO
  8
1
 10
2.369177E+002
 20
4.026052
 41
5.0E-001
 43
5.0E-001
 42
5.0E-001
  0
INSERT
  5
15a
100
AcDbEntity
100
AcDbBlockReference
  2
*TX38
  8
1
 10
3.721123E+002
 20
5.0313648E+001
  0
POLYLINE
  5
15b
100
AcDbEntity
  8
2
100
AcDb2dPolyline
  6
CONTINUOUS
 62
40
 66
1
 40
7.0E-001
 41
7.0E-001
 70
0
  0
VERTEX
  5
15c
100
AcDbEntity
  8
2
100
AcDbVertex
100
AcDb2dVertex
 42
0.0
 10
3.2346661E+002
 20
1.5899902E+002
 70
0
  0
VERTEX
  5
15d
100
AcDbEntity
  8
2
100
AcDbVertex
100
AcDb2dVertex
 42
0.0
 10
3.2246661E+002
 20
1.5899902E+002
 70
0
  0
SEQEND
  5
15e
100
AcDbEntity
  0
POLYLINE
  5
15f
100
AcDbEntity
  8
2
100
AcDb2dPolyline
  6
CONTINUOUS
 62
40
 66
1
 40
7.0E-001
 41
7.0E-001
 70
0
  0
VERTEX
  5
160
100
AcDbEntity
  8
2
100
AcDbVertex
100
AcDb2dVertex
 42
0.0
 10
3.2196661E+002
 20
1.5899902E+002
 70
0
  0
VERTEX
  5
161
100
AcDbEntity
  8
2
100
AcDbVertex
100
AcDb2dVertex
 42
0.0
 10
3.2246661E+002
 20
1.5899902E+002
 70
0
  0
SEQEND
  5
162
100
AcDbEntity
  0
POLYLINE
  5
163
100
AcDbEntity
  8
2
100
AcDb2dPolyline
  6
CONTINUOUS
 62
40
 66
1
 40
7.0E-001
 41
7.0E-001
 70
0
  0
VERTEX
  5
164
100
AcDbEntity
  8
2
100
AcDbVertex
100
AcDb2dVertex
 42
0.0
 10
3.2696661E+002
 20
1.5899902E+002
 70
0
  0
VERTEX
  5
165
100
AcDbEntity
  8
2
100
AcDbVertex
100
AcDb2dVertex
 42
0.0
 10
3.2746661E+002
 20
1.5899902E+002
 70
0
  0
SEQEND
  5
166
100
AcDbEntity
  0
POLYLINE
  5
167
100
AcDbEntity
  8
2
100
AcDb2dPolyline
  6
CONTINUOUS
 62
40
 66
1
 40
7.0E-001
 41
7.0E-001
 70
0
  0
VERTEX
  5
168
100
AcDbEntity
  8
2
100
AcDbVertex
100
AcDb2dVertex
 42
0.0
 10
3.2696661E+002
 20
1.5899902E+002
 70
0
  0
VERTEX
  5
169
100
AcDbEntity
  8
2
100
AcDbVertex
100
AcDb2dVertex
 42
0.0
 10
3.2596661E+002
 20
1.5899902E+002
 70
0
  0
SEQEND
  5
16a
100
AcDbEntity
  0
POLYLINE
  5
16b
100
AcDbEntity
  8
2
100
AcDb2dPolyline
  6
CONTINUOUS
 62
40
 66
1
 40
7.0E-001
 41
7.0E-001
 70
0
  0
VERTEX
  5
16c
100
AcDbEntity
  8
2
100
AcDbVertex
100
AcDb2dVertex
 42
0.0
 10
3.2596661E+002
 20
1.5899902E+002
 70
0
  0
VERTEX
  5
16d
100
AcDbEntity
  8
2
100
AcDbVertex
100
AcDb2dVertex
 42
0.0
 10
3.2346661E+002
 20
1.5899902E+002
 70
0
  0
SEQEND
  5
16e
100
AcDbEntity
  0
POLYLINE
  5
16f
100
AcDbEntity
  8
2
100
AcDb2dPolyline
  6
CONTINUOUS
 62
40
 66
1
 40
7.0E-001
 41
7.0E-001
 70
0
  0
VERTEX
  5
170
100
AcDbEntity
  8
2
100
AcDbVertex
100
AcDb2dVertex
 42
0.0
 10
3.2246661E+002
 20
1.5208016E+002
 70
0
  0
VERTEX
  5
171
100
AcDbEntity
  8
2
100
AcDbVertex
100
AcDb2dVertex
 42
0.0
 10
3.2246661E+002
 20
1.5899902E+002
 70
0
  0
SEQEND
  5
172
100
AcDbEntity
  0
POLYLINE
  5
173
100
AcDbEntity
  8
2
100
AcDb2dPolyline
  6
CONTINUOUS
 62
40
 66
1
 40
7.0E-001
 41
7.0E-001
 70
0
  0
VERTEX
  5
174
100
AcDbEntity
  8
2
100
AcDbVertex
100
AcDb2dVertex
 42
1.2220705E-001
 10
3.234667E+002
 20
1.5294856E+002
 70
0
  0
VERTEX
  5
175
100
AcDbEntity
  8
2
100
AcDbVertex
100
AcDb2dVertex
 42
0.0
 10
3.2246661E+002
 20
1.5208016E+002
 70
0
  0
SEQEND
  5
176
100
AcDbEntity
  0
POLYLINE
  5
177
100
AcDbEntity
  8
2
100
AcDb2dPolyline
  6
CONTINUOUS
 62
40
 66
1
 40
7.0E-001
 41
7.0E-001
 70
0
  0
VERTEX
  5
178
100
AcDbEntity
  8
2
100
AcDbVertex
100
AcDb2dVertex
 42
1.221961E-001
 10
3.2696661E+002
 20
1.5208016E+002
 70
0
  0
VERTEX
  5
179
100
AcDbEntity
  8
2
100
AcDbVertex
100
AcDb2dVertex
 42
0.0
 10
3.2596663E+002
 20
1.5294851E+002
 70
0
  0
SEQEND
  5
17a
100
AcDbEntity
  0
POLYLINE
  5
17b
100
AcDbEntity
  8
2
100
AcDb2dPolyline
  6
CONTINUOUS
 62
40
 66
1
 40
7.0E-001
 41
7.0E-001
 70
0
  0
VERTEX
  5
17c
100
AcDbEntity
  8
2
100
AcDbVertex
100
AcDb2dVertex
 42
2.4040029E-001
 10
3.2596663E+002
 20
1.5294851E+002
 70
0
  0
VERTEX
  5
17d
100
AcDbEntity
  8
2
100
AcDbVertex
100
AcDb2dVertex
 42
0.0
 10
3.234667E+002
 20
1.5294856E+002
 70
0
  0
SEQEND
  5
17e
100
AcDbEntity
  0
POLYLINE
  5
17f
100
AcDbEntity
  8
2
100
AcDb2dPolyline
  6
CONTINUOUS
 62
40
 66
1
 40
7.0E-001
 41
7.0E-001
 70
0
  0
VERTEX
  5
180
100
AcDbEntity
  8
2
100
AcDbVertex
100
AcDb2dVertex
 42
0.0
 10
3.2696661E+002
 20
1.5899902E+002
 70
0
  0
VERTEX
  5
181
100
AcDbEntity
  8
2
100
AcDbVertex
100
AcDb2dVertex
 42
0.0
 10
3.2696661E+002
 20
1.5208016E+002
 70
0
  0
SEQEND
  5
182
100
AcDbEntity
  0
POLYLINE
  5
183
100
AcDbEntity
  8
2
100
AcDb2dPolyline
  6
CONTINUOUS
 62
40
 66
1
 40
7.0E-001
 41
7.0E-001
 70
0
  0
VERTEX
  5
184
100
AcDbEntity
  8
2
100
AcDbVertex
100
AcDb2dVertex
 42
1.0
 10
3.2696661E+002
 20
1.5049902E+002
 70
0
  0
VERTEX
  5
185
100
AcDbEntity
  8
2
100
AcDbVertex
100
AcDb2dVertex
 42
1.0
 10
3.2246661E+002
 20
1.5049902E+002
 70
0
  0
VERTEX
  5
186
100
AcDbEntity
  8
2
100
AcDbVertex
100
AcDb2dVertex
 42
0.0
 10
3.2696661E+002
 20
1.5049902E+002
 70
0
  0
SEQEND
  5
187
100
AcDbEntity
  0
POLYLINE
  5
188
100
AcDbEntity
  8
2
100
AcDb2dPolyline
  6
CONTINUOUS
 62
40
 66
1
 40
7.0E-001
 41
7.0E-001
 70
0
  0
VERTEX
  5
189
100
AcDbEntity
  8
2
100
AcDbVertex
100
AcDb2dVertex
 42
0.0
 10
3.2746661E+002
 20
1.5999902E+002
 70
0
  0
VERTEX
  5
18a
100
AcDbEntity
  8
2
100
AcDbVertex
100
AcDb2dVertex
 42
0.0
 10
3.2746661E+002
 20
1.5049902E+002
 70
0
  0
SEQEND
  5
18b
100
AcDbEntity
  0
POLYLINE
  5
18c
100
AcDbEntity
  8
2
100
AcDb2dPolyline
  6
CONTINUOUS
 62
40
 66
1
 40
7.0E-001
 41
7.0E-001
 70
0
  0
VERTEX
  5
18d
100
AcDbEntity
  8
2
100
AcDbVertex
100
AcDb2dVertex
 42
0.0
 10
3.2196661E+002
 20
1.5049902E+002
 70
0
  0
VERTEX
  5
18e
100
AcDbEntity
  8
2
100
AcDbVertex
100
AcDb2dVertex
 42
0.0
 10
3.2196661E+002
 20
1.5999902E+002
 70
0
  0
SEQEND
  5
18f
100
AcDbEntity
  0
POLYLINE
  5
190
100
AcDbEntity
  8
2
100
AcDb2dPolyline
  6
CONTINUOUS
 62
40
 66
1
 40
7.0E-001
 41
7.0E-001
 70
0
  0
VERTEX
  5
191
100
AcDbEntity
  8
2
100
AcDbVertex
100
AcDb2dVertex
 42
1.0
 10
3.2196661E+002
 20
1.5049902E+002
 70
0
  0
VERTEX
  5
192
100
AcDbEntity
  8
2
100
AcDbVertex
100
AcDb2dVertex
 42
0.0
 10
3.2746661E+002
 20
1.5049902E+002
 70
0
  0
SEQEND
  5
193
100
AcDbEntity
  0
POLYLINE
  5
194
100
AcDbEntity
  8
2
100
AcDb2dPolyline
  6
CONTINUOUS
 62
40
 66
1
 40
7.0E-001
 41
7.0E-001
 70
0
  0
VERTEX
  5
195
100
AcDbEntity
  8
2
100
AcDbVertex
100
AcDb2dVertex
 42
0.0
 10
3.0301661E+002
 20
1.5324902E+002
 70
0
  0
VERTEX
  5
196
100
AcDbEntity
  8
2
100
AcDbVertex
100
AcDb2dVertex
 42
0.0
 10
3.0301661E+002
 20
1.5999902E+002
 70
0
  0
SEQEND
  5
197
100
AcDbEntity
  0
POLYLINE
  5
198
100
AcDbEntity
  8
2
100
AcDb2dPolyline
  6
CONTINUOUS
 62
40
 66
1
 40
7.0E-001
 41
7.0E-001
 70
0
  0
VERTEX
  5
199
100
AcDbEntity
  8
2
100
AcDbVertex
100
AcDb2dVertex
 42
0.0
 10
3.0301661E+002
 20
1.5999902E+002
 70
0
  0
VERTEX
  5
19a
100
AcDbEntity
  8
2
100
AcDbVertex
100
AcDb2dVertex
 42
0.0
 10
3.0301661E+002
 20
1.6199902E+002
 70
0
  0
SEQEND
  5
19b
100
AcDbEntity
  0
POLYLINE
  5
19c
100
AcDbEntity
  8
2
100
AcDb2dPolyline
  6
CONTINUOUS
 62
40
 66
1
 40
7.0E-001
 41
7.0E-001
 70
0
  0
VERTEX
  5
19d
100
AcDbEntity
  8
2
100
AcDbVertex
100
AcDb2dVertex
 42
0.0
 10
3.0301661E+002
 20
1.6199902E+002
 70
0
  0
VERTEX
  5
19e
100
AcDbEntity
  8
2
100
AcDbVertex
100
AcDb2dVertex
 42
0.0
 10
3.0301661E+002
 20
1.6599902E+002
 70
0
  0
SEQEND
  5
19f
100
AcDbEntity
  0
POLYLINE
  5
1a0
100
AcDbEntity
  8
2
100
AcDb2dPolyline
  6
CONTINUOUS
 62
40
 66
1
 40
7.0E-001
 41
7.0E-001
 70
0
  0
VERTEX
  5
1a1
100
AcDbEntity
  8
2
100
AcDbVertex
100
AcDb2dVertex
 42
0.0
 10
3.0301661E+002
 20
1.7124902E+002
 70
0
  0
VERTEX
  5
1a2
100
AcDbEntity
  8
2
100
AcDbVertex
100
AcDb2dVertex
 42
0.0
 10
3.0301661E+002
 20
1.6599902E+002
 70
0
  0
SEQEND
  5
1a3
100
AcDbEntity
  0
POLYLINE
  5
1a4
100
AcDbEntity
  8
2
100
AcDb2dPolyline
  6
CONTINUOUS
 62
40
 66
1
 40
7.0E-001
 41
7.0E-001
 70
0
  0
VERTEX
  5
1a5
100
AcDbEntity
  8
2
100
AcDbVertex
100
AcDb2dVertex
 42
0.0
 10
3.0301661E+002
 20
1.7199902E+002
 70
0
  0
VERTEX
  5
1a6
100
AcDbEntity
  8
2
100
AcDbVertex
100
AcDb2dVertex
 42
0.0
 10
3.0301661E+002
 20
1.7124902E+002
 70
0
  0
SEQEND
  5
1a7
100
AcDbEntity
  0
POLYLINE
  5
1a8
100
AcDbEntity
  8
2
100
AcDb2dPolyline
  6
CONTINUOUS
 62
40
 66
1
 40
7.0E-001
 41
7.0E-001
 70
0
  0
VERTEX
  5
1a9
100
AcDbEntity
  8
2
100
AcDbVertex
100
AcDb2dVertex
 42
0.0
 10
3.0301661E+002
 20
6.1499024E+001
 70
0
  0
VERTEX
  5
1aa
100
AcDbEntity
  8
2
100
AcDbVertex
100
AcDb2dVertex
 42
0.0
 10
3.0301661E+002
 20
6.2499024E+001
 70
0
  0
SEQEND
  5
1ab
100
AcDbEntity
  0
POLYLINE
  5
1ac
100
AcDbEntity
  8
2
100
AcDb2dPolyline
  6
CONTINUOUS
 62
40
 66
1
 40
7.0E-001
 41
7.0E-001
 70
0
  0
VERTEX
  5
1ad
100
AcDbEntity
  8
2
100
AcDbVertex
100
AcDb2dVertex
 42
0.0
 10
3.0301661E+002
 20
6.2499024E+001
 70
0
  0
VERTEX
  5
1ae
100
AcDbEntity
  8
2
100
AcDbVertex
100
AcDb2dVertex
 42
0.0
 10
3.0301661E+002
 20
1.4774902E+002
 70
0
  0
SEQEND
  5
1af
100
AcDbEntity
  0
POLYLINE
  5
1b0
100
AcDbEntity
  8
2
100
AcDb2dPolyline
  6
CONTINUOUS
 62
40
 66
1
 40
7.0E-001
 41
7.0E-001
 70
0
  0
VERTEX
  5
1b1
100
AcDbEntity
  8
2
100
AcDbVertex
100
AcDb2dVertex
 42
0.0
 10
3.0301661E+002
 20
1.4774902E+002
 70
0
  0
VERTEX
  5
1b2
100
AcDbEntity
  8
2
100
AcDbVertex
100
AcDb2dVertex
 42
0.0
 10
3.0301661E+002
 20
1.5324902E+002
 70
0
  0
SEQEND
  5
1b3
100
AcDbEntity
  0
POLYLINE
  5
1b4
100
AcDbEntity
  8
2
100
AcDb2dPolyline
  6
CONTINUOUS
 62
40
 66
1
 40
7.0E-001
 41
7.0E-001
 70
0
  0
VERTEX
  5
1b5
100
AcDbEntity
  8
2
100
AcDbVertex
100
AcDb2dVertex
 42
0.0
 10
3.4591661E+002
 20
6.0999024E+001
 70
0
  0
VERTEX
  5
1b6
100
AcDbEntity
  8
2
100
AcDbVertex
100
AcDb2dVertex
 42
0.0
 10
3.0351661E+002
 20
6.0999024E+001
 70
0
  0
SEQEND
  5
1b7
100
AcDbEntity
  0
POLYLINE
  5
1b8
100
AcDbEntity
  8
2
100
AcDb2dPolyline
  6
CONTINUOUS
 62
40
 66
1
 40
7.0E-001
 41
7.0E-001
 70
0
  0
VERTEX
  5
1b9
100
AcDbEntity
  8
2
100
AcDbVertex
100
AcDb2dVertex
 42
0.0
 10
3.0351661E+002
 20
1.5999902E+002
 70
0
  0
VERTEX
  5
1ba
100
AcDbEntity
  8
2
100
AcDbVertex
100
AcDb2dVertex
 42
0.0
 10
3.0301661E+002
 20
1.5999902E+002
 70
0
  0
SEQEND
  5
1bb
100
AcDbEntity
  0
POLYLINE
  5
1bc
100
AcDbEntity
  8
2
100
AcDb2dPolyline
  6
CONTINUOUS
 62
40
 66
1
 40
7.0E-001
 41
7.0E-001
 70
0
  0
VERTEX
  5
1bd
100
AcDbEntity
  8
2
100
AcDbVertex
100
AcDb2dVertex
 42
0.0
 10
3.4641661E+002
 20
1.5999902E+002
 70
0
  0
VERTEX
  5
1be
100
AcDbEntity
  8
2
100
AcDbVertex
100
AcDb2dVertex
 42
0.0
 10
3.4591661E+002
 20
1.5999902E+002
 70
0
  0
SEQEND
  5
1bf
100
AcDbEntity
  0
POLYLINE
  5
1c0
100
AcDbEntity
  8
2
100
AcDb2dPolyline
  6
CONTINUOUS
 62
40
 66
1
 40
7.0E-001
 41
7.0E-001
 70
0
  0
VERTEX
  5
1c1
100
AcDbEntity
  8
2
100
AcDbVertex
100
AcDb2dVertex
 42
0.0
 10
3.4591661E+002
 20
1.5999902E+002
 70
0
  0
VERTEX
  5
1c2
100
AcDbEntity
  8
2
100
AcDbVertex
100
AcDb2dVertex
 42
0.0
 10
3.2746661E+002
 20
1.5999902E+002
 70
0
  0
SEQEND
  5
1c3
100
AcDbEntity
  0
POLYLINE
  5
1c4
100
AcDbEntity
  8
2
100
AcDb2dPolyline
  6
CONTINUOUS
 62
40
 66
1
 40
7.0E-001
 41
7.0E-001
 70
0
  0
VERTEX
  5
1c5
100
AcDbEntity
  8
2
100
AcDbVertex
100
AcDb2dVertex
 42
0.0
 10
3.2746661E+002
 20
1.5999902E+002
 70
0
  0
VERTEX
  5
1c6
100
AcDbEntity
  8
2
100
AcDbVertex
100
AcDb2dVertex
 42
0.0
 10
3.2196661E+002
 20
1.5999902E+002
 70
0
  0
SEQEND
  5
1c7
100
AcDbEntity
  0
POLYLINE
  5
1c8
100
AcDbEntity
  8
2
100
AcDb2dPolyline
  6
CONTINUOUS
 62
40
 66
1
 40
7.0E-001
 41
7.0E-001
 70
0
  0
VERTEX
  5
1c9
100
AcDbEntity
  8
2
100
AcDbVertex
100
AcDb2dVertex
 42
0.0
 10
3.2196661E+002
 20
1.5999902E+002
 70
0
  0
VERTEX
  5
1ca
100
AcDbEntity
  8
2
100
AcDbVertex
100
AcDb2dVertex
 42
0.0
 10
3.0351661E+002
 20
1.5999902E+002
 70
0
  0
SEQEND
  5
1cb
100
AcDbEntity
  0
POLYLINE
  5
1cc
100
AcDbEntity
  8
2
100
AcDb2dPolyline
  6
CONTINUOUS
 62
40
 66
1
 40
7.0E-001
 41
7.0E-001
 70
0
  0
VERTEX
  5
1cd
100
AcDbEntity
  8
2
100
AcDbVertex
100
AcDb2dVertex
 42
0.0
 10
3.4296661E+002
 20
1.7199902E+002
 70
0
  0
VERTEX
  5
1ce
100
AcDbEntity
  8
2
100
AcDbVertex
100
AcDb2dVertex
 42
0.0
 10
3.4641661E+002
 20
1.7199902E+002
 70
0
  0
SEQEND
  5
1cf
100
AcDbEntity
  0
POLYLINE
  5
1d0
100
AcDbEntity
  8
2
100
AcDb2dPolyline
  6
CONTINUOUS
 62
40
 66
1
 40
7.0E-001
 41
7.0E-001
 70
0
  0
VERTEX
  5
1d1
100
AcDbEntity
  8
2
100
AcDbVertex
100
AcDb2dVertex
 42
0.0
 10
3.4021661E+002
 20
1.6599902E+002
 70
0
  0
VERTEX
  5
1d2
100
AcDbEntity
  8
2
100
AcDbVertex
100
AcDb2dVertex
 42
0.0
 10
3.4641661E+002
 20
1.6599902E+002
 70
0
  0
SEQEND
  5
1d3
100
AcDbEntity
  0
POLYLINE
  5
1d4
100
AcDbEntity
  8
2
100
AcDb2dPolyline
  6
CONTINUOUS
 62
40
 66
1
 40
7.0E-001
 41
7.0E-001
 70
0
  0
VERTEX
  5
1d5
100
AcDbEntity
  8
2
100
AcDbVertex
100
AcDb2dVertex
 42
0.0
 10
3.3991661E+002
 20
1.6599902E+002
 70
0
  0
VERTEX
  5
1d6
100
AcDbEntity
  8
2
100
AcDbVertex
100
AcDb2dVertex
 42
0.0
 10
3.4021661E+002
 20
1.6599902E+002
 70
0
  0
SEQEND
  5
1d7
100
AcDbEntity
  0
POLYLINE
  5
1d8
100
AcDbEntity
  8
2
100
AcDb2dPolyline
  6
CONTINUOUS
 62
40
 66
1
 40
7.0E-001
 41
7.0E-001
 70
0
  0
VERTEX
  5
1d9
100
AcDbEntity
  8
2
100
AcDbVertex
100
AcDb2dVertex
 42
0.0
 10
3.1151661E+002
 20
1.6799902E+002
 70
0
  0
VERTEX
  5
1da
100
AcDbEntity
  8
2
100
AcDbVertex
100
AcDb2dVertex
 42
0.0
 10
3.3791661E+002
 20
1.6799902E+002
 70
0
  0
SEQEND
  5
1db
100
AcDbEntity
  0
POLYLINE
  5
1dc
100
AcDbEntity
  8
2
100
AcDb2dPolyline
  6
CONTINUOUS
 62
40
 66
1
 40
7.0E-001
 41
7.0E-001
 70
0
  0
VERTEX
  5
1dd
100
AcDbEntity
  8
2
100
AcDbVertex
100
AcDb2dVertex
 42
0.0
 10
3.0731661E+002
 20
1.6753459E+002
 70
0
  0
VERTEX
  5
1de
100
AcDbEntity
  8
2
100
AcDbVertex
100
AcDb2dVertex
 42
0.0
 10
3.0731662E+002
 20
1.6754903E+002
 70
0
  0
SEQEND
  5
1df
100
AcDbEntity
  0
POLYLINE
  5
1e0
100
AcDbEntity
  8
2
100
AcDb2dPolyline
  6
CONTINUOUS
 62
40
 66
1
 40
7.0E-001
 41
7.0E-001
 70
0
  0
VERTEX
  5
1e1
100
AcDbEntity
  8
2
100
AcDbVertex
100
AcDb2dVertex
 42
0.0
 10
3.0731661E+002
 20
1.6649902E+002
 70
0
  0
VERTEX
  5
1e2
100
AcDbEntity
  8
2
100
AcDbVertex
100
AcDb2dVertex
 42
0.0
 10
3.0731661E+002
 20
1.6753459E+002
 70
0
  0
SEQEND
  5
1e3
100
AcDbEntity
  0
POLYLINE
  5
1e4
100
AcDbEntity
  8
2
100
AcDb2dPolyline
  6
CONTINUOUS
 62
40
 66
1
 40
7.0E-001
 41
7.0E-001
 70
0
  0
VERTEX
  5
1e5
100
AcDbEntity
  8
2
100
AcDbVertex
100
AcDb2dVertex
 42
0.0
 10
3.0521661E+002
 20
1.6599902E+002
 70
0
  0
VERTEX
  5
1e6
100
AcDbEntity
  8
2
100
AcDbVertex
100
AcDb2dVertex
 42
0.0
 10
3.0521661E+002
 20
1.6919902E+002
 70
0
  0
SEQEND
  5
1e7
100
AcDbEntity
  0
POLYLINE
  5
1e8
100
AcDbEntity
  8
2
100
AcDb2dPolyline
  6
CONTINUOUS
 62
40
 66
1
 40
7.0E-001
 41
7.0E-001
 70
0
  0
VERTEX
  5
1e9
100
AcDbEntity
  8
2
100
AcDbVertex
100
AcDb2dVertex
 42
0.0
 10
3.0646661E+002
 20
1.7199902E+002
 70
0
  0
VERTEX
  5
1ea
100
AcDbEntity
  8
2
100
AcDbVertex
100
AcDb2dVertex
 42
0.0
 10
3.0684161E+002
 20
1.7162402E+002
 70
0
  0
SEQEND
  5
1eb
100
AcDbEntity
  0
POLYLINE
  5
1ec
100
AcDbEntity
  8
2
100
AcDb2dPolyline
  6
CONTINUOUS
 62
40
 66
1
 40
7.0E-001
 41
7.0E-001
 70
0
  0
VERTEX
  5
1ed
100
AcDbEntity
  8
2
100
AcDbVertex
100
AcDb2dVertex
 42
0.0
 10
3.0684161E+002
 20
1.7162402E+002
 70
0
  0
VERTEX
  5
1ee
100
AcDbEntity
  8
2
100
AcDbVertex
100
AcDb2dVertex
 42
0.0
 10
3.0721661E+002
 20
1.7124902E+002
 70
0
  0
SEQEND
  5
1ef
100
AcDbEntity
  0
POLYLINE
  5
1f0
100
AcDbEntity
  8
2
100
AcDb2dPolyline
  6
CONTINUOUS
 62
40
 66
1
 40
7.0E-001
 41
7.0E-001
 70
0
  0
VERTEX
  5
1f1
100
AcDbEntity
  8
2
100
AcDbVertex
100
AcDb2dVertex
 42
0.0
 10
3.4259161E+002
 20
1.7162402E+002
 70
0
  0
VERTEX
  5
1f2
100
AcDbEntity
  8
2
100
AcDbVertex
100
AcDb2dVertex
 42
0.0
 10
3.4296661E+002
 20
1.7199902E+002
 70
0
  0
SEQEND
  5
1f3
100
AcDbEntity
  0
POLYLINE
  5
1f4
100
AcDbEntity
  8
2
100
AcDb2dPolyline
  6
CONTINUOUS
 62
40
 66
1
 40
7.0E-001
 41
7.0E-001
 70
0
  0
VERTEX
  5
1f5
100
AcDbEntity
  8
2
100
AcDbVertex
100
AcDb2dVertex
 42
0.0
 10
3.4221661E+002
 20
1.7124902E+002
 70
0
  0
VERTEX
  5
1f6
100
AcDbEntity
  8
2
100
AcDbVertex
100
AcDb2dVertex
 42
0.0
 10
3.4259161E+002
 20
1.7162402E+002
 70
0
  0
SEQEND
  5
1f7
100
AcDbEntity
  0
POLYLINE
  5
1f8
100
AcDbEntity
  8
2
100
AcDb2dPolyline
  6
CONTINUOUS
 62
40
 66
1
 40
7.0E-001
 41
7.0E-001
 70
0
  0
VERTEX
  5
1f9
100
AcDbEntity
  8
2
100
AcDbVertex
100
AcDb2dVertex
 42
0.0
 10
3.0721661E+002
 20
1.6919902E+002
 70
0
  0
VERTEX
  5
1fa
100
AcDbEntity
  8
2
100
AcDbVertex
100
AcDb2dVertex
 42
0.0
 10
3.0646661E+002
 20
1.6919902E+002
 70
0
  0
SEQEND
  5
1fb
100
AcDbEntity
  0
POLYLINE
  5
1fc
100
AcDbEntity
  8
2
100
AcDb2dPolyline
  6
CONTINUOUS
 62
40
 66
1
 40
7.0E-001
 41
7.0E-001
 70
0
  0
VERTEX
  5
1fd
100
AcDbEntity
  8
2
100
AcDbVertex
100
AcDb2dVertex
 42
0.0
 10
3.0521661E+002
 20
1.6919902E+002
 70
0
  0
VERTEX
  5
1fe
100
AcDbEntity
  8
2
100
AcDbVertex
100
AcDb2dVertex
 42
0.0
 10
3.0646661E+002
 20
1.6919902E+002
 70
0
  0
SEQEND
  5
1ff
100
AcDbEntity
  0
POLYLINE
  5
200
100
AcDbEntity
  8
2
100
AcDb2dPolyline
  6
CONTINUOUS
 62
40
 66
1
 40
7.0E-001
 41
7.0E-001
 70
0
  0
VERTEX
  5
201
100
AcDbEntity
  8
2
100
AcDbVertex
100
AcDb2dVertex
 42
4.1421356E-001
 10
3.4201661E+002
 20
6.0299024E+001
 70
0
  0
VERTEX
  5
202
100
AcDbEntity
  8
2
100
AcDbVertex
100
AcDb2dVertex
 42
0.0
 10
3.4221661E+002
 20
6.0499024E+001
 70
0
  0
SEQEND
  5
203
100
AcDbEntity
  0
POLYLINE
  5
204
100
AcDbEntity
  8
2
100
AcDb2dPolyline
  6
CONTINUOUS
 62
40
 66
1
 40
7.0E-001
 41
7.0E-001
 70
0
  0
VERTEX
  5
205
100
AcDbEntity
  8
2
100
AcDbVertex
100
AcDb2dVertex
 42
4.1421356E-001
 10
3.0721661E+002
 20
6.0499024E+001
 70
0
  0
VERTEX
  5
206
100
AcDbEntity
  8
2
100
AcDbVertex
100
AcDb2dVertex
 42
0.0
 10
3.0741661E+002
 20
6.0299024E+001
 70
0
  0
SEQEND
  5
207
100
AcDbEntity
  0
POLYLINE
  5
208
100
AcDbEntity
  8
2
100
AcDb2dPolyline
  6
CONTINUOUS
 62
40
 66
1
 40
7.0E-001
 41
7.0E-001
 70
0
  0
VERTEX
  5
209
100
AcDbEntity
  8
2
100
AcDbVertex
100
AcDb2dVertex
 42
4.1421356E-001
 10
3.3801661E+002
 20
5.9599024E+001
 70
0
  0
VERTEX
  5
20a
100
AcDbEntity
  8
2
100
AcDbVertex
100
AcDb2dVertex
 42
0.0
 10
3.3821661E+002
 20
5.9799024E+001
 70
0
  0
SEQEND
  5
20b
100
AcDbEntity
  0
POLYLINE
  5
20c
100
AcDbEntity
  8
2
100
AcDb2dPolyline
  6
CONTINUOUS
 62
40
 66
1
 40
7.0E-001
 41
7.0E-001
 70
0
  0
VERTEX
  5
20d
100
AcDbEntity
  8
2
100
AcDbVertex
100
AcDb2dVertex
 42
4.1421356E-001
 10
3.1121661E+002
 20
5.9799024E+001
 70
0
  0
VERTEX
  5
20e
100
AcDbEntity
  8
2
100
AcDbVertex
100
AcDb2dVertex
 42
0.0
 10
3.1141661E+002
 20
5.9599024E+001
 70
0
  0
SEQEND
  5
20f
100
AcDbEntity
  0
POLYLINE
  5
210
100
AcDbEntity
  8
2
100
AcDb2dPolyline
  6
CONTINUOUS
 62
40
 66
1
 40
7.0E-001
 41
7.0E-001
 70
0
  0
VERTEX
  5
211
100
AcDbEntity
  8
2
100
AcDbVertex
100
AcDb2dVertex
 42
4.1421356E-001
 10
3.3451661E+002
 20
5.8899024E+001
 70
0
  0
VERTEX
  5
212
100
AcDbEntity
  8
2
100
AcDbVertex
100
AcDb2dVertex
 42
0.0
 10
3.3471661E+002
 20
5.9099024E+001
 70
0
  0
SEQEND
  5
213
100
AcDbEntity
  0
POLYLINE
  5
214
100
AcDbEntity
  8
2
100
AcDb2dPolyline
  6
CONTINUOUS
 62
40
 66
1
 40
7.0E-001
 41
7.0E-001
 70
0
  0
VERTEX
  5
215
100
AcDbEntity
  8
2
100
AcDbVertex
100
AcDb2dVertex
 42
4.1421356E-001
 10
3.1471661E+002
 20
5.9099024E+001
 70
0
  0
VERTEX
  5
216
100
AcDbEntity
  8
2
100
AcDbVertex
100
AcDb2dVertex
 42
0.0
 10
3.1491661E+002
 20
5.8899024E+001
 70
0
  0
SEQEND
  5
217
100
AcDbEntity
  0
POLYLINE
  5
218
100
AcDbEntity
  8
2
100
AcDb2dPolyline
  6
CONTINUOUS
 62
40
 66
1
 40
7.0E-001
 41
7.0E-001
 70
0
  0
VERTEX
  5
219
100
AcDbEntity
  8
2
100
AcDbVertex
100
AcDb2dVertex
 42
4.1421356E-001
 10
3.3101661E+002
 20
5.8199024E+001
 70
0
  0
VERTEX
  5
21a
100
AcDbEntity
  8
2
100
AcDbVertex
100
AcDb2dVertex
 42
0.0
 10
3.3121661E+002
 20
5.8399024E+001
 70
0
  0
SEQEND
  5
21b
100
AcDbEntity
  0
POLYLINE
  5
21c
100
AcDbEntity
  8
2
100
AcDb2dPolyline
  6
CONTINUOUS
 62
40
 66
1
 40
7.0E-001
 41
7.0E-001
 70
0
  0
VERTEX
  5
21d
100
AcDbEntity
  8
2
100
AcDbVertex
100
AcDb2dVertex
 42
4.1421356E-001
 10
3.1821661E+002
 20
5.8399024E+001
 70
0
  0
VERTEX
  5
21e
100
AcDbEntity
  8
2
100
AcDbVertex
100
AcDb2dVertex
 42
0.0
 10
3.1841661E+002
 20
5.8199024E+001
 70
0
  0
SEQEND
  5
21f
100
AcDbEntity
  0
POLYLINE
  5
220
100
AcDbEntity
  8
2
100
AcDb2dPolyline
  6
CONTINUOUS
 62
40
 66
1
 40
7.0E-001
 41
7.0E-001
 70
0
  0
VERTEX
  5
221
100
AcDbEntity
  8
2
100
AcDbVertex
100
AcDb2dVertex
 42
4.1421356E-001
 10
3.1821661E+002
 20
5.7399024E+001
 70
0
  0
VERTEX
  5
222
100
AcDbEntity
  8
2
100
AcDbVertex
100
AcDb2dVertex
 42
0.0
 10
3.1841661E+002
 20
5.7199024E+001
 70
0
  0
SEQEND
  5
223
100
AcDbEntity
  0
POLYLINE
  5
224
100
AcDbEntity
  8
2
100
AcDb2dPolyline
  6
CONTINUOUS
 62
40
 66
1
 40
7.0E-001
 41
7.0E-001
 70
0
  0
VERTEX
  5
225
100
AcDbEntity
  8
2
100
AcDbVertex
100
AcDb2dVertex
 42
4.1421356E-001
 10
3.3101661E+002
 20
5.7199024E+001
 70
0
  0
VERTEX
  5
226
100
AcDbEntity
  8
2
100
AcDbVertex
100
AcDb2dVertex
 42
0.0
 10
3.3121661E+002
 20
5.7399024E+001
 70
0
  0
SEQEND
  5
227
100
AcDbEntity
  0
POLYLINE
  5
228
100
AcDbEntity
  8
2
100
AcDb2dPolyline
  6
CONTINUOUS
 62
40
 66
1
 40
7.0E-001
 41
7.0E-001
 70
0
  0
VERTEX
  5
229
100
AcDbEntity
  8
2
100
AcDbVertex
100
AcDb2dVertex
 42
0.0
 10
3.2721661E+002
 20
5.7199024E+001
 70
0
  0
VERTEX
  5
22a
100
AcDbEntity
  8
2
100
AcDbVertex
100
AcDb2dVertex
 42
0.0
 10
3.2721661E+002
 20
5.8199024E+001
 70
0
  0
SEQEND
  5
22b
100
AcDbEntity
  0
POLYLINE
  5
22c
100
AcDbEntity
  8
2
100
AcDb2dPolyline
  6
CONTINUOUS
 62
40
 66
1
 40
7.0E-001
 41
7.0E-001
 70
0
  0
VERTEX
  5
22d
100
AcDbEntity
  8
2
100
AcDbVertex
100
AcDb2dVertex
 42
0.0
 10
3.2221661E+002
 20
5.7199024E+001
 70
0
  0
VERTEX
  5
22e
100
AcDbEntity
  8
2
100
AcDbVertex
100
AcDb2dVertex
 42
0.0
 10
3.2221661E+002
 20
5.8199024E+001
 70
0
  0
SEQEND
  5
22f
100
AcDbEntity
  0
POLYLINE
  5
230
100
AcDbEntity
  8
2
100
AcDb2dPolyline
  6
CONTINUOUS
 62
40
 66
1
 40
7.0E-001
 41
7.0E-001
 70
0
  0
VERTEX
  5
231
100
AcDbEntity
  8
2
100
AcDbVertex
100
AcDb2dVertex
 42
0.0
 10
3.1841661E+002
 20
5.8199024E+001
 70
0
  0
VERTEX
  5
232
100
AcDbEntity
  8
2
100
AcDbVertex
100
AcDb2dVertex
 42
0.0
 10
3.3101661E+002
 20
5.8199024E+001
 70
0
  0
SEQEND
  5
233
100
AcDbEntity
  0
POLYLINE
  5
234
100
AcDbEntity
  8
2
100
AcDb2dPolyline
  6
CONTINUOUS
 62
40
 66
1
 40
7.0E-001
 41
7.0E-001
 70
0
  0
VERTEX
  5
235
100
AcDbEntity
  8
2
100
AcDbVertex
100
AcDb2dVertex
 42
0.0
 10
3.1471661E+002
 20
5.9599024E+001
 70
0
  0
VERTEX
  5
236
100
AcDbEntity
  8
2
100
AcDbVertex
100
AcDb2dVertex
 42
0.0
 10
3.1471661E+002
 20
5.9099024E+001
 70
0
  0
SEQEND
  5
237
100
AcDbEntity
  0
POLYLINE
  5
238
100
AcDbEntity
  8
2
100
AcDb2dPolyline
  6
CONTINUOUS
 62
40
 66
1
 40
7.0E-001
 41
7.0E-001
 70
0
  0
VERTEX
  5
239
100
AcDbEntity
  8
2
100
AcDbVertex
100
AcDb2dVertex
 42
0.0
 10
3.3471661E+002
 20
5.9599024E+001
 70
0
  0
VERTEX
  5
23a
100
AcDbEntity
  8
2
100
AcDbVertex
100
AcDb2dVertex
 42
0.0
 10
3.3471661E+002
 20
5.9099024E+001
 70
0
  0
SEQEND
  5
23b
100
AcDbEntity
  0
POLYLINE
  5
23c
100
AcDbEntity
  8
2
100
AcDb2dPolyline
  6
CONTINUOUS
 62
40
 66
1
 40
7.0E-001
 41
7.0E-001
 70
0
  0
VERTEX
  5
23d
100
AcDbEntity
  8
2
100
AcDbVertex
100
AcDb2dVertex
 42
0.0
 10
3.3801661E+002
 20
5.9599024E+001
 70
0
  0
VERTEX
  5
23e
100
AcDbEntity
  8
2
100
AcDbVertex
100
AcDb2dVertex
 42
0.0
 10
3.1141661E+002
 20
5.9599024E+001
 70
0
  0
SEQEND
  5
23f
100
AcDbEntity
  0
POLYLINE
  5
240
100
AcDbEntity
  8
2
100
AcDb2dPolyline
  6
CONTINUOUS
 62
40
 66
1
 40
7.0E-001
 41
7.0E-001
 70
0
  0
VERTEX
  5
241
100
AcDbEntity
  8
2
100
AcDbVertex
100
AcDb2dVertex
 42
0.0
 10
3.0721661E+002
 20
6.0999024E+001
 70
0
  0
VERTEX
  5
242
100
AcDbEntity
  8
2
100
AcDbVertex
100
AcDb2dVertex
 42
0.0
 10
3.0721661E+002
 20
6.0499024E+001
 70
0
  0
SEQEND
  5
243
100
AcDbEntity
  0
POLYLINE
  5
244
100
AcDbEntity
  8
2
100
AcDb2dPolyline
  6
CONTINUOUS
 62
40
 66
1
 40
7.0E-001
 41
7.0E-001
 70
0
  0
VERTEX
  5
245
100
AcDbEntity
  8
2
100
AcDbVertex
100
AcDb2dVertex
 42
0.0
 10
3.4221661E+002
 20
6.0999024E+001
 70
0
  0
VERTEX
  5
246
100
AcDbEntity
  8
2
100
AcDbVertex
100
AcDb2dVertex
 42
0.0
 10
3.4221661E+002
 20
6.0499024E+001
 70
0
  0
SEQEND
  5
247
100
AcDbEntity
  0
POLYLINE
  5
248
100
AcDbEntity
  8
2
100
AcDb2dPolyline
  6
CONTINUOUS
 62
40
 66
1
 40
7.0E-001
 41
7.0E-001
 70
0
  0
VERTEX
  5
249
100
AcDbEntity
  8
2
100
AcDbVertex
100
AcDb2dVertex
 42
0.0
 10
3.4221661E+002
 20
1.6919902E+002
 70
0
  0
VERTEX
  5
24a
100
AcDbEntity
  8
2
100
AcDbVertex
100
AcDb2dVertex
 42
0.0
 10
3.4221661E+002
 20
1.7124902E+002
 70
0
  0
SEQEND
  5
24b
100
AcDbEntity
  0
POLYLINE
  5
24c
100
AcDbEntity
  8
2
100
AcDb2dPolyline
  6
CONTINUOUS
 62
40
 66
1
 40
7.0E-001
 41
7.0E-001
 70
0
  0
VERTEX
  5
24d
100
AcDbEntity
  8
2
100
AcDbVertex
100
AcDb2dVertex
 42
0.0
 10
3.0721661E+002
 20
1.7124902E+002
 70
0
  0
VERTEX
  5
24e
100
AcDbEntity
  8
2
100
AcDbVertex
100
AcDb2dVertex
 42
0.0
 10
3.0721661E+002
 20
1.6919902E+002
 70
0
  0
SEQEND
  5
24f
100
AcDbEntity
  0
POLYLINE
  5
250
100
AcDbEntity
  8
2
100
AcDb2dPolyline
  6
CONTINUOUS
 62
40
 66
1
 40
7.0E-001
 41
7.0E-001
 70
0
  0
VERTEX
  5
251
100
AcDbEntity
  8
2
100
AcDbVertex
100
AcDb2dVertex
 42
0.0
 10
3.4201661E+002
 20
6.0299024E+001
 70
0
  0
VERTEX
  5
252
100
AcDbEntity
  8
2
100
AcDbVertex
100
AcDb2dVertex
 42
0.0
 10
3.0741661E+002
 20
6.0299024E+001
 70
0
  0
SEQEND
  5
253
100
AcDbEntity
  0
POLYLINE
  5
254
100
AcDbEntity
  8
2
100
AcDb2dPolyline
  6
CONTINUOUS
 62
40
 66
1
 40
7.0E-001
 41
7.0E-001
 70
0
  0
VERTEX
  5
255
100
AcDbEntity
  8
2
100
AcDbVertex
100
AcDb2dVertex
 42
0.0
 10
3.1121661E+002
 20
6.0299024E+001
 70
0
  0
VERTEX
  5
256
100
AcDbEntity
  8
2
100
AcDbVertex
100
AcDb2dVertex
 42
0.0
 10
3.1121661E+002
 20
5.9799024E+001
 70
0
  0
SEQEND
  5
257
100
AcDbEntity
  0
POLYLINE
  5
258
100
AcDbEntity
  8
2
100
AcDb2dPolyline
  6
CONTINUOUS
 62
40
 66
1
 40
7.0E-001
 41
7.0E-001
 70
0
  0
VERTEX
  5
259
100
AcDbEntity
  8
2
100
AcDbVertex
100
AcDb2dVertex
 42
0.0
 10
3.3821661E+002
 20
6.0299024E+001
 70
0
  0
VERTEX
  5
25a
100
AcDbEntity
  8
2
100
AcDbVertex
100
AcDb2dVertex
 42
0.0
 10
3.3821661E+002
 20
5.9799024E+001
 70
0
  0
SEQEND
  5
25b
100
AcDbEntity
  0
POLYLINE
  5
25c
100
AcDbEntity
  8
2
100
AcDb2dPolyline
  6
CONTINUOUS
 62
40
 66
1
 40
7.0E-001
 41
7.0E-001
 70
0
  0
VERTEX
  5
25d
100
AcDbEntity
  8
2
100
AcDbVertex
100
AcDb2dVertex
 42
0.0
 10
3.3451661E+002
 20
5.8899024E+001
 70
0
  0
VERTEX
  5
25e
100
AcDbEntity
  8
2
100
AcDbVertex
100
AcDb2dVertex
 42
0.0
 10
3.1491661E+002
 20
5.8899024E+001
 70
0
  0
SEQEND
  5
25f
100
AcDbEntity
  0
POLYLINE
  5
260
100
AcDbEntity
  8
2
100
AcDb2dPolyline
  6
CONTINUOUS
 62
40
 66
1
 40
7.0E-001
 41
7.0E-001
 70
0
  0
VERTEX
  5
261
100
AcDbEntity
  8
2
100
AcDbVertex
100
AcDb2dVertex
 42
0.0
 10
3.1821661E+002
 20
5.7399024E+001
 70
0
  0
VERTEX
  5
262
100
AcDbEntity
  8
2
100
AcDbVertex
100
AcDb2dVertex
 42
0.0
 10
3.1821661E+002
 20
5.8399024E+001
 70
0
  0
SEQEND
  5
263
100
AcDbEntity
  0
POLYLINE
  5
264
100
AcDbEntity
  8
2
100
AcDb2dPolyline
  6
CONTINUOUS
 62
40
 66
1
 40
7.0E-001
 41
7.0E-001
 70
0
  0
VERTEX
  5
265
100
AcDbEntity
  8
2
100
AcDbVertex
100
AcDb2dVertex
 42
0.0
 10
3.1821661E+002
 20
5.8899024E+001
 70
0
  0
VERTEX
  5
266
100
AcDbEntity
  8
2
100
AcDbVertex
100
AcDb2dVertex
 42
0.0
 10
3.1821661E+002
 20
5.8399024E+001
 70
0
  0
SEQEND
  5
267
100
AcDbEntity
  0
POLYLINE
  5
268
100
AcDbEntity
  8
2
100
AcDb2dPolyline
  6
CONTINUOUS
 62
40
 66
1
 40
7.0E-001
 41
7.0E-001
 70
0
  0
VERTEX
  5
269
100
AcDbEntity
  8
2
100
AcDbVertex
100
AcDb2dVertex
 42
0.0
 10
3.3121661E+002
 20
5.8399024E+001
 70
0
  0
VERTEX
  5
26a
100
AcDbEntity
  8
2
100
AcDbVertex
100
AcDb2dVertex
 42
0.0
 10
3.3121661E+002
 20
5.7399024E+001
 70
0
  0
SEQEND
  5
26b
100
AcDbEntity
  0
POLYLINE
  5
26c
100
AcDbEntity
  8
2
100
AcDb2dPolyline
  6
CONTINUOUS
 62
40
 66
1
 40
7.0E-001
 41
7.0E-001
 70
0
  0
VERTEX
  5
26d
100
AcDbEntity
  8
2
100
AcDbVertex
100
AcDb2dVertex
 42
0.0
 10
3.3121661E+002
 20
5.8899024E+001
 70
0
  0
VERTEX
  5
26e
100
AcDbEntity
  8
2
100
AcDbVertex
100
AcDb2dVertex
 42
0.0
 10
3.3121661E+002
 20
5.8399024E+001
 70
0
  0
SEQEND
  5
26f
100
AcDbEntity
  0
POLYLINE
  5
270
100
AcDbEntity
  8
2
100
AcDb2dPolyline
  6
CONTINUOUS
 62
40
 66
1
 40
7.0E-001
 41
7.0E-001
 70
0
  0
VERTEX
  5
271
100
AcDbEntity
  8
2
100
AcDbVertex
100
AcDb2dVertex
 42
0.0
 10
3.3101661E+002
 20
5.7199024E+001
 70
0
  0
VERTEX
  5
272
100
AcDbEntity
  8
2
100
AcDbVertex
100
AcDb2dVertex
 42
0.0
 10
3.3060717E+002
 20
5.7199024E+001
 70
0
  0
SEQEND
  5
273
100
AcDbEntity
  0
POLYLINE
  5
274
100
AcDbEntity
  8
2
100
AcDb2dPolyline
  6
CONTINUOUS
 62
40
 66
1
 40
7.0E-001
 41
7.0E-001
 70
0
  0
VERTEX
  5
275
100
AcDbEntity
  8
2
100
AcDbVertex
100
AcDb2dVertex
 42
0.0
 10
3.3060717E+002
 20
5.7199024E+001
 70
0
  0
VERTEX
  5
276
100
AcDbEntity
  8
2
100
AcDbVertex
100
AcDb2dVertex
 42
0.0
 10
3.2721661E+002
 20
5.7199024E+001
 70
0
  0
SEQEND
  5
277
100
AcDbEntity
  0
POLYLINE
  5
278
100
AcDbEntity
  8
2
100
AcDb2dPolyline
  6
CONTINUOUS
 62
40
 66
1
 40
7.0E-001
 41
7.0E-001
 70
0
  0
VERTEX
  5
279
100
AcDbEntity
  8
2
100
AcDbVertex
100
AcDb2dVertex
 42
0.0
 10
3.2721661E+002
 20
5.7199024E+001
 70
0
  0
VERTEX
  5
27a
100
AcDbEntity
  8
2
100
AcDbVertex
100
AcDb2dVertex
 42
0.0
 10
3.2221661E+002
 20
5.7199024E+001
 70
0
  0
SEQEND
  5
27b
100
AcDbEntity
  0
POLYLINE
  5
27c
100
AcDbEntity
  8
2
100
AcDb2dPolyline
  6
CONTINUOUS
 62
40
 66
1
 40
7.0E-001
 41
7.0E-001
 70
0
  0
VERTEX
  5
27d
100
AcDbEntity
  8
2
100
AcDbVertex
100
AcDb2dVertex
 42
0.0
 10
3.2221661E+002
 20
5.7199024E+001
 70
0
  0
VERTEX
  5
27e
100
AcDbEntity
  8
2
100
AcDbVertex
100
AcDb2dVertex
 42
0.0
 10
3.1882605E+002
 20
5.7199024E+001
 70
0
  0
SEQEND
  5
27f
100
AcDbEntity
  0
POLYLINE
  5
280
100
AcDbEntity
  8
2
100
AcDb2dPolyline
  6
CONTINUOUS
 62
40
 66
1
 40
7.0E-001
 41
7.0E-001
 70
0
  0
VERTEX
  5
281
100
AcDbEntity
  8
2
100
AcDbVertex
100
AcDb2dVertex
 42
0.0
 10
3.1882605E+002
 20
5.7199024E+001
 70
0
  0
VERTEX
  5
282
100
AcDbEntity
  8
2
100
AcDbVertex
100
AcDb2dVertex
 42
0.0
 10
3.1841661E+002
 20
5.7199024E+001
 70
0
  0
SEQEND
  5
283
100
AcDbEntity
  0
POLYLINE
  5
284
100
AcDbEntity
  8
2
100
AcDb2dPolyline
  6
CONTINUOUS
 62
40
 66
1
 40
7.0E-001
 41
7.0E-001
 70
0
  0
VERTEX
  5
285
100
AcDbEntity
  8
2
100
AcDbVertex
100
AcDb2dVertex
 42
0.0
 10
3.4296661E+002
 20
1.6919902E+002
 70
0
  0
VERTEX
  5
286
100
AcDbEntity
  8
2
100
AcDbVertex
100
AcDb2dVertex
 42
0.0
 10
3.4221661E+002
 20
1.6919902E+002
 70
0
  0
SEQEND
  5
287
100
AcDbEntity
  0
POLYLINE
  5
288
100
AcDbEntity
  8
2
100
AcDb2dPolyline
  6
CONTINUOUS
 62
40
 66
1
 40
7.0E-001
 41
7.0E-001
 70
0
  0
VERTEX
  5
289
100
AcDbEntity
  8
2
100
AcDbVertex
100
AcDb2dVertex
 42
0.0
 10
3.4296661E+002
 20
1.6919902E+002
 70
0
  0
VERTEX
  5
28a
100
AcDbEntity
  8
2
100
AcDbVertex
100
AcDb2dVertex
 42
0.0
 10
3.4421661E+002
 20
1.6919902E+002
 70
0
  0
SEQEND
  5
28b
100
AcDbEntity
  0
POLYLINE
  5
28c
100
AcDbEntity
  8
2
100
AcDb2dPolyline
  6
CONTINUOUS
 62
40
 66
1
 40
7.0E-001
 41
7.0E-001
 70
0
  0
VERTEX
  5
28d
100
AcDbEntity
  8
2
100
AcDbVertex
100
AcDb2dVertex
 42
0.0
 10
3.0921661E+002
 20
1.6599902E+002
 70
0
  0
VERTEX
  5
28e
100
AcDbEntity
  8
2
100
AcDbVertex
100
AcDb2dVertex
 42
0.0
 10
3.0921661E+002
 20
1.6199902E+002
 70
0
  0
SEQEND
  5
28f
100
AcDbEntity
  0
POLYLINE
  5
290
100
AcDbEntity
  8
2
100
AcDb2dPolyline
  6
CONTINUOUS
 62
40
 66
1
 40
7.0E-001
 41
7.0E-001
 70
0
  0
VERTEX
  5
291
100
AcDbEntity
  8
2
100
AcDbVertex
100
AcDb2dVertex
 42
0.0
 10
3.0921661E+002
 20
1.6199902E+002
 70
0
  0
VERTEX
  5
292
100
AcDbEntity
  8
2
100
AcDbVertex
100
AcDb2dVertex
 42
0.0
 10
3.4021661E+002
 20
1.6199902E+002
 70
0
  0
SEQEND
  5
293
100
AcDbEntity
  0
POLYLINE
  5
294
100
AcDbEntity
  8
2
100
AcDb2dPolyline
  6
CONTINUOUS
 62
40
 66
1
 40
7.0E-001
 41
7.0E-001
 70
0
  0
VERTEX
  5
295
100
AcDbEntity
  8
2
100
AcDbVertex
100
AcDb2dVertex
 42
0.0
 10
3.4021661E+002
 20
1.6199902E+002
 70
0
  0
VERTEX
  5
296
100
AcDbEntity
  8
2
100
AcDbVertex
100
AcDb2dVertex
 42
0.0
 10
3.4021661E+002
 20
1.6599902E+002
 70
0
  0
SEQEND
  5
297
100
AcDbEntity
  0
POLYLINE
  5
298
100
AcDbEntity
  8
2
100
AcDb2dPolyline
  6
CONTINUOUS
 62
40
 66
1
 40
7.0E-001
 41
7.0E-001
 70
0
  0
VERTEX
  5
299
100
AcDbEntity
  8
2
100
AcDbVertex
100
AcDb2dVertex
 42
0.0
 10
3.4421661E+002
 20
1.6919902E+002
 70
0
  0
VERTEX
  5
29a
100
AcDbEntity
  8
2
100
AcDbVertex
100
AcDb2dVertex
 42
0.0
 10
3.4421661E+002
 20
1.6599902E+002
 70
0
  0
SEQEND
  5
29b
100
AcDbEntity
  0
POLYLINE
  5
29c
100
AcDbEntity
  8
2
100
AcDb2dPolyline
  6
CONTINUOUS
 62
40
 66
1
 40
7.0E-001
 41
7.0E-001
 70
0
  0
VERTEX
  5
29d
100
AcDbEntity
  8
2
100
AcDbVertex
100
AcDb2dVertex
 42
0.0
 10
3.4211661E+002
 20
1.6753459E+002
 70
0
  0
VERTEX
  5
29e
100
AcDbEntity
  8
2
100
AcDbVertex
100
AcDb2dVertex
 42
0.0
 10
3.4211661E+002
 20
1.6649902E+002
 70
0
  0
SEQEND
  5
29f
100
AcDbEntity
  0
POLYLINE
  5
2a0
100
AcDbEntity
  8
2
100
AcDb2dPolyline
  6
CONTINUOUS
 62
40
 66
1
 40
7.0E-001
 41
7.0E-001
 70
0
  0
VERTEX
  5
2a1
100
AcDbEntity
  8
2
100
AcDbVertex
100
AcDb2dVertex
 42
0.0
 10
3.421166E+002
 20
1.6754903E+002
 70
0
  0
VERTEX
  5
2a2
100
AcDbEntity
  8
2
100
AcDbVertex
100
AcDb2dVertex
 42
0.0
 10
3.421166E+002
 20
1.675346E+002
 70
0
  0
SEQEND
  5
2a3
100
AcDbEntity
  0
POLYLINE
  5
2a4
100
AcDbEntity
  8
2
100
AcDb2dPolyline
  6
CONTINUOUS
 62
40
 66
1
 40
7.0E-001
 41
7.0E-001
 70
0
  0
VERTEX
  5
2a5
100
AcDbEntity
  8
2
100
AcDbVertex
100
AcDb2dVertex
 42
0.0
 10
3.0781661E+002
 20
1.6599902E+002
 70
0
  0
VERTEX
  5
2a6
100
AcDbEntity
  8
2
100
AcDbVertex
100
AcDb2dVertex
 42
0.0
 10
3.0731661E+002
 20
1.6649902E+002
 70
0
  0
SEQEND
  5
2a7
100
AcDbEntity
  0
POLYLINE
  5
2a8
100
AcDbEntity
  8
2
100
AcDb2dPolyline
  6
CONTINUOUS
 62
40
 66
1
 40
7.0E-001
 41
7.0E-001
 70
0
  0
VERTEX
  5
2a9
100
AcDbEntity
  8
2
100
AcDbVertex
100
AcDb2dVertex
 42
0.0
 10
3.4211661E+002
 20
1.6649902E+002
 70
0
  0
VERTEX
  5
2aa
100
AcDbEntity
  8
2
100
AcDbVertex
100
AcDb2dVertex
 42
0.0
 10
3.4161661E+002
 20
1.6599902E+002
 70
0
  0
SEQEND
  5
2ab
100
AcDbEntity
  0
POLYLINE
  5
2ac
100
AcDbEntity
  8
2
100
AcDb2dPolyline
  6
CONTINUOUS
 62
40
 66
1
 40
7.0E-001
 41
7.0E-001
 70
0
  0
VERTEX
  5
2ad
100
AcDbEntity
  8
2
100
AcDbVertex
100
AcDb2dVertex
 42
0.0
 10
3.4371661E+002
 20
1.6599902E+002
 70
0
  0
VERTEX
  5
2ae
100
AcDbEntity
  8
2
100
AcDbVertex
100
AcDb2dVertex
 42
0.0
 10
3.4371661E+002
 20
1.6753459E+002
 70
0
  0
SEQEND
  5
2af
100
AcDbEntity
  0
POLYLINE
  5
2b0
100
AcDbEntity
  8
2
100
AcDb2dPolyline
  6
CONTINUOUS
 62
40
 66
1
 40
7.0E-001
 41
7.0E-001
 70
0
  0
VERTEX
  5
2b1
100
AcDbEntity
  8
2
100
AcDbVertex
100
AcDb2dVertex
 42
0.0
 10
3.4371661E+002
 20
1.6753459E+002
 70
0
  0
VERTEX
  5
2b2
100
AcDbEntity
  8
2
100
AcDbVertex
100
AcDb2dVertex
 42
0.0
 10
3.4371661E+002
 20
1.6754902E+002
 70
0
  0
SEQEND
  5
2b3
100
AcDbEntity
  0
POLYLINE
  5
2b4
100
AcDbEntity
  8
2
100
AcDb2dPolyline
  6
CONTINUOUS
 62
40
 66
1
 40
7.0E-001
 41
7.0E-001
 70
0
  0
VERTEX
  5
2b5
100
AcDbEntity
  8
2
100
AcDbVertex
100
AcDb2dVertex
 42
0.0
 10
3.0571661E+002
 20
1.6754902E+002
 70
0
  0
VERTEX
  5
2b6
100
AcDbEntity
  8
2
100
AcDbVertex
100
AcDb2dVertex
 42
0.0
 10
3.0571661E+002
 20
1.6753459E+002
 70
0
  0
SEQEND
  5
2b7
100
AcDbEntity
  0
POLYLINE
  5
2b8
100
AcDbEntity
  8
2
100
AcDb2dPolyline
  6
CONTINUOUS
 62
40
 66
1
 40
7.0E-001
 41
7.0E-001
 70
0
  0
VERTEX
  5
2b9
100
AcDbEntity
  8
2
100
AcDbVertex
100
AcDb2dVertex
 42
0.0
 10
3.0571661E+002
 20
1.6753459E+002
 70
0
  0
VERTEX
  5
2ba
100
AcDbEntity
  8
2
100
AcDbVertex
100
AcDb2dVertex
 42
0.0
 10
3.0571661E+002
 20
1.6599902E+002
 70
0
  0
SEQEND
  5
2bb
100
AcDbEntity
  0
POLYLINE
  5
2bc
100
AcDbEntity
  8
2
100
AcDb2dPolyline
  6
CONTINUOUS
 62
40
 66
1
 40
7.0E-001
 41
7.0E-001
 70
0
  0
VERTEX
  5
2bd
100
AcDbEntity
  8
2
100
AcDbVertex
100
AcDb2dVertex
 42
0.0
 10
3.3991661E+002
 20
1.6599902E+002
 70
0
  0
VERTEX
  5
2be
100
AcDbEntity
  8
2
100
AcDbVertex
100
AcDb2dVertex
 42
0.0
 10
3.3901661E+002
 20
1.6689902E+002
 70
0
  0
SEQEND
  5
2bf
100
AcDbEntity
  0
POLYLINE
  5
2c0
100
AcDbEntity
  8
2
100
AcDb2dPolyline
  6
CONTINUOUS
 62
40
 66
1
 40
7.0E-001
 41
7.0E-001
 70
0
  0
VERTEX
  5
2c1
100
AcDbEntity
  8
2
100
AcDbVertex
100
AcDb2dVertex
 42
0.0
 10
3.3791661E+002
 20
1.6799902E+002
 70
0
  0
VERTEX
  5
2c2
100
AcDbEntity
  8
2
100
AcDbVertex
100
AcDb2dVertex
 42
0.0
 10
3.3901661E+002
 20
1.6689902E+002
 70
0
  0
SEQEND
  5
2c3
100
AcDbEntity
  0
POLYLINE
  5
2c4
100
AcDbEntity
  8
2
100
AcDb2dPolyline
  6
CONTINUOUS
 62
40
 66
1
 40
7.0E-001
 41
7.0E-001
 70
0
  0
VERTEX
  5
2c5
100
AcDbEntity
  8
2
100
AcDbVertex
100
AcDb2dVertex
 42
0.0
 10
3.1041661E+002
 20
1.6689902E+002
 70
0
  0
VERTEX
  5
2c6
100
AcDbEntity
  8
2
100
AcDbVertex
100
AcDb2dVertex
 42
0.0
 10
3.0951661E+002
 20
1.6599902E+002
 70
0
  0
SEQEND
  5
2c7
100
AcDbEntity
  0
POLYLINE
  5
2c8
100
AcDbEntity
  8
2
100
AcDb2dPolyline
  6
CONTINUOUS
 62
40
 66
1
 40
7.0E-001
 41
7.0E-001
 70
0
  0
VERTEX
  5
2c9
100
AcDbEntity
  8
2
100
AcDbVertex
100
AcDb2dVertex
 42
0.0
 10
3.1041661E+002
 20
1.6689902E+002
 70
0
  0
VERTEX
  5
2ca
100
AcDbEntity
  8
2
100
AcDbVertex
100
AcDb2dVertex
 42
0.0
 10
3.1151661E+002
 20
1.6799902E+002
 70
0
  0
SEQEND
  5
2cb
100
AcDbEntity
  0
POLYLINE
  5
2cc
100
AcDbEntity
  8
2
100
AcDb2dPolyline
  6
CONTINUOUS
 62
40
 66
1
 40
7.0E-001
 41
7.0E-001
 70
0
  0
VERTEX
  5
2cd
100
AcDbEntity
  8
2
100
AcDbVertex
100
AcDb2dVertex
 42
0.0
 10
3.0301661E+002
 20
1.6599902E+002
 70
0
  0
VERTEX
  5
2ce
100
AcDbEntity
  8
2
100
AcDbVertex
100
AcDb2dVertex
 42
0.0
 10
3.0921661E+002
 20
1.6599902E+002
 70
0
  0
SEQEND
  5
2cf
100
AcDbEntity
  0
POLYLINE
  5
2d0
100
AcDbEntity
  8
2
100
AcDb2dPolyline
  6
CONTINUOUS
 62
40
 66
1
 40
7.0E-001
 41
7.0E-001
 70
0
  0
VERTEX
  5
2d1
100
AcDbEntity
  8
2
100
AcDbVertex
100
AcDb2dVertex
 42
0.0
 10
3.0921661E+002
 20
1.6599902E+002
 70
0
  0
VERTEX
  5
2d2
100
AcDbEntity
  8
2
100
AcDbVertex
100
AcDb2dVertex
 42
0.0
 10
3.0951661E+002
 20
1.6599902E+002
 70
0
  0
SEQEND
  5
2d3
100
AcDbEntity
  0
POLYLINE
  5
2d4
100
AcDbEntity
  8
2
100
AcDb2dPolyline
  6
CONTINUOUS
 62
40
 66
1
 40
7.0E-001
 41
7.0E-001
 70
0
  0
VERTEX
  5
2d5
100
AcDbEntity
  8
2
100
AcDbVertex
100
AcDb2dVertex
 42
0.0
 10
3.0301661E+002
 20
1.7199902E+002
 70
0
  0
VERTEX
  5
2d6
100
AcDbEntity
  8
2
100
AcDbVertex
100
AcDb2dVertex
 42
0.0
 10
3.0646661E+002
 20
1.7199902E+002
 70
0
  0
SEQEND
  5
2d7
100
AcDbEntity
  0
POLYLINE
  5
2d8
100
AcDbEntity
  8
2
100
AcDb2dPolyline
  6
CONTINUOUS
 62
40
 66
1
 40
7.0E-001
 41
7.0E-001
 70
0
  0
VERTEX
  5
2d9
100
AcDbEntity
  8
2
100
AcDbVertex
100
AcDb2dVertex
 42
0.0
 10
3.4641661E+002
 20
1.5999902E+002
 70
0
  0
VERTEX
  5
2da
100
AcDbEntity
  8
2
100
AcDbVertex
100
AcDb2dVertex
 42
0.0
 10
3.4641661E+002
 20
1.5324902E+002
 70
0
  0
SEQEND
  5
2db
100
AcDbEntity
  0
POLYLINE
  5
2dc
100
AcDbEntity
  8
2
100
AcDb2dPolyline
  6
CONTINUOUS
 62
40
 66
1
 40
7.0E-001
 41
7.0E-001
 70
0
  0
VERTEX
  5
2dd
100
AcDbEntity
  8
2
100
AcDbVertex
100
AcDb2dVertex
 42
0.0
 10
3.4641661E+002
 20
1.5324902E+002
 70
0
  0
VERTEX
  5
2de
100
AcDbEntity
  8
2
100
AcDbVertex
100
AcDb2dVertex
 42
0.0
 10
3.4641661E+002
 20
1.4774902E+002
 70
0
  0
SEQEND
  5
2df
100
AcDbEntity
  0
POLYLINE
  5
2e0
100
AcDbEntity
  8
2
100
AcDb2dPolyline
  6
CONTINUOUS
 62
40
 66
1
 40
7.0E-001
 41
7.0E-001
 70
0
  0
VERTEX
  5
2e1
100
AcDbEntity
  8
2
100
AcDbVertex
100
AcDb2dVertex
 42
0.0
 10
3.4641661E+002
 20
1.4774902E+002
 70
0
  0
VERTEX
  5
2e2
100
AcDbEntity
  8
2
100
AcDbVertex
100
AcDb2dVertex
 42
0.0
 10
3.4641661E+002
 20
6.2499024E+001
 70
0
  0
SEQEND
  5
2e3
100
AcDbEntity
  0
POLYLINE
  5
2e4
100
AcDbEntity
  8
2
100
AcDb2dPolyline
  6
CONTINUOUS
 62
40
 66
1
 40
7.0E-001
 41
7.0E-001
 70
0
  0
VERTEX
  5
2e5
100
AcDbEntity
  8
2
100
AcDbVertex
100
AcDb2dVertex
 42
0.0
 10
3.4641661E+002
 20
6.2499024E+001
 70
0
  0
VERTEX
  5
2e6
100
AcDbEntity
  8
2
100
AcDbVertex
100
AcDb2dVertex
 42
0.0
 10
3.4641661E+002
 20
6.1499024E+001
 70
0
  0
SEQEND
  5
2e7
100
AcDbEntity
  0
POLYLINE
  5
2e8
100
AcDbEntity
  8
2
100
AcDb2dPolyline
  6
CONTINUOUS
 62
40
 66
1
 40
7.0E-001
 41
7.0E-001
 70
0
  0
VERTEX
  5
2e9
100
AcDbEntity
  8
2
100
AcDbVertex
100
AcDb2dVertex
 42
0.0
 10
3.4641661E+002
 20
1.7124902E+002
 70
0
  0
VERTEX
  5
2ea
100
AcDbEntity
  8
2
100
AcDbVertex
100
AcDb2dVertex
 42
0.0
 10
3.4641661E+002
 20
1.7199902E+002
 70
0
  0
SEQEND
  5
2eb
100
AcDbEntity
  0
POLYLINE
  5
2ec
100
AcDbEntity
  8
2
100
AcDb2dPolyline
  6
CONTINUOUS
 62
40
 66
1
 40
7.0E-001
 41
7.0E-001
 70
0
  0
VERTEX
  5
2ed
100
AcDbEntity
  8
2
100
AcDbVertex
100
AcDb2dVertex
 42
0.0
 10
3.4641661E+002
 20
1.6599902E+002
 70
0
  0
VERTEX
  5
2ee
100
AcDbEntity
  8
2
100
AcDbVertex
100
AcDb2dVertex
 42
0.0
 10
3.4641661E+002
 20
1.7124902E+002
 70
0
  0
SEQEND
  5
2ef
100
AcDbEntity
  0
POLYLINE
  5
2f0
100
AcDbEntity
  8
2
100
AcDb2dPolyline
  6
CONTINUOUS
 62
40
 66
1
 40
7.0E-001
 41
7.0E-001
 70
0
  0
VERTEX
  5
2f1
100
AcDbEntity
  8
2
100
AcDbVertex
100
AcDb2dVertex
 42
0.0
 10
3.4641661E+002
 20
1.6599902E+002
 70
0
  0
VERTEX
  5
2f2
100
AcDbEntity
  8
2
100
AcDbVertex
100
AcDb2dVertex
 42
0.0
 10
3.4641661E+002
 20
1.6199902E+002
 70
0
  0
SEQEND
  5
2f3
100
AcDbEntity
  0
POLYLINE
  5
2f4
100
AcDbEntity
  8
2
100
AcDb2dPolyline
  6
CONTINUOUS
 62
40
 66
1
 40
7.0E-001
 41
7.0E-001
 70
0
  0
VERTEX
  5
2f5
100
AcDbEntity
  8
2
100
AcDbVertex
100
AcDb2dVertex
 42
0.0
 10
3.4641661E+002
 20
1.6199902E+002
 70
0
  0
VERTEX
  5
2f6
100
AcDbEntity
  8
2
100
AcDbVertex
100
AcDb2dVertex
 42
0.0
 10
3.4641661E+002
 20
1.5999902E+002
 70
0
  0
SEQEND
  5
2f7
100
AcDbEntity
  0
POLYLINE
  5
2f8
100
AcDbEntity
  8
2
100
AcDb2dPolyline
  6
CONTINUOUS
 62
40
 66
1
 40
7.0E-001
 41
7.0E-001
 70
0
  0
VERTEX
  5
2f9
100
AcDbEntity
  8
2
100
AcDbVertex
100
AcDb2dVertex
 42
0.0
 10
3.0301661E+002
 20
1.5324902E+002
 70
0
  0
VERTEX
  5
2fa
100
AcDbEntity
  8
2
100
AcDbVertex
100
AcDb2dVertex
 42
0.0
 10
3.0351661E+002
 20
1.5324902E+002
 70
0
  0
SEQEND
  5
2fb
100
AcDbEntity
  0
POLYLINE
  5
2fc
100
AcDbEntity
  8
2
100
AcDb2dPolyline
  6
CONTINUOUS
 62
40
 66
1
 40
7.0E-001
 41
7.0E-001
 70
0
  0
VERTEX
  5
2fd
100
AcDbEntity
  8
2
100
AcDbVertex
100
AcDb2dVertex
 42
0.0
 10
3.0351661E+002
 20
1.5324902E+002
 70
0
  0
VERTEX
  5
2fe
100
AcDbEntity
  8
2
100
AcDbVertex
100
AcDb2dVertex
 42
0.0
 10
3.0601661E+002
 20
1.5324902E+002
 70
0
  0
SEQEND
  5
2ff
100
AcDbEntity
  0
POLYLINE
  5
300
100
AcDbEntity
  8
2
100
AcDb2dPolyline
  6
CONTINUOUS
 62
40
 66
1
 40
7.0E-001
 41
7.0E-001
 70
0
  0
VERTEX
  5
301
100
AcDbEntity
  8
2
100
AcDbVertex
100
AcDb2dVertex
 42
0.0
 10
3.0351661E+002
 20
1.4774902E+002
 70
0
  0
VERTEX
  5
302
100
AcDbEntity
  8
2
100
AcDbVertex
100
AcDb2dVertex
 42
0.0
 10
3.0301661E+002
 20
1.4774902E+002
 70
0
  0
SEQEND
  5
303
100
AcDbEntity
  0
POLYLINE
  5
304
100
AcDbEntity
  8
2
100
AcDb2dPolyline
  6
CONTINUOUS
 62
40
 66
1
 40
7.0E-001
 41
7.0E-001
 70
0
  0
VERTEX
  5
305
100
AcDbEntity
  8
2
100
AcDbVertex
100
AcDb2dVertex
 42
0.0
 10
3.0601661E+002
 20
1.4774902E+002
 70
0
  0
VERTEX
  5
306
100
AcDbEntity
  8
2
100
AcDbVertex
100
AcDb2dVertex
 42
0.0
 10
3.0351661E+002
 20
1.4774902E+002
 70
0
  0
SEQEND
  5
307
100
AcDbEntity
  0
POLYLINE
  5
308
100
AcDbEntity
  8
2
100
AcDb2dPolyline
  6
CONTINUOUS
 62
40
 66
1
 40
7.0E-001
 41
7.0E-001
 70
0
  0
VERTEX
  5
309
100
AcDbEntity
  8
2
100
AcDbVertex
100
AcDb2dVertex
 42
0.0
 10
3.0441661E+002
 20
1.4774902E+002
 70
0
  0
VERTEX
  5
30a
100
AcDbEntity
  8
2
100
AcDbVertex
100
AcDb2dVertex
 42
0.0
 10
3.0441661E+002
 20
1.5324902E+002
 70
0
  0
SEQEND
  5
30b
100
AcDbEntity
  0
POLYLINE
  5
30c
100
AcDbEntity
  8
2
100
AcDb2dPolyline
  6
CONTINUOUS
 62
40
 66
1
 40
7.0E-001
 41
7.0E-001
 70
0
  0
VERTEX
  5
30d
100
AcDbEntity
  8
2
100
AcDbVertex
100
AcDb2dVertex
 42
0.0
 10
3.4341661E+002
 20
1.4774902E+002
 70
0
  0
VERTEX
  5
30e
100
AcDbEntity
  8
2
100
AcDbVertex
100
AcDb2dVertex
 42
0.0
 10
3.4341661E+002
 20
1.5324902E+002
 70
0
  0
SEQEND
  5
30f
100
AcDbEntity
  0
POLYLINE
  5
310
100
AcDbEntity
  8
2
100
AcDb2dPolyline
  6
CONTINUOUS
 62
40
 66
1
 40
7.0E-001
 41
7.0E-001
 70
0
  0
VERTEX
  5
311
100
AcDbEntity
  8
2
100
AcDbVertex
100
AcDb2dVertex
 42
0.0
 10
3.0601661E+002
 20
1.5324902E+002
 70
0
  0
VERTEX
  5
312
100
AcDbEntity
  8
2
100
AcDbVertex
100
AcDb2dVertex
 42
0.0
 10
3.0601661E+002
 20
1.4774902E+002
 70
0
  0
SEQEND
  5
313
100
AcDbEntity
  0
POLYLINE
  5
314
100
AcDbEntity
  8
2
100
AcDb2dPolyline
  6
CONTINUOUS
 62
40
 66
1
 40
7.0E-001
 41
7.0E-001
 70
0
  0
VERTEX
  5
315
100
AcDbEntity
  8
2
100
AcDbVertex
100
AcDb2dVertex
 42
0.0
 10
3.4501661E+002
 20
1.5324902E+002
 70
0
  0
VERTEX
  5
316
100
AcDbEntity
  8
2
100
AcDbVertex
100
AcDb2dVertex
 42
0.0
 10
3.4501661E+002
 20
1.4774902E+002
 70
0
  0
SEQEND
  5
317
100
AcDbEntity
  0
POLYLINE
  5
318
100
AcDbEntity
  8
2
100
AcDb2dPolyline
  6
CONTINUOUS
 62
40
 66
1
 40
7.0E-001
 41
7.0E-001
 70
0
  0
VERTEX
  5
319
100
AcDbEntity
  8
2
100
AcDbVertex
100
AcDb2dVertex
 42
0.0
 10
3.4591661E+002
 20
1.5324902E+002
 70
0
  0
VERTEX
  5
31a
100
AcDbEntity
  8
2
100
AcDbVertex
100
AcDb2dVertex
 42
0.0
 10
3.4641661E+002
 20
1.5324902E+002
 70
0
  0
SEQEND
  5
31b
100
AcDbEntity
  0
POLYLINE
  5
31c
100
AcDbEntity
  8
2
100
AcDb2dPolyline
  6
CONTINUOUS
 62
40
 66
1
 40
7.0E-001
 41
7.0E-001
 70
0
  0
VERTEX
  5
31d
100
AcDbEntity
  8
2
100
AcDbVertex
100
AcDb2dVertex
 42
0.0
 10
3.4341661E+002
 20
1.5324902E+002
 70
0
  0
VERTEX
  5
31e
100
AcDbEntity
  8
2
100
AcDbVertex
100
AcDb2dVertex
 42
0.0
 10
3.4591661E+002
 20
1.5324902E+002
 70
0
  0
SEQEND
  5
31f
100
AcDbEntity
  0
POLYLINE
  5
320
100
AcDbEntity
  8
2
100
AcDb2dPolyline
  6
CONTINUOUS
 62
40
 66
1
 40
7.0E-001
 41
7.0E-001
 70
0
  0
VERTEX
  5
321
100
AcDbEntity
  8
2
100
AcDbVertex
100
AcDb2dVertex
 42
0.0
 10
3.4641661E+002
 20
1.4774902E+002
 70
0
  0
VERTEX
  5
322
100
AcDbEntity
  8
2
100
AcDbVertex
100
AcDb2dVertex
 42
0.0
 10
3.4591661E+002
 20
1.4774902E+002
 70
0
  0
SEQEND
  5
323
100
AcDbEntity
  0
POLYLINE
  5
324
100
AcDbEntity
  8
2
100
AcDb2dPolyline
  6
CONTINUOUS
 62
40
 66
1
 40
7.0E-001
 41
7.0E-001
 70
0
  0
VERTEX
  5
325
100
AcDbEntity
  8
2
100
AcDbVertex
100
AcDb2dVertex
 42
0.0
 10
3.4591661E+002
 20
1.4774902E+002
 70
0
  0
VERTEX
  5
326
100
AcDbEntity
  8
2
100
AcDbVertex
100
AcDb2dVertex
 42
0.0
 10
3.4341661E+002
 20
1.4774902E+002
 70
0
  0
SEQEND
  5
327
100
AcDbEntity
  0
POLYLINE
  5
328
100
AcDbEntity
  8
2
100
AcDb2dPolyline
  6
CONTINUOUS
 62
40
 66
1
 40
7.0E-001
 41
7.0E-001
 70
0
  0
VERTEX
  5
329
100
AcDbEntity
  8
2
100
AcDbVertex
100
AcDb2dVertex
 42
4.1421356E-001
 10
3.4591661E+002
 20
6.0999024E+001
 70
0
  0
VERTEX
  5
32a
100
AcDbEntity
  8
2
100
AcDbVertex
100
AcDb2dVertex
 42
0.0
 10
3.4641661E+002
 20
6.1499024E+001
 70
0
  0
SEQEND
  5
32b
100
AcDbEntity
  0
POLYLINE
  5
32c
100
AcDbEntity
  8
2
100
AcDb2dPolyline
  6
CONTINUOUS
 62
40
 66
1
 40
7.0E-001
 41
7.0E-001
 70
0
  0
VERTEX
  5
32d
100
AcDbEntity
  8
2
100
AcDbVertex
100
AcDb2dVertex
 42
4.1421356E-001
 10
3.0301661E+002
 20
6.1499024E+001
 70
0
  0
VERTEX
  5
32e
100
AcDbEntity
  8
2
100
AcDbVertex
100
AcDb2dVertex
 42
0.0
 10
3.0351661E+002
 20
6.0999024E+001
 70
0
  0
SEQEND
  5
32f
100
AcDbEntity
  0
POLYLINE
  5
330
100
AcDbEntity
  8
2
100
AcDb2dPolyline
  6
CONTINUOUS
 62
40
 66
1
 40
7.0E-001
 41
7.0E-001
 70
0
  0
VERTEX
  5
331
100
AcDbEntity
  8
2
100
AcDbVertex
100
AcDb2dVertex
 42
1.0
 10
3.2596661E+002
 20
1.5049902E+002
 70
0
  0
VERTEX
  5
332
100
AcDbEntity
  8
2
100
AcDbVertex
100
AcDb2dVertex
 42
1.0
 10
3.2346661E+002
 20
1.5049902E+002
 70
0
  0
VERTEX
  5
333
100
AcDbEntity
  8
2
100
AcDbVertex
100
AcDb2dVertex
 42
0.0
 10
3.2596661E+002
 20
1.5049902E+002
 70
0
  0
SEQEND
  5
334
100
AcDbEntity
  0
POLYLINE
  5
335
100
AcDbEntity
  8
2
100
AcDb2dPolyline
  6
CONTINUOUS
 62
40
 66
1
 40
7.0E-001
 41
7.0E-001
 70
0
  0
VERTEX
  5
336
100
AcDbEntity
  8
2
100
AcDbVertex
100
AcDb2dVertex
 42
0.0
 10
3.2346662E+002
 20
1.5899903E+002
 70
0
  0
VERTEX
  5
337
100
AcDbEntity
  8
2
100
AcDbVertex
100
AcDb2dVertex
 42
0.0
 10
3.2346662E+002
 20
1.5294873E+002
 70
0
  0
SEQEND
  5
338
100
AcDbEntity
  0
POLYLINE
  5
339
100
AcDbEntity
  8
2
100
AcDb2dPolyline
  6
CONTINUOUS
 62
40
 66
1
 40
7.0E-001
 41
7.0E-001
 70
0
  0
VERTEX
  5
33a
100
AcDbEntity
  8
2
100
AcDbVertex
100
AcDb2dVertex
 42
0.0
 10
3.259666E+002
 20
1.5294847E+002
 70
0
  0
VERTEX
  5
33b
100
AcDbEntity
  8
2
100
AcDbVertex
100
AcDb2dVertex
 42
0.0
 10
3.259666E+002
 20
1.5899903E+002
 70
0
  0
SEQEND
  5
33c
100
AcDbEntity
  0
POLYLINE
  5
33d
100
AcDbEntity
  8
2
100
AcDb2dPolyline
  6
CONTINUOUS
 62
40
 66
1
 40
7.0E-001
 41
7.0E-001
 70
0
  0
VERTEX
  5
33e
100
AcDbEntity
  8
2
100
AcDbVertex
100
AcDb2dVertex
 42
0.0
 10
3.0351662E+002
 20
1.5999903E+002
 70
0
  0
VERTEX
  5
33f
100
AcDbEntity
  8
2
100
AcDbVertex
100
AcDb2dVertex
 42
0.0
 10
3.0351662E+002
 20
1.5324904E+002
 70
0
  0
SEQEND
  5
340
100
AcDbEntity
  0
LINE
  5
341
100
AcDbEntity
  8
2
100
AcDbLine
  6
CONTINUOUS
 62
3
 10
3.0351662E+002
 20
1.4774903E+002
 11
3.0351662E+002
 21
6.2499026E+001
  0
LINE
  5
342
100
AcDbEntity
  8
2
100
AcDbLine
  6
CONTINUOUS
 62
3
 10
3.0351662E+002
 20
6.2499026E+001
 11
3.459166E+002
 21
6.2499026E+001
  0
LINE
  5
343
100
AcDbEntity
  8
2
100
AcDbLine
  6
CONTINUOUS
 62
3
 10
3.459166E+002
 20
6.2499026E+001
 11
3.459166E+002
 21
1.4774903E+002
  0
POLYLINE
  5
344
100
AcDbEntity
  8
2
100
AcDb2dPolyline
  6
CONTINUOUS
 62
40
 66
1
 40
7.0E-001
 41
7.0E-001
 70
0
  0
VERTEX
  5
345
100
AcDbEntity
  8
2
100
AcDbVertex
100
AcDb2dVertex
 42
0.0
 10
3.459166E+002
 20
1.5324904E+002
 70
0
  0
VERTEX
  5
346
100
AcDbEntity
  8
2
100
AcDbVertex
100
AcDb2dVertex
 42
0.0
 10
3.459166E+002
 20
1.5999903E+002
 70
0
  0
SEQEND
  5
347
100
AcDbEntity
  0
POLYLINE
  5
348
100
AcDbEntity
  8
2
100
AcDb2dPolyline
  6
CONTINUOUS
 62
40
 66
1
 40
7.0E-001
 41
7.0E-001
 70
0
  0
VERTEX
  5
349
100
AcDbEntity
  8
2
100
AcDbVertex
100
AcDb2dVertex
 42
0.0
 10
3.4021661E+002
 20
1.6199902E+002
 70
0
  0
VERTEX
  5
34a
100
AcDbEntity
  8
2
100
AcDbVertex
100
AcDb2dVertex
 42
0.0
 10
3.4641661E+002
 20
1.6199903E+002
 70
0
  0
SEQEND
  5
34b
100
AcDbEntity
  0
POLYLINE
  5
34c
100
AcDbEntity
  8
2
100
AcDb2dPolyline
  6
CONTINUOUS
 62
40
 66
1
 40
7.0E-001
 41
7.0E-001
 70
0
  0
VERTEX
  5
34d
100
AcDbEntity
  8
2
100
AcDbVertex
100
AcDb2dVertex
 42
0.0
 10
3.0301661E+002
 20
1.6199903E+002
 70
0
  0
VERTEX
  5
34e
100
AcDbEntity
  8
2
100
AcDbVertex
100
AcDb2dVertex
 42
0.0
 10
3.0921661E+002
 20
1.6199902E+002
 70
0
  0
SEQEND
  5
34f
100
AcDbEntity
  0
POLYLINE
  5
350
100
AcDbEntity
  8
2
100
AcDb2dPolyline
  6
CONTINUOUS
 62
40
 66
1
 40
7.0E-001
 41
7.0E-001
 70
0
  0
VERTEX
  5
351
100
AcDbEntity
  8
2
100
AcDbVertex
100
AcDb2dVertex
 42
0.0
 10
3.4641661E+002
 20
1.7124904E+002
 70
0
  0
VERTEX
  5
352
100
AcDbEntity
  8
2
100
AcDbVertex
100
AcDb2dVertex
 42
0.0
 10
3.429666E+002
 20
1.7124904E+002
 70
0
  0
SEQEND
  5
353
100
AcDbEntity
  0
POLYLINE
  5
354
100
AcDbEntity
  8
2
100
AcDb2dPolyline
  6
CONTINUOUS
 62
40
 66
1
 40
7.0E-001
 41
7.0E-001
 70
0
  0
VERTEX
  5
355
100
AcDbEntity
  8
2
100
AcDbVertex
100
AcDb2dVertex
 42
0.0
 10
3.425916E+002
 20
1.7162401E+002
 70
0
  0
VERTEX
  5
356
100
AcDbEntity
  8
2
100
AcDbVertex
100
AcDb2dVertex
 42
0.0
 10
3.429666E+002
 20
1.7124904E+002
 70
0
  0
SEQEND
  5
357
100
AcDbEntity
  0
POLYLINE
  5
358
100
AcDbEntity
  8
2
100
AcDb2dPolyline
  6
CONTINUOUS
 62
40
 66
1
 40
7.0E-001
 41
7.0E-001
 70
0
  0
VERTEX
  5
359
100
AcDbEntity
  8
2
100
AcDbVertex
100
AcDb2dVertex
 42
0.0
 10
3.429666E+002
 20
1.7124904E+002
 70
0
  0
VERTEX
  5
35a
100
AcDbEntity
  8
2
100
AcDbVertex
100
AcDb2dVertex
 42
0.0
 10
3.429666E+002
 20
1.6919901E+002
 70
0
  0
SEQEND
  5
35b
100
AcDbEntity
  0
POLYLINE
  5
35c
100
AcDbEntity
  8
2
100
AcDb2dPolyline
  6
CONTINUOUS
 62
40
 66
1
 40
7.0E-001
 41
7.0E-001
 70
0
  0
VERTEX
  5
35d
100
AcDbEntity
  8
2
100
AcDbVertex
100
AcDb2dVertex
 42
0.0
 10
3.0731662E+002
 20
1.6754903E+002
 70
0
  0
VERTEX
  5
35e
100
AcDbEntity
  8
2
100
AcDbVertex
100
AcDb2dVertex
 42
0.0
 10
3.0571661E+002
 20
1.6754903E+002
 70
0
  0
SEQEND
  5
35f
100
AcDbEntity
  0
POLYLINE
  5
360
100
AcDbEntity
  8
2
100
AcDb2dPolyline
  6
CONTINUOUS
 62
40
 66
1
 40
7.0E-001
 41
7.0E-001
 70
0
  0
VERTEX
  5
361
100
AcDbEntity
  8
2
100
AcDbVertex
100
AcDb2dVertex
 42
0.0
 10
3.0731662E+002
 20
1.675346E+002
 70
0
  0
VERTEX
  5
362
100
AcDbEntity
  8
2
100
AcDbVertex
100
AcDb2dVertex
 42
0.0
 10
3.0571661E+002
 20
1.675346E+002
 70
0
  0
SEQEND
  5
363
100
AcDbEntity
  0
POLYLINE
  5
364
100
AcDbEntity
  8
2
100
AcDb2dPolyline
  6
CONTINUOUS
 62
40
 66
1
 40
7.0E-001
 41
7.0E-001
 70
0
  0
VERTEX
  5
365
100
AcDbEntity
  8
2
100
AcDbVertex
100
AcDb2dVertex
 42
0.0
 10
3.0684162E+002
 20
1.7162401E+002
 70
0
  0
VERTEX
  5
366
100
AcDbEntity
  8
2
100
AcDbVertex
100
AcDb2dVertex
 42
0.0
 10
3.0646662E+002
 20
1.7124904E+002
 70
0
  0
SEQEND
  5
367
100
AcDbEntity
  0
POLYLINE
  5
368
100
AcDbEntity
  8
2
100
AcDb2dPolyline
  6
CONTINUOUS
 62
40
 66
1
 40
7.0E-001
 41
7.0E-001
 70
0
  0
VERTEX
  5
369
100
AcDbEntity
  8
2
100
AcDbVertex
100
AcDb2dVertex
 42
0.0
 10
3.0646662E+002
 20
1.6919901E+002
 70
0
  0
VERTEX
  5
36a
100
AcDbEntity
  8
2
100
AcDbVertex
100
AcDb2dVertex
 42
0.0
 10
3.0646662E+002
 20
1.7124904E+002
 70
0
  0
SEQEND
  5
36b
100
AcDbEntity
  0
LINE
  5
36c
100
AcDbEntity
  8
2
100
AcDbLine
  6
CONTINUOUS
 62
3
 10
3.182166E+002
 20
5.7399037E+001
 11
3.1848052E+002
 21
5.7399037E+001
  0
POLYLINE
  5
36d
100
AcDbEntity
  8
2
100
AcDb2dPolyline
  6
CONTINUOUS
 62
3
 66
1
 40
0.0
 41
0.0
 70
2
  0
VERTEX
  5
36e
100
AcDbEntity
  8
2
100
AcDbVertex
100
AcDb2dVertex
 42
0.0
 10
3.1848052E+002
 20
5.7399037E+001
 70
0
  0
VERTEX
  5
36f
100
AcDbEntity
  8
2
100
AcDbVertex
100
AcDb2dVertex
 42
-4.0935511E-003
 10
3.1848045E+002
 20
5.7389506E+001
 70
1
  0
VERTEX
  5
370
100
AcDbEntity
  8
2
100
AcDbVertex
100
AcDb2dVertex
 42
-3.9031104E-003
 10
3.1848022E+002
 20
5.7379848E+001
 70
0
  0
VERTEX
  5
371
100
AcDbEntity
  8
2
100
AcDbVertex
100
AcDb2dVertex
 42
-3.877772E-003
 10
3.1847984E+002
 20
5.7370053E+001
 70
1
  0
VERTEX
  5
372
100
AcDbEntity
  8
2
100
AcDbVertex
100
AcDb2dVertex
 42
-4.0932894E-003
 10
3.184793E+002
 20
5.7360163E+001
 70
0
  0
VERTEX
  5
373
100
AcDbEntity
  8
2
100
AcDbVertex
100
AcDb2dVertex
 42
-4.2489996E-003
 10
3.1847858E+002
 20
5.7350222E+001
 70
1
  0
VERTEX
  5
374
100
AcDbEntity
  8
2
100
AcDbVertex
100
AcDb2dVertex
 42
-4.399495E-003
 10
3.184777E+002
 20
5.734027E+001
 70
0
  0
VERTEX
  5
375
100
AcDbEntity
  8
2
100
AcDbVertex
100
AcDb2dVertex
 42
-4.5647623E-003
 10
3.1847663E+002
 20
5.7330349E+001
 70
1
  0
VERTEX
  5
376
100
AcDbEntity
  8
2
100
AcDbVertex
100
AcDb2dVertex
 42
-4.7950729E-003
 10
3.1847538E+002
 20
5.7320501E+001
 70
0
  0
VERTEX
  5
377
100
AcDbEntity
  8
2
100
AcDbVertex
100
AcDb2dVertex
 42
-5.0370473E-003
 10
3.1847396E+002
 20
5.7310778E+001
 70
1
  0
VERTEX
  5
378
100
AcDbEntity
  8
2
100
AcDbVertex
100
AcDb2dVertex
 42
-5.3281587E-003
 10
3.1847235E+002
 20
5.7301221E+001
 70
0
  0
VERTEX
  5
379
100
AcDbEntity
  8
2
100
AcDbVertex
100
AcDb2dVertex
 42
-5.6540269E-003
 10
3.1847057E+002
 20
5.7291884E+001
 70
1
  0
VERTEX
  5
37a
100
AcDbEntity
  8
2
100
AcDbVertex
100
AcDb2dVertex
 42
-6.0377608E-003
 10
3.1846862E+002
 20
5.7282806E+001
 70
0
  0
VERTEX
  5
37b
100
AcDbEntity
  8
2
100
AcDbVertex
100
AcDb2dVertex
 42
-6.4900107E-003
 10
3.184665E+002
 20
5.7274042E+001
 70
1
  0
VERTEX
  5
37c
100
AcDbEntity
  8
2
100
AcDbVertex
100
AcDb2dVertex
 42
-7.0156586E-003
 10
3.1846422E+002
 20
5.7265624E+001
 70
0
  0
VERTEX
  5
37d
100
AcDbEntity
  8
2
100
AcDbVertex
100
AcDb2dVertex
 42
-7.6239373E-003
 10
3.1846179E+002
 20
5.7257608E+001
 70
1
  0
VERTEX
  5
37e
100
AcDbEntity
  8
2
100
AcDbVertex
100
AcDb2dVertex
 42
-8.285304E-003
 10
3.1845923E+002
 20
5.7250013E+001
 70
0
  0
VERTEX
  5
37f
100
AcDbEntity
  8
2
100
AcDbVertex
100
AcDb2dVertex
 42
-9.2050188E-003
 10
3.1845654E+002
 20
5.7242894E+001
 70
1
  0
VERTEX
  5
380
100
AcDbEntity
  8
2
100
AcDbVertex
100
AcDb2dVertex
 42
-1.0349875E-002
 10
3.1845374E+002
 20
5.7236257E+001
 70
0
  0
VERTEX
  5
381
100
AcDbEntity
  8
2
100
AcDbVertex
100
AcDb2dVertex
 42
-1.135932E-002
 10
3.1845084E+002
 20
5.7230149E+001
 70
1
  0
VERTEX
  5
382
100
AcDbEntity
  8
2
100
AcDbVertex
100
AcDb2dVertex
 42
-1.1994113E-002
 10
3.1844786E+002
 20
5.7224568E+001
 70
0
  0
VERTEX
  5
383
100
AcDbEntity
  8
2
100
AcDbVertex
100
AcDb2dVertex
 42
-1.4663486E-002
 10
3.1844483E+002
 20
5.7219554E+001
 70
1
  0
VERTEX
  5
384
100
AcDbEntity
  8
2
100
AcDbVertex
100
AcDb2dVertex
 42
-1.9562232E-002
 10
3.184417E+002
 20
5.7215081E+001
 70
0
  0
VERTEX
  5
385
100
AcDbEntity
  8
2
100
AcDbVertex
100
AcDb2dVertex
 42
-1.8141652E-002
 10
3.1843845E+002
 20
5.7211172E+001
 70
1
  0
VERTEX
  5
386
100
AcDbEntity
  8
2
100
AcDbVertex
100
AcDb2dVertex
 42
-8.703146E-003
 10
3.1843538E+002
 20
5.7207845E+001
 70
0
  0
VERTEX
  5
387
100
AcDbEntity
  8
2
100
AcDbVertex
100
AcDb2dVertex
 42
-2.8619874E-002
 10
3.1843258E+002
 20
5.7205129E+001
 70
1
  0
VERTEX
  5
388
100
AcDbEntity
  8
2
100
AcDbVertex
100
AcDb2dVertex
 42
-6.1940303E-002
 10
3.1842902E+002
 20
5.720283E+001
 70
0
  0
VERTEX
  5
389
100
AcDbEntity
  8
2
100
AcDbVertex
100
AcDb2dVertex
 42
-3.8436659E-002
 10
3.1842362E+002
 20
5.7200787E+001
 70
1
  0
VERTEX
  5
38a
100
AcDbEntity
  8
2
100
AcDbVertex
100
AcDb2dVertex
 42
-2.2564522E-002
 10
3.184166E+002
 20
5.7199014E+001
 70
0
  0
SEQEND
  5
38b
100
AcDbEntity
  0
LINE
  5
38c
100
AcDbEntity
  8
2
100
AcDbLine
  6
CONTINUOUS
 62
3
 10
3.309527E+002
 20
5.7399037E+001
 11
3.3121661E+002
 21
5.7399037E+001
  0
POLYLINE
  5
38d
100
AcDbEntity
  8
2
100
AcDb2dPolyline
  6
CONTINUOUS
 62
3
 66
1
 40
0.0
 41
0.0
 70
2
  0
VERTEX
  5
38e
100
AcDbEntity
  8
2
100
AcDbVertex
100
AcDb2dVertex
 42
0.0
 10
3.3101662E+002
 20
5.7199014E+001
 70
0
  0
VERTEX
  5
38f
100
AcDbEntity
  8
2
100
AcDbVertex
100
AcDb2dVertex
 42
-3.9876658E-002
 10
3.3101357E+002
 20
5.7199236E+001
 70
1
  0
VERTEX
  5
390
100
AcDbEntity
  8
2
100
AcDbVertex
100
AcDb2dVertex
 42
-3.636781E-002
 10
3.3101049E+002
 20
5.7199937E+001
 70
0
  0
VERTEX
  5
391
100
AcDbEntity
  8
2
100
AcDbVertex
100
AcDb2dVertex
 42
-3.3184782E-002
 10
3.3100736E+002
 20
5.7201135E+001
 70
1
  0
VERTEX
  5
392
100
AcDbEntity
  8
2
100
AcDbVertex
100
AcDb2dVertex
 42
-3.123103E-002
 10
3.310042E+002
 20
5.720283E+001
 70
0
  0
VERTEX
  5
393
100
AcDbEntity
  8
2
100
AcDbVertex
100
AcDb2dVertex
 42
-2.7949411E-002
 10
3.3100102E+002
 20
5.7205069E+001
 70
1
  0
VERTEX
  5
394
100
AcDbEntity
  8
2
100
AcDbVertex
100
AcDb2dVertex
 42
-2.4660524E-002
 10
3.3099784E+002
 20
5.7207845E+001
 70
0
  0
VERTEX
  5
395
100
AcDbEntity
  8
2
100
AcDbVertex
100
AcDb2dVertex
 42
-2.1420942E-002
 10
3.3099467E+002
 20
5.7211188E+001
 70
1
  0
VERTEX
  5
396
100
AcDbEntity
  8
2
100
AcDbVertex
100
AcDb2dVertex
 42
-1.8858103E-002
 10
3.3099152E+002
 20
5.7215081E+001
 70
0
  0
VERTEX
  5
397
100
AcDbEntity
  8
2
100
AcDbVertex
100
AcDb2dVertex
 42
-1.6424164E-002
 10
3.3098842E+002
 20
5.721955E+001
 70
1
  0
VERTEX
  5
398
100
AcDbEntity
  8
2
100
AcDbVertex
100
AcDb2dVertex
 42
-1.4504924E-002
 10
3.3098536E+002
 20
5.7224568E+001
 70
0
  0
VERTEX
  5
399
100
AcDbEntity
  8
2
100
AcDbVertex
100
AcDb2dVertex
 42
-1.2757138E-002
 10
3.3098238E+002
 20
5.723015E+001
 70
1
  0
VERTEX
  5
39a
100
AcDbEntity
  8
2
100
AcDbVertex
100
AcDb2dVertex
 42
-1.1390523E-002
 10
3.3097948E+002
 20
5.7236257E+001
 70
0
  0
VERTEX
  5
39b
100
AcDbEntity
  8
2
100
AcDbVertex
100
AcDb2dVertex
 42
-1.0169699E-002
 10
3.3097668E+002
 20
5.7242893E+001
 70
1
  0
VERTEX
  5
39c
100
AcDbEntity
  8
2
100
AcDbVertex
100
AcDb2dVertex
 42
-9.208616E-003
 10
3.3097399E+002
 20
5.7250013E+001
 70
0
  0
VERTEX
  5
39d
100
AcDbEntity
  8
2
100
AcDbVertex
100
AcDb2dVertex
 42
-8.3232908E-003
 10
3.3097143E+002
 20
5.7257609E+001
 70
1
  0
VERTEX
  5
39e
100
AcDbEntity
  8
2
100
AcDbVertex
100
AcDb2dVertex
 42
-7.5879428E-003
 10
3.30969E+002
 20
5.7265624E+001
 70
0
  0
VERTEX
  5
39f
100
AcDbEntity
  8
2
100
AcDbVertex
100
AcDb2dVertex
 42
-7.017682E-003
 10
3.3096672E+002
 20
5.7274037E+001
 70
1
  0
VERTEX
  5
3a0
100
AcDbEntity
  8
2
100
AcDbVertex
100
AcDb2dVertex
 42
-6.5991712E-003
 10
3.309646E+002
 20
5.7282806E+001
 70
0
  0
VERTEX
  5
3a1
100
AcDbEntity
  8
2
100
AcDbVertex
100
AcDb2dVertex
 42
-6.0022443E-003
 10
3.3096265E+002
 20
5.7291904E+001
 70
1
  0
VERTEX
  5
3a2
100
AcDbEntity
  8
2
100
AcDbVertex
100
AcDb2dVertex
 42
-5.3298704E-003
 10
3.3096087E+002
 20
5.7301221E+001
 70
0
  0
VERTEX
  5
3a3
100
AcDbEntity
  8
2
100
AcDbVertex
100
AcDb2dVertex
 42
-5.4409946E-003
 10
3.3095927E+002
 20
5.7310702E+001
 70
1
  0
VERTEX
  5
3a4
100
AcDbEntity
  8
2
100
AcDbVertex
100
AcDb2dVertex
 42
-5.9458393E-003
 10
3.3095784E+002
 20
5.7320501E+001
 70
0
  0
VERTEX
  5
3a5
100
AcDbEntity
  8
2
100
AcDbVertex
100
AcDb2dVertex
 42
-4.473253E-003
 10
3.3095659E+002
 20
5.733065E+001
 70
1
  0
VERTEX
  5
3a6
100
AcDbEntity
  8
2
100
AcDbVertex
100
AcDb2dVertex
 42
-1.9056521E-003
 10
3.3095552E+002
 20
5.734027E+001
 70
0
  0
VERTEX
  5
3a7
100
AcDbEntity
  8
2
100
AcDbVertex
100
AcDb2dVertex
 42
-5.6137154E-003
 10
3.3095466E+002
 20
5.7349032E+001
 70
1
  0
VERTEX
  5
3a8
100
AcDbEntity
  8
2
100
AcDbVertex
100
AcDb2dVertex
 42
-8.9879078E-003
 10
3.3095392E+002
 20
5.7360163E+001
 70
0
  0
VERTEX
  5
3a9
100
AcDbEntity
  8
2
100
AcDbVertex
100
AcDb2dVertex
 42
-4.4907787E-003
 10
3.3095327E+002
 20
5.7377056E+001
 70
1
  0
VERTEX
  5
3aa
100
AcDbEntity
  8
2
100
AcDbVertex
100
AcDb2dVertex
 42
-2.4507581E-003
 10
3.309527E+002
 20
5.7399037E+001
 70
0
  0
SEQEND
  5
3ab
100
AcDbEntity
  0
LINE
  5
3ac
100
AcDbEntity
  8
2
100
AcDbLine
  6
CONTINUOUS
 62
3
 10
3.0721662E+002
 20
6.0499029E+001
 11
3.4221663E+002
 21
6.0499029E+001
  0
LINE
  5
3ad
100
AcDbEntity
  8
2
100
AcDbLine
  6
CONTINUOUS
 62
3
 10
3.1121662E+002
 20
5.9799021E+001
 11
3.382166E+002
 21
5.9799021E+001
  0
LINE
  5
3ae
100
AcDbEntity
  8
2
100
AcDbLine
  6
CONTINUOUS
 62
3
 10
3.1471662E+002
 20
5.9099014E+001
 11
3.3471662E+002
 21
5.9099014E+001
  0
LINE
  5
3af
100
AcDbEntity
  8
2
100
AcDbLine
  6
CONTINUOUS
 62
3
 10
3.182166E+002
 20
5.8399035E+001
 11
3.3121661E+002
 21
5.8399035E+001
  0
LINE
  5
3b0
100
AcDbEntity
  8
2
100
AcDbLine
  6
CONTINUOUS
 62
3
 10
3.1848052E+002
 20
5.7399037E+001
 11
3.1848052E+002
 21
5.8199012E+001
  0
SPLINE
  5
3b1
100
AcDbEntity
  8
2
100
AcDbSpline
  6
CONTINUOUS
 62
40
210
0.0
220
0.0
230
0.0
 70
0
 71
3
 72
9
 73
5
 74
0
 42
1.0E-007
 43
1.0E-007
 44
0.0
 40
0.0
 40
0.0
 40
0.0
 40
0.0
 40
1.836233E-004
 40
3.68387E-004
 40
3.68387E-004
 40
3.68387E-004
 40
3.68387E-004
 10
3.1882607E+002
 20
5.7199014E+001
 30
0.0
 10
3.187994E+002
 20
5.7199024E+001
 30
0.0
 10
3.1875596E+002
 20
5.722978E+001
 30
0.0
 10
3.1871661E+002
 20
5.7333634E+001
 30
0.0
 10
3.1871662E+002
 20
5.7399037E+001
 30
0.0
  0
LINE
  5
3b2
100
AcDbEntity
  8
2
100
AcDbLine
  6
CONTINUOUS
 62
3
 10
3.1871662E+002
 20
5.7399037E+001
 11
3.1848052E+002
 21
5.7399037E+001
  0
LINE
  5
3b3
100
AcDbEntity
  8
2
100
AcDbLine
  6
CONTINUOUS
 62
3
 10
3.309527E+002
 20
5.8199012E+001
 11
3.309527E+002
 21
5.7399037E+001
  0
LINE
  5
3b4
100
AcDbEntity
  8
2
100
AcDbLine
  6
CONTINUOUS
 62
3
 10
3.309527E+002
 20
5.7399037E+001
 11
3.307166E+002
 21
5.7399037E+001
  0
SPLINE
  5
3b5
100
AcDbEntity
  8
2
100
AcDbSpline
  6
CONTINUOUS
 62
40
210
0.0
220
0.0
230
0.0
 70
0
 71
3
 72
9
 73
5
 74
0
 42
1.0E-007
 43
1.0E-007
 44
0.0
 40
0.0
 40
0.0
 40
0.0
 40
0.0
 40
1.847636E-004
 40
3.68387E-004
 40
3.68387E-004
 40
3.68387E-004
 40
3.68387E-004
 10
3.307166E+002
 20
5.7399037E+001
 30
0.0
 10
3.3071661E+002
 20
5.7333634E+001
 30
0.0
 10
3.3067726E+002
 20
5.722978E+001
 30
0.0
 10
3.3063382E+002
 20
5.7199024E+001
 30
0.0
 10
3.3060718E+002
 20
5.7199014E+001
 30
0.0
  0
POLYLINE
  5
3b6
100
AcDbEntity
  8
2
100
AcDb2dPolyline
  6
CONTINUOUS
 62
40
 66
1
 40
7.0E-001
 41
7.0E-001
 70
0
  0
VERTEX
  5
3b7
100
AcDbEntity
  8
2
100
AcDbVertex
100
AcDb2dVertex
 42
0.0
 10
3.307166E+002
 20
5.8199012E+001
 70
0
  0
VERTEX
  5
3b8
100
AcDbEntity
  8
2
100
AcDbVertex
100
AcDb2dVertex
 42
0.0
 10
3.307166E+002
 20
5.7399037E+001
 70
0
  0
SEQEND
  5
3b9
100
AcDbEntity
  0
POLYLINE
  5
3ba
100
AcDbEntity
  8
2
100
AcDb2dPolyline
  6
CONTINUOUS
 62
40
 66
1
 40
7.0E-001
 41
7.0E-001
 70
0
  0
VERTEX
  5
3bb
100
AcDbEntity
  8
2
100
AcDbVertex
100
AcDb2dVertex
 42
0.0
 10
3.1871662E+002
 20
5.7399037E+001
 70
0
  0
VERTEX
  5
3bc
100
AcDbEntity
  8
2
100
AcDbVertex
100
AcDb2dVertex
 42
0.0
 10
3.1871662E+002
 20
5.8199012E+001
 70
0
  0
SEQEND
  5
3bd
100
AcDbEntity
  0
POLYLINE
  5
3be
100
AcDbEntity
  8
2
100
AcDb2dPolyline
  6
CONTINUOUS
 62
40
 66
1
 40
7.0E-001
 41
7.0E-001
 70
0
  0
VERTEX
  5
3bf
100
AcDbEntity
  8
2
100
AcDbVertex
100
AcDb2dVertex
 42
0.0
 10
3.1041661E+002
 20
1.6319902E+002
 70
0
  0
VERTEX
  5
3c0
100
AcDbEntity
  8
2
100
AcDbVertex
100
AcDb2dVertex
 42
0.0
 10
3.0951661E+002
 20
1.6229902E+002
 70
0
  0
SEQEND
  5
3c1
100
AcDbEntity
  0
POLYLINE
  5
3c2
100
AcDbEntity
  8
2
100
AcDb2dPolyline
  6
CONTINUOUS
 62
40
 66
1
 40
7.0E-001
 41
7.0E-001
 70
0
  0
VERTEX
  5
3c3
100
AcDbEntity
  8
2
100
AcDbVertex
100
AcDb2dVertex
 42
0.0
 10
3.0951661E+002
 20
1.6229902E+002
 70
0
  0
VERTEX
  5
3c4
100
AcDbEntity
  8
2
100
AcDbVertex
100
AcDb2dVertex
 42
0.0
 10
3.3991661E+002
 20
1.6229902E+002
 70
0
  0
SEQEND
  5
3c5
100
AcDbEntity
  0
POLYLINE
  5
3c6
100
AcDbEntity
  8
2
100
AcDb2dPolyline
  6
CONTINUOUS
 62
40
 66
1
 40
7.0E-001
 41
7.0E-001
 70
0
  0
VERTEX
  5
3c7
100
AcDbEntity
  8
2
100
AcDbVertex
100
AcDb2dVertex
 42
0.0
 10
3.3901661E+002
 20
1.6319902E+002
 70
0
  0
VERTEX
  5
3c8
100
AcDbEntity
  8
2
100
AcDbVertex
100
AcDb2dVertex
 42
0.0
 10
3.3991661E+002
 20
1.6229902E+002
 70
0
  0
SEQEND
  5
3c9
100
AcDbEntity
  0
POLYLINE
  5
3ca
100
AcDbEntity
  8
2
100
AcDb2dPolyline
  6
CONTINUOUS
 62
40
 66
1
 40
7.0E-001
 41
7.0E-001
 70
0
  0
VERTEX
  5
3cb
100
AcDbEntity
  8
2
100
AcDbVertex
100
AcDb2dVertex
 42
0.0
 10
3.3901661E+002
 20
1.6319902E+002
 70
0
  0
VERTEX
  5
3cc
100
AcDbEntity
  8
2
100
AcDbVertex
100
AcDb2dVertex
 42
0.0
 10
3.1041661E+002
 20
1.6319902E+002
 70
0
  0
SEQEND
  5
3cd
100
AcDbEntity
  0
POLYLINE
  5
3ce
100
AcDbEntity
  8
2
100
AcDb2dPolyline
  6
CONTINUOUS
 62
40
 66
1
 40
7.0E-001
 41
7.0E-001
 70
0
  0
VERTEX
  5
3cf
100
AcDbEntity
  8
2
100
AcDbVertex
100
AcDb2dVertex
 42
0.0
 10
3.4371661E+002
 20
1.675346E+002
 70
0
  0
VERTEX
  5
3d0
100
AcDbEntity
  8
2
100
AcDbVertex
100
AcDb2dVertex
 42
0.0
 10
3.421166E+002
 20
1.675346E+002
 70
0
  0
SEQEND
  5
3d1
100
AcDbEntity
  0
POLYLINE
  5
3d2
100
AcDbEntity
  8
2
100
AcDb2dPolyline
  6
CONTINUOUS
 62
40
 66
1
 40
7.0E-001
 41
7.0E-001
 70
0
  0
VERTEX
  5
3d3
100
AcDbEntity
  8
2
100
AcDbVertex
100
AcDb2dVertex
 42
0.0
 10
3.4371661E+002
 20
1.6754903E+002
 70
0
  0
VERTEX
  5
3d4
100
AcDbEntity
  8
2
100
AcDbVertex
100
AcDb2dVertex
 42
0.0
 10
3.421166E+002
 20
1.6754903E+002
 70
0
  0
SEQEND
  5
3d5
100
AcDbEntity
  0
POLYLINE
  5
3d6
100
AcDbEntity
  8
2
100
AcDb2dPolyline
  6
CONTINUOUS
 62
40
 66
1
 40
7.0E-001
 41
7.0E-001
 70
0
  0
VERTEX
  5
3d7
100
AcDbEntity
  8
2
100
AcDbVertex
100
AcDb2dVertex
 42
0.0
 10
3.0951661E+002
 20
1.6599902E+002
 70
0
  0
VERTEX
  5
3d8
100
AcDbEntity
  8
2
100
AcDbVertex
100
AcDb2dVertex
 42
0.0
 10
3.0951661E+002
 20
1.6229902E+002
 70
0
  0
SEQEND
  5
3d9
100
AcDbEntity
  0
POLYLINE
  5
3da
100
AcDbEntity
  8
2
100
AcDb2dPolyline
  6
CONTINUOUS
 62
40
 66
1
 40
7.0E-001
 41
7.0E-001
 70
0
  0
VERTEX
  5
3db
100
AcDbEntity
  8
2
100
AcDbVertex
100
AcDb2dVertex
 42
0.0
 10
3.3991661E+002
 20
1.6229902E+002
 70
0
  0
VERTEX
  5
3dc
100
AcDbEntity
  8
2
100
AcDbVertex
100
AcDb2dVertex
 42
0.0
 10
3.3991661E+002
 20
1.6599902E+002
 70
0
  0
SEQEND
  5
3dd
100
AcDbEntity
  0
POLYLINE
  5
3de
100
AcDbEntity
  8
2
100
AcDb2dPolyline
  6
CONTINUOUS
 62
40
 66
1
 40
7.0E-001
 41
7.0E-001
 70
0
  0
VERTEX
  5
3df
100
AcDbEntity
  8
2
100
AcDbVertex
100
AcDb2dVertex
 42
0.0
 10
3.3901661E+002
 20
1.6689902E+002
 70
0
  0
VERTEX
  5
3e0
100
AcDbEntity
  8
2
100
AcDbVertex
100
AcDb2dVertex
 42
0.0
 10
3.3901661E+002
 20
1.6319902E+002
 70
0
  0
SEQEND
  5
3e1
100
AcDbEntity
  0
POLYLINE
  5
3e2
100
AcDbEntity
  8
2
100
AcDb2dPolyline
  6
CONTINUOUS
 62
40
 66
1
 40
7.0E-001
 41
7.0E-001
 70
0
  0
VERTEX
  5
3e3
100
AcDbEntity
  8
2
100
AcDbVertex
100
AcDb2dVertex
 42
0.0
 10
3.1041661E+002
 20
1.6319902E+002
 70
0
  0
VERTEX
  5
3e4
100
AcDbEntity
  8
2
100
AcDbVertex
100
AcDb2dVertex
 42
0.0
 10
3.1041661E+002
 20
1.6689902E+002
 70
0
  0
SEQEND
  5
3e5
100
AcDbEntity
  0
POLYLINE
  5
3e6
100
AcDbEntity
  8
2
100
AcDb2dPolyline
  6
CONTINUOUS
 62
40
 66
1
 40
7.0E-001
 41
7.0E-001
 70
0
  0
VERTEX
  5
3e7
100
AcDbEntity
  8
2
100
AcDbVertex
100
AcDb2dVertex
 42
0.0
 10
3.0646662E+002
 20
1.7124904E+002
 70
0
  0
VERTEX
  5
3e8
100
AcDbEntity
  8
2
100
AcDbVertex
100
AcDb2dVertex
 42
0.0
 10
3.0301661E+002
 20
1.7124904E+002
 70
0
  0
SEQEND
  5
3e9
100
AcDbEntity
  0
POLYLINE
  5
3ea
100
AcDbEntity
  8
2
100
AcDb2dPolyline
  6
CONTINUOUS
 62
40
 66
1
 40
7.0E-001
 41
7.0E-001
 70
0
  0
VERTEX
  5
3eb
100
AcDbEntity
  8
2
100
AcDbVertex
100
AcDb2dVertex
 42
0.0
 10
3.4451661E+002
 20
1.4774903E+002
 70
0
  0
VERTEX
  5
3ec
100
AcDbEntity
  8
2
100
AcDbVertex
100
AcDb2dVertex
 42
0.0
 10
3.4451661E+002
 20
1.5324904E+002
 70
0
  0
SEQEND
  5
3ed
100
AcDbEntity
  0
POLYLINE
  5
3ee
100
AcDbEntity
  8
2
100
AcDb2dPolyline
  6
CONTINUOUS
 62
40
 66
1
 40
7.0E-001
 41
7.0E-001
 70
0
  0
VERTEX
  5
3ef
100
AcDbEntity
  8
2
100
AcDbVertex
100
AcDb2dVertex
 42
0.0
 10
3.0491661E+002
 20
1.5324904E+002
 70
0
  0
VERTEX
  5
3f0
100
AcDbEntity
  8
2
100
AcDbVertex
100
AcDb2dVertex
 42
0.0
 10
3.0491661E+002
 20
1.4774903E+002
 70
0
  0
SEQEND
  5
3f1
100
AcDbEntity
  0
LINE
  5
3f2
100
AcDbEntity
  8
2
100
AcDbLine
  6
CONTINUOUS
 62
3
 10
3.0351662E+002
 20
6.2499026E+001
 11
3.0351662E+002
 21
6.0999014E+001
  0
LINE
  5
3f3
100
AcDbEntity
  8
2
100
AcDbLine
  6
CONTINUOUS
 62
3
 10
3.459166E+002
 20
6.0999014E+001
 11
3.459166E+002
 21
6.2499026E+001
  0
LINE
  5
3f4
100
AcDbEntity
  8
2
100
AcDbLine
  6
CONTINUOUS
 62
3
 10
3.4641661E+002
 20
6.2499026E+001
 11
3.459166E+002
 21
6.2499026E+001
  0
LINE
  5
3f5
100
AcDbEntity
  8
2
100
AcDbLine
  6
CONTINUOUS
 62
3
 10
3.0301661E+002
 20
6.2499026E+001
 11
3.0351662E+002
 21
6.2499026E+001
  0
POLYLINE
  5
3f6
100
AcDbEntity
  8
3
100
AcDb2dPolyline
  6
CONTINUOUS
 62
40
 66
1
 40
7.0E-001
 41
7.0E-001
 70
0
  0
VERTEX
  5
3f7
100
AcDbEntity
  8
3
100
AcDbVertex
100
AcDb2dVertex
 42
1.0
 10
1.1517322E+002
 20
1.496072E+002
 70
0
  0
VERTEX
  5
3f8
100
AcDbEntity
  8
3
100
AcDbVertex
100
AcDb2dVertex
 42
0.0
 10
1.1517322E+002
 20
1.551072E+002
 70
0
  0
SEQEND
  5
3f9
100
AcDbEntity
  0
POLYLINE
  5
3fa
100
AcDbEntity
  8
3
100
AcDb2dPolyline
  6
CONTINUOUS
 62
40
 66
1
 40
7.0E-001
 41
7.0E-001
 70
0
  0
VERTEX
  5
3fb
100
AcDbEntity
  8
3
100
AcDbVertex
100
AcDb2dVertex
 42
0.0
 10
1.1067322E+002
 20
6.4357202E+001
 70
0
  0
VERTEX
  5
3fc
100
AcDbEntity
  8
3
100
AcDbVertex
100
AcDb2dVertex
 42
0.0
 10
1.1067322E+002
 20
1.496072E+002
 70
0
  0
SEQEND
  5
3fd
100
AcDbEntity
  0
POLYLINE
  5
3fe
100
AcDbEntity
  8
3
100
AcDb2dPolyline
  6
CONTINUOUS
 62
40
 66
1
 40
7.0E-001
 41
7.0E-001
 70
0
  0
VERTEX
  5
3ff
100
AcDbEntity
  8
3
100
AcDbVertex
100
AcDb2dVertex
 42
0.0
 10
1.1067322E+002
 20
1.496072E+002
 70
0
  0
VERTEX
  5
400
100
AcDbEntity
  8
3
100
AcDbVertex
100
AcDb2dVertex
 42
0.0
 10
1.1067322E+002
 20
1.551072E+002
 70
0
  0
SEQEND
  5
401
100
AcDbEntity
  0
POLYLINE
  5
402
100
AcDbEntity
  8
3
100
AcDb2dPolyline
  6
CONTINUOUS
 62
40
 66
1
 40
7.0E-001
 41
7.0E-001
 70
0
  0
VERTEX
  5
403
100
AcDbEntity
  8
3
100
AcDbVertex
100
AcDb2dVertex
 42
0.0
 10
1.1067322E+002
 20
1.551072E+002
 70
0
  0
VERTEX
  5
404
100
AcDbEntity
  8
3
100
AcDbVertex
100
AcDb2dVertex
 42
0.0
 10
1.1067322E+002
 20
1.618572E+002
 70
0
  0
SEQEND
  5
405
100
AcDbEntity
  0
POLYLINE
  5
406
100
AcDbEntity
  8
3
100
AcDb2dPolyline
  6
CONTINUOUS
 62
40
 66
1
 40
7.0E-001
 41
7.0E-001
 70
0
  0
VERTEX
  5
407
100
AcDbEntity
  8
3
100
AcDbVertex
100
AcDb2dVertex
 42
0.0
 10
1.8537322E+002
 20
6.2857202E+001
 70
0
  0
VERTEX
  5
408
100
AcDbEntity
  8
3
100
AcDbVertex
100
AcDb2dVertex
 42
0.0
 10
1.1217322E+002
 20
6.2857202E+001
 70
0
  0
SEQEND
  5
409
100
AcDbEntity
  0
POLYLINE
  5
40a
100
AcDbEntity
  8
3
100
AcDb2dPolyline
  6
CONTINUOUS
 62
40
 66
1
 40
7.0E-001
 41
7.0E-001
 70
0
  0
VERTEX
  5
40b
100
AcDbEntity
  8
3
100
AcDbVertex
100
AcDb2dVertex
 42
0.0
 10
1.2797322E+002
 20
1.618572E+002
 70
0
  0
VERTEX
  5
40c
100
AcDbEntity
  8
3
100
AcDbVertex
100
AcDb2dVertex
 42
0.0
 10
1.1117322E+002
 20
1.618572E+002
 70
0
  0
SEQEND
  5
40d
100
AcDbEntity
  0
POLYLINE
  5
40e
100
AcDbEntity
  8
3
100
AcDb2dPolyline
  6
CONTINUOUS
 62
40
 66
1
 40
7.0E-001
 41
7.0E-001
 70
0
  0
VERTEX
  5
40f
100
AcDbEntity
  8
3
100
AcDbVertex
100
AcDb2dVertex
 42
0.0
 10
1.1117322E+002
 20
1.618572E+002
 70
0
  0
VERTEX
  5
410
100
AcDbEntity
  8
3
100
AcDbVertex
100
AcDb2dVertex
 42
0.0
 10
1.1067322E+002
 20
1.618572E+002
 70
0
  0
SEQEND
  5
411
100
AcDbEntity
  0
POLYLINE
  5
412
100
AcDbEntity
  8
3
100
AcDb2dPolyline
  6
CONTINUOUS
 62
40
 66
1
 40
7.0E-001
 41
7.0E-001
 70
0
  0
VERTEX
  5
413
100
AcDbEntity
  8
3
100
AcDbVertex
100
AcDb2dVertex
 42
4.1421379E-001
 10
1.2797322E+002
 20
1.618572E+002
 70
0
  0
VERTEX
  5
414
100
AcDbEntity
  8
3
100
AcDbVertex
100
AcDb2dVertex
 42
0.0
 10
1.2997322E+002
 20
1.638572E+002
 70
0
  0
SEQEND
  5
415
100
AcDbEntity
  0
POLYLINE
  5
416
100
AcDbEntity
  8
3
100
AcDb2dPolyline
  6
CONTINUOUS
 62
40
 66
1
 40
7.0E-001
 41
7.0E-001
 70
0
  0
VERTEX
  5
417
100
AcDbEntity
  8
3
100
AcDbVertex
100
AcDb2dVertex
 42
0.0
 10
1.3572322E+002
 20
1.738572E+002
 70
0
  0
VERTEX
  5
418
100
AcDbEntity
  8
3
100
AcDbVertex
100
AcDb2dVertex
 42
0.0
 10
1.8042322E+002
 20
1.738572E+002
 70
0
  0
SEQEND
  5
419
100
AcDbEntity
  0
POLYLINE
  5
41a
100
AcDbEntity
  8
3
100
AcDb2dPolyline
  6
CONTINUOUS
 62
40
 66
1
 40
7.0E-001
 41
7.0E-001
 70
0
  0
VERTEX
  5
41b
100
AcDbEntity
  8
3
100
AcDbVertex
100
AcDb2dVertex
 42
0.0
 10
1.2997322E+002
 20
1.678572E+002
 70
0
  0
VERTEX
  5
41c
100
AcDbEntity
  8
3
100
AcDbVertex
100
AcDb2dVertex
 42
0.0
 10
1.3497322E+002
 20
1.678572E+002
 70
0
  0
SEQEND
  5
41d
100
AcDbEntity
  0
POLYLINE
  5
41e
100
AcDbEntity
  8
3
100
AcDb2dPolyline
  6
CONTINUOUS
 62
40
 66
1
 40
7.0E-001
 41
7.0E-001
 70
0
  0
VERTEX
  5
41f
100
AcDbEntity
  8
3
100
AcDbVertex
100
AcDb2dVertex
 42
0.0
 10
1.2997322E+002
 20
1.678572E+002
 70
0
  0
VERTEX
  5
420
100
AcDbEntity
  8
3
100
AcDbVertex
100
AcDb2dVertex
 42
0.0
 10
1.2997322E+002
 20
1.638572E+002
 70
0
  0
SEQEND
  5
421
100
AcDbEntity
  0
POLYLINE
  5
422
100
AcDbEntity
  8
3
100
AcDb2dPolyline
  6
CONTINUOUS
 62
40
 66
1
 40
7.0E-001
 41
7.0E-001
 70
0
  0
VERTEX
  5
423
100
AcDbEntity
  8
3
100
AcDbVertex
100
AcDb2dVertex
 42
0.0
 10
1.8042322E+002
 20
1.738572E+002
 70
0
  0
VERTEX
  5
424
100
AcDbEntity
  8
3
100
AcDbVertex
100
AcDb2dVertex
 42
0.0
 10
1.8117322E+002
 20
1.731072E+002
 70
0
  0
SEQEND
  5
425
100
AcDbEntity
  0
POLYLINE
  5
426
100
AcDbEntity
  8
3
100
AcDb2dPolyline
  6
CONTINUOUS
 62
40
 66
1
 40
7.0E-001
 41
7.0E-001
 70
0
  0
VERTEX
  5
427
100
AcDbEntity
  8
3
100
AcDbVertex
100
AcDb2dVertex
 42
0.0
 10
1.3497322E+002
 20
1.731072E+002
 70
0
  0
VERTEX
  5
428
100
AcDbEntity
  8
3
100
AcDbVertex
100
AcDb2dVertex
 42
0.0
 10
1.3572322E+002
 20
1.738572E+002
 70
0
  0
SEQEND
  5
429
100
AcDbEntity
  0
POLYLINE
  5
42a
100
AcDbEntity
  8
3
100
AcDb2dPolyline
  6
CONTINUOUS
 62
40
 66
1
 40
7.0E-001
 41
7.0E-001
 70
0
  0
VERTEX
  5
42b
100
AcDbEntity
  8
3
100
AcDbVertex
100
AcDb2dVertex
 42
0.0
 10
1.3497322E+002
 20
1.678572E+002
 70
0
  0
VERTEX
  5
42c
100
AcDbEntity
  8
3
100
AcDbVertex
100
AcDb2dVertex
 42
0.0
 10
1.3497322E+002
 20
1.731072E+002
 70
0
  0
SEQEND
  5
42d
100
AcDbEntity
  0
POLYLINE
  5
42e
100
AcDbEntity
  8
3
100
AcDb2dPolyline
  6
CONTINUOUS
 62
40
 66
1
 40
7.0E-001
 41
7.0E-001
 70
0
  0
VERTEX
  5
42f
100
AcDbEntity
  8
3
100
AcDbVertex
100
AcDb2dVertex
 42
0.0
 10
1.8117322E+002
 20
1.673572E+002
 70
0
  0
VERTEX
  5
430
100
AcDbEntity
  8
3
100
AcDbVertex
100
AcDb2dVertex
 42
0.0
 10
1.8537322E+002
 20
1.673572E+002
 70
0
  0
SEQEND
  5
431
100
AcDbEntity
  0
POLYLINE
  5
432
100
AcDbEntity
  8
3
100
AcDb2dPolyline
  6
CONTINUOUS
 62
40
 66
1
 40
7.0E-001
 41
7.0E-001
 70
0
  0
VERTEX
  5
433
100
AcDbEntity
  8
3
100
AcDbVertex
100
AcDb2dVertex
 42
0.0
 10
1.8117322E+002
 20
1.731072E+002
 70
0
  0
VERTEX
  5
434
100
AcDbEntity
  8
3
100
AcDbVertex
100
AcDb2dVertex
 42
0.0
 10
1.8117322E+002
 20
1.673572E+002
 70
0
  0
SEQEND
  5
435
100
AcDbEntity
  0
POLYLINE
  5
436
100
AcDbEntity
  8
3
100
AcDb2dPolyline
  6
CONTINUOUS
 62
40
 66
1
 40
7.0E-001
 41
7.0E-001
 70
0
  0
VERTEX
  5
437
100
AcDbEntity
  8
3
100
AcDbVertex
100
AcDb2dVertex
 42
0.0
 10
1.3117322E+002
 20
1.698572E+002
 70
0
  0
VERTEX
  5
438
100
AcDbEntity
  8
3
100
AcDbVertex
100
AcDb2dVertex
 42
0.0
 10
1.3117322E+002
 20
1.678572E+002
 70
0
  0
SEQEND
  5
439
100
AcDbEntity
  0
POLYLINE
  5
43a
100
AcDbEntity
  8
3
100
AcDb2dPolyline
  6
CONTINUOUS
 62
40
 66
1
 40
7.0E-001
 41
7.0E-001
 70
0
  0
VERTEX
  5
43b
100
AcDbEntity
  8
3
100
AcDbVertex
100
AcDb2dVertex
 42
0.0
 10
1.2997322E+002
 20
1.698572E+002
 70
0
  0
VERTEX
  5
43c
100
AcDbEntity
  8
3
100
AcDbVertex
100
AcDb2dVertex
 42
0.0
 10
1.3117322E+002
 20
1.698572E+002
 70
0
  0
SEQEND
  5
43d
100
AcDbEntity
  0
POLYLINE
  5
43e
100
AcDbEntity
  8
3
100
AcDb2dPolyline
  6
CONTINUOUS
 62
40
 66
1
 40
7.0E-001
 41
7.0E-001
 70
0
  0
VERTEX
  5
43f
100
AcDbEntity
  8
3
100
AcDbVertex
100
AcDb2dVertex
 42
0.0
 10
1.8139647E+002
 20
5.9257202E+001
 70
0
  0
VERTEX
  5
440
100
AcDbEntity
  8
3
100
AcDbVertex
100
AcDb2dVertex
 42
0.0
 10
1.8139647E+002
 20
5.9057202E+001
 70
0
  0
SEQEND
  5
441
100
AcDbEntity
  0
POLYLINE
  5
442
100
AcDbEntity
  8
3
100
AcDb2dPolyline
  6
CONTINUOUS
 62
40
 66
1
 40
7.0E-001
 41
7.0E-001
 70
0
  0
VERTEX
  5
443
100
AcDbEntity
  8
3
100
AcDbVertex
100
AcDb2dVertex
 42
0.0
 10
1.8139647E+002
 20
6.0757202E+001
 70
0
  0
VERTEX
  5
444
100
AcDbEntity
  8
3
100
AcDbVertex
100
AcDb2dVertex
 42
0.0
 10
1.8139647E+002
 20
5.9257202E+001
 70
0
  0
SEQEND
  5
445
100
AcDbEntity
  0
POLYLINE
  5
446
100
AcDbEntity
  8
3
100
AcDb2dPolyline
  6
CONTINUOUS
 62
40
 66
1
 40
7.0E-001
 41
7.0E-001
 70
0
  0
VERTEX
  5
447
100
AcDbEntity
  8
3
100
AcDbVertex
100
AcDb2dVertex
 42
0.0
 10
1.8539647E+002
 20
5.9057202E+001
 70
0
  0
VERTEX
  5
448
100
AcDbEntity
  8
3
100
AcDbVertex
100
AcDb2dVertex
 42
0.0
 10
1.8539647E+002
 20
6.0057202E+001
 70
0
  0
SEQEND
  5
449
100
AcDbEntity
  0
POLYLINE
  5
44a
100
AcDbEntity
  8
3
100
AcDb2dPolyline
  6
CONTINUOUS
 62
40
 66
1
 40
7.0E-001
 41
7.0E-001
 70
0
  0
VERTEX
  5
44b
100
AcDbEntity
  8
3
100
AcDbVertex
100
AcDb2dVertex
 42
0.0
 10
1.8539647E+002
 20
6.0057202E+001
 70
0
  0
VERTEX
  5
44c
100
AcDbEntity
  8
3
100
AcDbVertex
100
AcDb2dVertex
 42
0.0
 10
1.8139647E+002
 20
6.0057202E+001
 70
0
  0
SEQEND
  5
44d
100
AcDbEntity
  0
POLYLINE
  5
44e
100
AcDbEntity
  8
3
100
AcDb2dPolyline
  6
CONTINUOUS
 62
40
 66
1
 40
7.0E-001
 41
7.0E-001
 70
0
  0
VERTEX
  5
44f
100
AcDbEntity
  8
3
100
AcDbVertex
100
AcDb2dVertex
 42
0.0
 10
1.3337322E+002
 20
6.0057202E+001
 70
0
  0
VERTEX
  5
450
100
AcDbEntity
  8
3
100
AcDbVertex
100
AcDb2dVertex
 42
0.0
 10
1.3778212E+002
 20
6.0057202E+001
 70
0
  0
SEQEND
  5
451
100
AcDbEntity
  0
POLYLINE
  5
452
100
AcDbEntity
  8
3
100
AcDb2dPolyline
  6
CONTINUOUS
 62
40
 66
1
 40
7.0E-001
 41
7.0E-001
 70
0
  0
VERTEX
  5
453
100
AcDbEntity
  8
3
100
AcDbVertex
100
AcDb2dVertex
 42
0.0
 10
1.3778212E+002
 20
6.0057202E+001
 70
0
  0
VERTEX
  5
454
100
AcDbEntity
  8
3
100
AcDbVertex
100
AcDb2dVertex
 42
0.0
 10
1.3779361E+002
 20
6.0057202E+001
 70
0
  0
SEQEND
  5
455
100
AcDbEntity
  0
POLYLINE
  5
456
100
AcDbEntity
  8
3
100
AcDb2dPolyline
  6
CONTINUOUS
 62
40
 66
1
 40
7.0E-001
 41
7.0E-001
 70
0
  0
VERTEX
  5
457
100
AcDbEntity
  8
3
100
AcDbVertex
100
AcDb2dVertex
 42
0.0
 10
1.2707322E+002
 20
6.0057202E+001
 70
0
  0
VERTEX
  5
458
100
AcDbEntity
  8
3
100
AcDbVertex
100
AcDb2dVertex
 42
0.0
 10
1.3337322E+002
 20
6.0057202E+001
 70
0
  0
SEQEND
  5
459
100
AcDbEntity
  0
POLYLINE
  5
45a
100
AcDbEntity
  8
3
100
AcDb2dPolyline
  6
CONTINUOUS
 62
40
 66
1
 40
7.0E-001
 41
7.0E-001
 70
0
  0
VERTEX
  5
45b
100
AcDbEntity
  8
3
100
AcDbVertex
100
AcDb2dVertex
 42
0.0
 10
1.7939647E+002
 20
6.0957202E+001
 70
0
  0
VERTEX
  5
45c
100
AcDbEntity
  8
3
100
AcDbVertex
100
AcDb2dVertex
 42
0.0
 10
1.7939647E+002
 20
6.0757202E+001
 70
0
  0
SEQEND
  5
45d
100
AcDbEntity
  0
POLYLINE
  5
45e
100
AcDbEntity
  8
3
100
AcDb2dPolyline
  6
CONTINUOUS
 62
40
 66
1
 40
7.0E-001
 41
7.0E-001
 70
0
  0
VERTEX
  5
45f
100
AcDbEntity
  8
3
100
AcDbVertex
100
AcDb2dVertex
 42
0.0
 10
1.7939647E+002
 20
6.1457202E+001
 70
0
  0
VERTEX
  5
460
100
AcDbEntity
  8
3
100
AcDbVertex
100
AcDb2dVertex
 42
0.0
 10
1.7939647E+002
 20
6.0957202E+001
 70
0
  0
SEQEND
  5
461
100
AcDbEntity
  0
POLYLINE
  5
462
100
AcDbEntity
  8
3
100
AcDb2dPolyline
  6
CONTINUOUS
 62
40
 66
1
 40
7.0E-001
 41
7.0E-001
 70
0
  0
VERTEX
  5
463
100
AcDbEntity
  8
3
100
AcDbVertex
100
AcDb2dVertex
 42
0.0
 10
1.8539647E+002
 20
6.1757202E+001
 70
0
  0
VERTEX
  5
464
100
AcDbEntity
  8
3
100
AcDbVertex
100
AcDb2dVertex
 42
0.0
 10
1.8537322E+002
 20
6.1757189E+001
 70
0
  0
SEQEND
  5
465
100
AcDbEntity
  0
POLYLINE
  5
466
100
AcDbEntity
  8
3
100
AcDb2dPolyline
  6
CONTINUOUS
 62
40
 66
1
 40
7.0E-001
 41
7.0E-001
 70
0
  0
VERTEX
  5
467
100
AcDbEntity
  8
3
100
AcDbVertex
100
AcDb2dVertex
 42
0.0
 10
1.7737322E+002
 20
6.1457202E+001
 70
0
  0
VERTEX
  5
468
100
AcDbEntity
  8
3
100
AcDbVertex
100
AcDb2dVertex
 42
0.0
 10
1.3137322E+002
 20
6.1457202E+001
 70
0
  0
SEQEND
  5
469
100
AcDbEntity
  0
POLYLINE
  5
46a
100
AcDbEntity
  8
3
100
AcDb2dPolyline
  6
CONTINUOUS
 62
40
 66
1
 40
7.0E-001
 41
7.0E-001
 70
0
  0
VERTEX
  5
46b
100
AcDbEntity
  8
3
100
AcDbVertex
100
AcDb2dVertex
 42
0.0
 10
1.3137322E+002
 20
6.1457202E+001
 70
0
  0
VERTEX
  5
46c
100
AcDbEntity
  8
3
100
AcDbVertex
100
AcDb2dVertex
 42
0.0
 10
1.1807322E+002
 20
6.1457202E+001
 70
0
  0
SEQEND
  5
46d
100
AcDbEntity
  0
POLYLINE
  5
46e
100
AcDbEntity
  8
3
100
AcDb2dPolyline
  6
CONTINUOUS
 62
40
 66
1
 40
7.0E-001
 41
7.0E-001
 70
0
  0
VERTEX
  5
46f
100
AcDbEntity
  8
3
100
AcDbVertex
100
AcDb2dVertex
 42
0.0
 10
1.7737322E+002
 20
6.1457202E+001
 70
0
  0
VERTEX
  5
470
100
AcDbEntity
  8
3
100
AcDbVertex
100
AcDb2dVertex
 42
0.0
 10
1.8537322E+002
 20
6.1457202E+001
 70
0
  0
SEQEND
  5
471
100
AcDbEntity
  0
POLYLINE
  5
472
100
AcDbEntity
  8
3
100
AcDb2dPolyline
  6
CONTINUOUS
 62
40
 66
1
 40
7.0E-001
 41
7.0E-001
 70
0
  0
VERTEX
  5
473
100
AcDbEntity
  8
3
100
AcDbVertex
100
AcDb2dVertex
 42
0.0
 10
1.8539647E+002
 20
6.0757202E+001
 70
0
  0
VERTEX
  5
474
100
AcDbEntity
  8
3
100
AcDbVertex
100
AcDb2dVertex
 42
0.0
 10
1.8539647E+002
 20
6.1757202E+001
 70
0
  0
SEQEND
  5
475
100
AcDbEntity
  0
POLYLINE
  5
476
100
AcDbEntity
  8
3
100
AcDb2dPolyline
  6
CONTINUOUS
 62
40
 66
1
 40
7.0E-001
 41
7.0E-001
 70
0
  0
VERTEX
  5
477
100
AcDbEntity
  8
3
100
AcDbVertex
100
AcDb2dVertex
 42
0.0
 10
1.7537322E+002
 20
6.2357202E+001
 70
0
  0
VERTEX
  5
478
100
AcDbEntity
  8
3
100
AcDbVertex
100
AcDb2dVertex
 42
0.0
 10
1.7537322E+002
 20
6.2157202E+001
 70
0
  0
SEQEND
  5
479
100
AcDbEntity
  0
POLYLINE
  5
47a
100
AcDbEntity
  8
3
100
AcDb2dPolyline
  6
CONTINUOUS
 62
40
 66
1
 40
7.0E-001
 41
7.0E-001
 70
0
  0
VERTEX
  5
47b
100
AcDbEntity
  8
3
100
AcDbVertex
100
AcDb2dVertex
 42
0.0
 10
1.7537322E+002
 20
6.2857202E+001
 70
0
  0
VERTEX
  5
47c
100
AcDbEntity
  8
3
100
AcDbVertex
100
AcDb2dVertex
 42
0.0
 10
1.7537322E+002
 20
6.2357202E+001
 70
0
  0
SEQEND
  5
47d
100
AcDbEntity
  0
POLYLINE
  5
47e
100
AcDbEntity
  8
3
100
AcDb2dPolyline
  6
CONTINUOUS
 62
40
 66
1
 40
7.0E-001
 41
7.0E-001
 70
0
  0
VERTEX
  5
47f
100
AcDbEntity
  8
3
100
AcDbVertex
100
AcDb2dVertex
 42
0.0
 10
1.8537322E+002
 20
6.2857202E+001
 70
0
  0
VERTEX
  5
480
100
AcDbEntity
  8
3
100
AcDbVertex
100
AcDb2dVertex
 42
0.0
 10
1.8537322E+002
 20
6.2157202E+001
 70
0
  0
SEQEND
  5
481
100
AcDbEntity
  0
POLYLINE
  5
482
100
AcDbEntity
  8
3
100
AcDb2dPolyline
  6
CONTINUOUS
 62
40
 66
1
 40
7.0E-001
 41
7.0E-001
 70
0
  0
VERTEX
  5
483
100
AcDbEntity
  8
3
100
AcDbVertex
100
AcDb2dVertex
 42
0.0
 10
1.8537322E+002
 20
6.1457202E+001
 70
0
  0
VERTEX
  5
484
100
AcDbEntity
  8
3
100
AcDbVertex
100
AcDb2dVertex
 42
0.0
 10
1.8537322E+002
 20
6.2157202E+001
 70
0
  0
SEQEND
  5
485
100
AcDbEntity
  0
POLYLINE
  5
486
100
AcDbEntity
  8
3
100
AcDb2dPolyline
  6
CONTINUOUS
 62
40
 66
1
 40
7.0E-001
 41
7.0E-001
 70
0
  0
VERTEX
  5
487
100
AcDbEntity
  8
3
100
AcDbVertex
100
AcDb2dVertex
 42
0.0
 10
1.7537322E+002
 20
6.2157202E+001
 70
0
  0
VERTEX
  5
488
100
AcDbEntity
  8
3
100
AcDbVertex
100
AcDb2dVertex
 42
0.0
 10
1.3037322E+002
 20
6.2157202E+001
 70
0
  0
SEQEND
  5
489
100
AcDbEntity
  0
POLYLINE
  5
48a
100
AcDbEntity
  8
3
100
AcDb2dPolyline
  6
CONTINUOUS
 62
40
 66
1
 40
7.0E-001
 41
7.0E-001
 70
0
  0
VERTEX
  5
48b
100
AcDbEntity
  8
3
100
AcDbVertex
100
AcDb2dVertex
 42
0.0
 10
1.3037322E+002
 20
6.2157202E+001
 70
0
  0
VERTEX
  5
48c
100
AcDbEntity
  8
3
100
AcDbVertex
100
AcDb2dVertex
 42
0.0
 10
1.1307322E+002
 20
6.2157202E+001
 70
0
  0
SEQEND
  5
48d
100
AcDbEntity
  0
POLYLINE
  5
48e
100
AcDbEntity
  8
3
100
AcDb2dPolyline
  6
CONTINUOUS
 62
40
 66
1
 40
7.0E-001
 41
7.0E-001
 70
0
  0
VERTEX
  5
48f
100
AcDbEntity
  8
3
100
AcDbVertex
100
AcDb2dVertex
 42
0.0
 10
1.7537322E+002
 20
6.2157202E+001
 70
0
  0
VERTEX
  5
490
100
AcDbEntity
  8
3
100
AcDbVertex
100
AcDb2dVertex
 42
0.0
 10
1.8537322E+002
 20
6.2157202E+001
 70
0
  0
SEQEND
  5
491
100
AcDbEntity
  0
POLYLINE
  5
492
100
AcDbEntity
  8
3
100
AcDb2dPolyline
  6
CONTINUOUS
 62
40
 66
1
 40
7.0E-001
 41
7.0E-001
 70
0
  0
VERTEX
  5
493
100
AcDbEntity
  8
3
100
AcDbVertex
100
AcDb2dVertex
 42
0.0
 10
1.7737322E+002
 20
6.1657202E+001
 70
0
  0
VERTEX
  5
494
100
AcDbEntity
  8
3
100
AcDbVertex
100
AcDb2dVertex
 42
0.0
 10
1.7737322E+002
 20
6.1457202E+001
 70
0
  0
SEQEND
  5
495
100
AcDbEntity
  0
POLYLINE
  5
496
100
AcDbEntity
  8
3
100
AcDb2dPolyline
  6
CONTINUOUS
 62
40
 66
1
 40
7.0E-001
 41
7.0E-001
 70
0
  0
VERTEX
  5
497
100
AcDbEntity
  8
3
100
AcDbVertex
100
AcDb2dVertex
 42
0.0
 10
1.7737322E+002
 20
6.1657202E+001
 70
0
  0
VERTEX
  5
498
100
AcDbEntity
  8
3
100
AcDbVertex
100
AcDb2dVertex
 42
0.0
 10
1.7737322E+002
 20
6.2157202E+001
 70
0
  0
SEQEND
  5
499
100
AcDbEntity
  0
POLYLINE
  5
49a
100
AcDbEntity
  8
3
100
AcDb2dPolyline
  6
CONTINUOUS
 62
40
 66
1
 40
7.0E-001
 41
7.0E-001
 70
0
  0
VERTEX
  5
49b
100
AcDbEntity
  8
3
100
AcDbVertex
100
AcDb2dVertex
 42
0.0
 10
1.7939647E+002
 20
6.0757202E+001
 70
0
  0
VERTEX
  5
49c
100
AcDbEntity
  8
3
100
AcDbVertex
100
AcDb2dVertex
 42
0.0
 10
1.3237322E+002
 20
6.0757202E+001
 70
0
  0
SEQEND
  5
49d
100
AcDbEntity
  0
POLYLINE
  5
49e
100
AcDbEntity
  8
3
100
AcDb2dPolyline
  6
CONTINUOUS
 62
40
 66
1
 40
7.0E-001
 41
7.0E-001
 70
0
  0
VERTEX
  5
49f
100
AcDbEntity
  8
3
100
AcDbVertex
100
AcDb2dVertex
 42
0.0
 10
1.3237322E+002
 20
6.0757202E+001
 70
0
  0
VERTEX
  5
4a0
100
AcDbEntity
  8
3
100
AcDbVertex
100
AcDb2dVertex
 42
0.0
 10
1.2257322E+002
 20
6.0757202E+001
 70
0
  0
SEQEND
  5
4a1
100
AcDbEntity
  0
POLYLINE
  5
4a2
100
AcDbEntity
  8
3
100
AcDb2dPolyline
  6
CONTINUOUS
 62
40
 66
1
 40
7.0E-001
 41
7.0E-001
 70
0
  0
VERTEX
  5
4a3
100
AcDbEntity
  8
3
100
AcDbVertex
100
AcDb2dVertex
 42
0.0
 10
1.7939647E+002
 20
6.0757202E+001
 70
0
  0
VERTEX
  5
4a4
100
AcDbEntity
  8
3
100
AcDbVertex
100
AcDb2dVertex
 42
0.0
 10
1.8539647E+002
 20
6.0757202E+001
 70
0
  0
SEQEND
  5
4a5
100
AcDbEntity
  0
POLYLINE
  5
4a6
100
AcDbEntity
  8
3
100
AcDb2dPolyline
  6
CONTINUOUS
 62
40
 66
1
 40
7.0E-001
 41
7.0E-001
 70
0
  0
VERTEX
  5
4a7
100
AcDbEntity
  8
3
100
AcDbVertex
100
AcDb2dVertex
 42
0.0
 10
1.8139647E+002
 20
5.9057202E+001
 70
0
  0
VERTEX
  5
4a8
100
AcDbEntity
  8
3
100
AcDbVertex
100
AcDb2dVertex
 42
0.0
 10
1.8539647E+002
 20
5.9057202E+001
 70
0
  0
SEQEND
  5
4a9
100
AcDbEntity
  0
POLYLINE
  5
4aa
100
AcDbEntity
  8
3
100
AcDb2dPolyline
  6
CONTINUOUS
 62
40
 66
1
 40
7.0E-001
 41
7.0E-001
 70
0
  0
VERTEX
  5
4ab
100
AcDbEntity
  8
3
100
AcDbVertex
100
AcDb2dVertex
 42
0.0
 10
1.8139647E+002
 20
5.9057202E+001
 70
0
  0
VERTEX
  5
4ac
100
AcDbEntity
  8
3
100
AcDbVertex
100
AcDb2dVertex
 42
0.0
 10
1.3798312E+002
 20
5.9057202E+001
 70
0
  0
SEQEND
  5
4ad
100
AcDbEntity
  0
POLYLINE
  5
4ae
100
AcDbEntity
  8
3
100
AcDb2dPolyline
  6
CONTINUOUS
 62
40
 66
1
 40
7.0E-001
 41
7.0E-001
 70
0
  0
VERTEX
  5
4af
100
AcDbEntity
  8
3
100
AcDbVertex
100
AcDb2dVertex
 42
0.0
 10
1.2997322E+002
 20
1.687572E+002
 70
0
  0
VERTEX
  5
4b0
100
AcDbEntity
  8
3
100
AcDbVertex
100
AcDb2dVertex
 42
0.0
 10
1.2997322E+002
 20
1.678572E+002
 70
0
  0
SEQEND
  5
4b1
100
AcDbEntity
  0
POLYLINE
  5
4b2
100
AcDbEntity
  8
3
100
AcDb2dPolyline
  6
CONTINUOUS
 62
40
 66
1
 40
7.0E-001
 41
7.0E-001
 70
0
  0
VERTEX
  5
4b3
100
AcDbEntity
  8
3
100
AcDbVertex
100
AcDb2dVertex
 42
0.0
 10
1.2997322E+002
 20
1.698572E+002
 70
0
  0
VERTEX
  5
4b4
100
AcDbEntity
  8
3
100
AcDbVertex
100
AcDb2dVertex
 42
0.0
 10
1.2997322E+002
 20
1.687572E+002
 70
0
  0
SEQEND
  5
4b5
100
AcDbEntity
  0
POLYLINE
  5
4b6
100
AcDbEntity
  8
3
100
AcDb2dPolyline
  6
CONTINUOUS
 62
40
 66
1
 40
7.0E-001
 41
7.0E-001
 70
0
  0
VERTEX
  5
4b7
100
AcDbEntity
  8
3
100
AcDbVertex
100
AcDb2dVertex
 42
0.0
 10
1.1187322E+002
 20
1.496072E+002
 70
0
  0
VERTEX
  5
4b8
100
AcDbEntity
  8
3
100
AcDbVertex
100
AcDb2dVertex
 42
0.0
 10
1.1187322E+002
 20
1.551072E+002
 70
0
  0
SEQEND
  5
4b9
100
AcDbEntity
  0
POLYLINE
  5
4ba
100
AcDbEntity
  8
3
100
AcDb2dPolyline
  6
CONTINUOUS
 62
40
 66
1
 40
7.0E-001
 41
7.0E-001
 70
0
  0
VERTEX
  5
4bb
100
AcDbEntity
  8
3
100
AcDbVertex
100
AcDb2dVertex
 42
0.0
 10
1.1067322E+002
 20
1.551072E+002
 70
0
  0
VERTEX
  5
4bc
100
AcDbEntity
  8
3
100
AcDbVertex
100
AcDb2dVertex
 42
0.0
 10
1.1117322E+002
 20
1.551072E+002
 70
0
  0
SEQEND
  5
4bd
100
AcDbEntity
  0
POLYLINE
  5
4be
100
AcDbEntity
  8
3
100
AcDb2dPolyline
  6
CONTINUOUS
 62
40
 66
1
 40
7.0E-001
 41
7.0E-001
 70
0
  0
VERTEX
  5
4bf
100
AcDbEntity
  8
3
100
AcDbVertex
100
AcDb2dVertex
 42
0.0
 10
1.1117322E+002
 20
1.551072E+002
 70
0
  0
VERTEX
  5
4c0
100
AcDbEntity
  8
3
100
AcDbVertex
100
AcDb2dVertex
 42
0.0
 10
1.1517322E+002
 20
1.551072E+002
 70
0
  0
SEQEND
  5
4c1
100
AcDbEntity
  0
POLYLINE
  5
4c2
100
AcDbEntity
  8
3
100
AcDb2dPolyline
  6
CONTINUOUS
 62
40
 66
1
 40
7.0E-001
 41
7.0E-001
 70
0
  0
VERTEX
  5
4c3
100
AcDbEntity
  8
3
100
AcDbVertex
100
AcDb2dVertex
 42
0.0
 10
1.1117322E+002
 20
1.496072E+002
 70
0
  0
VERTEX
  5
4c4
100
AcDbEntity
  8
3
100
AcDbVertex
100
AcDb2dVertex
 42
0.0
 10
1.1067322E+002
 20
1.496072E+002
 70
0
  0
SEQEND
  5
4c5
100
AcDbEntity
  0
POLYLINE
  5
4c6
100
AcDbEntity
  8
3
100
AcDb2dPolyline
  6
CONTINUOUS
 62
40
 66
1
 40
7.0E-001
 41
7.0E-001
 70
0
  0
VERTEX
  5
4c7
100
AcDbEntity
  8
3
100
AcDbVertex
100
AcDb2dVertex
 42
0.0
 10
1.1517322E+002
 20
1.496072E+002
 70
0
  0
VERTEX
  5
4c8
100
AcDbEntity
  8
3
100
AcDbVertex
100
AcDb2dVertex
 42
0.0
 10
1.1117322E+002
 20
1.496072E+002
 70
0
  0
SEQEND
  5
4c9
100
AcDbEntity
  0
POLYLINE
  5
4ca
100
AcDbEntity
  8
3
100
AcDb2dPolyline
  6
CONTINUOUS
 62
40
 66
1
 40
7.0E-001
 41
7.0E-001
 70
0
  0
VERTEX
  5
4cb
100
AcDbEntity
  8
3
100
AcDbVertex
100
AcDb2dVertex
 42
4.1421356E-001
 10
1.1067322E+002
 20
6.4357202E+001
 70
0
  0
VERTEX
  5
4cc
100
AcDbEntity
  8
3
100
AcDbVertex
100
AcDb2dVertex
 42
0.0
 10
1.1217322E+002
 20
6.2857202E+001
 70
0
  0
SEQEND
  5
4cd
100
AcDbEntity
  0
POLYLINE
  5
4ce
100
AcDbEntity
  8
3
100
AcDb2dPolyline
  6
CONTINUOUS
 62
40
 66
1
 40
7.0E-001
 41
7.0E-001
 70
0
  0
VERTEX
  5
4cf
100
AcDbEntity
  8
3
100
AcDbVertex
100
AcDb2dVertex
 42
0.0
 10
1.8537322E+002
 20
1.673572E+002
 70
0
  0
VERTEX
  5
4d0
100
AcDbEntity
  8
3
100
AcDbVertex
100
AcDb2dVertex
 42
0.0
 10
1.8537322E+002
 20
6.3357202E+001
 70
0
  0
SEQEND
  5
4d1
100
AcDbEntity
  0
POLYLINE
  5
4d2
100
AcDbEntity
  8
3
100
AcDb2dPolyline
  6
CONTINUOUS
 62
40
 66
1
 40
7.0E-001
 41
7.0E-001
 70
0
  0
VERTEX
  5
4d3
100
AcDbEntity
  8
3
100
AcDbVertex
100
AcDb2dVertex
 42
0.0
 10
1.8537322E+002
 20
6.3357202E+001
 70
0
  0
VERTEX
  5
4d4
100
AcDbEntity
  8
3
100
AcDbVertex
100
AcDb2dVertex
 42
0.0
 10
1.8537322E+002
 20
6.2857202E+001
 70
0
  0
SEQEND
  5
4d5
100
AcDbEntity
  0
POLYLINE
  5
4d6
100
AcDbEntity
  8
3
100
AcDb2dPolyline
  6
CONTINUOUS
 62
3
 66
1
 40
0.0
 41
0.0
 70
2
  0
VERTEX
  5
4d7
100
AcDbEntity
  8
3
100
AcDbVertex
100
AcDb2dVertex
 42
0.0
 10
1.3784106E+002
 20
5.9133956E+001
 70
0
  0
VERTEX
  5
4d8
100
AcDbEntity
  8
3
100
AcDbVertex
100
AcDb2dVertex
 42
-3.874174E-004
 10
1.378444E+002
 20
5.9129088E+001
 70
1
  0
VERTEX
  5
4d9
100
AcDbEntity
  8
3
100
AcDbVertex
100
AcDb2dVertex
 42
-4.368433E-004
 10
1.3784753E+002
 20
5.9124497E+001
 70
0
  0
VERTEX
  5
4da
100
AcDbEntity
  8
3
100
AcDbVertex
100
AcDb2dVertex
 42
-4.985492E-004
 10
1.3785046E+002
 20
5.9120194E+001
 70
1
  0
VERTEX
  5
4db
100
AcDbEntity
  8
3
100
AcDbVertex
100
AcDb2dVertex
 42
-5.738864E-004
 10
1.3785318E+002
 20
5.9116173E+001
 70
0
  0
VERTEX
  5
4dc
100
AcDbEntity
  8
3
100
AcDbVertex
100
AcDb2dVertex
 42
-6.73084E-004
 10
1.3785568E+002
 20
5.9112455E+001
 70
1
  0
VERTEX
  5
4dd
100
AcDbEntity
  8
3
100
AcDbVertex
100
AcDb2dVertex
 42
-7.942643E-004
 10
1.3785797E+002
 20
5.9109031E+001
 70
0
  0
VERTEX
  5
4de
100
AcDbEntity
  8
3
100
AcDbVertex
100
AcDb2dVertex
 42
-9.613276E-004
 10
1.3786003E+002
 20
5.9105918E+001
 70
1
  0
VERTEX
  5
4df
100
AcDbEntity
  8
3
100
AcDbVertex
100
AcDb2dVertex
 42
-1.178084E-003
 10
1.3786188E+002
 20
5.9103106E+001
 70
0
  0
VERTEX
  5
4e0
100
AcDbEntity
  8
3
100
AcDbVertex
100
AcDb2dVertex
 42
-1.4964308E-003
 10
1.3786351E+002
 20
5.9100609E+001
 70
1
  0
VERTEX
  5
4e1
100
AcDbEntity
  8
3
100
AcDbVertex
100
AcDb2dVertex
 42
-1.9408291E-003
 10
1.3786491E+002
 20
5.9098417E+001
 70
0
  0
VERTEX
  5
4e2
100
AcDbEntity
  8
3
100
AcDbVertex
100
AcDb2dVertex
 42
-2.6611911E-003
 10
1.3786609E+002
 20
5.9096542E+001
 70
1
  0
VERTEX
  5
4e3
100
AcDbEntity
  8
3
100
AcDbVertex
100
AcDb2dVertex
 42
-3.8053144E-003
 10
1.3786704E+002
 20
5.9094971E+001
 70
0
  0
VERTEX
  5
4e4
100
AcDbEntity
  8
3
100
AcDbVertex
100
AcDb2dVertex
 42
-6.0364658E-003
 10
1.3786778E+002
 20
5.9093714E+001
 70
1
  0
VERTEX
  5
4e5
100
AcDbEntity
  8
3
100
AcDbVertex
100
AcDb2dVertex
 42
-1.0696856E-002
 10
1.3786829E+002
 20
5.9092759E+001
 70
0
  0
VERTEX
  5
4e6
100
AcDbEntity
  8
3
100
AcDbVertex
100
AcDb2dVertex
 42
-2.4863541E-002
 10
1.3786859E+002
 20
5.9092113E+001
 70
1
  0
VERTEX
  5
4e7
100
AcDbEntity
  8
3
100
AcDbVertex
100
AcDb2dVertex
 42
-9.6293481E-002
 10
1.3786868E+002
 20
5.909176E+001
 70
0
  0
VERTEX
  5
4e8
100
AcDbEntity
  8
3
100
AcDbVertex
100
AcDb2dVertex
 42
-6.4750058E-001
 10
1.3786855E+002
 20
5.9091707E+001
 70
1
  0
VERTEX
  5
4e9
100
AcDbEntity
  8
3
100
AcDbVertex
100
AcDb2dVertex
 42
-7.6090791E-002
 10
1.3786822E+002
 20
5.909194E+001
 70
0
  0
VERTEX
  5
4ea
100
AcDbEntity
  8
3
100
AcDbVertex
100
AcDb2dVertex
 42
-2.0336004E-002
 10
1.3786768E+002
 20
5.9092468E+001
 70
1
  0
VERTEX
  5
4eb
100
AcDbEntity
  8
3
100
AcDbVertex
100
AcDb2dVertex
 42
-9.2069143E-003
 10
1.3786696E+002
 20
5.9093256E+001
 70
0
  0
VERTEX
  5
4ec
100
AcDbEntity
  8
3
100
AcDbVertex
100
AcDb2dVertex
 42
-5.7991322E-003
 10
1.3786605E+002
 20
5.9094301E+001
 70
1
  0
VERTEX
  5
4ed
100
AcDbEntity
  8
3
100
AcDbVertex
100
AcDb2dVertex
 42
-4.227789E-003
 10
1.3786493E+002
 20
5.9095652E+001
 70
0
  0
VERTEX
  5
4ee
100
AcDbEntity
  8
3
100
AcDbVertex
100
AcDb2dVertex
 42
-2.2132139E-003
 10
1.3786356E+002
 20
5.9097334E+001
 70
1
  0
VERTEX
  5
4ef
100
AcDbEntity
  8
3
100
AcDbVertex
100
AcDb2dVertex
 42
-7.340039E-004
 10
1.3786218E+002
 20
5.9099066E+001
 70
0
  0
VERTEX
  5
4f0
100
AcDbEntity
  8
3
100
AcDbVertex
100
AcDb2dVertex
 42
-2.1100754E-003
 10
1.3786083E+002
 20
5.9100762E+001
 70
1
  0
VERTEX
  5
4f1
100
AcDbEntity
  8
3
100
AcDbVertex
100
AcDb2dVertex
 42
-2.3397392E-003
 10
1.3785875E+002
 20
5.9103431E+001
 70
0
  0
VERTEX
  5
4f2
100
AcDbEntity
  8
3
100
AcDbVertex
100
AcDb2dVertex
 42
-8.606618E-004
 10
1.3785512E+002
 20
5.9108155E+001
 70
1
  0
VERTEX
  5
4f3
100
AcDbEntity
  8
3
100
AcDbVertex
100
AcDb2dVertex
 42
-4.107236E-004
 10
1.3785011E+002
 20
5.9114712E+001
 70
0
  0
SEQEND
  5
4f4
100
AcDbEntity
  0
LINE
  5
4f5
100
AcDbEntity
  8
3
100
AcDbLine
  6
CONTINUOUS
 62
3
 10
1.3798313E+002
 20
5.9257209E+001
 11
1.3798313E+002
 21
5.9057199E+001
  0
LINE
  5
4f6
100
AcDbEntity
  8
3
100
AcDbLine
  6
CONTINUOUS
 62
3
 10
1.3778312E+002
 20
5.9257209E+001
 11
1.3798313E+002
 21
5.9257209E+001
  0
POLYLINE
  5
4f7
100
AcDbEntity
  8
3
100
AcDb2dPolyline
  6
CONTINUOUS
 62
40
 66
1
 40
7.0E-001
 41
7.0E-001
 70
0
  0
VERTEX
  5
4f8
100
AcDbEntity
  8
3
100
AcDbVertex
100
AcDb2dVertex
 42
4.1421356E-001
 10
1.3778312E+002
 20
5.9257202E+001
 70
0
  0
VERTEX
  5
4f9
100
AcDbEntity
  8
3
100
AcDbVertex
100
AcDb2dVertex
 42
0.0
 10
1.3798312E+002
 20
5.9057202E+001
 70
0
  0
SEQEND
  5
4fa
100
AcDbEntity
  0
LINE
  5
4fb
100
AcDbEntity
  8
3
100
AcDbLine
  6
CONTINUOUS
 62
3
 10
1.3037322E+002
 20
6.2157209E+001
 11
1.3037322E+002
 21
6.235719E+001
  0
LINE
  5
4fc
100
AcDbEntity
  8
3
100
AcDbLine
  6
CONTINUOUS
 62
3
 10
1.3037322E+002
 20
6.235719E+001
 11
1.7537321E+002
 21
6.235719E+001
  0
POLYLINE
  5
4fd
100
AcDbEntity
  8
3
100
AcDb2dPolyline
  6
CONTINUOUS
 62
40
 66
1
 40
7.0E-001
 41
7.0E-001
 70
2
  0
VERTEX
  5
4fe
100
AcDbEntity
  8
3
100
AcDbVertex
100
AcDb2dVertex
 42
0.0
 10
1.1287321E+002
 20
6.235719E+001
 70
0
  0
VERTEX
  5
4ff
100
AcDbEntity
  8
3
100
AcDbVertex
100
AcDb2dVertex
 42
6.148169E-003
 10
1.1287327E+002
 20
6.2352452E+001
 70
1
  0
VERTEX
  5
500
100
AcDbEntity
  8
3
100
AcDbVertex
100
AcDb2dVertex
 42
5.9704359E-003
 10
1.1287344E+002
 20
6.2347676E+001
 70
0
  0
VERTEX
  5
501
100
AcDbEntity
  8
3
100
AcDbVertex
100
AcDb2dVertex
 42
5.9274422E-003
 10
1.1287373E+002
 20
6.2342858E+001
 70
1
  0
VERTEX
  5
502
100
AcDbEntity
  8
3
100
AcDbVertex
100
AcDb2dVertex
 42
6.058833E-003
 10
1.1287414E+002
 20
6.2338005E+001
 70
0
  0
VERTEX
  5
503
100
AcDbEntity
  8
3
100
AcDbVertex
100
AcDb2dVertex
 42
6.1225584E-003
 10
1.1287467E+002
 20
6.2333121E+001
 70
1
  0
VERTEX
  5
504
100
AcDbEntity
  8
3
100
AcDbVertex
100
AcDb2dVertex
 42
6.1696159E-003
 10
1.1287533E+002
 20
6.232821E+001
 70
0
  0
VERTEX
  5
505
100
AcDbEntity
  8
3
100
AcDbVertex
100
AcDb2dVertex
 42
6.2032218E-003
 10
1.1287611E+002
 20
6.2323276E+001
 70
1
  0
VERTEX
  5
506
100
AcDbEntity
  8
3
100
AcDbVertex
100
AcDb2dVertex
 42
6.2684433E-003
 10
1.1287703E+002
 20
6.2318324E+001
 70
0
  0
VERTEX
  5
507
100
AcDbEntity
  8
3
100
AcDbVertex
100
AcDb2dVertex
 42
6.3072574E-003
 10
1.1287808E+002
 20
6.2313359E+001
 70
1
  0
VERTEX
  5
508
100
AcDbEntity
  8
3
100
AcDbVertex
100
AcDb2dVertex
 42
6.3633779E-003
 10
1.1287926E+002
 20
6.2308386E+001
 70
0
  0
VERTEX
  5
509
100
AcDbEntity
  8
3
100
AcDbVertex
100
AcDb2dVertex
 42
6.397893E-003
 10
1.1288059E+002
 20
6.2303409E+001
 70
1
  0
VERTEX
  5
50a
100
AcDbEntity
  8
3
100
AcDbVertex
100
AcDb2dVertex
 42
6.451492E-003
 10
1.1288204E+002
 20
6.2298435E+001
 70
0
  0
VERTEX
  5
50b
100
AcDbEntity
  8
3
100
AcDbVertex
100
AcDb2dVertex
 42
6.4838553E-003
 10
1.1288364E+002
 20
6.2293468E+001
 70
1
  0
VERTEX
  5
50c
100
AcDbEntity
  8
3
100
AcDbVertex
100
AcDb2dVertex
 42
6.5327198E-003
 10
1.1288538E+002
 20
6.2288514E+001
 70
0
  0
VERTEX
  5
50d
100
AcDbEntity
  8
3
100
AcDbVertex
100
AcDb2dVertex
 42
6.5620683E-003
 10
1.1288726E+002
 20
6.228358E+001
 70
1
  0
VERTEX
  5
50e
100
AcDbEntity
  8
3
100
AcDbVertex
100
AcDb2dVertex
 42
6.6062873E-003
 10
1.1288928E+002
 20
6.2278669E+001
 70
0
  0
VERTEX
  5
50f
100
AcDbEntity
  8
3
100
AcDbVertex
100
AcDb2dVertex
 42
6.6325524E-003
 10
1.1289144E+002
 20
6.227379E+001
 70
1
  0
VERTEX
  5
510
100
AcDbEntity
  8
3
100
AcDbVertex
100
AcDb2dVertex
 42
6.6716482E-003
 10
1.1289374E+002
 20
6.2268946E+001
 70
0
  0
VERTEX
  5
511
100
AcDbEntity
  8
3
100
AcDbVertex
100
AcDb2dVertex
 42
6.6945769E-003
 10
1.1289619E+002
 20
6.2264146E+001
 70
1
  0
VERTEX
  5
512
100
AcDbEntity
  8
3
100
AcDbVertex
100
AcDb2dVertex
 42
6.728254E-003
 10
1.1289877E+002
 20
6.2259392E+001
 70
0
  0
VERTEX
  5
513
100
AcDbEntity
  8
3
100
AcDbVertex
100
AcDb2dVertex
 42
6.7476681E-003
 10
1.1290149E+002
 20
6.2254694E+001
 70
1
  0
VERTEX
  5
514
100
AcDbEntity
  8
3
100
AcDbVertex
100
AcDb2dVertex
 42
6.7756347E-003
 10
1.1290434E+002
 20
6.2250054E+001
 70
0
  0
VERTEX
  5
515
100
AcDbEntity
  8
3
100
AcDbVertex
100
AcDb2dVertex
 42
6.7913614E-003
 10
1.1290733E+002
 20
6.2245482E+001
 70
1
  0
VERTEX
  5
516
100
AcDbEntity
  8
3
100
AcDbVertex
100
AcDb2dVertex
 42
6.8133572E-003
 10
1.1291045E+002
 20
6.224098E+001
 70
0
  0
VERTEX
  5
517
100
AcDbEntity
  8
3
100
AcDbVertex
100
AcDb2dVertex
 42
6.8252838E-003
 10
1.1291371E+002
 20
6.2236556E+001
 70
1
  0
VERTEX
  5
518
100
AcDbEntity
  8
3
100
AcDbVertex
100
AcDb2dVertex
 42
6.8411828E-003
 10
1.1291708E+002
 20
6.2232214E+001
 70
0
  0
VERTEX
  5
519
100
AcDbEntity
  8
3
100
AcDbVertex
100
AcDb2dVertex
 42
6.8491134E-003
 10
1.1292059E+002
 20
6.2227961E+001
 70
1
  0
VERTEX
  5
51a
100
AcDbEntity
  8
3
100
AcDbVertex
100
AcDb2dVertex
 42
6.8584872E-003
 10
1.1292421E+002
 20
6.22238E+001
 70
0
  0
VERTEX
  5
51b
100
AcDbEntity
  8
3
100
AcDbVertex
100
AcDb2dVertex
 42
6.8627753E-003
 10
1.1292795E+002
 20
6.221974E+001
 70
1
  0
VERTEX
  5
51c
100
AcDbEntity
  8
3
100
AcDbVertex
100
AcDb2dVertex
 42
6.8668187E-003
 10
1.129318E+002
 20
6.221578E+001
 70
0
  0
VERTEX
  5
51d
100
AcDbEntity
  8
3
100
AcDbVertex
100
AcDb2dVertex
 42
6.867515E-003
 10
1.1293576E+002
 20
6.2211931E+001
 70
1
  0
VERTEX
  5
51e
100
AcDbEntity
  8
3
100
AcDbVertex
100
AcDb2dVertex
 42
6.8650311E-003
 10
1.1293982E+002
 20
6.2208191E+001
 70
0
  0
VERTEX
  5
51f
100
AcDbEntity
  8
3
100
AcDbVertex
100
AcDb2dVertex
 42
6.8612407E-003
 10
1.1294398E+002
 20
6.2204571E+001
 70
1
  0
VERTEX
  5
520
100
AcDbEntity
  8
3
100
AcDbVertex
100
AcDb2dVertex
 42
6.8514593E-003
 10
1.1294823E+002
 20
6.2201067E+001
 70
0
  0
VERTEX
  5
521
100
AcDbEntity
  8
3
100
AcDbVertex
100
AcDb2dVertex
 42
6.8433819E-003
 10
1.1295257E+002
 20
6.219769E+001
 70
1
  0
VERTEX
  5
522
100
AcDbEntity
  8
3
100
AcDbVertex
100
AcDb2dVertex
 42
6.8275649E-003
 10
1.12957E+002
 20
6.2194437E+001
 70
0
  0
VERTEX
  5
523
100
AcDbEntity
  8
3
100
AcDbVertex
100
AcDb2dVertex
 42
6.8155141E-003
 10
1.129615E+002
 20
6.2191316E+001
 70
1
  0
VERTEX
  5
524
100
AcDbEntity
  8
3
100
AcDbVertex
100
AcDb2dVertex
 42
6.7932026E-003
 10
1.1296607E+002
 20
6.2188325E+001
 70
0
  0
VERTEX
  5
525
100
AcDbEntity
  8
3
100
AcDbVertex
100
AcDb2dVertex
 42
6.77768E-003
 10
1.1297071E+002
 20
6.2185471E+001
 70
1
  0
VERTEX
  5
526
100
AcDbEntity
  8
3
100
AcDbVertex
100
AcDb2dVertex
 42
6.7504103E-003
 10
1.1297541E+002
 20
6.2182751E+001
 70
0
  0
VERTEX
  5
527
100
AcDbEntity
  8
3
100
AcDbVertex
100
AcDb2dVertex
 42
6.7298312E-003
 10
1.1298016E+002
 20
6.2180171E+001
 70
1
  0
VERTEX
  5
528
100
AcDbEntity
  8
3
100
AcDbVertex
100
AcDb2dVertex
 42
6.693268E-003
 10
1.1298497E+002
 20
6.2177728E+001
 70
0
  0
VERTEX
  5
529
100
AcDbEntity
  8
3
100
AcDbVertex
100
AcDb2dVertex
 42
6.674077E-003
 10
1.1298981E+002
 20
6.2175428E+001
 70
1
  0
VERTEX
  5
52a
100
AcDbEntity
  8
3
100
AcDbVertex
100
AcDb2dVertex
 42
6.6446597E-003
 10
1.1299469E+002
 20
6.2173266E+001
 70
0
  0
VERTEX
  5
52b
100
AcDbEntity
  8
3
100
AcDbVertex
100
AcDb2dVertex
 42
6.6046733E-003
 10
1.129996E+002
 20
6.2171248E+001
 70
1
  0
VERTEX
  5
52c
100
AcDbEntity
  8
3
100
AcDbVertex
100
AcDb2dVertex
 42
6.5265653E-003
 10
1.1300454E+002
 20
6.2169368E+001
 70
0
  0
VERTEX
  5
52d
100
AcDbEntity
  8
3
100
AcDbVertex
100
AcDb2dVertex
 42
6.5445596E-003
 10
1.1300949E+002
 20
6.2167631E+001
 70
1
  0
VERTEX
  5
52e
100
AcDbEntity
  8
3
100
AcDbVertex
100
AcDb2dVertex
 42
6.60914E-003
 10
1.1301446E+002
 20
6.2166032E+001
 70
0
  0
VERTEX
  5
52f
100
AcDbEntity
  8
3
100
AcDbVertex
100
AcDb2dVertex
 42
6.4149384E-003
 10
1.1301944E+002
 20
6.2164575E+001
 70
1
  0
VERTEX
  5
530
100
AcDbEntity
  8
3
100
AcDbVertex
100
AcDb2dVertex
 42
5.9898778E-003
 10
1.1302441E+002
 20
6.2163253E+001
 70
0
  0
VERTEX
  5
531
100
AcDbEntity
  8
3
100
AcDbVertex
100
AcDb2dVertex
 42
6.4954407E-003
 10
1.1302935E+002
 20
6.2162071E+001
 70
1
  0
VERTEX
  5
532
100
AcDbEntity
  8
3
100
AcDbVertex
100
AcDb2dVertex
 42
7.5604052E-003
 10
1.1303435E+002
 20
6.216102E+001
 70
0
  0
VERTEX
  5
533
100
AcDbEntity
  8
3
100
AcDbVertex
100
AcDb2dVertex
 42
5.8504274E-003
 10
1.1303945E+002
 20
6.2160101E+001
 70
1
  0
VERTEX
  5
534
100
AcDbEntity
  8
3
100
AcDbVertex
100
AcDb2dVertex
 42
2.3088672E-003
 10
1.1304424E+002
 20
6.2159318E+001
 70
0
  0
VERTEX
  5
535
100
AcDbEntity
  8
3
100
AcDbVertex
100
AcDb2dVertex
 42
7.8956276E-003
 10
1.1304856E+002
 20
6.2158677E+001
 70
1
  0
VERTEX
  5
536
100
AcDbEntity
  8
3
100
AcDbVertex
100
AcDb2dVertex
 42
1.3360851E-002
 10
1.1305404E+002
 20
6.215813E+001
 70
0
  0
VERTEX
  5
537
100
AcDbEntity
  8
3
100
AcDbVertex
100
AcDb2dVertex
 42
6.6974494E-003
 10
1.1306237E+002
 20
6.2157639E+001
 70
1
  0
VERTEX
  5
538
100
AcDbEntity
  8
3
100
AcDbVertex
100
AcDb2dVertex
 42
3.6321888E-003
 10
1.1307322E+002
 20
6.2157209E+001
 70
0
  0
SEQEND
  5
539
100
AcDbEntity
  0
LINE
  5
53a
100
AcDbEntity
  8
3
100
AcDbLine
  6
CONTINUOUS
 62
3
 10
1.1287321E+002
 20
6.235719E+001
 11
1.3037322E+002
 21
6.235719E+001
  0
LINE
  5
53b
100
AcDbEntity
  8
3
100
AcDbLine
  6
CONTINUOUS
 62
3
 10
1.3137321E+002
 20
6.1457203E+001
 11
1.3137321E+002
 21
6.1657213E+001
  0
LINE
  5
53c
100
AcDbEntity
  8
3
100
AcDbLine
  6
CONTINUOUS
 62
3
 10
1.3137321E+002
 20
6.1657213E+001
 11
1.7737323E+002
 21
6.1657213E+001
  0
POLYLINE
  5
53d
100
AcDbEntity
  8
3
100
AcDb2dPolyline
  6
CONTINUOUS
 62
40
 66
1
 40
7.0E-001
 41
7.0E-001
 70
2
  0
VERTEX
  5
53e
100
AcDbEntity
  8
3
100
AcDbVertex
100
AcDb2dVertex
 42
0.0
 10
1.1787323E+002
 20
6.1657213E+001
 70
0
  0
VERTEX
  5
53f
100
AcDbEntity
  8
3
100
AcDbVertex
100
AcDb2dVertex
 42
6.147953E-003
 10
1.1787329E+002
 20
6.1652474E+001
 70
1
  0
VERTEX
  5
540
100
AcDbEntity
  8
3
100
AcDbVertex
100
AcDb2dVertex
 42
5.9703734E-003
 10
1.1787346E+002
 20
6.1647696E+001
 70
0
  0
VERTEX
  5
541
100
AcDbEntity
  8
3
100
AcDbVertex
100
AcDb2dVertex
 42
5.9275296E-003
 10
1.1787375E+002
 20
6.1642877E+001
 70
1
  0
VERTEX
  5
542
100
AcDbEntity
  8
3
100
AcDbVertex
100
AcDb2dVertex
 42
6.05907E-003
 10
1.1787415E+002
 20
6.1638023E+001
 70
0
  0
VERTEX
  5
543
100
AcDbEntity
  8
3
100
AcDbVertex
100
AcDb2dVertex
 42
6.1229558E-003
 10
1.1787468E+002
 20
6.1633137E+001
 70
1
  0
VERTEX
  5
544
100
AcDbEntity
  8
3
100
AcDbVertex
100
AcDb2dVertex
 42
6.1701691E-003
 10
1.1787534E+002
 20
6.1628225E+001
 70
0
  0
VERTEX
  5
545
100
AcDbEntity
  8
3
100
AcDbVertex
100
AcDb2dVertex
 42
6.2039379E-003
 10
1.1787613E+002
 20
6.162329E+001
 70
1
  0
VERTEX
  5
546
100
AcDbEntity
  8
3
100
AcDbVertex
100
AcDb2dVertex
 42
6.2693213E-003
 10
1.1787704E+002
 20
6.1618337E+001
 70
0
  0
VERTEX
  5
547
100
AcDbEntity
  8
3
100
AcDbVertex
100
AcDb2dVertex
 42
6.308302E-003
 10
1.1787809E+002
 20
6.1613371E+001
 70
1
  0
VERTEX
  5
548
100
AcDbEntity
  8
3
100
AcDbVertex
100
AcDb2dVertex
 42
6.364586E-003
 10
1.1787927E+002
 20
6.1608397E+001
 70
0
  0
VERTEX
  5
549
100
AcDbEntity
  8
3
100
AcDbVertex
100
AcDb2dVertex
 42
6.3992676E-003
 10
1.1788059E+002
 20
6.1603419E+001
 70
1
  0
VERTEX
  5
54a
100
AcDbEntity
  8
3
100
AcDbVertex
100
AcDb2dVertex
 42
6.4530299E-003
 10
1.1788205E+002
 20
6.1598444E+001
 70
0
  0
VERTEX
  5
54b
100
AcDbEntity
  8
3
100
AcDbVertex
100
AcDb2dVertex
 42
6.485557E-003
 10
1.1788365E+002
 20
6.1593476E+001
 70
1
  0
VERTEX
  5
54c
100
AcDbEntity
  8
3
100
AcDbVertex
100
AcDb2dVertex
 42
6.5345813E-003
 10
1.1788539E+002
 20
6.1588521E+001
 70
0
  0
VERTEX
  5
54d
100
AcDbEntity
  8
3
100
AcDbVertex
100
AcDb2dVertex
 42
6.564088E-003
 10
1.1788727E+002
 20
6.1583586E+001
 70
1
  0
VERTEX
  5
54e
100
AcDbEntity
  8
3
100
AcDbVertex
100
AcDb2dVertex
 42
6.6084607E-003
 10
1.1788928E+002
 20
6.1578675E+001
 70
0
  0
VERTEX
  5
54f
100
AcDbEntity
  8
3
100
AcDbVertex
100
AcDb2dVertex
 42
6.6348751E-003
 10
1.1789145E+002
 20
6.1573795E+001
 70
1
  0
VERTEX
  5
550
100
AcDbEntity
  8
3
100
AcDbVertex
100
AcDb2dVertex
 42
6.6741142E-003
 10
1.1789375E+002
 20
6.156895E+001
 70
0
  0
VERTEX
  5
551
100
AcDbEntity
  8
3
100
AcDbVertex
100
AcDb2dVertex
 42
6.6971812E-003
 10
1.1789619E+002
 20
6.1564149E+001
 70
1
  0
VERTEX
  5
552
100
AcDbEntity
  8
3
100
AcDbVertex
100
AcDb2dVertex
 42
6.7309911E-003
 10
1.1789877E+002
 20
6.1559395E+001
 70
0
  0
VERTEX
  5
553
100
AcDbEntity
  8
3
100
AcDbVertex
100
AcDb2dVertex
 42
6.7505263E-003
 10
1.1790149E+002
 20
6.1554696E+001
 70
1
  0
VERTEX
  5
554
100
AcDbEntity
  8
3
100
AcDbVertex
100
AcDb2dVertex
 42
6.7786011E-003
 10
1.1790434E+002
 20
6.1550056E+001
 70
0
  0
VERTEX
  5
555
100
AcDbEntity
  8
3
100
AcDbVertex
100
AcDb2dVertex
 42
6.7944431E-003
 10
1.1790733E+002
 20
6.1545483E+001
 70
1
  0
VERTEX
  5
556
100
AcDbEntity
  8
3
100
AcDbVertex
100
AcDb2dVertex
 42
6.8165631E-003
 10
1.1791045E+002
 20
6.1540981E+001
 70
0
  0
VERTEX
  5
557
100
AcDbEntity
  8
3
100
AcDbVertex
100
AcDb2dVertex
 42
6.8285406E-003
 10
1.1791371E+002
 20
6.1536557E+001
 70
1
  0
VERTEX
  5
558
100
AcDbEntity
  8
3
100
AcDbVertex
100
AcDb2dVertex
 42
6.8444064E-003
 10
1.1791708E+002
 20
6.1532214E+001
 70
0
  0
VERTEX
  5
559
100
AcDbEntity
  8
3
100
AcDbVertex
100
AcDb2dVertex
 42
6.8525443E-003
 10
1.1792059E+002
 20
6.1527962E+001
 70
1
  0
VERTEX
  5
55a
100
AcDbEntity
  8
3
100
AcDbVertex
100
AcDb2dVertex
 42
6.862405E-003
 10
1.1792421E+002
 20
6.1523801E+001
 70
0
  0
VERTEX
  5
55b
100
AcDbEntity
  8
3
100
AcDbVertex
100
AcDb2dVertex
 42
6.8660297E-003
 10
1.1792795E+002
 20
6.151974E+001
 70
1
  0
VERTEX
  5
55c
100
AcDbEntity
  8
3
100
AcDbVertex
100
AcDb2dVertex
 42
6.8680642E-003
 10
1.179318E+002
 20
6.151578E+001
 70
0
  0
VERTEX
  5
55d
100
AcDbEntity
  8
3
100
AcDbVertex
100
AcDb2dVertex
 42
6.8673683E-003
 10
1.1793576E+002
 20
6.1511931E+001
 70
1
  0
VERTEX
  5
55e
100
AcDbEntity
  8
3
100
AcDbVertex
100
AcDb2dVertex
 42
6.8637711E-003
 10
1.1793982E+002
 20
6.1508191E+001
 70
0
  0
VERTEX
  5
55f
100
AcDbEntity
  8
3
100
AcDbVertex
100
AcDb2dVertex
 42
6.8596238E-003
 10
1.1794398E+002
 20
6.1504571E+001
 70
1
  0
VERTEX
  5
560
100
AcDbEntity
  8
3
100
AcDbVertex
100
AcDb2dVertex
 42
6.8501294E-003
 10
1.1794823E+002
 20
6.1501067E+001
 70
0
  0
VERTEX
  5
561
100
AcDbEntity
  8
3
100
AcDbVertex
100
AcDb2dVertex
 42
6.8421729E-003
 10
1.1795257E+002
 20
6.149769E+001
 70
1
  0
VERTEX
  5
562
100
AcDbEntity
  8
3
100
AcDbVertex
100
AcDb2dVertex
 42
6.8263338E-003
 10
1.17957E+002
 20
6.1494437E+001
 70
0
  0
VERTEX
  5
563
100
AcDbEntity
  8
3
100
AcDbVertex
100
AcDb2dVertex
 42
6.8143084E-003
 10
1.179615E+002
 20
6.1491316E+001
 70
1
  0
VERTEX
  5
564
100
AcDbEntity
  8
3
100
AcDbVertex
100
AcDb2dVertex
 42
6.7920621E-003
 10
1.1796607E+002
 20
6.1488324E+001
 70
0
  0
VERTEX
  5
565
100
AcDbEntity
  8
3
100
AcDbVertex
100
AcDb2dVertex
 42
6.7765979E-003
 10
1.1797071E+002
 20
6.148547E+001
 70
1
  0
VERTEX
  5
566
100
AcDbEntity
  8
3
100
AcDbVertex
100
AcDb2dVertex
 42
6.74938E-003
 10
1.1797541E+002
 20
6.148275E+001
 70
0
  0
VERTEX
  5
567
100
AcDbEntity
  8
3
100
AcDbVertex
100
AcDb2dVertex
 42
6.7288589E-003
 10
1.1798016E+002
 20
6.148017E+001
 70
1
  0
VERTEX
  5
568
100
AcDbEntity
  8
3
100
AcDbVertex
100
AcDb2dVertex
 42
6.6923581E-003
 10
1.1798496E+002
 20
6.1477727E+001
 70
0
  0
VERTEX
  5
569
100
AcDbEntity
  8
3
100
AcDbVertex
100
AcDb2dVertex
 42
6.6732307E-003
 10
1.1798981E+002
 20
6.1475427E+001
 70
1
  0
VERTEX
  5
56a
100
AcDbEntity
  8
3
100
AcDbVertex
100
AcDb2dVertex
 42
6.643877E-003
 10
1.1799469E+002
 20
6.1473264E+001
 70
0
  0
VERTEX
  5
56b
100
AcDbEntity
  8
3
100
AcDbVertex
100
AcDb2dVertex
 42
6.6039598E-003
 10
1.179996E+002
 20
6.1471246E+001
 70
1
  0
VERTEX
  5
56c
100
AcDbEntity
  8
3
100
AcDbVertex
100
AcDb2dVertex
 42
6.5259227E-003
 10
1.1800453E+002
 20
6.1469366E+001
 70
0
  0
VERTEX
  5
56d
100
AcDbEntity
  8
3
100
AcDbVertex
100
AcDb2dVertex
 42
6.5439817E-003
 10
1.1800948E+002
 20
6.1467629E+001
 70
1
  0
VERTEX
  5
56e
100
AcDbEntity
  8
3
100
AcDbVertex
100
AcDb2dVertex
 42
6.608623E-003
 10
1.1801445E+002
 20
6.146603E+001
 70
0
  0
VERTEX
  5
56f
100
AcDbEntity
  8
3
100
AcDbVertex
100
AcDb2dVertex
 42
6.4145053E-003
 10
1.1801944E+002
 20
6.1464572E+001
 70
1
  0
VERTEX
  5
570
100
AcDbEntity
  8
3
100
AcDbVertex
100
AcDb2dVertex
 42
5.9895326E-003
 10
1.1802441E+002
 20
6.146325E+001
 70
0
  0
VERTEX
  5
571
100
AcDbEntity
  8
3
100
AcDbVertex
100
AcDb2dVertex
 42
6.495133E-003
 10
1.1802934E+002
 20
6.1462068E+001
 70
1
  0
VERTEX
  5
572
100
AcDbEntity
  8
3
100
AcDbVertex
100
AcDb2dVertex
 42
7.5601346E-003
 10
1.1803434E+002
 20
6.1461016E+001
 70
0
  0
VERTEX
  5
573
100
AcDbEntity
  8
3
100
AcDbVertex
100
AcDb2dVertex
 42
5.8502892E-003
 10
1.1803945E+002
 20
6.1460097E+001
 70
1
  0
VERTEX
  5
574
100
AcDbEntity
  8
3
100
AcDbVertex
100
AcDb2dVertex
 42
2.3088282E-003
 10
1.1804423E+002
 20
6.1459314E+001
 70
0
  0
VERTEX
  5
575
100
AcDbEntity
  8
3
100
AcDbVertex
100
AcDb2dVertex
 42
7.8955432E-003
 10
1.1804855E+002
 20
6.1458672E+001
 70
1
  0
VERTEX
  5
576
100
AcDbEntity
  8
3
100
AcDbVertex
100
AcDb2dVertex
 42
1.3360972E-002
 10
1.1805403E+002
 20
6.1458125E+001
 70
0
  0
VERTEX
  5
577
100
AcDbEntity
  8
3
100
AcDbVertex
100
AcDb2dVertex
 42
6.6976272E-003
 10
1.1806236E+002
 20
6.1457634E+001
 70
1
  0
VERTEX
  5
578
100
AcDbEntity
  8
3
100
AcDbVertex
100
AcDb2dVertex
 42
3.632315E-003
 10
1.1807321E+002
 20
6.1457203E+001
 70
0
  0
SEQEND
  5
579
100
AcDbEntity
  0
LINE
  5
57a
100
AcDbEntity
  8
3
100
AcDbLine
  6
CONTINUOUS
 62
3
 10
1.1787323E+002
 20
6.1657213E+001
 11
1.3137321E+002
 21
6.1657213E+001
  0
LINE
  5
57b
100
AcDbEntity
  8
3
100
AcDbLine
  6
CONTINUOUS
 62
3
 10
1.323732E+002
 20
6.0757197E+001
 11
1.323732E+002
 21
6.0957207E+001
  0
LINE
  5
57c
100
AcDbEntity
  8
3
100
AcDbLine
  6
CONTINUOUS
 62
3
 10
1.323732E+002
 20
6.0957207E+001
 11
1.7939646E+002
 21
6.0957207E+001
  0
POLYLINE
  5
57d
100
AcDbEntity
  8
3
100
AcDb2dPolyline
  6
CONTINUOUS
 62
40
 66
1
 40
7.0E-001
 41
7.0E-001
 70
2
  0
VERTEX
  5
57e
100
AcDbEntity
  8
3
100
AcDbVertex
100
AcDb2dVertex
 42
0.0
 10
1.2237323E+002
 20
6.0957207E+001
 70
0
  0
VERTEX
  5
57f
100
AcDbEntity
  8
3
100
AcDbVertex
100
AcDb2dVertex
 42
6.1478876E-003
 10
1.2237328E+002
 20
6.0952468E+001
 70
1
  0
VERTEX
  5
580
100
AcDbEntity
  8
3
100
AcDbVertex
100
AcDb2dVertex
 42
5.9702657E-003
 10
1.2237345E+002
 20
6.0947691E+001
 70
0
  0
VERTEX
  5
581
100
AcDbEntity
  8
3
100
AcDbVertex
100
AcDb2dVertex
 42
5.927378E-003
 10
1.2237374E+002
 20
6.0942872E+001
 70
1
  0
VERTEX
  5
582
100
AcDbEntity
  8
3
100
AcDbVertex
100
AcDb2dVertex
 42
6.0588712E-003
 10
1.2237415E+002
 20
6.0938018E+001
 70
0
  0
VERTEX
  5
583
100
AcDbEntity
  8
3
100
AcDbVertex
100
AcDb2dVertex
 42
6.1227084E-003
 10
1.2237468E+002
 20
6.0933133E+001
 70
1
  0
VERTEX
  5
584
100
AcDbEntity
  8
3
100
AcDbVertex
100
AcDb2dVertex
 42
6.1698753E-003
 10
1.2237533E+002
 20
6.0928221E+001
 70
0
  0
VERTEX
  5
585
100
AcDbEntity
  8
3
100
AcDbVertex
100
AcDb2dVertex
 42
6.203596E-003
 10
1.2237612E+002
 20
6.0923286E+001
 70
1
  0
VERTEX
  5
586
100
AcDbEntity
  8
3
100
AcDbVertex
100
AcDb2dVertex
 42
6.2689314E-003
 10
1.2237704E+002
 20
6.0918334E+001
 70
0
  0
VERTEX
  5
587
100
AcDbEntity
  8
3
100
AcDbVertex
100
AcDb2dVertex
 42
6.3078637E-003
 10
1.2237809E+002
 20
6.0913368E+001
 70
1
  0
VERTEX
  5
588
100
AcDbEntity
  8
3
100
AcDbVertex
100
AcDb2dVertex
 42
6.3641E-003
 10
1.2237927E+002
 20
6.0908394E+001
 70
0
  0
VERTEX
  5
589
100
AcDbEntity
  8
3
100
AcDbVertex
100
AcDb2dVertex
 42
6.398734E-003
 10
1.2238059E+002
 20
6.0903416E+001
 70
1
  0
VERTEX
  5
58a
100
AcDbEntity
  8
3
100
AcDbVertex
100
AcDb2dVertex
 42
6.4524496E-003
 10
1.2238205E+002
 20
6.0898441E+001
 70
0
  0
VERTEX
  5
58b
100
AcDbEntity
  8
3
100
AcDbVertex
100
AcDb2dVertex
 42
6.4849307E-003
 10
1.2238365E+002
 20
6.0893474E+001
 70
1
  0
VERTEX
  5
58c
100
AcDbEntity
  8
3
100
AcDbVertex
100
AcDb2dVertex
 42
6.5339101E-003
 10
1.2238538E+002
 20
6.088852E+001
 70
0
  0
VERTEX
  5
58d
100
AcDbEntity
  8
3
100
AcDbVertex
100
AcDb2dVertex
 42
6.5633733E-003
 10
1.2238726E+002
 20
6.0883584E+001
 70
1
  0
VERTEX
  5
58e
100
AcDbEntity
  8
3
100
AcDbVertex
100
AcDb2dVertex
 42
6.6077039E-003
 10
1.2238928E+002
 20
6.0878673E+001
 70
0
  0
VERTEX
  5
58f
100
AcDbEntity
  8
3
100
AcDbVertex
100
AcDb2dVertex
 42
6.6340783E-003
 10
1.2239144E+002
 20
6.0873794E+001
 70
1
  0
VERTEX
  5
590
100
AcDbEntity
  8
3
100
AcDbVertex
100
AcDb2dVertex
 42
6.6732791E-003
 10
1.2239374E+002
 20
6.0868949E+001
 70
0
  0
VERTEX
  5
591
100
AcDbEntity
  8
3
100
AcDbVertex
100
AcDb2dVertex
 42
6.6963102E-003
 10
1.2239619E+002
 20
6.0864148E+001
 70
1
  0
VERTEX
  5
592
100
AcDbEntity
  8
3
100
AcDbVertex
100
AcDb2dVertex
 42
6.730086E-003
 10
1.2239877E+002
 20
6.0859394E+001
 70
0
  0
VERTEX
  5
593
100
AcDbEntity
  8
3
100
AcDbVertex
100
AcDb2dVertex
 42
6.749591E-003
 10
1.2240149E+002
 20
6.0854695E+001
 70
1
  0
VERTEX
  5
594
100
AcDbEntity
  8
3
100
AcDbVertex
100
AcDb2dVertex
 42
6.7776389E-003
 10
1.2240434E+002
 20
6.0850055E+001
 70
0
  0
VERTEX
  5
595
100
AcDbEntity
  8
3
100
AcDbVertex
100
AcDb2dVertex
 42
6.7934539E-003
 10
1.2240733E+002
 20
6.0845483E+001
 70
1
  0
VERTEX
  5
596
100
AcDbEntity
  8
3
100
AcDbVertex
100
AcDb2dVertex
 42
6.8155459E-003
 10
1.2241045E+002
 20
6.084098E+001
 70
0
  0
VERTEX
  5
597
100
AcDbEntity
  8
3
100
AcDbVertex
100
AcDb2dVertex
 42
6.8275123E-003
 10
1.2241371E+002
 20
6.0836557E+001
 70
1
  0
VERTEX
  5
598
100
AcDbEntity
  8
3
100
AcDbVertex
100
AcDb2dVertex
 42
6.8433856E-003
 10
1.2241708E+002
 20
6.0832214E+001
 70
0
  0
VERTEX
  5
599
100
AcDbEntity
  8
3
100
AcDbVertex
100
AcDb2dVertex
 42
6.8514819E-003
 10
1.2242059E+002
 20
6.0827962E+001
 70
1
  0
VERTEX
  5
59a
100
AcDbEntity
  8
3
100
AcDbVertex
100
AcDb2dVertex
 42
6.8612437E-003
 10
1.2242421E+002
 20
6.0823801E+001
 70
0
  0
VERTEX
  5
59b
100
AcDbEntity
  8
3
100
AcDbVertex
100
AcDb2dVertex
 42
6.8650248E-003
 10
1.2242795E+002
 20
6.081974E+001
 70
1
  0
VERTEX
  5
59c
100
AcDbEntity
  8
3
100
AcDbVertex
100
AcDb2dVertex
 42
6.8675112E-003
 10
1.224318E+002
 20
6.081578E+001
 70
0
  0
VERTEX
  5
59d
100
AcDbEntity
  8
3
100
AcDbVertex
100
AcDb2dVertex
 42
6.8668163E-003
 10
1.2243576E+002
 20
6.0811931E+001
 70
1
  0
VERTEX
  5
59e
100
AcDbEntity
  8
3
100
AcDbVertex
100
AcDb2dVertex
 42
6.8627707E-003
 10
1.2243982E+002
 20
6.0808191E+001
 70
0
  0
VERTEX
  5
59f
100
AcDbEntity
  8
3
100
AcDbVertex
100
AcDb2dVertex
 42
6.8584713E-003
 10
1.2244398E+002
 20
6.080457E+001
 70
1
  0
VERTEX
  5
5a0
100
AcDbEntity
  8
3
100
AcDbVertex
100
AcDb2dVertex
 42
6.8490792E-003
 10
1.2244823E+002
 20
6.0801067E+001
 70
0
  0
VERTEX
  5
5a1
100
AcDbEntity
  8
3
100
AcDbVertex
100
AcDb2dVertex
 42
6.8411678E-003
 10
1.2245257E+002
 20
6.079769E+001
 70
1
  0
VERTEX
  5
5a2
100
AcDbEntity
  8
3
100
AcDbVertex
100
AcDb2dVertex
 42
6.825325E-003
 10
1.22457E+002
 20
6.0794436E+001
 70
0
  0
VERTEX
  5
5a3
100
AcDbEntity
  8
3
100
AcDbVertex
100
AcDb2dVertex
 42
6.8133143E-003
 10
1.224615E+002
 20
6.0791315E+001
 70
1
  0
VERTEX
  5
5a4
100
AcDbEntity
  8
3
100
AcDbVertex
100
AcDb2dVertex
 42
6.7910992E-003
 10
1.2246607E+002
 20
6.0788324E+001
 70
0
  0
VERTEX
  5
5a5
100
AcDbEntity
  8
3
100
AcDbVertex
100
AcDb2dVertex
 42
6.7756651E-003
 10
1.2247071E+002
 20
6.078547E+001
 70
1
  0
VERTEX
  5
5a6
100
AcDbEntity
  8
3
100
AcDbVertex
100
AcDb2dVertex
 42
6.748477E-003
 10
1.2247541E+002
 20
6.0782749E+001
 70
0
  0
VERTEX
  5
5a7
100
AcDbEntity
  8
3
100
AcDbVertex
100
AcDb2dVertex
 42
6.7279894E-003
 10
1.2248016E+002
 20
6.0780169E+001
 70
1
  0
VERTEX
  5
5a8
100
AcDbEntity
  8
3
100
AcDbVertex
100
AcDb2dVertex
 42
6.691526E-003
 10
1.2248496E+002
 20
6.0777726E+001
 70
0
  0
VERTEX
  5
5a9
100
AcDbEntity
  8
3
100
AcDbVertex
100
AcDb2dVertex
 42
6.6724368E-003
 10
1.2248981E+002
 20
6.0775425E+001
 70
1
  0
VERTEX
  5
5aa
100
AcDbEntity
  8
3
100
AcDbVertex
100
AcDb2dVertex
 42
6.6431228E-003
 10
1.2249469E+002
 20
6.0773263E+001
 70
0
  0
VERTEX
  5
5ab
100
AcDbEntity
  8
3
100
AcDbVertex
100
AcDb2dVertex
 42
6.6032494E-003
 10
1.224996E+002
 20
6.0771244E+001
 70
1
  0
VERTEX
  5
5ac
100
AcDbEntity
  8
3
100
AcDbVertex
100
AcDb2dVertex
 42
6.5252598E-003
 10
1.2250453E+002
 20
6.0769364E+001
 70
0
  0
VERTEX
  5
5ad
100
AcDbEntity
  8
3
100
AcDbVertex
100
AcDb2dVertex
 42
6.5433593E-003
 10
1.2250948E+002
 20
6.0767627E+001
 70
1
  0
VERTEX
  5
5ae
100
AcDbEntity
  8
3
100
AcDbVertex
100
AcDb2dVertex
 42
6.6080378E-003
 10
1.2251445E+002
 20
6.0766027E+001
 70
0
  0
VERTEX
  5
5af
100
AcDbEntity
  8
3
100
AcDbVertex
100
AcDb2dVertex
 42
6.4139823E-003
 10
1.2251944E+002
 20
6.0764569E+001
 70
1
  0
VERTEX
  5
5b0
100
AcDbEntity
  8
3
100
AcDbVertex
100
AcDb2dVertex
 42
5.9890837E-003
 10
1.225244E+002
 20
6.0763247E+001
 70
0
  0
VERTEX
  5
5b1
100
AcDbEntity
  8
3
100
AcDbVertex
100
AcDb2dVertex
 42
6.4946913E-003
 10
1.2252934E+002
 20
6.0762065E+001
 70
1
  0
VERTEX
  5
5b2
100
AcDbEntity
  8
3
100
AcDbVertex
100
AcDb2dVertex
 42
7.5596802E-003
 10
1.2253434E+002
 20
6.0761013E+001
 70
0
  0
VERTEX
  5
5b3
100
AcDbEntity
  8
3
100
AcDbVertex
100
AcDb2dVertex
 42
5.8499871E-003
 10
1.2253944E+002
 20
6.0760093E+001
 70
1
  0
VERTEX
  5
5b4
100
AcDbEntity
  8
3
100
AcDbVertex
100
AcDb2dVertex
 42
2.30872E-003
 10
1.2254423E+002
 20
6.075931E+001
 70
0
  0
VERTEX
  5
5b5
100
AcDbEntity
  8
3
100
AcDbVertex
100
AcDb2dVertex
 42
7.8952077E-003
 10
1.2254855E+002
 20
6.0758668E+001
 70
1
  0
VERTEX
  5
5b6
100
AcDbEntity
  8
3
100
AcDbVertex
100
AcDb2dVertex
 42
1.3360593E-002
 10
1.2255402E+002
 20
6.075812E+001
 70
0
  0
VERTEX
  5
5b7
100
AcDbEntity
  8
3
100
AcDbVertex
100
AcDb2dVertex
 42
6.6975231E-003
 10
1.2256235E+002
 20
6.0757629E+001
 70
1
  0
VERTEX
  5
5b8
100
AcDbEntity
  8
3
100
AcDbVertex
100
AcDb2dVertex
 42
3.6322806E-003
 10
1.2257321E+002
 20
6.0757197E+001
 70
0
  0
SEQEND
  5
5b9
100
AcDbEntity
  0
LINE
  5
5ba
100
AcDbEntity
  8
3
100
AcDbLine
  6
CONTINUOUS
 62
3
 10
1.2237323E+002
 20
6.0957207E+001
 11
1.323732E+002
 21
6.0957207E+001
  0
LINE
  5
5bb
100
AcDbEntity
  8
3
100
AcDbLine
  6
CONTINUOUS
 62
3
 10
1.3337323E+002
 20
6.0057191E+001
 11
1.3337323E+002
 21
6.0257201E+001
  0
SPLINE
  5
5bc
100
AcDbEntity
  8
3
100
AcDbSpline
  6
CONTINUOUS
 62
40
210
0.0
220
0.0
230
0.0
 70
0
 71
3
 72
8
 73
4
 74
0
 42
1.0E-007
 43
1.0E-007
 44
0.0
 40
0.0
 40
0.0
 40
0.0
 40
0.0
 40
3.778329E-004
 40
3.778329E-004
 40
3.778329E-004
 40
3.778329E-004
 10
1.3798313E+002
 20
6.0257201E+001
 30
0.0
 10
1.3789664E+002
 20
6.0175352E+001
 30
0.0
 10
1.3778583E+002
 20
6.00692E+001
 30
0.0
 10
1.3778211E+002
 20
6.0057191E+001
 30
0.0
  0
LINE
  5
5bd
100
AcDbEntity
  8
3
100
AcDbLine
  6
CONTINUOUS
 62
3
 10
1.3337323E+002
 20
6.0257201E+001
 11
1.3798313E+002
 21
6.0257201E+001
  0
POLYLINE
  5
5be
100
AcDbEntity
  8
3
100
AcDb2dPolyline
  6
CONTINUOUS
 62
40
 66
1
 40
7.0E-001
 41
7.0E-001
 70
2
  0
VERTEX
  5
5bf
100
AcDbEntity
  8
3
100
AcDbVertex
100
AcDb2dVertex
 42
0.0
 10
1.2687322E+002
 20
6.0257201E+001
 70
0
  0
VERTEX
  5
5c0
100
AcDbEntity
  8
3
100
AcDbVertex
100
AcDb2dVertex
 42
6.147822E-003
 10
1.2687328E+002
 20
6.0252462E+001
 70
1
  0
VERTEX
  5
5c1
100
AcDbEntity
  8
3
100
AcDbVertex
100
AcDb2dVertex
 42
5.9701577E-003
 10
1.2687345E+002
 20
6.0247685E+001
 70
0
  0
VERTEX
  5
5c2
100
AcDbEntity
  8
3
100
AcDbVertex
100
AcDb2dVertex
 42
5.9272262E-003
 10
1.2687373E+002
 20
6.0242867E+001
 70
1
  0
VERTEX
  5
5c3
100
AcDbEntity
  8
3
100
AcDbVertex
100
AcDb2dVertex
 42
6.0586723E-003
 10
1.2687414E+002
 20
6.0238014E+001
 70
0
  0
VERTEX
  5
5c4
100
AcDbEntity
  8
3
100
AcDbVertex
100
AcDb2dVertex
 42
6.122461E-003
 10
1.2687467E+002
 20
6.0233129E+001
 70
1
  0
VERTEX
  5
5c5
100
AcDbEntity
  8
3
100
AcDbVertex
100
AcDb2dVertex
 42
6.1695812E-003
 10
1.2687533E+002
 20
6.0228217E+001
 70
0
  0
VERTEX
  5
5c6
100
AcDbEntity
  8
3
100
AcDbVertex
100
AcDb2dVertex
 42
6.203254E-003
 10
1.2687612E+002
 20
6.0223283E+001
 70
1
  0
VERTEX
  5
5c7
100
AcDbEntity
  8
3
100
AcDbVertex
100
AcDb2dVertex
 42
6.2685413E-003
 10
1.2687703E+002
 20
6.021833E+001
 70
0
  0
VERTEX
  5
5c8
100
AcDbEntity
  8
3
100
AcDbVertex
100
AcDb2dVertex
 42
6.3074251E-003
 10
1.2687808E+002
 20
6.0213365E+001
 70
1
  0
VERTEX
  5
5c9
100
AcDbEntity
  8
3
100
AcDbVertex
100
AcDb2dVertex
 42
6.3636139E-003
 10
1.2687927E+002
 20
6.0208391E+001
 70
0
  0
VERTEX
  5
5ca
100
AcDbEntity
  8
3
100
AcDbVertex
100
AcDb2dVertex
 42
6.3982002E-003
 10
1.2688059E+002
 20
6.0203414E+001
 70
1
  0
VERTEX
  5
5cb
100
AcDbEntity
  8
3
100
AcDbVertex
100
AcDb2dVertex
 42
6.451869E-003
 10
1.2688205E+002
 20
6.0198439E+001
 70
0
  0
VERTEX
  5
5cc
100
AcDbEntity
  8
3
100
AcDbVertex
100
AcDb2dVertex
 42
6.4843041E-003
 10
1.2688365E+002
 20
6.0193472E+001
 70
1
  0
VERTEX
  5
5cd
100
AcDbEntity
  8
3
100
AcDbVertex
100
AcDb2dVertex
 42
6.5332388E-003
 10
1.2688538E+002
 20
6.0188518E+001
 70
0
  0
VERTEX
  5
5ce
100
AcDbEntity
  8
3
100
AcDbVertex
100
AcDb2dVertex
 42
6.5626586E-003
 10
1.2688726E+002
 20
6.0183583E+001
 70
1
  0
VERTEX
  5
5cf
100
AcDbEntity
  8
3
100
AcDbVertex
100
AcDb2dVertex
 42
6.606947E-003
 10
1.2688928E+002
 20
6.0178672E+001
 70
0
  0
VERTEX
  5
5d0
100
AcDbEntity
  8
3
100
AcDbVertex
100
AcDb2dVertex
 42
6.6332814E-003
 10
1.2689144E+002
 20
6.0173792E+001
 70
1
  0
VERTEX
  5
5d1
100
AcDbEntity
  8
3
100
AcDbVertex
100
AcDb2dVertex
 42
6.672444E-003
 10
1.2689374E+002
 20
6.0168948E+001
 70
0
  0
VERTEX
  5
5d2
100
AcDbEntity
  8
3
100
AcDbVertex
100
AcDb2dVertex
 42
6.6954391E-003
 10
1.2689619E+002
 20
6.0164147E+001
 70
1
  0
VERTEX
  5
5d3
100
AcDbEntity
  8
3
100
AcDbVertex
100
AcDb2dVertex
 42
6.7291803E-003
 10
1.2689877E+002
 20
6.0159393E+001
 70
0
  0
VERTEX
  5
5d4
100
AcDbEntity
  8
3
100
AcDbVertex
100
AcDb2dVertex
 42
6.7486556E-003
 10
1.2690149E+002
 20
6.0154695E+001
 70
1
  0
VERTEX
  5
5d5
100
AcDbEntity
  8
3
100
AcDbVertex
100
AcDb2dVertex
 42
6.776678E-003
 10
1.2690434E+002
 20
6.0150055E+001
 70
0
  0
VERTEX
  5
5d6
100
AcDbEntity
  8
3
100
AcDbVertex
100
AcDb2dVertex
 42
6.7924643E-003
 10
1.2690733E+002
 20
6.0145482E+001
 70
1
  0
VERTEX
  5
5d7
100
AcDbEntity
  8
3
100
AcDbVertex
100
AcDb2dVertex
 42
6.8145231E-003
 10
1.2691045E+002
 20
6.014098E+001
 70
0
  0
VERTEX
  5
5d8
100
AcDbEntity
  8
3
100
AcDbVertex
100
AcDb2dVertex
 42
6.8264853E-003
 10
1.2691371E+002
 20
6.0136556E+001
 70
1
  0
VERTEX
  5
5d9
100
AcDbEntity
  8
3
100
AcDbVertex
100
AcDb2dVertex
 42
6.8423851E-003
 10
1.2691708E+002
 20
6.0132214E+001
 70
0
  0
VERTEX
  5
5da
100
AcDbEntity
  8
3
100
AcDbVertex
100
AcDb2dVertex
 42
6.8504141E-003
 10
1.2692059E+002
 20
6.0127962E+001
 70
1
  0
VERTEX
  5
5db
100
AcDbEntity
  8
3
100
AcDbVertex
100
AcDb2dVertex
 42
6.8600051E-003
 10
1.2692421E+002
 20
6.0123801E+001
 70
0
  0
VERTEX
  5
5dc
100
AcDbEntity
  8
3
100
AcDbVertex
100
AcDb2dVertex
 42
6.8640392E-003
 10
1.2692795E+002
 20
6.011974E+001
 70
1
  0
VERTEX
  5
5dd
100
AcDbEntity
  8
3
100
AcDbVertex
100
AcDb2dVertex
 42
6.8672473E-003
 10
1.269318E+002
 20
6.011578E+001
 70
0
  0
VERTEX
  5
5de
100
AcDbEntity
  8
3
100
AcDbVertex
100
AcDb2dVertex
 42
6.8672209E-003
 10
1.2693576E+002
 20
6.0111931E+001
 70
1
  0
VERTEX
  5
5df
100
AcDbEntity
  8
3
100
AcDbVertex
100
AcDb2dVertex
 42
6.8639111E-003
 10
1.2693982E+002
 20
6.0108191E+001
 70
0
  0
VERTEX
  5
5e0
100
AcDbEntity
  8
3
100
AcDbVertex
100
AcDb2dVertex
 42
6.8597344E-003
 10
1.2694398E+002
 20
6.010457E+001
 70
1
  0
VERTEX
  5
5e1
100
AcDbEntity
  8
3
100
AcDbVertex
100
AcDb2dVertex
 42
6.8500274E-003
 10
1.2694823E+002
 20
6.0101067E+001
 70
0
  0
VERTEX
  5
5e2
100
AcDbEntity
  8
3
100
AcDbVertex
100
AcDb2dVertex
 42
6.841916E-003
 10
1.2695257E+002
 20
6.0097689E+001
 70
1
  0
VERTEX
  5
5e3
100
AcDbEntity
  8
3
100
AcDbVertex
100
AcDb2dVertex
 42
6.8259658E-003
 10
1.26957E+002
 20
6.0094436E+001
 70
0
  0
VERTEX
  5
5e4
100
AcDbEntity
  8
3
100
AcDbVertex
100
AcDb2dVertex
 42
6.8138122E-003
 10
1.269615E+002
 20
6.0091315E+001
 70
1
  0
VERTEX
  5
5e5
100
AcDbEntity
  8
3
100
AcDbVertex
100
AcDb2dVertex
 42
6.7914392E-003
 10
1.2696607E+002
 20
6.0088324E+001
 70
0
  0
VERTEX
  5
5e6
100
AcDbEntity
  8
3
100
AcDbVertex
100
AcDb2dVertex
 42
6.7758481E-003
 10
1.2697071E+002
 20
6.0085469E+001
 70
1
  0
VERTEX
  5
5e7
100
AcDbEntity
  8
3
100
AcDbVertex
100
AcDb2dVertex
 42
6.7485143E-003
 10
1.2697541E+002
 20
6.0082748E+001
 70
0
  0
VERTEX
  5
5e8
100
AcDbEntity
  8
3
100
AcDbVertex
100
AcDb2dVertex
 42
6.727875E-003
 10
1.2698017E+002
 20
6.0080168E+001
 70
1
  0
VERTEX
  5
5e9
100
AcDbEntity
  8
3
100
AcDbVertex
100
AcDb2dVertex
 42
6.6912671E-003
 10
1.2698497E+002
 20
6.0077725E+001
 70
0
  0
VERTEX
  5
5ea
100
AcDbEntity
  8
3
100
AcDbVertex
100
AcDb2dVertex
 42
6.67203E-003
 10
1.2698981E+002
 20
6.0075424E+001
 70
1
  0
VERTEX
  5
5eb
100
AcDbEntity
  8
3
100
AcDbVertex
100
AcDb2dVertex
 42
6.6425774E-003
 10
1.2699469E+002
 20
6.0073261E+001
 70
0
  0
VERTEX
  5
5ec
100
AcDbEntity
  8
3
100
AcDbVertex
100
AcDb2dVertex
 42
6.6025643E-003
 10
1.269996E+002
 20
6.0071243E+001
 70
1
  0
VERTEX
  5
5ed
100
AcDbEntity
  8
3
100
AcDbVertex
100
AcDb2dVertex
 42
6.5244501E-003
 10
1.2700454E+002
 20
6.0069362E+001
 70
0
  0
VERTEX
  5
5ee
100
AcDbEntity
  8
3
100
AcDbVertex
100
AcDb2dVertex
 42
6.5424121E-003
 10
1.2700949E+002
 20
6.0067625E+001
 70
1
  0
VERTEX
  5
5ef
100
AcDbEntity
  8
3
100
AcDbVertex
100
AcDb2dVertex
 42
6.6069514E-003
 10
1.2701446E+002
 20
6.0066025E+001
 70
0
  0
VERTEX
  5
5f0
100
AcDbEntity
  8
3
100
AcDbVertex
100
AcDb2dVertex
 42
6.4128002E-003
 10
1.2701945E+002
 20
6.0064567E+001
 70
1
  0
VERTEX
  5
5f1
100
AcDbEntity
  8
3
100
AcDbVertex
100
AcDb2dVertex
 42
5.9878743E-003
 10
1.2702441E+002
 20
6.0063244E+001
 70
0
  0
VERTEX
  5
5f2
100
AcDbEntity
  8
3
100
AcDbVertex
100
AcDb2dVertex
 42
6.493266E-003
 10
1.2702935E+002
 20
6.0062062E+001
 70
1
  0
VERTEX
  5
5f3
100
AcDbEntity
  8
3
100
AcDbVertex
100
AcDb2dVertex
 42
7.5578784E-003
 10
1.2703435E+002
 20
6.0061009E+001
 70
0
  0
VERTEX
  5
5f4
100
AcDbEntity
  8
3
100
AcDbVertex
100
AcDb2dVertex
 42
5.8484821E-003
 10
1.2703946E+002
 20
6.006009E+001
 70
1
  0
VERTEX
  5
5f5
100
AcDbEntity
  8
3
100
AcDbVertex
100
AcDb2dVertex
 42
2.3081029E-003
 10
1.2704424E+002
 20
6.0059306E+001
 70
0
  0
VERTEX
  5
5f6
100
AcDbEntity
  8
3
100
AcDbVertex
100
AcDb2dVertex
 42
7.8930262E-003
 10
1.2704856E+002
 20
6.0058664E+001
 70
1
  0
VERTEX
  5
5f7
100
AcDbEntity
  8
3
100
AcDbVertex
100
AcDb2dVertex
 42
1.3356543E-002
 10
1.2705404E+002
 20
6.0058116E+001
 70
0
  0
VERTEX
  5
5f8
100
AcDbEntity
  8
3
100
AcDbVertex
100
AcDb2dVertex
 42
6.695347E-003
 10
1.2706237E+002
 20
6.0057624E+001
 70
1
  0
VERTEX
  5
5f9
100
AcDbEntity
  8
3
100
AcDbVertex
100
AcDb2dVertex
 42
3.631066E-003
 10
1.2707323E+002
 20
6.0057191E+001
 70
0
  0
SEQEND
  5
5fa
100
AcDbEntity
  0
LINE
  5
5fb
100
AcDbEntity
  8
3
100
AcDbLine
  6
CONTINUOUS
 62
3
 10
1.2687322E+002
 20
6.0257201E+001
 11
1.3337323E+002
 21
6.0257201E+001
  0
LINE
  5
5fc
100
AcDbEntity
  8
3
100
AcDbLine
  6
CONTINUOUS
 62
3
 10
1.3798313E+002
 20
5.9257209E+001
 11
1.8139648E+002
 21
5.9257209E+001
  0
POLYLINE
  5
5fd
100
AcDbEntity
  8
3
100
AcDb2dPolyline
  6
CONTINUOUS
 62
40
 66
1
 40
7.0E-001
 41
7.0E-001
 70
0
  0
VERTEX
  5
5fe
100
AcDbEntity
  8
3
100
AcDbVertex
100
AcDb2dVertex
 42
0.0
 10
1.3778312E+002
 20
6.0057191E+001
 70
0
  0
VERTEX
  5
5ff
100
AcDbEntity
  8
3
100
AcDbVertex
100
AcDb2dVertex
 42
0.0
 10
1.3778312E+002
 20
5.9257209E+001
 70
0
  0
SEQEND
  5
600
100
AcDbEntity
  0
LINE
  5
601
100
AcDbEntity
  8
3
100
AcDbLine
  6
CONTINUOUS
 62
3
 10
1.3798313E+002
 20
6.0257201E+001
 11
1.3798313E+002
 21
5.9257209E+001
  0
POLYLINE
  5
602
100
AcDbEntity
  8
3
100
AcDb2dPolyline
  6
CONTINUOUS
 62
40
 66
1
 40
7.0E-001
 41
7.0E-001
 70
0
  0
VERTEX
  5
603
100
AcDbEntity
  8
3
100
AcDbVertex
100
AcDb2dVertex
 42
0.0
 10
1.2237323E+002
 20
6.1457203E+001
 70
0
  0
VERTEX
  5
604
100
AcDbEntity
  8
3
100
AcDbVertex
100
AcDb2dVertex
 42
0.0
 10
1.2237323E+002
 20
6.0957207E+001
 70
0
  0
SEQEND
  5
605
100
AcDbEntity
  0
LINE
  5
606
100
AcDbEntity
  8
3
100
AcDbLine
  6
CONTINUOUS
 62
3
 10
1.323732E+002
 20
6.1457203E+001
 11
1.323732E+002
 21
6.0957207E+001
  0
POLYLINE
  5
607
100
AcDbEntity
  8
3
100
AcDb2dPolyline
  6
CONTINUOUS
 62
40
 66
1
 40
7.0E-001
 41
7.0E-001
 70
0
  0
VERTEX
  5
608
100
AcDbEntity
  8
3
100
AcDbVertex
100
AcDb2dVertex
 42
0.0
 10
1.1287321E+002
 20
6.2857215E+001
 70
0
  0
VERTEX
  5
609
100
AcDbEntity
  8
3
100
AcDbVertex
100
AcDb2dVertex
 42
0.0
 10
1.1287321E+002
 20
6.235719E+001
 70
0
  0
SEQEND
  5
60a
100
AcDbEntity
  0
LINE
  5
60b
100
AcDbEntity
  8
3
100
AcDbLine
  6
CONTINUOUS
 62
3
 10
1.3037322E+002
 20
6.2857215E+001
 11
1.3037322E+002
 21
6.235719E+001
  0
LINE
  5
60c
100
AcDbEntity
  8
3
100
AcDbLine
  6
CONTINUOUS
 62
3
 10
1.3137321E+002
 20
6.2157209E+001
 11
1.3137321E+002
 21
6.1657213E+001
  0
POLYLINE
  5
60d
100
AcDbEntity
  8
3
100
AcDb2dPolyline
  6
CONTINUOUS
 62
40
 66
1
 40
7.0E-001
 41
7.0E-001
 70
0
  0
VERTEX
  5
60e
100
AcDbEntity
  8
3
100
AcDbVertex
100
AcDb2dVertex
 42
0.0
 10
1.1787323E+002
 20
6.2157209E+001
 70
0
  0
VERTEX
  5
60f
100
AcDbEntity
  8
3
100
AcDbVertex
100
AcDb2dVertex
 42
0.0
 10
1.1787323E+002
 20
6.1657213E+001
 70
0
  0
SEQEND
  5
610
100
AcDbEntity
  0
POLYLINE
  5
611
100
AcDbEntity
  8
3
100
AcDb2dPolyline
  6
CONTINUOUS
 62
40
 66
1
 40
7.0E-001
 41
7.0E-001
 70
0
  0
VERTEX
  5
612
100
AcDbEntity
  8
3
100
AcDbVertex
100
AcDb2dVertex
 42
0.0
 10
1.2687322E+002
 20
6.0757197E+001
 70
0
  0
VERTEX
  5
613
100
AcDbEntity
  8
3
100
AcDbVertex
100
AcDb2dVertex
 42
0.0
 10
1.2687322E+002
 20
6.0257201E+001
 70
0
  0
SEQEND
  5
614
100
AcDbEntity
  0
LINE
  5
615
100
AcDbEntity
  8
3
100
AcDbLine
  6
CONTINUOUS
 62
3
 10
1.3337323E+002
 20
6.0757197E+001
 11
1.3337323E+002
 21
6.0257201E+001
  0
POLYLINE
  5
616
100
AcDbEntity
  8
3
100
AcDb2dPolyline
  6
CONTINUOUS
 62
40
 66
1
 40
7.0E-001
 41
7.0E-001
 70
0
  0
VERTEX
  5
617
100
AcDbEntity
  8
3
100
AcDbVertex
100
AcDb2dVertex
 42
0.0
 10
1.3087322E+002
 20
1.678572E+002
 70
0
  0
VERTEX
  5
618
100
AcDbEntity
  8
3
100
AcDbVertex
100
AcDb2dVertex
 42
0.0
 10
1.2997323E+002
 20
1.6875722E+002
 70
0
  0
SEQEND
  5
619
100
AcDbEntity
  0
POLYLINE
  5
61a
100
AcDbEntity
  8
3
100
AcDb2dPolyline
  6
CONTINUOUS
 62
40
 66
1
 40
7.0E-001
 41
7.0E-001
 70
0
  0
VERTEX
  5
61b
100
AcDbEntity
  8
3
100
AcDbVertex
100
AcDb2dVertex
 42
0.0
 10
1.1117322E+002
 20
1.6185719E+002
 70
0
  0
VERTEX
  5
61c
100
AcDbEntity
  8
3
100
AcDbVertex
100
AcDb2dVertex
 42
0.0
 10
1.1117322E+002
 20
1.551072E+002
 70
0
  0
SEQEND
  5
61d
100
AcDbEntity
  0
LINE
  5
61e
100
AcDbEntity
  8
3
100
AcDbLine
  6
CONTINUOUS
 62
3
 10
1.1117322E+002
 20
1.4960721E+002
 11
1.1117322E+002
 21
6.4357203E+001
  0
ARC
  5
61f
100
AcDbEntity
  8
3
100
AcDbCircle
  6
CONTINUOUS
 62
3
 10
1.1217322E+002
 20
6.4357202E+001
 40
1.0
100
AcDbArc
 50
1.8E+002
 51
2.7E+002
  0
LINE
  5
620
100
AcDbEntity
  8
3
100
AcDbLine
  6
CONTINUOUS
 62
3
 10
1.1217321E+002
 20
6.3357211E+001
 11
1.8537322E+002
 21
6.3357211E+001
  0
POLYLINE
  5
621
100
AcDbEntity
  8
3
100
AcDb2dPolyline
  6
CONTINUOUS
 62
40
 66
1
 40
7.0E-001
 41
7.0E-001
 70
0
  0
VERTEX
  5
622
100
AcDbEntity
  8
3
100
AcDbVertex
100
AcDb2dVertex
 42
0.0
 10
1.1237322E+002
 20
1.551072E+002
 70
0
  0
VERTEX
  5
623
100
AcDbEntity
  8
3
100
AcDbVertex
100
AcDb2dVertex
 42
0.0
 10
1.1237322E+002
 20
1.4960721E+002
 70
0
  0
SEQEND
  5
624
100
AcDbEntity
  0
LINE
  5
625
100
AcDbEntity
  8
3
100
AcDbLine
  6
CONTINUOUS
 62
3
 10
1.1217321E+002
 20
6.3357211E+001
 11
1.1217321E+002
 21
6.2857215E+001
  0
LINE
  5
626
100
AcDbEntity
  8
3
100
AcDbLine
  6
CONTINUOUS
 62
3
 10
1.1117322E+002
 20
6.4357203E+001
 11
1.1067322E+002
 21
6.4357203E+001
  0
POLYLINE
  5
627
100
AcDbEntity
  8
4
100
AcDb2dPolyline
  6
CONTINUOUS
 62
40
 66
1
 40
7.0E-001
 41
7.0E-001
 70
0
  0
VERTEX
  5
628
100
AcDbEntity
  8
4
100
AcDbVertex
100
AcDb2dVertex
 42
0.0
 10
3.0351661E+002
 20
1.92766E+002
 70
0
  0
VERTEX
  5
629
100
AcDbEntity
  8
4
100
AcDbVertex
100
AcDb2dVertex
 42
0.0
 10
3.0721661E+002
 20
1.92766E+002
 70
0
  0
SEQEND
  5
62a
100
AcDbEntity
  0
POLYLINE
  5
62b
100
AcDbEntity
  8
4
100
AcDb2dPolyline
  6
CONTINUOUS
 62
40
 66
1
 40
7.0E-001
 41
7.0E-001
 70
0
  0
VERTEX
  5
62c
100
AcDbEntity
  8
4
100
AcDbVertex
100
AcDb2dVertex
 42
0.0
 10
3.0351661E+002
 20
1.92766E+002
 70
0
  0
VERTEX
  5
62d
100
AcDbEntity
  8
4
100
AcDbVertex
100
AcDb2dVertex
 42
0.0
 10
3.0301661E+002
 20
1.92766E+002
 70
0
  0
SEQEND
  5
62e
100
AcDbEntity
  0
POLYLINE
  5
62f
100
AcDbEntity
  8
4
100
AcDb2dPolyline
  6
CONTINUOUS
 62
40
 66
1
 40
7.0E-001
 41
7.0E-001
 70
0
  0
VERTEX
  5
630
100
AcDbEntity
  8
4
100
AcDbVertex
100
AcDb2dVertex
 42
0.0
 10
3.0351661E+002
 20
2.67466E+002
 70
0
  0
VERTEX
  5
631
100
AcDbEntity
  8
4
100
AcDbVertex
100
AcDb2dVertex
 42
0.0
 10
3.4591661E+002
 20
2.67466E+002
 70
0
  0
SEQEND
  5
632
100
AcDbEntity
  0
POLYLINE
  5
633
100
AcDbEntity
  8
4
100
AcDb2dPolyline
  6
CONTINUOUS
 62
40
 66
1
 40
7.0E-001
 41
7.0E-001
 70
0
  0
VERTEX
  5
634
100
AcDbEntity
  8
4
100
AcDbVertex
100
AcDb2dVertex
 42
0.0
 10
3.0301661E+002
 20
1.92766E+002
 70
0
  0
VERTEX
  5
635
100
AcDbEntity
  8
4
100
AcDbVertex
100
AcDb2dVertex
 42
0.0
 10
3.0301661E+002
 20
2.65966E+002
 70
0
  0
SEQEND
  5
636
100
AcDbEntity
  0
POLYLINE
  5
637
100
AcDbEntity
  8
4
100
AcDb2dPolyline
  6
CONTINUOUS
 62
40
 66
1
 40
7.0E-001
 41
7.0E-001
 70
0
  0
VERTEX
  5
638
100
AcDbEntity
  8
4
100
AcDbVertex
100
AcDb2dVertex
 42
0.0
 10
3.0301661E+002
 20
2.65966E+002
 70
0
  0
VERTEX
  5
639
100
AcDbEntity
  8
4
100
AcDbVertex
100
AcDb2dVertex
 42
0.0
 10
3.0301661E+002
 20
2.66966E+002
 70
0
  0
SEQEND
  5
63a
100
AcDbEntity
  0
POLYLINE
  5
63b
100
AcDbEntity
  8
4
100
AcDb2dPolyline
  6
CONTINUOUS
 62
40
 66
1
 40
7.0E-001
 41
7.0E-001
 70
0
  0
VERTEX
  5
63c
100
AcDbEntity
  8
4
100
AcDbVertex
100
AcDb2dVertex
 42
0.0
 10
3.4221661E+002
 20
1.96966E+002
 70
0
  0
VERTEX
  5
63d
100
AcDbEntity
  8
4
100
AcDbVertex
100
AcDb2dVertex
 42
0.0
 10
3.4121661E+002
 20
1.96966E+002
 70
0
  0
SEQEND
  5
63e
100
AcDbEntity
  0
POLYLINE
  5
63f
100
AcDbEntity
  8
4
100
AcDb2dPolyline
  6
CONTINUOUS
 62
40
 66
1
 40
7.0E-001
 41
7.0E-001
 70
0
  0
VERTEX
  5
640
100
AcDbEntity
  8
4
100
AcDbVertex
100
AcDb2dVertex
 42
0.0
 10
3.4221661E+002
 20
2.02766E+002
 70
0
  0
VERTEX
  5
641
100
AcDbEntity
  8
4
100
AcDbVertex
100
AcDb2dVertex
 42
0.0
 10
3.4221661E+002
 20
1.92766E+002
 70
0
  0
SEQEND
  5
642
100
AcDbEntity
  0
POLYLINE
  5
643
100
AcDbEntity
  8
4
100
AcDb2dPolyline
  6
CONTINUOUS
 62
40
 66
1
 40
7.0E-001
 41
7.0E-001
 70
0
  0
VERTEX
  5
644
100
AcDbEntity
  8
4
100
AcDbVertex
100
AcDb2dVertex
 42
0.0
 10
3.0721661E+002
 20
1.92766E+002
 70
0
  0
VERTEX
  5
645
100
AcDbEntity
  8
4
100
AcDbVertex
100
AcDb2dVertex
 42
0.0
 10
3.0721661E+002
 20
2.02766E+002
 70
0
  0
SEQEND
  5
646
100
AcDbEntity
  0
POLYLINE
  5
647
100
AcDbEntity
  8
4
100
AcDb2dPolyline
  6
CONTINUOUS
 62
40
 66
1
 40
7.0E-001
 41
7.0E-001
 70
0
  0
VERTEX
  5
648
100
AcDbEntity
  8
4
100
AcDbVertex
100
AcDb2dVertex
 42
5.1301814E-001
 10
3.1848052E+002
 20
2.4034562E+002
 70
0
  0
VERTEX
  5
649
100
AcDbEntity
  8
4
100
AcDbVertex
100
AcDb2dVertex
 42
0.0
 10
3.1821661E+002
 20
2.401561E+002
 70
0
  0
SEQEND
  5
64a
100
AcDbEntity
  0
POLYLINE
  5
64b
100
AcDbEntity
  8
4
100
AcDb2dPolyline
  6
CONTINUOUS
 62
40
 66
1
 40
7.0E-001
 41
7.0E-001
 70
0
  0
VERTEX
  5
64c
100
AcDbEntity
  8
4
100
AcDbVertex
100
AcDb2dVertex
 42
5.1301814E-001
 10
3.3121661E+002
 20
2.401561E+002
 70
0
  0
VERTEX
  5
64d
100
AcDbEntity
  8
4
100
AcDbVertex
100
AcDb2dVertex
 42
0.0
 10
3.3095271E+002
 20
2.4034562E+002
 70
0
  0
SEQEND
  5
64e
100
AcDbEntity
  0
POLYLINE
  5
64f
100
AcDbEntity
  8
4
100
AcDb2dPolyline
  6
CONTINUOUS
 62
40
 66
1
 40
7.0E-001
 41
7.0E-001
 70
0
  0
VERTEX
  5
650
100
AcDbEntity
  8
4
100
AcDbVertex
100
AcDb2dVertex
 42
0.0
 10
3.1871661E+002
 20
2.40266E+002
 70
0
  0
VERTEX
  5
651
100
AcDbEntity
  8
4
100
AcDbVertex
100
AcDb2dVertex
 42
0.0
 10
3.1871661E+002
 20
2.42766E+002
 70
0
  0
SEQEND
  5
652
100
AcDbEntity
  0
POLYLINE
  5
653
100
AcDbEntity
  8
4
100
AcDb2dPolyline
  6
CONTINUOUS
 62
40
 66
1
 40
7.0E-001
 41
7.0E-001
 70
0
  0
VERTEX
  5
654
100
AcDbEntity
  8
4
100
AcDbVertex
100
AcDb2dVertex
 42
0.0
 10
3.3071661E+002
 20
2.42766E+002
 70
0
  0
VERTEX
  5
655
100
AcDbEntity
  8
4
100
AcDbVertex
100
AcDb2dVertex
 42
0.0
 10
3.3071661E+002
 20
2.40266E+002
 70
0
  0
SEQEND
  5
656
100
AcDbEntity
  0
POLYLINE
  5
657
100
AcDbEntity
  8
4
100
AcDb2dPolyline
  6
CONTINUOUS
 62
40
 66
1
 40
7.0E-001
 41
7.0E-001
 70
0
  0
VERTEX
  5
658
100
AcDbEntity
  8
4
100
AcDbVertex
100
AcDb2dVertex
 42
1.0426056E-002
 10
3.3060717E+002
 20
2.4001803E+002
 70
0
  0
VERTEX
  5
659
100
AcDbEntity
  8
4
100
AcDbVertex
100
AcDb2dVertex
 42
0.0
 10
3.3071661E+002
 20
2.40266E+002
 70
0
  0
SEQEND
  5
65a
100
AcDbEntity
  0
POLYLINE
  5
65b
100
AcDbEntity
  8
4
100
AcDb2dPolyline
  6
CONTINUOUS
 62
40
 66
1
 40
7.0E-001
 41
7.0E-001
 70
0
  0
VERTEX
  5
65c
100
AcDbEntity
  8
4
100
AcDbVertex
100
AcDb2dVertex
 42
1.8701341E-001
 10
3.2721661E+002
 20
2.36766E+002
 70
0
  0
VERTEX
  5
65d
100
AcDbEntity
  8
4
100
AcDbVertex
100
AcDb2dVertex
 42
0.0
 10
3.3060717E+002
 20
2.4001803E+002
 70
0
  0
SEQEND
  5
65e
100
AcDbEntity
  0
POLYLINE
  5
65f
100
AcDbEntity
  8
4
100
AcDb2dPolyline
  6
CONTINUOUS
 62
40
 66
1
 40
7.0E-001
 41
7.0E-001
 70
0
  0
VERTEX
  5
660
100
AcDbEntity
  8
4
100
AcDbVertex
100
AcDb2dVertex
 42
1.0426056E-002
 10
3.1871661E+002
 20
2.40266E+002
 70
0
  0
VERTEX
  5
661
100
AcDbEntity
  8
4
100
AcDbVertex
100
AcDb2dVertex
 42
0.0
 10
3.1882606E+002
 20
2.4001803E+002
 70
0
  0
SEQEND
  5
662
100
AcDbEntity
  0
POLYLINE
  5
663
100
AcDbEntity
  8
4
100
AcDb2dPolyline
  6
CONTINUOUS
 62
40
 66
1
 40
7.0E-001
 41
7.0E-001
 70
0
  0
VERTEX
  5
664
100
AcDbEntity
  8
4
100
AcDbVertex
100
AcDb2dVertex
 42
1.8701341E-001
 10
3.1882606E+002
 20
2.4001803E+002
 70
0
  0
VERTEX
  5
665
100
AcDbEntity
  8
4
100
AcDbVertex
100
AcDb2dVertex
 42
0.0
 10
3.2221661E+002
 20
2.36766E+002
 70
0
  0
SEQEND
  5
666
100
AcDbEntity
  0
POLYLINE
  5
667
100
AcDbEntity
  8
4
100
AcDb2dPolyline
  6
CONTINUOUS
 62
40
 66
1
 40
7.0E-001
 41
7.0E-001
 70
0
  0
VERTEX
  5
668
100
AcDbEntity
  8
4
100
AcDbVertex
100
AcDb2dVertex
 42
0.0
 10
3.3121661E+002
 20
1.9674275E+002
 70
0
  0
VERTEX
  5
669
100
AcDbEntity
  8
4
100
AcDbVertex
100
AcDb2dVertex
 42
0.0
 10
3.3101661E+002
 20
1.9674275E+002
 70
0
  0
SEQEND
  5
66a
100
AcDbEntity
  0
POLYLINE
  5
66b
100
AcDbEntity
  8
4
100
AcDb2dPolyline
  6
CONTINUOUS
 62
40
 66
1
 40
7.0E-001
 41
7.0E-001
 70
0
  0
VERTEX
  5
66c
100
AcDbEntity
  8
4
100
AcDbVertex
100
AcDb2dVertex
 42
0.0
 10
3.3101661E+002
 20
1.9674275E+002
 70
0
  0
VERTEX
  5
66d
100
AcDbEntity
  8
4
100
AcDbVertex
100
AcDb2dVertex
 42
0.0
 10
3.3021661E+002
 20
1.9674275E+002
 70
0
  0
SEQEND
  5
66e
100
AcDbEntity
  0
POLYLINE
  5
66f
100
AcDbEntity
  8
4
100
AcDb2dPolyline
  6
CONTINUOUS
 62
40
 66
1
 40
7.0E-001
 41
7.0E-001
 70
0
  0
VERTEX
  5
670
100
AcDbEntity
  8
4
100
AcDbVertex
100
AcDb2dVertex
 42
0.0
 10
3.1841661E+002
 20
1.9674275E+002
 70
0
  0
VERTEX
  5
671
100
AcDbEntity
  8
4
100
AcDbVertex
100
AcDb2dVertex
 42
0.0
 10
3.1821661E+002
 20
1.9674275E+002
 70
0
  0
SEQEND
  5
672
100
AcDbEntity
  0
POLYLINE
  5
673
100
AcDbEntity
  8
4
100
AcDb2dPolyline
  6
CONTINUOUS
 62
40
 66
1
 40
7.0E-001
 41
7.0E-001
 70
0
  0
VERTEX
  5
674
100
AcDbEntity
  8
4
100
AcDbVertex
100
AcDb2dVertex
 42
0.0
 10
3.1921661E+002
 20
1.9674275E+002
 70
0
  0
VERTEX
  5
675
100
AcDbEntity
  8
4
100
AcDbVertex
100
AcDb2dVertex
 42
0.0
 10
3.1841661E+002
 20
1.9674275E+002
 70
0
  0
SEQEND
  5
676
100
AcDbEntity
  0
POLYLINE
  5
677
100
AcDbEntity
  8
4
100
AcDb2dPolyline
  6
CONTINUOUS
 62
40
 66
1
 40
7.0E-001
 41
7.0E-001
 70
0
  0
VERTEX
  5
678
100
AcDbEntity
  8
4
100
AcDbVertex
100
AcDb2dVertex
 42
0.0
 10
3.3021661E+002
 20
1.9274275E+002
 70
0
  0
VERTEX
  5
679
100
AcDbEntity
  8
4
100
AcDbVertex
100
AcDb2dVertex
 42
0.0
 10
3.1921661E+002
 20
1.9274275E+002
 70
0
  0
SEQEND
  5
67a
100
AcDbEntity
  0
POLYLINE
  5
67b
100
AcDbEntity
  8
4
100
AcDb2dPolyline
  6
CONTINUOUS
 62
40
 66
1
 40
7.0E-001
 41
7.0E-001
 70
0
  0
VERTEX
  5
67c
100
AcDbEntity
  8
4
100
AcDbVertex
100
AcDb2dVertex
 42
0.0
 10
3.3021661E+002
 20
1.9674275E+002
 70
0
  0
VERTEX
  5
67d
100
AcDbEntity
  8
4
100
AcDbVertex
100
AcDb2dVertex
 42
0.0
 10
3.3021661E+002
 20
1.9274275E+002
 70
0
  0
SEQEND
  5
67e
100
AcDbEntity
  0
POLYLINE
  5
67f
100
AcDbEntity
  8
4
100
AcDb2dPolyline
  6
CONTINUOUS
 62
40
 66
1
 40
7.0E-001
 41
7.0E-001
 70
0
  0
VERTEX
  5
680
100
AcDbEntity
  8
4
100
AcDbVertex
100
AcDb2dVertex
 42
0.0
 10
3.1921661E+002
 20
1.9274275E+002
 70
0
  0
VERTEX
  5
681
100
AcDbEntity
  8
4
100
AcDbVertex
100
AcDb2dVertex
 42
0.0
 10
3.1921661E+002
 20
1.9674275E+002
 70
0
  0
SEQEND
  5
682
100
AcDbEntity
  0
POLYLINE
  5
683
100
AcDbEntity
  8
4
100
AcDb2dPolyline
  6
CONTINUOUS
 62
40
 66
1
 40
7.0E-001
 41
7.0E-001
 70
0
  0
VERTEX
  5
684
100
AcDbEntity
  8
4
100
AcDbVertex
100
AcDb2dVertex
 42
0.0
 10
3.2721661E+002
 20
2.36766E+002
 70
0
  0
VERTEX
  5
685
100
AcDbEntity
  8
4
100
AcDbVertex
100
AcDb2dVertex
 42
0.0
 10
3.2721661E+002
 20
2.35766E+002
 70
0
  0
SEQEND
  5
686
100
AcDbEntity
  0
POLYLINE
  5
687
100
AcDbEntity
  8
4
100
AcDb2dPolyline
  6
CONTINUOUS
 62
40
 66
1
 40
7.0E-001
 41
7.0E-001
 70
0
  0
VERTEX
  5
688
100
AcDbEntity
  8
4
100
AcDbVertex
100
AcDb2dVertex
 42
0.0
 10
3.2221661E+002
 20
2.35766E+002
 70
0
  0
VERTEX
  5
689
100
AcDbEntity
  8
4
100
AcDbVertex
100
AcDb2dVertex
 42
0.0
 10
3.2221661E+002
 20
2.36766E+002
 70
0
  0
SEQEND
  5
68a
100
AcDbEntity
  0
POLYLINE
  5
68b
100
AcDbEntity
  8
4
100
AcDb2dPolyline
  6
CONTINUOUS
 62
40
 66
1
 40
7.0E-001
 41
7.0E-001
 70
0
  0
VERTEX
  5
68c
100
AcDbEntity
  8
4
100
AcDbVertex
100
AcDb2dVertex
 42
0.0
 10
3.2721661E+002
 20
2.35766E+002
 70
0
  0
VERTEX
  5
68d
100
AcDbEntity
  8
4
100
AcDbVertex
100
AcDb2dVertex
 42
0.0
 10
3.2221661E+002
 20
2.35766E+002
 70
0
  0
SEQEND
  5
68e
100
AcDbEntity
  0
POLYLINE
  5
68f
100
AcDbEntity
  8
4
100
AcDb2dPolyline
  6
CONTINUOUS
 62
40
 66
1
 40
7.0E-001
 41
7.0E-001
 70
0
  0
VERTEX
  5
690
100
AcDbEntity
  8
4
100
AcDbVertex
100
AcDb2dVertex
 42
0.0
 10
3.3095271E+002
 20
2.4034562E+002
 70
0
  0
VERTEX
  5
691
100
AcDbEntity
  8
4
100
AcDbVertex
100
AcDb2dVertex
 42
0.0
 10
3.3071661E+002
 20
2.40266E+002
 70
0
  0
SEQEND
  5
692
100
AcDbEntity
  0
POLYLINE
  5
693
100
AcDbEntity
  8
4
100
AcDb2dPolyline
  6
CONTINUOUS
 62
40
 66
1
 40
7.0E-001
 41
7.0E-001
 70
0
  0
VERTEX
  5
694
100
AcDbEntity
  8
4
100
AcDbVertex
100
AcDb2dVertex
 42
0.0
 10
3.1871661E+002
 20
2.40266E+002
 70
0
  0
VERTEX
  5
695
100
AcDbEntity
  8
4
100
AcDbVertex
100
AcDb2dVertex
 42
0.0
 10
3.1848052E+002
 20
2.4034562E+002
 70
0
  0
SEQEND
  5
696
100
AcDbEntity
  0
POLYLINE
  5
697
100
AcDbEntity
  8
4
100
AcDb2dPolyline
  6
CONTINUOUS
 62
40
 66
1
 40
7.0E-001
 41
7.0E-001
 70
0
  0
VERTEX
  5
698
100
AcDbEntity
  8
4
100
AcDbVertex
100
AcDb2dVertex
 42
0.0
 10
3.1471661E+002
 20
1.9874275E+002
 70
0
  0
VERTEX
  5
699
100
AcDbEntity
  8
4
100
AcDbVertex
100
AcDb2dVertex
 42
0.0
 10
3.1471661E+002
 20
2.45766E+002
 70
0
  0
SEQEND
  5
69a
100
AcDbEntity
  0
POLYLINE
  5
69b
100
AcDbEntity
  8
4
100
AcDb2dPolyline
  6
CONTINUOUS
 62
40
 66
1
 40
7.0E-001
 41
7.0E-001
 70
0
  0
VERTEX
  5
69c
100
AcDbEntity
  8
4
100
AcDbVertex
100
AcDb2dVertex
 42
0.0
 10
3.1471661E+002
 20
1.9874275E+002
 70
0
  0
VERTEX
  5
69d
100
AcDbEntity
  8
4
100
AcDbVertex
100
AcDb2dVertex
 42
0.0
 10
3.1471661E+002
 20
1.92766E+002
 70
0
  0
SEQEND
  5
69e
100
AcDbEntity
  0
POLYLINE
  5
69f
100
AcDbEntity
  8
4
100
AcDb2dPolyline
  6
CONTINUOUS
 62
40
 66
1
 40
7.0E-001
 41
7.0E-001
 70
0
  0
VERTEX
  5
6a0
100
AcDbEntity
  8
4
100
AcDbVertex
100
AcDb2dVertex
 42
1.0
 10
3.3471661E+002
 20
2.45766E+002
 70
0
  0
VERTEX
  5
6a1
100
AcDbEntity
  8
4
100
AcDbVertex
100
AcDb2dVertex
 42
0.0
 10
3.1471661E+002
 20
2.45766E+002
 70
0
  0
SEQEND
  5
6a2
100
AcDbEntity
  0
POLYLINE
  5
6a3
100
AcDbEntity
  8
4
100
AcDb2dPolyline
  6
CONTINUOUS
 62
40
 66
1
 40
7.0E-001
 41
7.0E-001
 70
0
  0
VERTEX
  5
6a4
100
AcDbEntity
  8
4
100
AcDbVertex
100
AcDb2dVertex
 42
0.0
 10
3.3471661E+002
 20
2.45766E+002
 70
0
  0
VERTEX
  5
6a5
100
AcDbEntity
  8
4
100
AcDbVertex
100
AcDb2dVertex
 42
0.0
 10
3.3471661E+002
 20
1.9874275E+002
 70
0
  0
SEQEND
  5
6a6
100
AcDbEntity
  0
POLYLINE
  5
6a7
100
AcDbEntity
  8
4
100
AcDb2dPolyline
  6
CONTINUOUS
 62
40
 66
1
 40
7.0E-001
 41
7.0E-001
 70
0
  0
VERTEX
  5
6a8
100
AcDbEntity
  8
4
100
AcDbVertex
100
AcDb2dVertex
 42
0.0
 10
3.3471661E+002
 20
1.92766E+002
 70
0
  0
VERTEX
  5
6a9
100
AcDbEntity
  8
4
100
AcDbVertex
100
AcDb2dVertex
 42
0.0
 10
3.3471661E+002
 20
1.9874275E+002
 70
0
  0
SEQEND
  5
6aa
100
AcDbEntity
  0
POLYLINE
  5
6ab
100
AcDbEntity
  8
4
100
AcDb2dPolyline
  6
CONTINUOUS
 62
40
 66
1
 40
7.0E-001
 41
7.0E-001
 70
0
  0
VERTEX
  5
6ac
100
AcDbEntity
  8
4
100
AcDbVertex
100
AcDb2dVertex
 42
0.0
 10
3.3471661E+002
 20
1.9874275E+002
 70
0
  0
VERTEX
  5
6ad
100
AcDbEntity
  8
4
100
AcDbVertex
100
AcDb2dVertex
 42
0.0
 10
3.3451661E+002
 20
1.9874275E+002
 70
0
  0
SEQEND
  5
6ae
100
AcDbEntity
  0
POLYLINE
  5
6af
100
AcDbEntity
  8
4
100
AcDb2dPolyline
  6
CONTINUOUS
 62
40
 66
1
 40
7.0E-001
 41
7.0E-001
 70
0
  0
VERTEX
  5
6b0
100
AcDbEntity
  8
4
100
AcDbVertex
100
AcDb2dVertex
 42
0.0
 10
3.3451661E+002
 20
1.9874275E+002
 70
0
  0
VERTEX
  5
6b1
100
AcDbEntity
  8
4
100
AcDbVertex
100
AcDb2dVertex
 42
0.0
 10
3.3371661E+002
 20
1.9874275E+002
 70
0
  0
SEQEND
  5
6b2
100
AcDbEntity
  0
POLYLINE
  5
6b3
100
AcDbEntity
  8
4
100
AcDb2dPolyline
  6
CONTINUOUS
 62
40
 66
1
 40
7.0E-001
 41
7.0E-001
 70
0
  0
VERTEX
  5
6b4
100
AcDbEntity
  8
4
100
AcDbVertex
100
AcDb2dVertex
 42
0.0
 10
3.1491661E+002
 20
1.9874275E+002
 70
0
  0
VERTEX
  5
6b5
100
AcDbEntity
  8
4
100
AcDbVertex
100
AcDb2dVertex
 42
0.0
 10
3.1471661E+002
 20
1.9874275E+002
 70
0
  0
SEQEND
  5
6b6
100
AcDbEntity
  0
POLYLINE
  5
6b7
100
AcDbEntity
  8
4
100
AcDb2dPolyline
  6
CONTINUOUS
 62
40
 66
1
 40
7.0E-001
 41
7.0E-001
 70
0
  0
VERTEX
  5
6b8
100
AcDbEntity
  8
4
100
AcDbVertex
100
AcDb2dVertex
 42
0.0
 10
3.1571661E+002
 20
1.9874275E+002
 70
0
  0
VERTEX
  5
6b9
100
AcDbEntity
  8
4
100
AcDbVertex
100
AcDb2dVertex
 42
0.0
 10
3.1491661E+002
 20
1.9874275E+002
 70
0
  0
SEQEND
  5
6ba
100
AcDbEntity
  0
POLYLINE
  5
6bb
100
AcDbEntity
  8
4
100
AcDb2dPolyline
  6
CONTINUOUS
 62
40
 66
1
 40
7.0E-001
 41
7.0E-001
 70
0
  0
VERTEX
  5
6bc
100
AcDbEntity
  8
4
100
AcDbVertex
100
AcDb2dVertex
 42
0.0
 10
3.3371661E+002
 20
1.9874275E+002
 70
0
  0
VERTEX
  5
6bd
100
AcDbEntity
  8
4
100
AcDbVertex
100
AcDb2dVertex
 42
0.0
 10
3.3371661E+002
 20
1.9274275E+002
 70
0
  0
SEQEND
  5
6be
100
AcDbEntity
  0
POLYLINE
  5
6bf
100
AcDbEntity
  8
4
100
AcDb2dPolyline
  6
CONTINUOUS
 62
40
 66
1
 40
7.0E-001
 41
7.0E-001
 70
0
  0
VERTEX
  5
6c0
100
AcDbEntity
  8
4
100
AcDbVertex
100
AcDb2dVertex
 42
0.0
 10
3.1571661E+002
 20
1.9274275E+002
 70
0
  0
VERTEX
  5
6c1
100
AcDbEntity
  8
4
100
AcDbVertex
100
AcDb2dVertex
 42
0.0
 10
3.1571661E+002
 20
1.9874275E+002
 70
0
  0
SEQEND
  5
6c2
100
AcDbEntity
  0
POLYLINE
  5
6c3
100
AcDbEntity
  8
4
100
AcDb2dPolyline
  6
CONTINUOUS
 62
40
 66
1
 40
7.0E-001
 41
7.0E-001
 70
0
  0
VERTEX
  5
6c4
100
AcDbEntity
  8
4
100
AcDbVertex
100
AcDb2dVertex
 42
0.0
 10
3.1821661E+002
 20
1.9274275E+002
 70
0
  0
VERTEX
  5
6c5
100
AcDbEntity
  8
4
100
AcDbVertex
100
AcDb2dVertex
 42
0.0
 10
3.1571661E+002
 20
1.9274275E+002
 70
0
  0
SEQEND
  5
6c6
100
AcDbEntity
  0
POLYLINE
  5
6c7
100
AcDbEntity
  8
4
100
AcDb2dPolyline
  6
CONTINUOUS
 62
40
 66
1
 40
7.0E-001
 41
7.0E-001
 70
0
  0
VERTEX
  5
6c8
100
AcDbEntity
  8
4
100
AcDbVertex
100
AcDb2dVertex
 42
0.0
 10
3.3371661E+002
 20
1.9274275E+002
 70
0
  0
VERTEX
  5
6c9
100
AcDbEntity
  8
4
100
AcDbVertex
100
AcDb2dVertex
 42
0.0
 10
3.3121661E+002
 20
1.9274275E+002
 70
0
  0
SEQEND
  5
6ca
100
AcDbEntity
  0
POLYLINE
  5
6cb
100
AcDbEntity
  8
4
100
AcDb2dPolyline
  6
CONTINUOUS
 62
40
 66
1
 40
7.0E-001
 41
7.0E-001
 70
0
  0
VERTEX
  5
6cc
100
AcDbEntity
  8
4
100
AcDbVertex
100
AcDb2dVertex
 42
0.0
 10
3.0721661E+002
 20
2.02766E+002
 70
0
  0
VERTEX
  5
6cd
100
AcDbEntity
  8
4
100
AcDbVertex
100
AcDb2dVertex
 42
0.0
 10
3.0721661E+002
 20
2.47766E+002
 70
0
  0
SEQEND
  5
6ce
100
AcDbEntity
  0
POLYLINE
  5
6cf
100
AcDbEntity
  8
4
100
AcDb2dPolyline
  6
CONTINUOUS
 62
40
 66
1
 40
7.0E-001
 41
7.0E-001
 70
0
  0
VERTEX
  5
6d0
100
AcDbEntity
  8
4
100
AcDbVertex
100
AcDb2dVertex
 42
1.0
 10
3.4221661E+002
 20
2.47766E+002
 70
0
  0
VERTEX
  5
6d1
100
AcDbEntity
  8
4
100
AcDbVertex
100
AcDb2dVertex
 42
0.0
 10
3.0721661E+002
 20
2.47766E+002
 70
0
  0
SEQEND
  5
6d2
100
AcDbEntity
  0
POLYLINE
  5
6d3
100
AcDbEntity
  8
4
100
AcDb2dPolyline
  6
CONTINUOUS
 62
40
 66
1
 40
7.0E-001
 41
7.0E-001
 70
0
  0
VERTEX
  5
6d4
100
AcDbEntity
  8
4
100
AcDbVertex
100
AcDb2dVertex
 42
0.0
 10
3.4221661E+002
 20
2.47766E+002
 70
0
  0
VERTEX
  5
6d5
100
AcDbEntity
  8
4
100
AcDbVertex
100
AcDb2dVertex
 42
0.0
 10
3.4221661E+002
 20
2.02766E+002
 70
0
  0
SEQEND
  5
6d6
100
AcDbEntity
  0
POLYLINE
  5
6d7
100
AcDbEntity
  8
4
100
AcDb2dPolyline
  6
CONTINUOUS
 62
40
 66
1
 40
7.0E-001
 41
7.0E-001
 70
0
  0
VERTEX
  5
6d8
100
AcDbEntity
  8
4
100
AcDbVertex
100
AcDb2dVertex
 42
0.0
 10
3.4221661E+002
 20
2.02766E+002
 70
0
  0
VERTEX
  5
6d9
100
AcDbEntity
  8
4
100
AcDbVertex
100
AcDb2dVertex
 42
0.0
 10
3.4201661E+002
 20
2.02766E+002
 70
0
  0
SEQEND
  5
6da
100
AcDbEntity
  0
POLYLINE
  5
6db
100
AcDbEntity
  8
4
100
AcDb2dPolyline
  6
CONTINUOUS
 62
40
 66
1
 40
7.0E-001
 41
7.0E-001
 70
0
  0
VERTEX
  5
6dc
100
AcDbEntity
  8
4
100
AcDbVertex
100
AcDb2dVertex
 42
0.0
 10
3.4201661E+002
 20
2.02766E+002
 70
0
  0
VERTEX
  5
6dd
100
AcDbEntity
  8
4
100
AcDbVertex
100
AcDb2dVertex
 42
0.0
 10
3.4121661E+002
 20
2.02766E+002
 70
0
  0
SEQEND
  5
6de
100
AcDbEntity
  0
POLYLINE
  5
6df
100
AcDbEntity
  8
4
100
AcDb2dPolyline
  6
CONTINUOUS
 62
40
 66
1
 40
7.0E-001
 41
7.0E-001
 70
0
  0
VERTEX
  5
6e0
100
AcDbEntity
  8
4
100
AcDbVertex
100
AcDb2dVertex
 42
0.0
 10
3.0741661E+002
 20
2.02766E+002
 70
0
  0
VERTEX
  5
6e1
100
AcDbEntity
  8
4
100
AcDbVertex
100
AcDb2dVertex
 42
0.0
 10
3.0721661E+002
 20
2.02766E+002
 70
0
  0
SEQEND
  5
6e2
100
AcDbEntity
  0
POLYLINE
  5
6e3
100
AcDbEntity
  8
4
100
AcDb2dPolyline
  6
CONTINUOUS
 62
40
 66
1
 40
7.0E-001
 41
7.0E-001
 70
0
  0
VERTEX
  5
6e4
100
AcDbEntity
  8
4
100
AcDbVertex
100
AcDb2dVertex
 42
0.0
 10
3.0821661E+002
 20
2.02766E+002
 70
0
  0
VERTEX
  5
6e5
100
AcDbEntity
  8
4
100
AcDbVertex
100
AcDb2dVertex
 42
0.0
 10
3.0741661E+002
 20
2.02766E+002
 70
0
  0
SEQEND
  5
6e6
100
AcDbEntity
  0
POLYLINE
  5
6e7
100
AcDbEntity
  8
4
100
AcDb2dPolyline
  6
CONTINUOUS
 62
40
 66
1
 40
7.0E-001
 41
7.0E-001
 70
0
  0
VERTEX
  5
6e8
100
AcDbEntity
  8
4
100
AcDbVertex
100
AcDb2dVertex
 42
0.0
 10
3.4121661E+002
 20
1.92766E+002
 70
0
  0
VERTEX
  5
6e9
100
AcDbEntity
  8
4
100
AcDbVertex
100
AcDb2dVertex
 42
0.0
 10
3.3821661E+002
 20
1.92766E+002
 70
0
  0
SEQEND
  5
6ea
100
AcDbEntity
  0
POLYLINE
  5
6eb
100
AcDbEntity
  8
4
100
AcDb2dPolyline
  6
CONTINUOUS
 62
40
 66
1
 40
7.0E-001
 41
7.0E-001
 70
0
  0
VERTEX
  5
6ec
100
AcDbEntity
  8
4
100
AcDbVertex
100
AcDb2dVertex
 42
0.0
 10
3.4121661E+002
 20
2.02766E+002
 70
0
  0
VERTEX
  5
6ed
100
AcDbEntity
  8
4
100
AcDbVertex
100
AcDb2dVertex
 42
0.0
 10
3.4121661E+002
 20
1.92766E+002
 70
0
  0
SEQEND
  5
6ee
100
AcDbEntity
  0
POLYLINE
  5
6ef
100
AcDbEntity
  8
4
100
AcDb2dPolyline
  6
CONTINUOUS
 62
40
 66
1
 40
7.0E-001
 41
7.0E-001
 70
0
  0
VERTEX
  5
6f0
100
AcDbEntity
  8
4
100
AcDbVertex
100
AcDb2dVertex
 42
0.0
 10
3.0821661E+002
 20
1.92766E+002
 70
0
  0
VERTEX
  5
6f1
100
AcDbEntity
  8
4
100
AcDbVertex
100
AcDb2dVertex
 42
0.0
 10
3.0821661E+002
 20
2.02766E+002
 70
0
  0
SEQEND
  5
6f2
100
AcDbEntity
  0
POLYLINE
  5
6f3
100
AcDbEntity
  8
4
100
AcDb2dPolyline
  6
CONTINUOUS
 62
40
 66
1
 40
7.0E-001
 41
7.0E-001
 70
0
  0
VERTEX
  5
6f4
100
AcDbEntity
  8
4
100
AcDbVertex
100
AcDb2dVertex
 42
0.0
 10
3.1121661E+002
 20
1.92766E+002
 70
0
  0
VERTEX
  5
6f5
100
AcDbEntity
  8
4
100
AcDbVertex
100
AcDb2dVertex
 42
0.0
 10
3.0821661E+002
 20
1.92766E+002
 70
0
  0
SEQEND
  5
6f6
100
AcDbEntity
  0
POLYLINE
  5
6f7
100
AcDbEntity
  8
4
100
AcDb2dPolyline
  6
CONTINUOUS
 62
40
 66
1
 40
7.0E-001
 41
7.0E-001
 70
0
  0
VERTEX
  5
6f8
100
AcDbEntity
  8
4
100
AcDbVertex
100
AcDb2dVertex
 42
0.0
 10
3.1221661E+002
 20
1.92766E+002
 70
0
  0
VERTEX
  5
6f9
100
AcDbEntity
  8
4
100
AcDbVertex
100
AcDb2dVertex
 42
0.0
 10
3.1221661E+002
 20
2.00766E+002
 70
0
  0
SEQEND
  5
6fa
100
AcDbEntity
  0
POLYLINE
  5
6fb
100
AcDbEntity
  8
4
100
AcDb2dPolyline
  6
CONTINUOUS
 62
40
 66
1
 40
7.0E-001
 41
7.0E-001
 70
0
  0
VERTEX
  5
6fc
100
AcDbEntity
  8
4
100
AcDbVertex
100
AcDb2dVertex
 42
0.0
 10
3.3721661E+002
 20
2.00766E+002
 70
0
  0
VERTEX
  5
6fd
100
AcDbEntity
  8
4
100
AcDbVertex
100
AcDb2dVertex
 42
0.0
 10
3.3721661E+002
 20
1.92766E+002
 70
0
  0
SEQEND
  5
6fe
100
AcDbEntity
  0
POLYLINE
  5
6ff
100
AcDbEntity
  8
4
100
AcDb2dPolyline
  6
CONTINUOUS
 62
40
 66
1
 40
7.0E-001
 41
7.0E-001
 70
0
  0
VERTEX
  5
700
100
AcDbEntity
  8
4
100
AcDbVertex
100
AcDb2dVertex
 42
0.0
 10
3.3721661E+002
 20
1.92766E+002
 70
0
  0
VERTEX
  5
701
100
AcDbEntity
  8
4
100
AcDbVertex
100
AcDb2dVertex
 42
0.0
 10
3.3471661E+002
 20
1.92766E+002
 70
0
  0
SEQEND
  5
702
100
AcDbEntity
  0
POLYLINE
  5
703
100
AcDbEntity
  8
4
100
AcDb2dPolyline
  6
CONTINUOUS
 62
40
 66
1
 40
7.0E-001
 41
7.0E-001
 70
0
  0
VERTEX
  5
704
100
AcDbEntity
  8
4
100
AcDbVertex
100
AcDb2dVertex
 42
0.0
 10
3.1471661E+002
 20
1.92766E+002
 70
0
  0
VERTEX
  5
705
100
AcDbEntity
  8
4
100
AcDbVertex
100
AcDb2dVertex
 42
0.0
 10
3.1221661E+002
 20
1.92766E+002
 70
0
  0
SEQEND
  5
706
100
AcDbEntity
  0
POLYLINE
  5
707
100
AcDbEntity
  8
4
100
AcDb2dPolyline
  6
CONTINUOUS
 62
40
 66
1
 40
7.0E-001
 41
7.0E-001
 70
0
  0
VERTEX
  5
708
100
AcDbEntity
  8
4
100
AcDbVertex
100
AcDb2dVertex
 42
0.0
 10
3.1141661E+002
 20
2.00766E+002
 70
0
  0
VERTEX
  5
709
100
AcDbEntity
  8
4
100
AcDbVertex
100
AcDb2dVertex
 42
0.0
 10
3.1121661E+002
 20
2.00766E+002
 70
0
  0
SEQEND
  5
70a
100
AcDbEntity
  0
POLYLINE
  5
70b
100
AcDbEntity
  8
4
100
AcDb2dPolyline
  6
CONTINUOUS
 62
40
 66
1
 40
7.0E-001
 41
7.0E-001
 70
0
  0
VERTEX
  5
70c
100
AcDbEntity
  8
4
100
AcDbVertex
100
AcDb2dVertex
 42
0.0
 10
3.1221661E+002
 20
2.00766E+002
 70
0
  0
VERTEX
  5
70d
100
AcDbEntity
  8
4
100
AcDbVertex
100
AcDb2dVertex
 42
0.0
 10
3.1141661E+002
 20
2.00766E+002
 70
0
  0
SEQEND
  5
70e
100
AcDbEntity
  0
POLYLINE
  5
70f
100
AcDbEntity
  8
4
100
AcDb2dPolyline
  6
CONTINUOUS
 62
40
 66
1
 40
7.0E-001
 41
7.0E-001
 70
0
  0
VERTEX
  5
710
100
AcDbEntity
  8
4
100
AcDbVertex
100
AcDb2dVertex
 42
0.0
 10
3.3821661E+002
 20
2.00766E+002
 70
0
  0
VERTEX
  5
711
100
AcDbEntity
  8
4
100
AcDbVertex
100
AcDb2dVertex
 42
0.0
 10
3.3801661E+002
 20
2.00766E+002
 70
0
  0
SEQEND
  5
712
100
AcDbEntity
  0
POLYLINE
  5
713
100
AcDbEntity
  8
4
100
AcDb2dPolyline
  6
CONTINUOUS
 62
40
 66
1
 40
7.0E-001
 41
7.0E-001
 70
0
  0
VERTEX
  5
714
100
AcDbEntity
  8
4
100
AcDbVertex
100
AcDb2dVertex
 42
0.0
 10
3.3721661E+002
 20
2.00766E+002
 70
0
  0
VERTEX
  5
715
100
AcDbEntity
  8
4
100
AcDbVertex
100
AcDb2dVertex
 42
0.0
 10
3.3801661E+002
 20
2.00766E+002
 70
0
  0
SEQEND
  5
716
100
AcDbEntity
  0
POLYLINE
  5
717
100
AcDbEntity
  8
4
100
AcDb2dPolyline
  6
CONTINUOUS
 62
40
 66
1
 40
7.0E-001
 41
7.0E-001
 70
0
  0
VERTEX
  5
718
100
AcDbEntity
  8
4
100
AcDbVertex
100
AcDb2dVertex
 42
0.0
 10
3.1121661E+002
 20
2.00766E+002
 70
0
  0
VERTEX
  5
719
100
AcDbEntity
  8
4
100
AcDbVertex
100
AcDb2dVertex
 42
0.0
 10
3.1121661E+002
 20
1.92766E+002
 70
0
  0
SEQEND
  5
71a
100
AcDbEntity
  0
POLYLINE
  5
71b
100
AcDbEntity
  8
4
100
AcDb2dPolyline
  6
CONTINUOUS
 62
40
 66
1
 40
7.0E-001
 41
7.0E-001
 70
0
  0
VERTEX
  5
71c
100
AcDbEntity
  8
4
100
AcDbVertex
100
AcDb2dVertex
 42
0.0
 10
3.1121661E+002
 20
2.00766E+002
 70
0
  0
VERTEX
  5
71d
100
AcDbEntity
  8
4
100
AcDbVertex
100
AcDb2dVertex
 42
0.0
 10
3.1121661E+002
 20
2.46766E+002
 70
0
  0
SEQEND
  5
71e
100
AcDbEntity
  0
POLYLINE
  5
71f
100
AcDbEntity
  8
4
100
AcDb2dPolyline
  6
CONTINUOUS
 62
40
 66
1
 40
7.0E-001
 41
7.0E-001
 70
0
  0
VERTEX
  5
720
100
AcDbEntity
  8
4
100
AcDbVertex
100
AcDb2dVertex
 42
0.0
 10
3.3821661E+002
 20
1.92766E+002
 70
0
  0
VERTEX
  5
721
100
AcDbEntity
  8
4
100
AcDbVertex
100
AcDb2dVertex
 42
0.0
 10
3.3821661E+002
 20
2.00766E+002
 70
0
  0
SEQEND
  5
722
100
AcDbEntity
  0
POLYLINE
  5
723
100
AcDbEntity
  8
4
100
AcDb2dPolyline
  6
CONTINUOUS
 62
40
 66
1
 40
7.0E-001
 41
7.0E-001
 70
0
  0
VERTEX
  5
724
100
AcDbEntity
  8
4
100
AcDbVertex
100
AcDb2dVertex
 42
0.0
 10
3.3821661E+002
 20
2.46766E+002
 70
0
  0
VERTEX
  5
725
100
AcDbEntity
  8
4
100
AcDbVertex
100
AcDb2dVertex
 42
0.0
 10
3.3821661E+002
 20
2.00766E+002
 70
0
  0
SEQEND
  5
726
100
AcDbEntity
  0
POLYLINE
  5
727
100
AcDbEntity
  8
4
100
AcDb2dPolyline
  6
CONTINUOUS
 62
40
 66
1
 40
7.0E-001
 41
7.0E-001
 70
0
  0
VERTEX
  5
728
100
AcDbEntity
  8
4
100
AcDbVertex
100
AcDb2dVertex
 42
1.0
 10
3.3821661E+002
 20
2.46766E+002
 70
0
  0
VERTEX
  5
729
100
AcDbEntity
  8
4
100
AcDbVertex
100
AcDb2dVertex
 42
0.0
 10
3.1121661E+002
 20
2.46766E+002
 70
0
  0
SEQEND
  5
72a
100
AcDbEntity
  0
POLYLINE
  5
72b
100
AcDbEntity
  8
4
100
AcDb2dPolyline
  6
CONTINUOUS
 62
40
 66
1
 40
7.0E-001
 41
7.0E-001
 70
0
  0
VERTEX
  5
72c
100
AcDbEntity
  8
4
100
AcDbVertex
100
AcDb2dVertex
 42
0.0
 10
3.3121661E+002
 20
1.9274275E+002
 70
0
  0
VERTEX
  5
72d
100
AcDbEntity
  8
4
100
AcDbVertex
100
AcDb2dVertex
 42
0.0
 10
3.3121661E+002
 20
1.9674275E+002
 70
0
  0
SEQEND
  5
72e
100
AcDbEntity
  0
POLYLINE
  5
72f
100
AcDbEntity
  8
4
100
AcDb2dPolyline
  6
CONTINUOUS
 62
40
 66
1
 40
7.0E-001
 41
7.0E-001
 70
0
  0
VERTEX
  5
730
100
AcDbEntity
  8
4
100
AcDbVertex
100
AcDb2dVertex
 42
0.0
 10
3.1821661E+002
 20
1.9674275E+002
 70
0
  0
VERTEX
  5
731
100
AcDbEntity
  8
4
100
AcDbVertex
100
AcDb2dVertex
 42
0.0
 10
3.1821661E+002
 20
1.9274275E+002
 70
0
  0
SEQEND
  5
732
100
AcDbEntity
  0
POLYLINE
  5
733
100
AcDbEntity
  8
4
100
AcDb2dPolyline
  6
CONTINUOUS
 62
40
 66
1
 40
7.0E-001
 41
7.0E-001
 70
0
  0
VERTEX
  5
734
100
AcDbEntity
  8
4
100
AcDbVertex
100
AcDb2dVertex
 42
5.6081958E-002
 10
3.3021661E+002
 20
2.43766E+002
 70
0
  0
VERTEX
  5
735
100
AcDbEntity
  8
4
100
AcDbVertex
100
AcDb2dVertex
 42
0.0
 10
3.3010409E+002
 20
2.44766E+002
 70
0
  0
SEQEND
  5
736
100
AcDbEntity
  0
POLYLINE
  5
737
100
AcDbEntity
  8
4
100
AcDb2dPolyline
  6
CONTINUOUS
 62
40
 66
1
 40
7.0E-001
 41
7.0E-001
 70
0
  0
VERTEX
  5
738
100
AcDbEntity
  8
4
100
AcDbVertex
100
AcDb2dVertex
 42
5.6081958E-002
 10
3.2132913E+002
 20
2.44766E+002
 70
0
  0
VERTEX
  5
739
100
AcDbEntity
  8
4
100
AcDbVertex
100
AcDb2dVertex
 42
0.0
 10
3.2121661E+002
 20
2.43766E+002
 70
0
  0
SEQEND
  5
73a
100
AcDbEntity
  0
POLYLINE
  5
73b
100
AcDbEntity
  8
4
100
AcDb2dPolyline
  6
CONTINUOUS
 62
40
 66
1
 40
7.0E-001
 41
7.0E-001
 70
0
  0
VERTEX
  5
73c
100
AcDbEntity
  8
4
100
AcDbVertex
100
AcDb2dVertex
 42
0.0
 10
3.1821661E+002
 20
2.401561E+002
 70
0
  0
VERTEX
  5
73d
100
AcDbEntity
  8
4
100
AcDbVertex
100
AcDb2dVertex
 42
0.0
 10
3.1821661E+002
 20
2.44766E+002
 70
0
  0
SEQEND
  5
73e
100
AcDbEntity
  0
POLYLINE
  5
73f
100
AcDbEntity
  8
4
100
AcDb2dPolyline
  6
CONTINUOUS
 62
40
 66
1
 40
7.0E-001
 41
7.0E-001
 70
0
  0
VERTEX
  5
740
100
AcDbEntity
  8
4
100
AcDbVertex
100
AcDb2dVertex
 42
0.0
 10
3.1821661E+002
 20
1.9674275E+002
 70
0
  0
VERTEX
  5
741
100
AcDbEntity
  8
4
100
AcDbVertex
100
AcDb2dVertex
 42
0.0
 10
3.1821661E+002
 20
2.401561E+002
 70
0
  0
SEQEND
  5
742
100
AcDbEntity
  0
POLYLINE
  5
743
100
AcDbEntity
  8
4
100
AcDb2dPolyline
  6
CONTINUOUS
 62
40
 66
1
 40
7.0E-001
 41
7.0E-001
 70
0
  0
VERTEX
  5
744
100
AcDbEntity
  8
4
100
AcDbVertex
100
AcDb2dVertex
 42
1.0
 10
3.3121661E+002
 20
2.44766E+002
 70
0
  0
VERTEX
  5
745
100
AcDbEntity
  8
4
100
AcDbVertex
100
AcDb2dVertex
 42
0.0
 10
3.1821661E+002
 20
2.44766E+002
 70
0
  0
SEQEND
  5
746
100
AcDbEntity
  0
POLYLINE
  5
747
100
AcDbEntity
  8
4
100
AcDb2dPolyline
  6
CONTINUOUS
 62
40
 66
1
 40
7.0E-001
 41
7.0E-001
 70
0
  0
VERTEX
  5
748
100
AcDbEntity
  8
4
100
AcDbVertex
100
AcDb2dVertex
 42
0.0
 10
3.3121661E+002
 20
2.401561E+002
 70
0
  0
VERTEX
  5
749
100
AcDbEntity
  8
4
100
AcDbVertex
100
AcDb2dVertex
 42
0.0
 10
3.3121661E+002
 20
1.9674275E+002
 70
0
  0
SEQEND
  5
74a
100
AcDbEntity
  0
POLYLINE
  5
74b
100
AcDbEntity
  8
4
100
AcDb2dPolyline
  6
CONTINUOUS
 62
40
 66
1
 40
7.0E-001
 41
7.0E-001
 70
0
  0
VERTEX
  5
74c
100
AcDbEntity
  8
4
100
AcDbVertex
100
AcDb2dVertex
 42
0.0
 10
3.3121661E+002
 20
2.44766E+002
 70
0
  0
VERTEX
  5
74d
100
AcDbEntity
  8
4
100
AcDbVertex
100
AcDb2dVertex
 42
0.0
 10
3.3121661E+002
 20
2.401561E+002
 70
0
  0
SEQEND
  5
74e
100
AcDbEntity
  0
POLYLINE
  5
74f
100
AcDbEntity
  8
4
100
AcDb2dPolyline
  6
CONTINUOUS
 62
40
 66
1
 40
7.0E-001
 41
7.0E-001
 70
0
  0
VERTEX
  5
750
100
AcDbEntity
  8
4
100
AcDbVertex
100
AcDb2dVertex
 42
1.0
 10
3.1871661E+002
 20
2.42766E+002
 70
0
  0
VERTEX
  5
751
100
AcDbEntity
  8
4
100
AcDbVertex
100
AcDb2dVertex
 42
0.0
 10
3.3071661E+002
 20
2.42766E+002
 70
0
  0
SEQEND
  5
752
100
AcDbEntity
  0
POLYLINE
  5
753
100
AcDbEntity
  8
4
100
AcDb2dPolyline
  6
CONTINUOUS
 62
40
 66
1
 40
7.0E-001
 41
7.0E-001
 70
0
  0
VERTEX
  5
754
100
AcDbEntity
  8
4
100
AcDbVertex
100
AcDb2dVertex
 42
0.0
 10
3.0821661E+002
 20
1.96966E+002
 70
0
  0
VERTEX
  5
755
100
AcDbEntity
  8
4
100
AcDbVertex
100
AcDb2dVertex
 42
0.0
 10
3.0721661E+002
 20
1.96966E+002
 70
0
  0
SEQEND
  5
756
100
AcDbEntity
  0
POLYLINE
  5
757
100
AcDbEntity
  8
4
100
AcDb2dPolyline
  6
CONTINUOUS
 62
40
 66
1
 40
7.0E-001
 41
7.0E-001
 70
0
  0
VERTEX
  5
758
100
AcDbEntity
  8
4
100
AcDbVertex
100
AcDb2dVertex
 42
0.0
 10
3.4641661E+002
 20
2.66966E+002
 70
0
  0
VERTEX
  5
759
100
AcDbEntity
  8
4
100
AcDbVertex
100
AcDb2dVertex
 42
0.0
 10
3.4641661E+002
 20
2.65966E+002
 70
0
  0
SEQEND
  5
75a
100
AcDbEntity
  0
POLYLINE
  5
75b
100
AcDbEntity
  8
4
100
AcDb2dPolyline
  6
CONTINUOUS
 62
40
 66
1
 40
7.0E-001
 41
7.0E-001
 70
0
  0
VERTEX
  5
75c
100
AcDbEntity
  8
4
100
AcDbVertex
100
AcDb2dVertex
 42
0.0
 10
3.4641661E+002
 20
2.65966E+002
 70
0
  0
VERTEX
  5
75d
100
AcDbEntity
  8
4
100
AcDbVertex
100
AcDb2dVertex
 42
0.0
 10
3.4641661E+002
 20
1.92766E+002
 70
0
  0
SEQEND
  5
75e
100
AcDbEntity
  0
POLYLINE
  5
75f
100
AcDbEntity
  8
4
100
AcDb2dPolyline
  6
CONTINUOUS
 62
40
 66
1
 40
7.0E-001
 41
7.0E-001
 70
0
  0
VERTEX
  5
760
100
AcDbEntity
  8
4
100
AcDbVertex
100
AcDb2dVertex
 42
4.1421356E-001
 10
3.4641661E+002
 20
2.66966E+002
 70
0
  0
VERTEX
  5
761
100
AcDbEntity
  8
4
100
AcDbVertex
100
AcDb2dVertex
 42
0.0
 10
3.4591661E+002
 20
2.67466E+002
 70
0
  0
SEQEND
  5
762
100
AcDbEntity
  0
POLYLINE
  5
763
100
AcDbEntity
  8
4
100
AcDb2dPolyline
  6
CONTINUOUS
 62
40
 66
1
 40
7.0E-001
 41
7.0E-001
 70
0
  0
VERTEX
  5
764
100
AcDbEntity
  8
4
100
AcDbVertex
100
AcDb2dVertex
 42
4.1421356E-001
 10
3.0351661E+002
 20
2.67466E+002
 70
0
  0
VERTEX
  5
765
100
AcDbEntity
  8
4
100
AcDbVertex
100
AcDb2dVertex
 42
0.0
 10
3.0301661E+002
 20
2.66966E+002
 70
0
  0
SEQEND
  5
766
100
AcDbEntity
  0
POLYLINE
  5
767
100
AcDbEntity
  8
4
100
AcDb2dPolyline
  6
CONTINUOUS
 62
40
 66
1
 40
7.0E-001
 41
7.0E-001
 70
0
  0
VERTEX
  5
768
100
AcDbEntity
  8
4
100
AcDbVertex
100
AcDb2dVertex
 42
0.0
 10
3.4641661E+002
 20
1.92766E+002
 70
0
  0
VERTEX
  5
769
100
AcDbEntity
  8
4
100
AcDbVertex
100
AcDb2dVertex
 42
0.0
 10
3.4591661E+002
 20
1.92766E+002
 70
0
  0
SEQEND
  5
76a
100
AcDbEntity
  0
POLYLINE
  5
76b
100
AcDbEntity
  8
4
100
AcDb2dPolyline
  6
CONTINUOUS
 62
40
 66
1
 40
7.0E-001
 41
7.0E-001
 70
0
  0
VERTEX
  5
76c
100
AcDbEntity
  8
4
100
AcDbVertex
100
AcDb2dVertex
 42
0.0
 10
3.4221661E+002
 20
1.92766E+002
 70
0
  0
VERTEX
  5
76d
100
AcDbEntity
  8
4
100
AcDbVertex
100
AcDb2dVertex
 42
0.0
 10
3.4591661E+002
 20
1.92766E+002
 70
0
  0
SEQEND
  5
76e
100
AcDbEntity
  0
LINE
  5
76f
100
AcDbEntity
  8
4
100
AcDbLine
  6
CONTINUOUS
 62
3
 10
3.035166E+002
 20
2.6596601E+002
 11
3.035166E+002
 21
1.9276601E+002
  0
LINE
  5
770
100
AcDbEntity
  8
4
100
AcDbLine
  6
CONTINUOUS
 62
3
 10
3.4591662E+002
 20
1.9276601E+002
 11
3.4591662E+002
 21
2.6596601E+002
  0
LINE
  5
771
100
AcDbEntity
  8
4
100
AcDbLine
  6
CONTINUOUS
 62
3
 10
3.4591662E+002
 20
2.6596601E+002
 11
3.035166E+002
 21
2.6596601E+002
  0
LINE
  5
772
100
AcDbEntity
  8
4
100
AcDbLine
  6
CONTINUOUS
 62
3
 10
3.1841661E+002
 20
2.401561E+002
 11
3.1821662E+002
 21
2.401561E+002
  0
LINE
  5
773
100
AcDbEntity
  8
4
100
AcDbLine
  6
CONTINUOUS
 62
3
 10
3.1848051E+002
 20
2.4034562E+002
 11
3.1841661E+002
 21
2.401561E+002
  0
LINE
  5
774
100
AcDbEntity
  8
4
100
AcDbLine
  6
CONTINUOUS
 62
3
 10
3.3121662E+002
 20
2.401561E+002
 11
3.3101661E+002
 21
2.401561E+002
  0
LINE
  5
775
100
AcDbEntity
  8
4
100
AcDbLine
  6
CONTINUOUS
 62
3
 10
3.3101661E+002
 20
2.401561E+002
 11
3.3095271E+002
 21
2.4034562E+002
  0
LINE
  5
776
100
AcDbEntity
  8
4
100
AcDbLine
  6
CONTINUOUS
 62
3
 10
3.4201661E+002
 20
2.47766E+002
 11
3.4221661E+002
 21
2.47766E+002
  0
LINE
  5
777
100
AcDbEntity
  8
4
100
AcDbLine
  6
CONTINUOUS
 62
3
 10
3.4201661E+002
 20
2.02766E+002
 11
3.4201661E+002
 21
2.47766E+002
  0
LINE
  5
778
100
AcDbEntity
  8
4
100
AcDbLine
  6
CONTINUOUS
 62
3
 10
3.0741661E+002
 20
2.47766E+002
 11
3.0721661E+002
 21
2.47766E+002
  0
ARC
  5
779
100
AcDbEntity
  8
4
100
AcDbCircle
  6
CONTINUOUS
 62
3
 10
3.2471661E+002
 20
2.47766E+002
 40
1.73E+001
100
AcDbArc
 50
0.0
 51
1.8E+002
  0
LINE
  5
77a
100
AcDbEntity
  8
4
100
AcDbLine
  6
CONTINUOUS
 62
3
 10
3.0741661E+002
 20
2.47766E+002
 11
3.0741661E+002
 21
2.02766E+002
  0
LINE
  5
77b
100
AcDbEntity
  8
4
100
AcDbLine
  6
CONTINUOUS
 62
3
 10
3.3801662E+002
 20
2.46766E+002
 11
3.3821661E+002
 21
2.46766E+002
  0
LINE
  5
77c
100
AcDbEntity
  8
4
100
AcDbLine
  6
CONTINUOUS
 62
3
 10
3.3801662E+002
 20
2.00766E+002
 11
3.3801662E+002
 21
2.46766E+002
  0
LINE
  5
77d
100
AcDbEntity
  8
4
100
AcDbLine
  6
CONTINUOUS
 62
3
 10
3.114166E+002
 20
2.46766E+002
 11
3.1121661E+002
 21
2.46766E+002
  0
ARC
  5
77e
100
AcDbEntity
  8
4
100
AcDbCircle
  6
CONTINUOUS
 62
3
 10
3.2471661E+002
 20
2.46766E+002
 40
1.33E+001
100
AcDbArc
 50
0.0
 51
1.8E+002
  0
LINE
  5
77f
100
AcDbEntity
  8
4
100
AcDbLine
  6
CONTINUOUS
 62
3
 10
3.114166E+002
 20
2.46766E+002
 11
3.114166E+002
 21
2.00766E+002
  0
LINE
  5
780
100
AcDbEntity
  8
4
100
AcDbLine
  6
CONTINUOUS
 62
3
 10
3.3451662E+002
 20
2.45766E+002
 11
3.3471662E+002
 21
2.45766E+002
  0
LINE
  5
781
100
AcDbEntity
  8
4
100
AcDbLine
  6
CONTINUOUS
 62
3
 10
3.3451662E+002
 20
1.9874275E+002
 11
3.3451662E+002
 21
2.45766E+002
  0
LINE
  5
782
100
AcDbEntity
  8
4
100
AcDbLine
  6
CONTINUOUS
 62
3
 10
3.1491662E+002
 20
2.45766E+002
 11
3.147166E+002
 21
2.45766E+002
  0
ARC
  5
783
100
AcDbEntity
  8
4
100
AcDbCircle
  6
CONTINUOUS
 62
3
 10
3.2471661E+002
 20
2.45766E+002
 40
9.8
100
AcDbArc
 50
0.0
 51
1.8E+002
  0
LINE
  5
784
100
AcDbEntity
  8
4
100
AcDbLine
  6
CONTINUOUS
 62
3
 10
3.1491662E+002
 20
2.45766E+002
 11
3.1491662E+002
 21
1.9874275E+002
  0
LINE
  5
785
100
AcDbEntity
  8
4
100
AcDbLine
  6
CONTINUOUS
 62
3
 10
3.3101661E+002
 20
2.44766E+002
 11
3.3121662E+002
 21
2.44766E+002
  0
LINE
  5
786
100
AcDbEntity
  8
4
100
AcDbLine
  6
CONTINUOUS
 62
3
 10
3.3101661E+002
 20
2.44766E+002
 11
3.3101661E+002
 21
2.4035711E+002
  0
LINE
  5
787
100
AcDbEntity
  8
4
100
AcDbLine
  6
CONTINUOUS
 62
3
 10
3.1841661E+002
 20
2.44766E+002
 11
3.1821662E+002
 21
2.44766E+002
  0
ARC
  5
788
100
AcDbEntity
  8
4
100
AcDbCircle
  6
CONTINUOUS
 62
3
 10
3.2471661E+002
 20
2.44766E+002
 40
6.3
100
AcDbArc
 50
0.0
 51
1.8E+002
  0
LINE
  5
789
100
AcDbEntity
  8
4
100
AcDbLine
  6
CONTINUOUS
 62
3
 10
3.1841661E+002
 20
2.4035711E+002
 11
3.1841661E+002
 21
2.44766E+002
  0
LINE
  5
78a
100
AcDbEntity
  8
4
100
AcDbLine
  6
CONTINUOUS
 62
3
 10
3.1841661E+002
 20
2.401561E+002
 11
3.1841661E+002
 21
1.9674276E+002
  0
LINE
  5
78b
100
AcDbEntity
  8
4
100
AcDbLine
  6
CONTINUOUS
 62
3
 10
3.1882606E+002
 20
2.4001804E+002
 11
3.1841661E+002
 21
2.401561E+002
  0
LINE
  5
78c
100
AcDbEntity
  8
4
100
AcDbLine
  6
CONTINUOUS
 62
3
 10
3.3101661E+002
 20
1.9674276E+002
 11
3.3101661E+002
 21
2.401561E+002
  0
LINE
  5
78d
100
AcDbEntity
  8
4
100
AcDbLine
  6
CONTINUOUS
 62
3
 10
3.3101661E+002
 20
2.401561E+002
 11
3.3060718E+002
 21
2.4001804E+002
  0
LINE
  5
78e
100
AcDbEntity
  8
4
100
AcDbLine
  6
CONTINUOUS
 62
3
 10
3.035166E+002
 20
2.6746601E+002
 11
3.035166E+002
 21
2.6596601E+002
  0
LINE
  5
78f
100
AcDbEntity
  8
4
100
AcDbLine
  6
CONTINUOUS
 62
3
 10
3.4591662E+002
 20
2.6596601E+002
 11
3.4591662E+002
 21
2.6746601E+002
  0
LINE
  5
790
100
AcDbEntity
  8
4
100
AcDbLine
  6
CONTINUOUS
 62
3
 10
3.4641662E+002
 20
2.6596601E+002
 11
3.4591662E+002
 21
2.6596601E+002
  0
LINE
  5
791
100
AcDbEntity
  8
4
100
AcDbLine
  6
CONTINUOUS
 62
3
 10
3.030166E+002
 20
2.6596601E+002
 11
3.035166E+002
 21
2.6596601E+002
  0
DIMENSION
  5
792
100
AcDbEntity
  8
2
100
AcDbDimension
  6
CONTINUOUS
 62
1
  2
*D578
  3
DSTYLE1
 10
3.0301661E+002
 20
4.6669806E+001
 11
3.2471661E+002
 21
5.0170806E+001
 70
128
100
AcDbAlignedDimension
 13
3.4641661E+002
 23
6.2499024E+001
 14
3.0301661E+002
 24
6.2499024E+001
 40
4.0
 50
1.8E+002
100
AcDbRotatedDimension
1001
ACAD
1000
DSTYLE
1002
{
1070
173
1070
0
1070
5
1000
_AH1
1002
}
  0
DIMENSION
  5
793
100
AcDbEntity
  8
3
100
AcDbDimension
  6
CONTINUOUS
 62
1
  2
*D579
  3
DSTYLE1
 10
1.979903E+002
 20
5.9057202E+001
 11
1.944893E+002
 21
1.164572E+002
 70
128
100
AcDbAlignedDimension
 13
1.8042322E+002
 23
1.738572E+002
 14
1.8539647E+002
 24
5.9057202E+001
 40
4.0
 50
2.7E+002
100
AcDbRotatedDimension
1001
ACAD
1000
DSTYLE
1002
{
1070
173
1070
0
1070
5
1000
_AH1
1002
}
  0
DIMENSION
  5
794
100
AcDbEntity
  8
3
100
AcDbDimension
  6
CONTINUOUS
 62
1
  2
*D580
  3
DSTYLE1
 10
1.1067322E+002
 20
1.826265E+002
 11
1.4802322E+002
 21
1.861275E+002
 70
128
100
AcDbAlignedDimension
 13
1.8537322E+002
 23
1.673572E+002
 14
1.1067322E+002
 24
1.551072E+002
 40
4.0
 50
0.0
100
AcDbRotatedDimension
1001
ACAD
1000
DSTYLE
1002
{
1070
173
1070
0
1070
5
1000
_AH1
1002
}
  0
VIEWPORT
  5
795
100
AcDbEntity
 67
1
  8
0
  6
CONTINUOUS
 62
3
100
AcDbViewport
 10
2.1E+002
 20
1.485E+002
 30
0.0
 40
2.97E+002
 41
2.97E+002
 68
1
 69
1
1001
ACAD
1000
MVIEW
1002
{
1070
16
1010
0.0
1020
0.0
1030
0.0
1010
0.0
1020
0.0
1030
1.0
1040
0.0
1040
2.97E+002
1040
1.155E+002
1040
1.485E+002
1040
5.0E+001
1040
0.0
1040
0.0
1070
0
1070
1000
1070
1
1070
0
1070
0
1070
0
1070
0
1070
0
1040
0.0
1040
0.0
1040
0.0
1040
5.0E-001
1040
5.0E-001
1040
5.0E-001
1040
5.0E-001
1070
0
1002
{
1002
}
1002
}
  0
VIEWPORT
  5
796
100
AcDbEntity
 67
1
  8
0
100
AcDbViewport
 62
3
 10
2.1E+002
 20
1.485E+002
 30
0.0
 40
4.2E+002
 41
2.97E+002
 68
2
 69
2
1001
ACAD
1000
MVIEW
1002
{
1070
16
1010
0.0
1020
0.0
1030
0.0
1010
0.0
1020
0.0
1030
1.0
1040
0.0
1040
2.97E+002
1040
2.1E+002
1040
1.485E+002
1040
5.0E+001
1040
0.0
1040
0.0
1070
0
1070
1000
1070
1
1070
0
1070
0
1070
0
1070
0
1070
0
1040
0.0
1040
0.0
1040
0.0
1040
5.0E-001
1040
5.0E-001
1040
5.0E-001
1040
5.0E-001
1070
0
1002
{
1003
2
1003
3
1003
4
1002
}
1002
}
  0
VIEWPORT
  5
797
100
AcDbEntity
 67
1
  8
0
100
AcDbViewport
 62
3
 10
3.2471661E+002
 20
1.1458764E+002
 30
0.0
 40
1.2976276E+002
 41
1.6413906E+002
 68
3
 69
3
1001
ACAD
1000
MVIEW
1002
{
1070
16
1010
0.0
1020
0.0
1030
0.0
1010
0.0
1020
0.0
1030
1.0
1040
0.0
1040
1.6413906E+002
1040
3.2471661E+002
1040
1.1458764E+002
1040
5.0E+001
1040
0.0
1040
0.0
1070
0
1070
1000
1070
1
1070
0
1070
0
1070
0
1070
0
1070
0
1040
0.0
1040
0.0
1040
0.0
1040
5.0E-001
1040
5.0E-001
1040
5.0E-001
1040
5.0E-001
1070
0
1002
{
1003
1
1003
3
1003
4
1002
}
1002
}
  0
VIEWPORT
  5
798
100
AcDbEntity
 67
1
  8
0
100
AcDbViewport
 62
3
 10
1.4803485E+002
 20
1.1644582E+002
 30
0.0
 40
1.6856237E+002
 41
1.6413906E+002
 68
4
 69
4
1001
ACAD
1000
MVIEW
1002
{
1070
16
1010
0.0
1020
0.0
1030
0.0
1010
0.0
1020
0.0
1030
1.0
1040
0.0
1040
1.6413906E+002
1040
1.4803485E+002
1040
1.1644582E+002
1040
5.0E+001
1040
0.0
1040
0.0
1070
0
1070
1000
1070
1
1070
0
1070
0
1070
0
1070
0
1070
0
1040
0.0
1040
0.0
1040
0.0
1040
5.0E-001
1040
5.0E-001
1040
5.0E-001
1040
5.0E-001
1070
0
1002
{
1003
1
1003
2
1003
4
1002
}
1002
}
  0
VIEWPORT
  5
799
100
AcDbEntity
 67
1
  8
0
100
AcDbViewport
 62
3
 10
3.2471661E+002
 20
2.3010438E+002
 30
0.0
 40
1.2976276E+002
 41
1.315159E+002
 68
5
 69
5
1001
ACAD
1000
MVIEW
1002
{
1070
16
1010
0.0
1020
0.0
1030
0.0
1010
0.0
1020
0.0
1030
1.0
1040
0.0
1040
1.315159E+002
1040
3.2471661E+002
1040
2.3010438E+002
1040
5.0E+001
1040
0.0
1040
0.0
1070
0
1070
1000
1070
1
1070
0
1070
0
1070
0
1070
0
1070
0
1040
0.0
1040
0.0
1040
0.0
1040
5.0E-001
1040
5.0E-001
1040
5.0E-001
1040
5.0E-001
1070
0
1002
{
1003
1
1003
2
1003
3
1002
}
1002
}
  0
ENDSEC
  0
SECTION
  2
OBJECTS
  0
DICTIONARY
  5
79a
100
AcDbDictionary
  3
ACAD_GROUP
350
79b
  3
ACAD_MLINESTYLE
350
79c
  0
DICTIONARY
  5
79b
102
{ACAD_REACTORS
330
79a
102
}
100
AcDbDictionary
  0
DICTIONARY
  5
79c
102
{ACAD_REACTORS
330
79a
102
}
100
AcDbDictionary
  3
STANDARD
350
79d
  0
MLINESTYLE
  5
79d
102
{ACAD_REACTORS
330
79c
102
}
100
AcDbMlineStyle
  2
STANDARD
 70
0
  3

 62
256
 51
9.0E+001
 52
9.0E+001
 71
2
 49
5.0E-001
 62
256
  6
BYLAYER
 49
-5.0E-001
 62
256
  6
BYLAYER
  0
ENDSEC
  0
EOF
