  0
SECTION
  2
HEADER
  9
$ACADVER
  1
AC1009
999
I-DEAS Drafting Master Series 7m3 Not Encoded
  9
$EXTMIN
 10
0.0
 20
0.0
  9
$EXTMAX
 10
4.2E+002
 20
2.97E+002
  9
$TEXTSIZE
 40
1.25E-001
  9
$LTSCALE
 40
1.0
  9
$CLAYER
  8
1
  9
$CECOLOR
 62
2
  9
$DIMASZ
 40
1.25E-001
  9
$DIMEXO
 40
6.25E-002
  9
$DIMDLI
 40
2.5E-001
  9
$DIMEXE
 40
1.25E-001
  9
$DIMTP
 40
5.0E-003
  9
$DIMTM
 40
-5.0E-003
  9
$DIMTXT
 40
3.0
  9
$DIMLIM
 70
0
  9
$DIMTIH
 70
1
  9
$DIMTOH
 70
1
  9
$DIMSE1
 70
0
  9
$DIMSE2
 70
0
  9
$DIMTAD
 70
0
  9
$DIMASO
 70
1
  9
$DIMALT
 70
0
  9
$DIMALTD
 70
0
  9
$DIMTOFL
 70
1
  9
$DIMTIX
 70
0
  9
$DIMSAH
 70
0
  9
$DIMTFAC
 40
1.0
  9
$DIMGAP
 40
6.25E-002
  9
$LUNITS
 70
2
  9
$LUPREC
 70
3
  9
$FILLETRAD
 40
1.0E+001
  9
$AUNITS
 70
0
  9
$AUPREC
 70
1
  9
$CHAMFERA
 40
6.0
  9
$CHAMFERB
 40
6.0
  9
$ANGBASE
 50
0.0
  9
$ANGDIR
 70
0
  9
$PDMODE
 70
2
  9
$PDSIZE
 40
-1.0E-002
  9
$SPLINETYPE
 70
6
  0
ENDSEC
  0
SECTION
  2
TABLES
  0
TABLE
  2
LTYPE
 70
13
  0
LTYPE
  2
HIDDENNEW00
  3
_ 
 70
64
 72
65
 73
2
 40
4.5
 49
3.0
 49
-1.5
  0
LTYPE
  2
HIDDENNEW01
  3
_ 
 70
64
 72
65
 73
2
 40
4.5
 49
3.0
 49
-1.5
  0
LTYPE
  2
HIDDEN
  3
_ 
 70
64
 72
65
 73
2
 40
4.5
 49
3.0
 49
-1.5
  0
LTYPE
  2
CENTERLINE
  3
_ 
 70
64
 72
65
 73
4
 40
3.0E+001
 49
2.4E+001
 49
-1.5
 49
3.0
 49
-1.5
  0
LTYPE
  2
PHANTOM
  3
_ 
 70
64
 72
65
 73
6
 40
2.95E+001
 49
1.9E+001
 49
-1.5
 49
3.0
 49
-1.5
 49
3.0
 49
-1.5
  0
LTYPE
  2
SHORT_DASH
  3
_ 
 70
64
 72
65
 73
2
 40
3.0
 49
1.5
 49
-1.5
  0
LTYPE
  2
LONG_DASH
  3
_ 
 70
64
 72
65
 73
2
 40
9.0
 49
4.5
 49
-4.5
  0
LTYPE
  2
DASHED
  3
_ 
 70
64
 72
65
 73
2
 40
1.0
 49
7.5E-001
 49
-2.5E-001
  0
LTYPE
  2
CENTER
  3
_ 
 70
64
 72
65
 73
4
 40
2.625
 49
1.875
 49
-2.5E-001
 49
2.5E-001
 49
-2.5E-001
  0
LTYPE
  2
DOT
  3
_ 
 70
64
 72
65
 73
2
 40
2.5375E-001
 49
3.75E-003
 49
-2.5E-001
  0
LTYPE
  2
DASHDOT
  3
_ 
 70
64
 72
65
 73
4
 40
1.26
 49
7.5E-001
 49
-2.5E-001
 49
1.0E-002
 49
-2.5E-001
  0
LTYPE
  2
BORDER
  3
_ 
 70
64
 72
65
 73
6
 40
2.0175
 49
7.5E-001
 49
-2.5E-001
 49
5.0E-001
 49
-2.5E-001
 49
1.75E-002
 49
-2.5E-001
  0
LTYPE
  2
DIVIDE
  3
_ 
 70
64
 72
65
 73
6
 40
1.525
 49
7.5E-001
 49
-2.5E-001
 49
1.25E-002
 49
-2.5E-001
 49
1.25E-002
 49
-2.5E-001
  0
ENDTAB
  0
TABLE
  2
LAYER
 70
258
  0
LAYER
  2
1
 70
0
 62
7
  6
CONTINUOUS
  0
LAYER
  2
2
 70
0
 62
7
  6
CONTINUOUS
  0
LAYER
  2
3
 70
0
 62
7
  6
CONTINUOUS
  0
LAYER
  2
Drafting_Hidden_Entities
 70
1
 62
7
  6
CONTINUOUS
  0
ENDTAB
  0
TABLE
  2
STYLE
 70
1
  0
STYLE
  2
STANDARD
 70
64
 40
0.0
 41
1.0
 50
0.0
 71
0
 42
1.0
  3
monotxt.shx
  4

  0
ENDTAB
  0
TABLE
  2
VIEW
 70
0
  0
ENDTAB
  0
TABLE
  2
DIMSTYLE
 70
1
  0
DIMSTYLE
  2
DSTYLE1
 70
0
  3

  4

  5

  6

  7

 40
1.0
 41
3.0
 42
0.0
 43
3.8E-001
 44
3.0
 45
1.0E-001
 46
0.0
 47
1.0
 48
1.0
 71
0
 72
0
 73
0
 74
0
 75
0
 76
0
 77
1
 78
11
140
3.0
141
9.0E-002
142
0.0
143
3.9370079E-002
144
1.0
145
0.0
146
1.0
147
1.5
170
0
171
2
172
0
173
0
174
0
175
0
176
0
177
0
178
0
  0
ENDTAB
  0
ENDSEC
  0
SECTION
  2
BLOCKS
  0
BLOCK
  2
*TX37
  3
*TX
 10
0.0
 20
0.0
 70
65
  0
TEXT
  8
3
  6
CONTINUOUS
 62
1
 10
0.0
 20
0.0
 40
2.0
  1
1SCC301061F0002
  0
TEXT
  8
3
  6
CONTINUOUS
 62
1
 10
0.0
 20
-3.0
 40
2.0
  1
22488601
  0
ENDBLK
  0
BLOCK
  2
*D604
  3
*D
 10
0.0
 20
0.0
 70
65
  0
LINE
  8
1
  6
CONTINUOUS
 62
1
 10
2.0097E+002
 20
2.84876E+002
 11
2.95893E+002
 21
2.84876E+002
  0
LINE
  8
1
  6
CONTINUOUS
 62
1
 10
2.8447E+002
 20
2.10376E+002
 11
2.95893E+002
 21
2.10376E+002
  0
LINE
  8
1
  6
CONTINUOUS
 62
1
 10
2.92893E+002
 20
2.84876E+002
 11
2.92393E+002
 21
2.81876E+002
  0
LINE
  8
1
  6
CONTINUOUS
 62
1
 10
2.92893E+002
 20
2.84876E+002
 11
2.93393E+002
 21
2.81876E+002
  0
LINE
  8
1
  6
CONTINUOUS
 62
1
 10
2.92393E+002
 20
2.81876E+002
 11
2.93393E+002
 21
2.81876E+002
  0
LINE
  8
1
  6
CONTINUOUS
 62
1
 10
2.92893E+002
 20
2.10376E+002
 11
2.92393E+002
 21
2.13376E+002
  0
LINE
  8
1
  6
CONTINUOUS
 62
1
 10
2.92893E+002
 20
2.10376E+002
 11
2.93393E+002
 21
2.13376E+002
  0
LINE
  8
1
  6
CONTINUOUS
 62
1
 10
2.92393E+002
 20
2.13376E+002
 11
2.93393E+002
 21
2.13376E+002
  0
LINE
  8
1
  6
CONTINUOUS
 62
1
 10
2.92893E+002
 20
2.84876E+002
 11
2.92893E+002
 21
2.42729E+002
  0
LINE
  8
1
  6
CONTINUOUS
 62
1
 10
2.92893E+002
 20
2.10376E+002
 11
2.92893E+002
 21
2.42729E+002
  0
TEXT
  8
1
  6
CONTINUOUS
 62
1
 10
2.91392E+002
 20
2.36729E+002
 40
3.0
  1
74,5
 50
9.0E+001
  0
ENDBLK
  0
ENDSEC
  0
SECTION
  2
ENTITIES
  0
LINE
  8
1
  6
CONTINUOUS
 62
40
 10
1.7097E+002
 20
7.5217E+001
 11
1.7097E+002
 21
1.43217E+002
  0
LINE
  8
1
  6
CONTINUOUS
 62
40
 10
1.4397E+002
 20
1.85217E+002
 11
2.6997E+002
 21
1.85217E+002
  0
LINE
  8
1
  6
CONTINUOUS
 62
40
 10
1.4397E+002
 20
7.5217E+001
 11
2.6997E+002
 21
7.5217E+001
  0
LINE
  8
1
  6
CONTINUOUS
 62
40
 10
1.4397E+002
 20
7.5217E+001
 11
1.4397E+002
 21
1.85217E+002
  0
LINE
  8
1
  6
CONTINUOUS
 62
40
 10
2.4297E+002
 20
7.5217E+001
 11
2.4297E+002
 21
1.43217E+002
  0
LINE
  8
1
  6
CONTINUOUS
 62
40
 10
2.6997E+002
 20
7.5217E+001
 11
2.6997E+002
 21
1.85217E+002
  0
LINE
  8
1
  6
CONTINUOUS
 62
40
 10
1.4397E+002
 20
1.52717E+002
 11
2.6997E+002
 21
1.52717E+002
  0
LINE
  8
1
  6
CONTINUOUS
 62
40
 10
1.4397E+002
 20
1.07717E+002
 11
2.6997E+002
 21
1.07717E+002
  0
LINE
  8
1
  6
CONTINUOUS
 62
40
 10
1.4597E+002
 20
6.6717E+001
 11
1.4597E+002
 21
7.5217E+001
  0
LINE
  8
1
  6
CONTINUOUS
 62
40
 10
1.6897E+002
 20
6.6717E+001
 11
1.6897E+002
 21
7.5217E+001
  0
LINE
  8
1
  6
CONTINUOUS
 62
40
 10
2.1797E+002
 20
6.6717E+001
 11
2.1797E+002
 21
7.5217E+001
  0
LINE
  8
1
  6
CONTINUOUS
 62
40
 10
2.4097E+002
 20
6.6717E+001
 11
2.4097E+002
 21
7.5217E+001
  0
LINE
  8
1
  6
CONTINUOUS
 62
40
 10
2.4497E+002
 20
6.6717E+001
 11
2.4497E+002
 21
7.5217E+001
  0
LINE
  8
1
  6
CONTINUOUS
 62
40
 10
2.6797E+002
 20
6.6717E+001
 11
2.6797E+002
 21
7.5217E+001
  0
LINE
  8
1
  6
CONTINUOUS
 62
40
 10
1.4797E+002
 20
6.6717E+001
 11
1.4797E+002
 21
7.5217E+001
  0
LINE
  8
1
  6
CONTINUOUS
 62
40
 10
1.6697E+002
 20
6.6717E+001
 11
1.6697E+002
 21
7.5217E+001
  0
LINE
  8
1
  6
CONTINUOUS
 62
40
 10
2.1997E+002
 20
6.6717E+001
 11
2.1997E+002
 21
7.5217E+001
  0
LINE
  8
1
  6
CONTINUOUS
 62
40
 10
2.3897E+002
 20
6.6717E+001
 11
2.3897E+002
 21
7.5217E+001
  0
LINE
  8
1
  6
CONTINUOUS
 62
40
 10
2.4697E+002
 20
6.6717E+001
 11
2.4697E+002
 21
7.5217E+001
  0
LINE
  8
1
  6
CONTINUOUS
 62
40
 10
2.6597E+002
 20
6.6717E+001
 11
2.6597E+002
 21
7.5217E+001
  0
LINE
  8
1
  6
CONTINUOUS
 62
40
 10
1.4597E+002
 20
1.93717E+002
 11
1.4797E+002
 21
1.93717E+002
  0
LINE
  8
1
  6
CONTINUOUS
 62
40
 10
1.4597E+002
 20
6.6717E+001
 11
1.4797E+002
 21
6.6717E+001
  0
LINE
  8
1
  6
CONTINUOUS
 62
40
 10
1.4597E+002
 20
1.85217E+002
 11
1.4597E+002
 21
1.93717E+002
  0
LINE
  8
1
  6
CONTINUOUS
 62
40
 10
1.4797E+002
 20
1.85217E+002
 11
1.4797E+002
 21
1.93717E+002
  0
LINE
  8
1
  6
CONTINUOUS
 62
40
 10
1.6697E+002
 20
1.85217E+002
 11
1.6697E+002
 21
1.93717E+002
  0
LINE
  8
1
  6
CONTINUOUS
 62
40
 10
1.6897E+002
 20
1.85217E+002
 11
1.6897E+002
 21
1.93717E+002
  0
LINE
  8
1
  6
CONTINUOUS
 62
40
 10
2.1797E+002
 20
1.85217E+002
 11
2.1797E+002
 21
1.93717E+002
  0
LINE
  8
1
  6
CONTINUOUS
 62
40
 10
2.1997E+002
 20
1.85217E+002
 11
2.1997E+002
 21
1.93717E+002
  0
LINE
  8
1
  6
CONTINUOUS
 62
40
 10
2.3897E+002
 20
1.85217E+002
 11
2.3897E+002
 21
1.93717E+002
  0
LINE
  8
1
  6
CONTINUOUS
 62
40
 10
2.4097E+002
 20
1.85217E+002
 11
2.4097E+002
 21
1.93717E+002
  0
LINE
  8
1
  6
CONTINUOUS
 62
40
 10
2.4497E+002
 20
1.85217E+002
 11
2.4497E+002
 21
1.93717E+002
  0
LINE
  8
1
  6
CONTINUOUS
 62
40
 10
2.4697E+002
 20
1.85217E+002
 11
2.4697E+002
 21
1.93717E+002
  0
LINE
  8
1
  6
CONTINUOUS
 62
40
 10
2.6597E+002
 20
1.85217E+002
 11
2.6597E+002
 21
1.93717E+002
  0
LINE
  8
1
  6
CONTINUOUS
 62
40
 10
2.6797E+002
 20
1.85217E+002
 11
2.6797E+002
 21
1.93717E+002
  0
LINE
  8
1
  6
CONTINUOUS
 62
40
 10
1.6697E+002
 20
1.93717E+002
 11
1.6897E+002
 21
1.93717E+002
  0
LINE
  8
1
  6
CONTINUOUS
 62
40
 10
2.1797E+002
 20
1.93717E+002
 11
2.1997E+002
 21
1.93717E+002
  0
LINE
  8
1
  6
CONTINUOUS
 62
40
 10
2.3897E+002
 20
1.93717E+002
 11
2.4097E+002
 21
1.93717E+002
  0
LINE
  8
1
  6
CONTINUOUS
 62
40
 10
2.4497E+002
 20
1.93717E+002
 11
2.4697E+002
 21
1.93717E+002
  0
LINE
  8
1
  6
CONTINUOUS
 62
40
 10
2.6597E+002
 20
1.93717E+002
 11
2.6797E+002
 21
1.93717E+002
  0
LINE
  8
1
  6
CONTINUOUS
 62
40
 10
1.6697E+002
 20
6.6717E+001
 11
1.6897E+002
 21
6.6717E+001
  0
LINE
  8
1
  6
CONTINUOUS
 62
40
 10
2.1797E+002
 20
6.6717E+001
 11
2.1997E+002
 21
6.6717E+001
  0
LINE
  8
1
  6
CONTINUOUS
 62
40
 10
2.3897E+002
 20
6.6717E+001
 11
2.4097E+002
 21
6.6717E+001
  0
LINE
  8
1
  6
CONTINUOUS
 62
40
 10
2.4497E+002
 20
6.6717E+001
 11
2.4697E+002
 21
6.6717E+001
  0
LINE
  8
1
  6
CONTINUOUS
 62
40
 10
2.6597E+002
 20
6.6717E+001
 11
2.6797E+002
 21
6.6717E+001
  0
LINE
  8
1
  6
CONTINUOUS
 62
40
 10
1.8647E+002
 20
6.7417E+001
 11
1.8647E+002
 21
7.5217E+001
  0
LINE
  8
1
  6
CONTINUOUS
 62
40
 10
2.0047E+002
 20
6.7417E+001
 11
2.0047E+002
 21
7.5217E+001
  0
LINE
  8
1
  6
CONTINUOUS
 62
40
 10
1.8947E+002
 20
6.9717E+001
 11
1.8947E+002
 21
7.1717E+001
  0
LINE
  8
1
  6
CONTINUOUS
 62
40
 10
1.9747E+002
 20
6.9717E+001
 11
1.9747E+002
 21
7.1717E+001
  0
LINE
  8
1
  6
CONTINUOUS
 62
40
 10
1.8947E+002
 20
1.96017E+002
 11
1.9747E+002
 21
1.96017E+002
  0
LINE
  8
1
  6
CONTINUOUS
 62
40
 10
1.8947E+002
 20
6.4417E+001
 11
1.9747E+002
 21
6.4417E+001
  0
LINE
  8
1
  6
CONTINUOUS
 62
40
 10
1.8947E+002
 20
1.88717E+002
 11
1.8947E+002
 21
1.90717E+002
  0
LINE
  8
1
  6
CONTINUOUS
 62
40
 10
1.9747E+002
 20
1.88717E+002
 11
1.9747E+002
 21
1.90717E+002
  0
LINE
  8
1
  6
CONTINUOUS
 62
40
 10
2.0047E+002
 20
1.85217E+002
 11
2.0047E+002
 21
1.93017E+002
  0
LINE
  8
1
  6
CONTINUOUS
 62
40
 10
1.8647E+002
 20
1.85217E+002
 11
1.8647E+002
 21
1.93017E+002
  0
ARC
  8
1
  6
CONTINUOUS
 62
40
 10
1.8947E+002
 20
6.7417E+001
 40
3.0
 50
1.8E+002
 51
2.7E+002
  0
ARC
  8
1
  6
CONTINUOUS
 62
40
 10
1.9747E+002
 20
6.7417E+001
 40
3.0
 50
2.7E+002
 51
3.6E+002
  0
ARC
  8
1
  6
CONTINUOUS
 62
40
 10
1.8947E+002
 20
1.93017E+002
 40
3.0
 50
9.0E+001
 51
1.8E+002
  0
ARC
  8
1
  6
CONTINUOUS
 62
40
 10
1.9747E+002
 20
1.93017E+002
 40
3.0
 50
0.0
 51
9.0E+001
  0
LINE
  8
1
  6
CONTINUOUS
 62
40
 10
1.9147E+002
 20
1.33217E+002
 11
1.9547E+002
 21
1.33217E+002
  0
LINE
  8
1
  6
CONTINUOUS
 62
40
 10
1.9147E+002
 20
1.27217E+002
 11
1.9547E+002
 21
1.27217E+002
  0
LINE
  8
1
  6
CONTINUOUS
 62
40
 10
1.9047E+002
 20
1.28217E+002
 11
1.9047E+002
 21
1.32217E+002
  0
LINE
  8
1
  6
CONTINUOUS
 62
40
 10
1.9647E+002
 20
1.28217E+002
 11
1.9647E+002
 21
1.32217E+002
  0
ARC
  8
1
  6
CONTINUOUS
 62
40
 10
1.9547E+002
 20
1.32217E+002
 40
1.0
 50
0.0
 51
9.0E+001
  0
ARC
  8
1
  6
CONTINUOUS
 62
40
 10
1.9547E+002
 20
1.28217E+002
 40
1.0
 50
2.7E+002
 51
3.6E+002
  0
ARC
  8
1
  6
CONTINUOUS
 62
40
 10
1.9147E+002
 20
1.28217E+002
 40
1.0
 50
1.8E+002
 51
2.7E+002
  0
ARC
  8
1
  6
CONTINUOUS
 62
40
 10
1.9147E+002
 20
1.32217E+002
 40
1.0
 50
9.0E+001
 51
1.8E+002
  0
LINE
  8
1
  6
CONTINUOUS
 62
40
 10
1.5147E+002
 20
1.39717E+002
 11
1.6347E+002
 21
1.39717E+002
  0
LINE
  8
1
  6
CONTINUOUS
 62
40
 10
1.5147E+002
 20
1.11717E+002
 11
1.6347E+002
 21
1.11717E+002
  0
LINE
  8
1
  6
CONTINUOUS
 62
40
 10
1.5147E+002
 20
1.11717E+002
 11
1.5147E+002
 21
1.39717E+002
  0
LINE
  8
1
  6
CONTINUOUS
 62
40
 10
1.6347E+002
 20
1.11717E+002
 11
1.6347E+002
 21
1.39717E+002
  0
LINE
  8
1
  6
CONTINUOUS
 62
40
 10
2.3547E+002
 20
1.11717E+002
 11
2.3547E+002
 21
1.39717E+002
  0
LINE
  8
1
  6
CONTINUOUS
 62
40
 10
2.5047E+002
 20
1.11717E+002
 11
2.5047E+002
 21
1.39717E+002
  0
LINE
  8
1
  6
CONTINUOUS
 62
40
 10
2.6247E+002
 20
1.11717E+002
 11
2.6247E+002
 21
1.39717E+002
  0
LINE
  8
1
  6
CONTINUOUS
 62
40
 10
2.2347E+002
 20
1.39717E+002
 11
2.3547E+002
 21
1.39717E+002
  0
LINE
  8
1
  6
CONTINUOUS
 62
40
 10
2.2347E+002
 20
1.11717E+002
 11
2.3547E+002
 21
1.11717E+002
  0
LINE
  8
1
  6
CONTINUOUS
 62
40
 10
2.5047E+002
 20
1.11717E+002
 11
2.6247E+002
 21
1.11717E+002
  0
LINE
  8
1
  6
CONTINUOUS
 62
40
 10
2.5047E+002
 20
1.39717E+002
 11
2.6247E+002
 21
1.39717E+002
  0
LINE
  8
1
  6
CONTINUOUS
 62
40
 10
1.4397E+002
 20
1.49217E+002
 11
2.6997E+002
 21
1.49217E+002
  0
LINE
  8
1
  6
CONTINUOUS
 62
40
 10
1.4397E+002
 20
1.43217E+002
 11
2.6997E+002
 21
1.43217E+002
  0
LINE
  8
1
  6
CONTINUOUS
 62
40
 10
1.7097E+002
 20
1.49217E+002
 11
1.7097E+002
 21
1.85217E+002
  0
LINE
  8
1
  6
CONTINUOUS
 62
40
 10
2.1597E+002
 20
1.49217E+002
 11
2.1597E+002
 21
1.85217E+002
  0
LINE
  8
1
  6
CONTINUOUS
 62
40
 10
2.4297E+002
 20
1.49217E+002
 11
2.4297E+002
 21
1.85217E+002
  0
LINE
  8
1
  6
CONTINUOUS
 62
40
 10
1.9317E+002
 20
1.43717E+002
 11
1.9317E+002
 21
1.48717E+002
  0
LINE
  8
1
  6
CONTINUOUS
 62
40
 10
1.9377E+002
 20
1.43717E+002
 11
1.9377E+002
 21
1.48717E+002
  0
LINE
  8
1
  6
CONTINUOUS
 62
40
 10
1.9317E+002
 20
1.48717E+002
 11
1.9377E+002
 21
1.48717E+002
  0
LINE
  8
1
  6
CONTINUOUS
 62
40
 10
1.9317E+002
 20
1.43717E+002
 11
1.9377E+002
 21
1.43717E+002
  0
CIRCLE
  8
1
  6
CONTINUOUS
 62
40
 10
1.7545E+002
 20
1.30297E+002
 40
2.5
  0
CIRCLE
  8
1
  6
CONTINUOUS
 62
40
 10
1.7545E+002
 20
1.30297E+002
 40
2.0
  0
LINE
  8
1
  6
CONTINUOUS
 62
40
 10
8.797E+001
 20
6.4417E+001
 11
8.797E+001
 21
7.5217E+001
  0
LINE
  8
1
  6
CONTINUOUS
 62
40
 10
8.047E+001
 20
1.12517E+002
 11
8.697E+001
 21
1.12517E+002
  0
LINE
  8
1
  6
CONTINUOUS
 62
40
 10
8.047E+001
 20
1.47917E+002
 11
8.697E+001
 21
1.47917E+002
  0
LINE
  8
1
  6
CONTINUOUS
 62
40
 10
8.047E+001
 20
9.2417E+001
 11
8.367E+001
 21
9.2417E+001
  0
LINE
  8
1
  6
CONTINUOUS
 62
40
 10
8.047E+001
 20
1.68017E+002
 11
8.797E+001
 21
1.68017E+002
  0
LINE
  8
1
  6
CONTINUOUS
 62
40
 10
3.897E+001
 20
7.5217E+001
 11
8.697E+001
 21
7.5217E+001
  0
LINE
  8
1
  6
CONTINUOUS
 62
40
 10
3.897E+001
 20
1.85217E+002
 11
8.697E+001
 21
1.85217E+002
  0
LINE
  8
1
  6
CONTINUOUS
 62
40
 10
5.342E+001
 20
6.6717E+001
 11
7.064E+001
 21
6.6717E+001
  0
LINE
  8
1
  6
CONTINUOUS
 62
40
 10
5.342E+001
 20
1.93717E+002
 11
7.064E+001
 21
1.93717E+002
  0
LINE
  8
1
  6
CONTINUOUS
 62
40
 10
8.047E+001
 20
9.2417E+001
 11
8.047E+001
 21
1.08537E+002
  0
LINE
  8
1
  6
CONTINUOUS
 62
40
 10
3.597E+001
 20
7.8217E+001
 11
3.597E+001
 21
1.07717E+002
  0
LINE
  8
1
  6
CONTINUOUS
 62
40
 10
2.797E+001
 20
1.09717E+002
 11
2.797E+001
 21
1.50717E+002
  0
LINE
  8
1
  6
CONTINUOUS
 62
40
 10
8.797E+001
 20
1.68017E+002
 11
8.797E+001
 21
1.96017E+002
  0
LINE
  8
1
  6
CONTINUOUS
 62
40
 10
2.997E+001
 20
1.07717E+002
 11
3.597E+001
 21
1.07717E+002
  0
LINE
  8
1
  6
CONTINUOUS
 62
40
 10
2.997E+001
 20
1.52717E+002
 11
3.597E+001
 21
1.52717E+002
  0
LINE
  8
1
  6
CONTINUOUS
 62
40
 10
3.597E+001
 20
1.52717E+002
 11
3.597E+001
 21
1.82217E+002
  0
LINE
  8
1
  6
CONTINUOUS
 62
40
 10
7.205E+001
 20
1.93137E+002
 11
7.997E+001
 21
1.85217E+002
  0
LINE
  8
1
  6
CONTINUOUS
 62
40
 10
7.205E+001
 20
6.7307E+001
 11
7.997E+001
 21
7.5217E+001
  0
ARC
  8
1
  6
CONTINUOUS
 62
40
 10
2.997E+001
 20
1.50717E+002
 40
2.0
 50
9.0E+001
 51
1.8E+002
  0
ARC
  8
1
  6
CONTINUOUS
 62
40
 10
2.997E+001
 20
1.09717E+002
 40
2.0
 50
1.8E+002
 51
2.7E+002
  0
ARC
  8
1
  6
CONTINUOUS
 62
40
 10
3.897E+001
 20
1.82217E+002
 40
3.0
 50
9.0E+001
 51
1.8E+002
  0
ARC
  8
1
  6
CONTINUOUS
 62
40
 10
3.897E+001
 20
7.8217E+001
 40
3.0
 50
1.8E+002
 51
2.7E+002
  0
LINE
  8
1
  6
CONTINUOUS
 62
40
 10
3.747E+001
 20
7.5617E+001
 11
5.242E+001
 21
6.6987E+001
  0
LINE
  8
1
  6
CONTINUOUS
 62
40
 10
3.747E+001
 20
1.84817E+002
 11
5.242E+001
 21
1.93447E+002
  0
ARC
  8
1
  6
CONTINUOUS
 62
40
 10
5.342E+001
 20
1.91717E+002
 40
2.0
 50
9.0E+001
 51
1.2E+002
  0
ARC
  8
1
  6
CONTINUOUS
 62
40
 10
7.064E+001
 20
1.91717E+002
 40
2.0
 50
4.5E+001
 51
9.0E+001
  0
ARC
  8
1
  6
CONTINUOUS
 62
40
 10
5.342E+001
 20
6.8717E+001
 40
2.0
 50
2.4E+002
 51
2.7E+002
  0
ARC
  8
1
  6
CONTINUOUS
 62
40
 10
7.064E+001
 20
6.8717E+001
 40
2.0
 50
2.7E+002
 51
3.15E+002
  0
LINE
  8
1
  6
CONTINUOUS
 62
40
 10
8.697E+001
 20
1.10517E+002
 11
8.697E+001
 21
1.12517E+002
  0
LINE
  8
1
  6
CONTINUOUS
 62
40
 10
8.13E+001
 20
1.50917E+002
 11
8.697E+001
 21
1.49917E+002
  0
LINE
  8
1
  6
CONTINUOUS
 62
40
 10
8.13E+001
 20
1.09517E+002
 11
8.697E+001
 21
1.10517E+002
  0
LINE
  8
1
  6
CONTINUOUS
 62
40
 10
8.697E+001
 20
1.47917E+002
 11
8.697E+001
 21
1.49917E+002
  0
ARC
  8
1
  6
CONTINUOUS
 62
40
 10
8.147E+001
 20
1.08537E+002
 40
1.0
 50
1.0E+002
 51
1.8E+002
  0
ARC
  8
1
  6
CONTINUOUS
 62
40
 10
8.147E+001
 20
1.51907E+002
 40
1.0
 50
1.8E+002
 51
2.6E+002
  0
LINE
  8
1
  6
CONTINUOUS
 62
40
 10
8.047E+001
 20
1.51907E+002
 11
8.047E+001
 21
1.68017E+002
  0
LINE
  8
1
  6
CONTINUOUS
 62
40
 10
8.047E+001
 20
1.12517E+002
 11
8.047E+001
 21
1.47917E+002
  0
LINE
  8
1
  6
CONTINUOUS
 62
40
 10
2.1597E+002
 20
2.10376E+002
 11
2.4297E+002
 21
2.10376E+002
  0
LINE
  8
1
  6
CONTINUOUS
 62
40
 10
2.1597E+002
 20
2.10376E+002
 11
2.1597E+002
 21
2.70376E+002
  0
LINE
  8
1
  6
CONTINUOUS
 62
40
 10
1.7097E+002
 20
2.10376E+002
 11
1.7097E+002
 21
2.70376E+002
  0
LINE
  8
1
  6
CONTINUOUS
 62
40
 10
2.4297E+002
 20
2.10376E+002
 11
2.4297E+002
 21
2.70376E+002
  0
LINE
  8
1
  6
CONTINUOUS
 62
40
 10
1.4397E+002
 20
2.10376E+002
 11
1.4397E+002
 21
2.70376E+002
  0
LINE
  8
1
  6
CONTINUOUS
 62
40
 10
2.6997E+002
 20
2.10376E+002
 11
2.6997E+002
 21
2.70376E+002
  0
LINE
  8
1
  6
CONTINUOUS
 62
40
 10
2.1597E+002
 20
2.70376E+002
 11
2.4297E+002
 21
2.70376E+002
  0
LINE
  8
1
  6
CONTINUOUS
 62
40
 10
2.1597E+002
 20
2.62376E+002
 11
2.4297E+002
 21
2.62376E+002
  0
LINE
  8
1
  6
CONTINUOUS
 62
40
 10
2.3897E+002
 20
2.18376E+002
 11
2.4097E+002
 21
2.18376E+002
  0
LINE
  8
1
  6
CONTINUOUS
 62
40
 10
2.4097E+002
 20
2.18376E+002
 11
2.4097E+002
 21
2.62376E+002
  0
LINE
  8
1
  6
CONTINUOUS
 62
40
 10
2.3897E+002
 20
2.18376E+002
 11
2.3897E+002
 21
2.62376E+002
  0
LINE
  8
1
  6
CONTINUOUS
 62
40
 10
2.1797E+002
 20
2.18376E+002
 11
2.1797E+002
 21
2.62376E+002
  0
LINE
  8
1
  6
CONTINUOUS
 62
40
 10
2.1997E+002
 20
2.18376E+002
 11
2.1997E+002
 21
2.62376E+002
  0
LINE
  8
1
  6
CONTINUOUS
 62
40
 10
1.6897E+002
 20
2.18376E+002
 11
1.6897E+002
 21
2.62376E+002
  0
LINE
  8
1
  6
CONTINUOUS
 62
40
 10
1.6697E+002
 20
2.18376E+002
 11
1.6697E+002
 21
2.62376E+002
  0
LINE
  8
1
  6
CONTINUOUS
 62
40
 10
1.4597E+002
 20
2.18376E+002
 11
1.4597E+002
 21
2.62376E+002
  0
LINE
  8
1
  6
CONTINUOUS
 62
40
 10
1.4797E+002
 20
2.18376E+002
 11
1.4797E+002
 21
2.62376E+002
  0
LINE
  8
1
  6
CONTINUOUS
 62
40
 10
2.4497E+002
 20
2.18376E+002
 11
2.4497E+002
 21
2.62376E+002
  0
LINE
  8
1
  6
CONTINUOUS
 62
40
 10
2.4697E+002
 20
2.18376E+002
 11
2.4697E+002
 21
2.62376E+002
  0
LINE
  8
1
  6
CONTINUOUS
 62
40
 10
2.6797E+002
 20
2.18376E+002
 11
2.6797E+002
 21
2.62376E+002
  0
LINE
  8
1
  6
CONTINUOUS
 62
40
 10
2.6597E+002
 20
2.18376E+002
 11
2.6597E+002
 21
2.62376E+002
  0
LINE
  8
1
  6
CONTINUOUS
 62
40
 10
2.1797E+002
 20
2.18376E+002
 11
2.1997E+002
 21
2.18376E+002
  0
LINE
  8
1
  6
CONTINUOUS
 62
40
 10
1.6697E+002
 20
2.18376E+002
 11
1.6897E+002
 21
2.18376E+002
  0
LINE
  8
1
  6
CONTINUOUS
 62
40
 10
1.4597E+002
 20
2.18376E+002
 11
1.4797E+002
 21
2.18376E+002
  0
LINE
  8
1
  6
CONTINUOUS
 62
40
 10
2.6597E+002
 20
2.18376E+002
 11
2.6797E+002
 21
2.18376E+002
  0
LINE
  8
1
  6
CONTINUOUS
 62
40
 10
2.4497E+002
 20
2.18376E+002
 11
2.4697E+002
 21
2.18376E+002
  0
LINE
  8
1
  6
CONTINUOUS
 62
40
 10
2.0047E+002
 20
2.10376E+002
 11
2.0047E+002
 21
2.15376E+002
  0
LINE
  8
1
  6
CONTINUOUS
 62
40
 10
1.8647E+002
 20
2.10376E+002
 11
1.8647E+002
 21
2.15376E+002
  0
LINE
  8
1
  6
CONTINUOUS
 62
40
 10
1.8647E+002
 20
2.15376E+002
 11
2.0047E+002
 21
2.15376E+002
  0
LINE
  8
1
  6
CONTINUOUS
 62
40
 10
2.2397E+002
 20
2.40676E+002
 11
2.3497E+002
 21
2.40676E+002
  0
LINE
  8
1
  6
CONTINUOUS
 62
40
 10
2.3697E+002
 20
2.26376E+002
 11
2.3697E+002
 21
2.38676E+002
  0
LINE
  8
1
  6
CONTINUOUS
 62
40
 10
2.2197E+002
 20
2.26376E+002
 11
2.2197E+002
 21
2.38676E+002
  0
LINE
  8
1
  6
CONTINUOUS
 62
40
 10
1.6497E+002
 20
2.26376E+002
 11
1.6497E+002
 21
2.38676E+002
  0
LINE
  8
1
  6
CONTINUOUS
 62
40
 10
1.4997E+002
 20
2.26376E+002
 11
1.4997E+002
 21
2.38676E+002
  0
LINE
  8
1
  6
CONTINUOUS
 62
40
 10
2.4897E+002
 20
2.26376E+002
 11
2.4897E+002
 21
2.38676E+002
  0
LINE
  8
1
  6
CONTINUOUS
 62
40
 10
2.6397E+002
 20
2.26376E+002
 11
2.6397E+002
 21
2.38676E+002
  0
LINE
  8
1
  6
CONTINUOUS
 62
40
 10
1.5197E+002
 20
2.40676E+002
 11
1.6297E+002
 21
2.40676E+002
  0
LINE
  8
1
  6
CONTINUOUS
 62
40
 10
2.5097E+002
 20
2.40676E+002
 11
2.6197E+002
 21
2.40676E+002
  0
LINE
  8
1
  6
CONTINUOUS
 62
40
 10
2.2397E+002
 20
2.24376E+002
 11
2.3497E+002
 21
2.24376E+002
  0
LINE
  8
1
  6
CONTINUOUS
 62
40
 10
1.5197E+002
 20
2.24376E+002
 11
1.6297E+002
 21
2.24376E+002
  0
LINE
  8
1
  6
CONTINUOUS
 62
40
 10
2.5097E+002
 20
2.24376E+002
 11
2.6197E+002
 21
2.24376E+002
  0
ARC
  8
1
  6
CONTINUOUS
 62
40
 10
2.3497E+002
 20
2.26376E+002
 40
2.0
 50
2.7E+002
 51
3.6E+002
  0
ARC
  8
1
  6
CONTINUOUS
 62
40
 10
2.2397E+002
 20
2.26376E+002
 40
2.0
 50
1.8E+002
 51
2.7E+002
  0
ARC
  8
1
  6
CONTINUOUS
 62
40
 10
2.2397E+002
 20
2.38676E+002
 40
2.0
 50
9.0E+001
 51
1.8E+002
  0
ARC
  8
1
  6
CONTINUOUS
 62
40
 10
2.3497E+002
 20
2.38676E+002
 40
2.0
 50
0.0
 51
9.0E+001
  0
ARC
  8
1
  6
CONTINUOUS
 62
40
 10
1.6297E+002
 20
2.38676E+002
 40
2.0
 50
0.0
 51
9.0E+001
  0
ARC
  8
1
  6
CONTINUOUS
 62
40
 10
1.6297E+002
 20
2.26376E+002
 40
2.0
 50
2.7E+002
 51
3.6E+002
  0
ARC
  8
1
  6
CONTINUOUS
 62
40
 10
1.5197E+002
 20
2.26376E+002
 40
2.0
 50
1.8E+002
 51
2.7E+002
  0
ARC
  8
1
  6
CONTINUOUS
 62
40
 10
1.5197E+002
 20
2.38676E+002
 40
2.0
 50
9.0E+001
 51
1.8E+002
  0
ARC
  8
1
  6
CONTINUOUS
 62
40
 10
2.5097E+002
 20
2.38676E+002
 40
2.0
 50
9.0E+001
 51
1.8E+002
  0
ARC
  8
1
  6
CONTINUOUS
 62
40
 10
2.6197E+002
 20
2.38676E+002
 40
2.0
 50
0.0
 51
9.0E+001
  0
ARC
  8
1
  6
CONTINUOUS
 62
40
 10
2.6197E+002
 20
2.26376E+002
 40
2.0
 50
2.7E+002
 51
3.6E+002
  0
ARC
  8
1
  6
CONTINUOUS
 62
40
 10
2.5097E+002
 20
2.26376E+002
 40
2.0
 50
1.8E+002
 51
2.7E+002
  0
LINE
  8
1
  6
CONTINUOUS
 62
40
 10
2.2347E+002
 20
2.39376E+002
 11
2.3547E+002
 21
2.39376E+002
  0
LINE
  8
1
  6
CONTINUOUS
 62
40
 10
2.3547E+002
 20
2.39376E+002
 11
2.3547E+002
 21
2.40616E+002
  0
LINE
  8
1
  6
CONTINUOUS
 62
40
 10
2.2347E+002
 20
2.39376E+002
 11
2.2347E+002
 21
2.40616E+002
  0
LINE
  8
1
  6
CONTINUOUS
 62
40
 10
1.6347E+002
 20
2.39376E+002
 11
1.6347E+002
 21
2.40616E+002
  0
LINE
  8
1
  6
CONTINUOUS
 62
40
 10
1.5147E+002
 20
2.39376E+002
 11
1.5147E+002
 21
2.40616E+002
  0
LINE
  8
1
  6
CONTINUOUS
 62
40
 10
2.5047E+002
 20
2.39376E+002
 11
2.5047E+002
 21
2.40616E+002
  0
LINE
  8
1
  6
CONTINUOUS
 62
40
 10
2.6247E+002
 20
2.39376E+002
 11
2.6247E+002
 21
2.40616E+002
  0
LINE
  8
1
  6
CONTINUOUS
 62
40
 10
1.5147E+002
 20
2.39376E+002
 11
1.6347E+002
 21
2.39376E+002
  0
LINE
  8
1
  6
CONTINUOUS
 62
40
 10
2.5047E+002
 20
2.39376E+002
 11
2.6247E+002
 21
2.39376E+002
  0
CIRCLE
  8
1
  6
CONTINUOUS
 62
40
 10
5.767E+001
 20
1.30217E+002
 40
1.37E+001
  0
LINE
  8
1
  6
CENTER
 62
40
 10
2.047E+001
 20
1.22437E+002
 11
2.047E+001
 21
1.38527E+002
  0
LINE
  8
1
  6
CONTINUOUS
 62
40
 10
8.513E+001
 20
9.6417E+001
 11
8.797E+001
 21
9.6417E+001
  0
LINE
  8
1
  6
CONTINUOUS
 62
40
 10
8.367E+001
 20
9.2417E+001
 11
8.513E+001
 21
9.6417E+001
  0
ARC
  8
1
  6
CENTER
 62
40
 10
5.767E+001
 20
1.30217E+002
 40
8.0
 50
9.349E+001
 51
1.7321E+002
  0
ARC
  8
1
  6
CONTINUOUS
 62
40
 10
5.02E+001
 20
1.33087E+002
 40
3.5
 50
1.59E+002
 51
3.39E+002
  0
ARC
  8
1
  6
CONTINUOUS
 62
40
 10
5.48E+001
 20
1.37687E+002
 40
3.5
 50
2.91E+002
 51
4.71E+002
  0
ARC
  8
1
  6
CONTINUOUS
 62
40
 10
6.054E+001
 20
1.22747E+002
 40
3.5
 50
1.11E+002
 51
2.91E+002
  0
ARC
  8
1
  6
CONTINUOUS
 62
40
 10
6.514E+001
 20
1.27357E+002
 40
3.5
 50
3.39E+002
 51
5.19E+002
  0
ARC
  8
1
  6
CONTINUOUS
 62
40
 10
5.767E+001
 20
1.30217E+002
 40
4.5
 50
1.11E+002
 51
1.59E+002
  0
ARC
  8
1
  6
CONTINUOUS
 62
40
 10
5.767E+001
 20
1.30217E+002
 40
1.15E+001
 50
1.11E+002
 51
1.59E+002
  0
ARC
  8
1
  6
CONTINUOUS
 62
40
 10
5.767E+001
 20
1.30217E+002
 40
1.15E+001
 50
2.91E+002
 51
3.39E+002
  0
ARC
  8
1
  6
CONTINUOUS
 62
40
 10
5.767E+001
 20
1.30217E+002
 40
4.5
 50
2.91E+002
 51
3.39E+002
  0
ARC
  8
1
  6
CENTER
 62
40
 10
5.767E+001
 20
1.30217E+002
 40
8.0
 50
2.7719E+002
 51
3.5402E+002
  0
LINE
  8
1
  6
CONTINUOUS
 62
40
 10
8.797E+001
 20
6.4417E+001
 11
8.797E+001
 21
9.6417E+001
  0
ARC
  8
1
  6
CONTINUOUS
 62
40
 10
8.697E+001
 20
7.6217E+001
 40
1.0
 50
2.7E+002
 51
3.6E+002
  0
ARC
  8
1
  6
CONTINUOUS
 62
40
 10
8.697E+001
 20
1.84217E+002
 40
1.0
 50
0.0
 51
9.0E+001
  0
LINE
  8
1
  6
HIDDEN
 62
40
 10
8.1E+001
 20
8.7717E+001
 11
9.311E+001
 21
8.7717E+001
  0
LINE
  8
1
  6
CENTER
 62
40
 10
8.159E+001
 20
1.72717E+002
 11
9.265E+001
 21
1.72717E+002
  0
LINE
  8
1
  6
HIDDEN
 62
40
 10
7.297E+001
 20
8.1717E+001
 11
8.797E+001
 21
8.1717E+001
  0
LINE
  8
1
  6
HIDDEN
 62
40
 10
7.297E+001
 20
9.3717E+001
 11
8.797E+001
 21
9.3717E+001
  0
LINE
  8
1
  6
HIDDEN
 62
40
 10
7.297E+001
 20
1.66717E+002
 11
8.797E+001
 21
1.66717E+002
  0
LINE
  8
1
  6
HIDDEN
 62
40
 10
7.297E+001
 20
1.78717E+002
 11
8.797E+001
 21
1.78717E+002
  0
LINE
  8
1
  6
HIDDEN
 62
40
 10
7.097E+001
 20
8.3717E+001
 11
7.097E+001
 21
9.1717E+001
  0
LINE
  8
1
  6
HIDDEN
 62
40
 10
7.097E+001
 20
1.68717E+002
 11
7.097E+001
 21
1.76717E+002
  0
LINE
  8
1
  6
HIDDEN
 62
40
 10
8.497E+001
 20
8.1717E+001
 11
8.497E+001
 21
9.3717E+001
  0
LINE
  8
1
  6
HIDDEN
 62
40
 10
8.497E+001
 20
1.66717E+002
 11
8.497E+001
 21
1.78717E+002
  0
ARC
  8
1
  6
HIDDEN
 62
40
 10
7.297E+001
 20
1.68717E+002
 40
2.0
 50
1.8E+002
 51
2.7E+002
  0
ARC
  8
1
  6
HIDDEN
 62
40
 10
7.297E+001
 20
1.76717E+002
 40
2.0
 50
9.0E+001
 51
1.8E+002
  0
ARC
  8
1
  6
HIDDEN
 62
40
 10
7.297E+001
 20
8.3717E+001
 40
2.0
 50
1.8E+002
 51
2.7E+002
  0
ARC
  8
1
  6
HIDDEN
 62
40
 10
7.297E+001
 20
9.1717E+001
 40
2.0
 50
9.0E+001
 51
1.8E+002
  0
LINE
  8
1
  6
HIDDEN
 62
40
 10
2.8447E+002
 20
1.68717E+002
 11
2.8447E+002
 21
1.76717E+002
  0
LINE
  8
1
  6
HIDDEN
 62
40
 10
1.2947E+002
 20
1.68717E+002
 11
1.2947E+002
 21
1.76717E+002
  0
LINE
  8
1
  6
HIDDEN
 62
40
 10
1.3147E+002
 20
1.78717E+002
 11
1.4347E+002
 21
1.78717E+002
  0
LINE
  8
1
  6
HIDDEN
 62
40
 10
1.3147E+002
 20
1.66717E+002
 11
1.4347E+002
 21
1.66717E+002
  0
LINE
  8
1
  6
HIDDEN
 62
40
 10
1.3147E+002
 20
8.1717E+001
 11
1.4347E+002
 21
8.1717E+001
  0
LINE
  8
1
  6
HIDDEN
 62
40
 10
1.3147E+002
 20
9.3717E+001
 11
1.4347E+002
 21
9.3717E+001
  0
LINE
  8
1
  6
HIDDEN
 62
40
 10
2.8447E+002
 20
8.3717E+001
 11
2.8447E+002
 21
9.1717E+001
  0
LINE
  8
1
  6
HIDDEN
 62
40
 10
1.2947E+002
 20
8.3717E+001
 11
1.2947E+002
 21
9.1717E+001
  0
LINE
  8
1
  6
HIDDEN
 62
40
 10
2.7247E+002
 20
1.66717E+002
 11
2.7247E+002
 21
1.78717E+002
  0
LINE
  8
1
  6
HIDDEN
 62
40
 10
1.4147E+002
 20
1.66717E+002
 11
1.4147E+002
 21
1.78717E+002
  0
LINE
  8
1
  6
HIDDEN
 62
40
 10
1.4147E+002
 20
8.1717E+001
 11
1.4147E+002
 21
9.3717E+001
  0
LINE
  8
1
  6
HIDDEN
 62
40
 10
2.7247E+002
 20
8.1717E+001
 11
2.7247E+002
 21
9.3717E+001
  0
LINE
  8
1
  6
HIDDEN
 62
40
 10
2.7047E+002
 20
9.3717E+001
 11
2.8247E+002
 21
9.3717E+001
  0
LINE
  8
1
  6
HIDDEN
 62
40
 10
2.7047E+002
 20
8.1717E+001
 11
2.8247E+002
 21
8.1717E+001
  0
LINE
  8
1
  6
HIDDEN
 62
40
 10
2.7047E+002
 20
1.66717E+002
 11
2.8247E+002
 21
1.66717E+002
  0
LINE
  8
1
  6
HIDDEN
 62
40
 10
2.7047E+002
 20
1.78717E+002
 11
2.8247E+002
 21
1.78717E+002
  0
ARC
  8
1
  6
HIDDEN
 62
40
 10
2.8247E+002
 20
1.76717E+002
 40
2.0
 50
0.0
 51
9.0E+001
  0
ARC
  8
1
  6
HIDDEN
 62
40
 10
2.8247E+002
 20
8.3717E+001
 40
2.0
 50
2.7E+002
 51
3.6E+002
  0
ARC
  8
1
  6
HIDDEN
 62
40
 10
1.3147E+002
 20
1.76717E+002
 40
2.0
 50
9.0E+001
 51
1.8E+002
  0
ARC
  8
1
  6
HIDDEN
 62
40
 10
1.3147E+002
 20
1.68717E+002
 40
2.0
 50
1.8E+002
 51
2.7E+002
  0
ARC
  8
1
  6
HIDDEN
 62
40
 10
1.3147E+002
 20
9.1717E+001
 40
2.0
 50
9.0E+001
 51
1.8E+002
  0
ARC
  8
1
  6
HIDDEN
 62
40
 10
1.3147E+002
 20
8.3717E+001
 40
2.0
 50
1.8E+002
 51
2.7E+002
  0
CIRCLE
  8
1
  6
HIDDEN
 62
40
 10
2.7847E+002
 20
1.72717E+002
 40
2.5
  0
CIRCLE
  8
1
  6
HIDDEN
 62
40
 10
2.7847E+002
 20
8.7717E+001
 40
2.5
  0
CIRCLE
  8
1
  6
HIDDEN
 62
40
 10
1.3547E+002
 20
8.7717E+001
 40
2.5
  0
CIRCLE
  8
1
  6
HIDDEN
 62
40
 10
1.3547E+002
 20
1.72717E+002
 40
2.5
  0
LINE
  8
1
  6
HIDDEN
 62
40
 10
1.3947E+002
 20
2.27376E+002
 11
1.4397E+002
 21
2.27376E+002
  0
LINE
  8
1
  6
HIDDEN
 62
40
 10
1.2947E+002
 20
2.13376E+002
 11
1.4147E+002
 21
2.13376E+002
  0
LINE
  8
1
  6
HIDDEN
 62
40
 10
1.2947E+002
 20
2.10376E+002
 11
1.2947E+002
 21
2.13376E+002
  0
LINE
  8
1
  6
HIDDEN
 62
40
 10
1.4147E+002
 20
2.10376E+002
 11
1.4147E+002
 21
2.27376E+002
  0
LINE
  8
1
  6
HIDDEN
 62
40
 10
1.3947E+002
 20
2.20376E+002
 11
1.3947E+002
 21
2.27376E+002
  0
LINE
  8
1
  6
HIDDEN
 62
40
 10
2.7247E+002
 20
2.10376E+002
 11
2.7247E+002
 21
2.27376E+002
  0
LINE
  8
1
  6
HIDDEN
 62
40
 10
2.7447E+002
 20
2.20376E+002
 11
2.7447E+002
 21
2.27376E+002
  0
LINE
  8
1
  6
HIDDEN
 62
40
 10
2.8447E+002
 20
2.10376E+002
 11
2.8447E+002
 21
2.13376E+002
  0
LINE
  8
1
  6
HIDDEN
 62
40
 10
1.2947E+002
 20
2.10376E+002
 11
1.4347E+002
 21
2.10376E+002
  0
LINE
  8
1
  6
HIDDEN
 62
40
 10
2.6997E+002
 20
2.27376E+002
 11
2.7447E+002
 21
2.27376E+002
  0
LINE
  8
1
  6
HIDDEN
 62
40
 10
2.7247E+002
 20
2.13376E+002
 11
2.8447E+002
 21
2.13376E+002
  0
LINE
  8
1
  6
HIDDEN
 62
40
 10
2.6997E+002
 20
2.10376E+002
 11
2.8447E+002
 21
2.10376E+002
  0
LINE
  8
1
  6
HIDDEN
 62
40
 10
2.7259E+002
 20
2.13376E+002
 11
2.7447E+002
 21
2.20376E+002
  0
LINE
  8
1
  6
HIDDEN
 62
40
 10
1.3947E+002
 20
2.20376E+002
 11
1.4134E+002
 21
2.13376E+002
  0
LINE
  8
1
  6
HIDDEN
 62
40
 10
1.3547E+002
 20
2.06346E+002
 11
1.3547E+002
 21
2.17156E+002
  0
LINE
  8
1
  6
HIDDEN
 62
40
 10
2.7847E+002
 20
2.04976E+002
 11
2.7847E+002
 21
2.16756E+002
  0
LINE
  8
1
  6
CONTINUOUS
 62
40
 10
8.247E+001
 20
1.22217E+002
 11
8.247E+001
 21
1.38217E+002
  0
LINE
  8
1
  6
CONTINUOUS
 62
40
 10
8.047E+001
 20
1.22217E+002
 11
8.247E+001
 21
1.22217E+002
  0
LINE
  8
1
  6
CONTINUOUS
 62
40
 10
8.047E+001
 20
1.38217E+002
 11
8.247E+001
 21
1.38217E+002
  0
LINE
  8
1
  6
CONTINUOUS
 62
40
 10
1.547E+001
 20
1.26217E+002
 11
1.547E+001
 21
1.34217E+002
  0
LINE
  8
1
  6
CONTINUOUS
 62
40
 10
1.8747E+002
 20
2.70376E+002
 11
1.8747E+002
 21
2.70876E+002
  0
LINE
  8
1
  6
CONTINUOUS
 62
40
 10
1.9947E+002
 20
2.70376E+002
 11
1.9947E+002
 21
2.70876E+002
  0
LINE
  8
1
  6
CONTINUOUS
 62
40
 10
2.1997E+002
 20
2.42676E+002
 11
2.3897E+002
 21
2.42676E+002
  0
LINE
  8
1
  6
CONTINUOUS
 62
40
 10
2.1997E+002
 20
2.44676E+002
 11
2.3897E+002
 21
2.44676E+002
  0
LINE
  8
1
  6
CONTINUOUS
 62
40
 10
2.4697E+002
 20
2.44676E+002
 11
2.6597E+002
 21
2.44676E+002
  0
LINE
  8
1
  6
CONTINUOUS
 62
40
 10
2.4697E+002
 20
2.42676E+002
 11
2.6597E+002
 21
2.42676E+002
  0
LINE
  8
1
  6
CONTINUOUS
 62
40
 10
1.4797E+002
 20
2.44676E+002
 11
1.6697E+002
 21
2.44676E+002
  0
LINE
  8
1
  6
CONTINUOUS
 62
40
 10
1.4797E+002
 20
2.42676E+002
 11
1.6697E+002
 21
2.42676E+002
  0
LINE
  8
1
  6
CONTINUOUS
 62
40
 10
1.4797E+002
 20
1.90217E+002
 11
1.6697E+002
 21
1.90217E+002
  0
LINE
  8
1
  6
CONTINUOUS
 62
40
 10
1.4797E+002
 20
7.0217E+001
 11
1.6697E+002
 21
7.0217E+001
  0
LINE
  8
1
  6
CONTINUOUS
 62
40
 10
2.4697E+002
 20
7.0217E+001
 11
2.6597E+002
 21
7.0217E+001
  0
LINE
  8
1
  6
CONTINUOUS
 62
40
 10
2.1997E+002
 20
7.0217E+001
 11
2.3897E+002
 21
7.0217E+001
  0
LINE
  8
1
  6
CONTINUOUS
 62
40
 10
2.4697E+002
 20
1.90217E+002
 11
2.6597E+002
 21
1.90217E+002
  0
LINE
  8
1
  6
CONTINUOUS
 62
40
 10
2.1997E+002
 20
1.90217E+002
 11
2.3897E+002
 21
1.90217E+002
  0
ARC
  8
1
  6
CONTINUOUS
 62
40
 10
1.9347E+002
 20
1.89717E+002
 40
2.5
 50
2.7E+002
 51
3.3642E+002
  0
ARC
  8
1
  6
CONTINUOUS
 62
40
 10
1.9347E+002
 20
7.0717E+001
 40
2.5
 50
2.7E+002
 51
3.3642E+002
  0
LINE
  8
1
  6
CONTINUOUS
 62
40
 10
1.8947E+002
 20
7.1717E+001
 11
1.9118E+002
 21
7.1717E+001
  0
LINE
  8
1
  6
CONTINUOUS
 62
40
 10
1.8947E+002
 20
6.9717E+001
 11
1.9118E+002
 21
6.9717E+001
  0
LINE
  8
1
  6
CONTINUOUS
 62
40
 10
1.8947E+002
 20
1.90717E+002
 11
1.9118E+002
 21
1.90717E+002
  0
LINE
  8
1
  6
CONTINUOUS
 62
40
 10
1.8947E+002
 20
1.88717E+002
 11
1.9118E+002
 21
1.88717E+002
  0
LINE
  8
1
  6
CONTINUOUS
 62
40
 10
1.9576E+002
 20
7.1717E+001
 11
1.9747E+002
 21
7.1717E+001
  0
LINE
  8
1
  6
CONTINUOUS
 62
40
 10
1.9576E+002
 20
6.9717E+001
 11
1.9747E+002
 21
6.9717E+001
  0
LINE
  8
1
  6
CONTINUOUS
 62
40
 10
1.9576E+002
 20
1.90717E+002
 11
1.9747E+002
 21
1.90717E+002
  0
LINE
  8
1
  6
CONTINUOUS
 62
40
 10
1.9576E+002
 20
1.88717E+002
 11
1.9747E+002
 21
1.88717E+002
  0
ARC
  8
1
  6
CONTINUOUS
 62
40
 10
1.9347E+002
 20
7.0717E+001
 40
2.5
 50
3.3642E+002
 51
5.6358E+002
  0
ARC
  8
1
  6
CONTINUOUS
 62
40
 10
1.9347E+002
 20
7.0717E+001
 40
2.5
 50
2.0358E+002
 51
2.7E+002
  0
ARC
  8
1
  6
CONTINUOUS
 62
40
 10
1.9347E+002
 20
1.89717E+002
 40
2.5
 50
3.3642E+002
 51
5.6358E+002
  0
ARC
  8
1
  6
CONTINUOUS
 62
40
 10
1.9347E+002
 20
1.89717E+002
 40
2.5
 50
2.0358E+002
 51
2.7E+002
  0
LINE
  8
1
  6
CONTINUOUS
 62
40
 10
8.367E+001
 20
6.4417E+001
 11
8.367E+001
 21
7.5217E+001
  0
LINE
  8
1
  6
CONTINUOUS
 62
40
 10
8.367E+001
 20
1.96017E+002
 11
8.797E+001
 21
1.96017E+002
  0
LINE
  8
1
  6
CONTINUOUS
 62
40
 10
8.367E+001
 20
6.4417E+001
 11
8.797E+001
 21
6.4417E+001
  0
LINE
  8
1
  6
CONTINUOUS
 62
40
 10
8.367E+001
 20
1.85217E+002
 11
8.367E+001
 21
1.96017E+002
  0
LINE
  8
1
  6
CONTINUOUS
 62
40
 10
4.567E+001
 20
1.87217E+002
 11
7.567E+001
 21
1.87217E+002
  0
LINE
  8
1
  6
CONTINUOUS
 62
40
 10
7.567E+001
 20
7.3217E+001
 11
7.567E+001
 21
7.5217E+001
  0
LINE
  8
1
  6
CONTINUOUS
 62
40
 10
4.567E+001
 20
7.3217E+001
 11
4.567E+001
 21
7.5217E+001
  0
LINE
  8
1
  6
CONTINUOUS
 62
40
 10
4.567E+001
 20
7.3217E+001
 11
7.567E+001
 21
7.3217E+001
  0
LINE
  8
1
  6
CONTINUOUS
 62
40
 10
4.567E+001
 20
1.85217E+002
 11
4.567E+001
 21
1.87217E+002
  0
LINE
  8
1
  6
CONTINUOUS
 62
40
 10
7.567E+001
 20
1.85217E+002
 11
7.567E+001
 21
1.87217E+002
  0
LINE
  8
1
  6
CONTINUOUS
 62
40
 10
1.8047E+002
 20
1.26217E+002
 11
1.8047E+002
 21
1.34217E+002
  0
ARC
  8
1
  6
CONTINUOUS
 62
40
 10
1.9347E+002
 20
1.30217E+002
 40
8.5
 50
1.4397E+002
 51
2.1603E+002
  0
LINE
  8
1
  6
CONTINUOUS
 62
40
 10
1.8147E+002
 20
1.35217E+002
 11
1.866E+002
 21
1.35217E+002
  0
LINE
  8
1
  6
CONTINUOUS
 62
40
 10
1.8147E+002
 20
1.25217E+002
 11
1.866E+002
 21
1.25217E+002
  0
ARC
  8
1
  6
CONTINUOUS
 62
40
 10
1.8147E+002
 20
1.34217E+002
 40
1.0
 50
9.0E+001
 51
1.8E+002
  0
ARC
  8
1
  6
CONTINUOUS
 62
40
 10
1.8147E+002
 20
1.26217E+002
 40
1.0
 50
1.8E+002
 51
2.7E+002
  0
CIRCLE
  8
1
  6
CONTINUOUS
 62
40
 10
2.047E+001
 20
1.30217E+002
 40
2.5
  0
LINE
  8
1
  6
CONTINUOUS
 62
40
 10
2.547E+001
 20
1.21717E+002
 11
2.547E+001
 21
1.38717E+002
  0
LINE
  8
1
  6
CONTINUOUS
 62
40
 10
1.447E+001
 20
1.21717E+002
 11
2.547E+001
 21
1.21717E+002
  0
LINE
  8
1
  6
CONTINUOUS
 62
40
 10
1.447E+001
 20
1.38717E+002
 11
2.547E+001
 21
1.38717E+002
  0
LINE
  8
1
  6
CONTINUOUS
 62
40
 10
1.647E+001
 20
1.25217E+002
 11
2.547E+001
 21
1.25217E+002
  0
LINE
  8
1
  6
CONTINUOUS
 62
40
 10
1.647E+001
 20
1.35217E+002
 11
2.547E+001
 21
1.35217E+002
  0
LINE
  8
1
  6
CONTINUOUS
 62
40
 10
2.747E+001
 20
1.22717E+002
 11
2.747E+001
 21
1.37717E+002
  0
LINE
  8
1
  6
CONTINUOUS
 62
40
 10
2.547E+001
 20
1.37717E+002
 11
2.747E+001
 21
1.37717E+002
  0
LINE
  8
1
  6
CONTINUOUS
 62
40
 10
2.547E+001
 20
1.22717E+002
 11
2.747E+001
 21
1.22717E+002
  0
LINE
  8
1
  6
CONTINUOUS
 62
40
 10
1.347E+001
 20
1.22717E+002
 11
1.347E+001
 21
1.37717E+002
  0
LINE
  8
1
  6
CONTINUOUS
 62
40
 10
1.8047E+002
 20
2.72876E+002
 11
1.8047E+002
 21
2.81876E+002
  0
LINE
  8
1
  6
CONTINUOUS
 62
40
 10
1.8597E+002
 20
2.84876E+002
 11
2.0097E+002
 21
2.84876E+002
  0
LINE
  8
1
  6
CONTINUOUS
 62
40
 10
1.8047E+002
 20
2.72876E+002
 11
1.8497E+002
 21
2.72876E+002
  0
LINE
  8
1
  6
CONTINUOUS
 62
40
 10
1.8597E+002
 20
2.70876E+002
 11
2.0097E+002
 21
2.70876E+002
  0
LINE
  8
1
  6
CONTINUOUS
 62
40
 10
1.8147E+002
 20
2.82876E+002
 11
1.8497E+002
 21
2.82876E+002
  0
LINE
  8
1
  6
CONTINUOUS
 62
40
 10
2.0197E+002
 20
2.82876E+002
 11
2.0197E+002
 21
2.83876E+002
  0
LINE
  8
1
  6
CONTINUOUS
 62
40
 10
1.8497E+002
 20
2.72876E+002
 11
1.8497E+002
 21
2.83876E+002
  0
LINE
  8
1
  6
CONTINUOUS
 62
40
 10
2.0097E+002
 20
2.70876E+002
 11
2.0097E+002
 21
2.72876E+002
  0
LINE
  8
1
  6
CONTINUOUS
 62
40
 10
1.8597E+002
 20
2.70876E+002
 11
1.8597E+002
 21
2.72876E+002
  0
LINE
  8
1
  6
CONTINUOUS
 62
40
 10
1.8497E+002
 20
2.72876E+002
 11
2.0197E+002
 21
2.72876E+002
  0
ARC
  8
1
  6
CONTINUOUS
 62
40
 10
1.9347E+002
 20
1.30217E+002
 40
8.5
 50
2.1603E+002
 51
5.0397E+002
  0
ARC
  8
1
  6
CONTINUOUS
 62
40
 10
1.8147E+002
 20
2.81876E+002
 40
1.0
 50
9.0E+001
 51
1.8E+002
  0
ARC
  8
1
  6
CONTINUOUS
 62
40
 10
2.0097E+002
 20
2.83876E+002
 40
1.0
 50
0.0
 51
9.0E+001
  0
LINE
  8
1
  6
CONTINUOUS
 62
40
 10
2.0197E+002
 20
2.72876E+002
 11
2.0197E+002
 21
2.82876E+002
  0
ARC
  8
1
  6
CONTINUOUS
 62
40
 10
1.447E+001
 20
1.22717E+002
 40
1.0
 50
1.8E+002
 51
2.7E+002
  0
ARC
  8
1
  6
CONTINUOUS
 62
40
 10
1.447E+001
 20
1.37717E+002
 40
1.0
 50
9.0E+001
 51
1.8E+002
  0
ARC
  8
1
  6
CONTINUOUS
 62
40
 10
1.647E+001
 20
1.26217E+002
 40
1.0
 50
1.8E+002
 51
2.7E+002
  0
ARC
  8
1
  6
CONTINUOUS
 62
40
 10
1.647E+001
 20
1.34217E+002
 40
1.0
 50
9.0E+001
 51
1.8E+002
  0
ARC
  8
1
  6
CONTINUOUS
 62
40
 10
1.8597E+002
 20
2.83876E+002
 40
1.0
 50
9.0E+001
 51
1.8E+002
  0
LINE
  8
1
  6
CONTINUOUS
 62
40
 10
2.2347E+002
 20
1.11717E+002
 11
2.2347E+002
 21
1.39717E+002
  0
LINE
  8
1
  6
CONTINUOUS
 62
40
 10
2.1597E+002
 20
7.5217E+001
 11
2.1597E+002
 21
1.43217E+002
  0
LINE
  8
1
  6
DASHED
 62
40
 10
1.8047E+002
 20
1.32717E+002
 11
1.9047E+002
 21
1.32717E+002
  0
LINE
  8
1
  6
DASHED
 62
40
 10
1.8047E+002
 20
1.27717E+002
 11
1.9047E+002
 21
1.27717E+002
  0
LINE
  8
1
  6
CONTINUOUS
 62
40
 10
1.7997E+002
 20
1.30467E+002
 11
1.7997E+002
 21
1.32217E+002
  0
LINE
  8
1
  6
CONTINUOUS
 62
40
 10
1.7997E+002
 20
1.30467E+002
 11
1.8037E+002
 21
1.30467E+002
  0
LINE
  8
1
  6
CONTINUOUS
 62
40
 10
1.7997E+002
 20
1.29967E+002
 11
1.8037E+002
 21
1.29967E+002
  0
LINE
  8
1
  6
CONTINUOUS
 62
40
 10
1.8037E+002
 20
1.29967E+002
 11
1.8037E+002
 21
1.30467E+002
  0
LINE
  8
1
  6
CONTINUOUS
 62
40
 10
1.7997E+002
 20
1.28217E+002
 11
1.7997E+002
 21
1.29967E+002
  0
LINE
  8
1
  6
CONTINUOUS
 62
40
 10
1.7997E+002
 20
1.32217E+002
 11
1.8047E+002
 21
1.32717E+002
  0
LINE
  8
1
  6
CONTINUOUS
 62
40
 10
1.7997E+002
 20
1.28217E+002
 11
1.8047E+002
 21
1.27717E+002
  0
LINE
  8
1
  6
CONTINUOUS
 62
40
 10
1.819E+001
 20
1.31247E+002
 11
2.25E+001
 21
1.28757E+002
  0
LINE
  8
1
  6
CONTINUOUS
 62
40
 10
1.844E+001
 20
1.31677E+002
 11
2.275E+001
 21
1.29187E+002
  0
LINE
  8
1
  6
CONTINUOUS
 62
40
 10
1.7997E+002
 20
2.75876E+002
 11
1.7997E+002
 21
2.79876E+002
  0
LINE
  8
1
  6
CONTINUOUS
 62
40
 10
1.7997E+002
 20
2.75876E+002
 11
1.8047E+002
 21
2.75376E+002
  0
LINE
  8
1
  6
CONTINUOUS
 62
40
 10
1.7997E+002
 20
2.79876E+002
 11
1.8047E+002
 21
2.80376E+002
  0
LINE
  8
1
  6
CONTINUOUS
 62
40
 10
1.7097E+002
 20
2.62376E+002
 11
2.1597E+002
 21
2.62376E+002
  0
LINE
  8
1
  6
CONTINUOUS
 62
40
 10
1.7097E+002
 20
2.70376E+002
 11
2.1597E+002
 21
2.70376E+002
  0
LINE
  8
1
  6
CONTINUOUS
 62
40
 10
1.4397E+002
 20
2.70376E+002
 11
1.7097E+002
 21
2.70376E+002
  0
LINE
  8
1
  6
CONTINUOUS
 62
40
 10
1.4397E+002
 20
2.62376E+002
 11
1.7097E+002
 21
2.62376E+002
  0
LINE
  8
1
  6
CONTINUOUS
 62
40
 10
1.4397E+002
 20
2.10376E+002
 11
1.7097E+002
 21
2.10376E+002
  0
LINE
  8
1
  6
CONTINUOUS
 62
40
 10
1.7097E+002
 20
2.10376E+002
 11
2.1597E+002
 21
2.10376E+002
  0
LINE
  8
1
  6
CONTINUOUS
 62
40
 10
2.4297E+002
 20
2.10376E+002
 11
2.6997E+002
 21
2.10376E+002
  0
LINE
  8
1
  6
CONTINUOUS
 62
40
 10
2.4297E+002
 20
2.62376E+002
 11
2.6997E+002
 21
2.62376E+002
  0
LINE
  8
1
  6
CONTINUOUS
 62
40
 10
2.4297E+002
 20
2.70376E+002
 11
2.6997E+002
 21
2.70376E+002
  0
TEXT
  8
1
  6
CONTINUOUS
 62
40
 10
1.8263E+002
 20
1.76257E+002
 40
3.0
  1
OT 125 A3
  0
TEXT
  8
1
  6
CONTINUOUS
 62
1
 10
1.9707E+002
 20
1.44427E+002
 40
3.0
  1
ON
  0
TEXT
  8
1
  6
CONTINUOUS
 62
1
 10
1.7245E+002
 20
1.22867E+002
 40
3.0
  1
OFF
  0
LINE
  8
1
  6
CONTINUOUS
 62
40
 10
1.9347E+002
 20
2.04436E+002
 11
1.9347E+002
 21
2.20536E+002
  0
TEXT
  8
1
  6
CONTINUOUS
 62
40
 10
1.8263E+002
 20
1.71257E+002
 40
3.0
  1
OT 160 E3
  0
LINE
  8
1
  6
HIDDEN
 62
40
 10
2.8147E+002
 20
8.7717E+001
 11
2.7547E+002
 21
8.7717E+001
  0
LINE
  8
1
  6
HIDDEN
 62
40
 10
2.7847E+002
 20
9.0717E+001
 11
2.7847E+002
 21
8.4717E+001
  0
LINE
  8
1
  6
HIDDEN
 62
40
 10
2.8297E+002
 20
8.7717E+001
 11
2.8397E+002
 21
8.7717E+001
  0
LINE
  8
1
  6
HIDDEN
 62
40
 10
2.7847E+002
 20
9.2217E+001
 11
2.7847E+002
 21
9.3217E+001
  0
LINE
  8
1
  6
HIDDEN
 62
40
 10
2.7397E+002
 20
8.7717E+001
 11
2.7297E+002
 21
8.7717E+001
  0
LINE
  8
1
  6
HIDDEN
 62
40
 10
2.7847E+002
 20
8.3217E+001
 11
2.7847E+002
 21
8.2217E+001
  0
LINE
  8
1
  6
HIDDEN
 62
40
 10
1.3847E+002
 20
8.7717E+001
 11
1.3247E+002
 21
8.7717E+001
  0
LINE
  8
1
  6
HIDDEN
 62
40
 10
1.3547E+002
 20
9.0717E+001
 11
1.3547E+002
 21
8.4717E+001
  0
LINE
  8
1
  6
HIDDEN
 62
40
 10
1.3997E+002
 20
8.7717E+001
 11
1.4097E+002
 21
8.7717E+001
  0
LINE
  8
1
  6
HIDDEN
 62
40
 10
1.3547E+002
 20
9.2217E+001
 11
1.3547E+002
 21
9.3217E+001
  0
LINE
  8
1
  6
HIDDEN
 62
40
 10
1.3097E+002
 20
8.7717E+001
 11
1.2997E+002
 21
8.7717E+001
  0
LINE
  8
1
  6
HIDDEN
 62
40
 10
1.3547E+002
 20
8.3217E+001
 11
1.3547E+002
 21
8.2217E+001
  0
LINE
  8
1
  6
HIDDEN
 62
40
 10
2.8147E+002
 20
1.72717E+002
 11
2.7547E+002
 21
1.72717E+002
  0
LINE
  8
1
  6
HIDDEN
 62
40
 10
2.7847E+002
 20
1.75717E+002
 11
2.7847E+002
 21
1.69717E+002
  0
LINE
  8
1
  6
HIDDEN
 62
40
 10
2.8297E+002
 20
1.72717E+002
 11
2.8397E+002
 21
1.72717E+002
  0
LINE
  8
1
  6
HIDDEN
 62
40
 10
2.7847E+002
 20
1.77217E+002
 11
2.7847E+002
 21
1.78217E+002
  0
LINE
  8
1
  6
HIDDEN
 62
40
 10
2.7397E+002
 20
1.72717E+002
 11
2.7297E+002
 21
1.72717E+002
  0
LINE
  8
1
  6
HIDDEN
 62
40
 10
2.7847E+002
 20
1.68217E+002
 11
2.7847E+002
 21
1.67217E+002
  0
LINE
  8
1
  6
HIDDEN
 62
40
 10
1.3847E+002
 20
1.72717E+002
 11
1.3247E+002
 21
1.72717E+002
  0
LINE
  8
1
  6
HIDDEN
 62
40
 10
1.3547E+002
 20
1.75717E+002
 11
1.3547E+002
 21
1.69717E+002
  0
LINE
  8
1
  6
HIDDEN
 62
40
 10
1.3997E+002
 20
1.72717E+002
 11
1.4097E+002
 21
1.72717E+002
  0
LINE
  8
1
  6
HIDDEN
 62
40
 10
1.3547E+002
 20
1.77217E+002
 11
1.3547E+002
 21
1.78217E+002
  0
LINE
  8
1
  6
HIDDEN
 62
40
 10
1.3097E+002
 20
1.72717E+002
 11
1.2997E+002
 21
1.72717E+002
  0
LINE
  8
1
  6
HIDDEN
 62
40
 10
1.3547E+002
 20
1.68217E+002
 11
1.3547E+002
 21
1.67217E+002
  0
LINE
  8
1
  6
CONTINUOUS
 62
40
 10
1.9647E+002
 20
1.89717E+002
 11
1.9047E+002
 21
1.89717E+002
  0
LINE
  8
1
  6
CONTINUOUS
 62
40
 10
1.9347E+002
 20
1.92717E+002
 11
1.9347E+002
 21
1.86717E+002
  0
LINE
  8
1
  6
CONTINUOUS
 62
40
 10
1.9797E+002
 20
1.89717E+002
 11
1.9897E+002
 21
1.89717E+002
  0
LINE
  8
1
  6
CONTINUOUS
 62
40
 10
1.9347E+002
 20
1.94217E+002
 11
1.9347E+002
 21
1.95217E+002
  0
LINE
  8
1
  6
CONTINUOUS
 62
40
 10
1.8897E+002
 20
1.89717E+002
 11
1.8797E+002
 21
1.89717E+002
  0
LINE
  8
1
  6
CONTINUOUS
 62
40
 10
1.9347E+002
 20
1.85217E+002
 11
1.9347E+002
 21
1.84217E+002
  0
LINE
  8
1
  6
CONTINUOUS
 62
40
 10
1.9647E+002
 20
7.0717E+001
 11
1.9047E+002
 21
7.0717E+001
  0
LINE
  8
1
  6
CONTINUOUS
 62
40
 10
1.9347E+002
 20
7.3717E+001
 11
1.9347E+002
 21
6.7717E+001
  0
LINE
  8
1
  6
CONTINUOUS
 62
40
 10
1.9797E+002
 20
7.0717E+001
 11
1.9897E+002
 21
7.0717E+001
  0
LINE
  8
1
  6
CONTINUOUS
 62
40
 10
1.9347E+002
 20
7.5217E+001
 11
1.9347E+002
 21
7.6217E+001
  0
LINE
  8
1
  6
CONTINUOUS
 62
40
 10
1.8897E+002
 20
7.0717E+001
 11
1.8797E+002
 21
7.0717E+001
  0
LINE
  8
1
  6
CONTINUOUS
 62
40
 10
1.9347E+002
 20
6.6217E+001
 11
1.9347E+002
 21
6.5217E+001
  0
LINE
  8
1
  6
HIDDEN
 62
40
 10
8.797E+001
 20
1.78717E+002
 11
8.797E+001
 21
1.66717E+002
  0
LINE
  8
1
  6
CONTINUOUS
 62
40
 10
1.9647E+002
 20
1.30217E+002
 11
1.9047E+002
 21
1.30217E+002
  0
LINE
  8
1
  6
CONTINUOUS
 62
40
 10
1.9347E+002
 20
1.33217E+002
 11
1.9347E+002
 21
1.27217E+002
  0
LINE
  8
1
  6
CONTINUOUS
 62
40
 10
1.9797E+002
 20
1.30217E+002
 11
2.0497E+002
 21
1.30217E+002
  0
LINE
  8
1
  6
CONTINUOUS
 62
40
 10
1.9347E+002
 20
1.34717E+002
 11
1.9347E+002
 21
1.41717E+002
  0
LINE
  8
1
  6
CONTINUOUS
 62
40
 10
1.8897E+002
 20
1.30217E+002
 11
1.8197E+002
 21
1.30217E+002
  0
LINE
  8
1
  6
CONTINUOUS
 62
40
 10
1.9347E+002
 20
1.25717E+002
 11
1.9347E+002
 21
1.18717E+002
  0
DIMENSION
  8
1
  6
CONTINUOUS
 62
1
  2
*D604
  3
DSTYLE1
 10
2.92893E+002
 20
2.10376E+002
 11
2.89892E+002
 21
2.42729E+002
 70
128
 13
2.0097E+002
 23
2.84876E+002
 14
2.8447E+002
 24
2.10376E+002
 40
3.0
 50
9.0E+001
  0
LINE
  8
1
  6
CONTINUOUS
 62
40
 10
4.1324485E+002
 20
6.463666
 11
4.1324485E+002
 21
3.5358499E+001
  0
LINE
  8
1
  6
CONTINUOUS
 62
40
 10
2.3425283E+002
 20
3.5358499E+001
 11
4.1324485E+002
 21
3.5358499E+001
  0
LINE
  8
1
  6
CONTINUOUS
 62
40
 10
2.343452E+002
 20
2.8362664E+001
 11
4.1324485E+002
 21
2.8362664E+001
  0
LINE
  8
1
  6
CONTINUOUS
 62
40
 10
2.8775231E+002
 20
1.936E+001
 11
4.1324485E+002
 21
1.936E+001
  0
TEXT
  8
1
  6
CONTINUOUS
 62
4
 10
3.53227E+002
 20
3.0818E+001
 40
3.0
  1
OT 160 E3
  0
TEXT
  8
1
  6
CONTINUOUS
 62
40
 10
4.0266303E+002
 20
1.6786659E+001
 40
1.1998795
  1
REVISION
 41
1.0000004
  0
TEXT
  8
1
  6
CONTINUOUS
 62
40
 10
4.0591781E+002
 20
9.833261
 40
5.0
  1
B
  0
TEXT
  8
1
  6
CONTINUOUS
 62
40
 10
3.5378266E+002
 20
1.4514617E+001
 40
2.5
  1
DXF_KUVAT
  0
TEXT
  8
1
  6
CONTINUOUS
 62
4
 10
3.5379742E+002
 20
9.132947
 40
2.5
  1
OT_160
  0
LINE
  8
1
  6
CONTINUOUS
 62
40
 10
2.8775231E+002
 20
1.2865798E+001
 11
3.3924555E+002
 21
1.2865798E+001
  0
LINE
  8
1
  6
CONTINUOUS
 62
40
 10
2.6524655E+002
 20
2.8362664E+001
 11
2.6524655E+002
 21
3.5358499E+001
  0
CIRCLE
  8
1
  6
CONTINUOUS
 62
40
 10
2.7674371E+002
 20
3.1860433E+001
 40
2.0065312
  0
CIRCLE
  8
1
  6
CONTINUOUS
 62
40
 10
2.7674371E+002
 20
3.1860433E+001
 40
1.0032656
  0
LINE
  8
1
  6
CONTINUOUS
 62
40
 10
2.7674371E+002
 20
2.9141398E+001
 11
2.7674371E+002
 21
3.0896965E+001
  0
LINE
  8
1
  6
CONTINUOUS
 62
40
 10
2.7674371E+002
 20
3.26656E+001
 11
2.7674371E+002
 21
3.4421464E+001
  0
LINE
  8
1
  6
CONTINUOUS
 62
40
 10
2.6675115E+002
 20
3.1860433E+001
 11
2.6816368E+002
 21
3.1860433E+001
  0
LINE
  8
1
  6
CONTINUOUS
 62
40
 10
2.6957591E+002
 20
3.1860433E+001
 11
2.7098845E+002
 21
3.1860433E+001
  0
LINE
  8
1
  6
CONTINUOUS
 62
40
 10
2.7098845E+002
 20
3.1860433E+001
 11
2.7240068E+002
 21
3.1860433E+001
  0
LINE
  8
1
  6
CONTINUOUS
 62
40
 10
2.7381321E+002
 20
3.1860433E+001
 11
2.7522574E+002
 21
3.1860433E+001
  0
LINE
  8
1
  6
CONTINUOUS
 62
40
 10
2.7522574E+002
 20
3.1860433E+001
 11
2.7663798E+002
 21
3.1860433E+001
  0
LINE
  8
1
  6
CONTINUOUS
 62
40
 10
2.7805051E+002
 20
3.1860433E+001
 11
2.7947611E+002
 21
3.1860433E+001
  0
LINE
  8
1
  6
CONTINUOUS
 62
40
 10
2.7274401E+002
 20
2.9880631E+001
 11
2.7274401E+002
 21
3.3866965E+001
  0
LINE
  8
1
  6
CONTINUOUS
 62
40
 10
2.6974758E+002
 20
3.0857464E+001
 11
2.6974758E+002
 21
3.2863699E+001
  0
LINE
  8
1
  6
CONTINUOUS
 62
40
 10
2.6974758E+002
 20
3.2863699E+001
 11
2.7274401E+002
 21
3.3866965E+001
  0
TEXT
  8
1
  6
CONTINUOUS
 62
40
 10
2.8115238E+002
 20
3.3167233E+001
 40
1.1998795
  1
PROJ
 41
1.0000004
  0
TEXT
  8
1
  6
CONTINUOUS
 62
40
 10
3.2894946E+002
 20
1.6667398E+001
 40
1.1998795
  1
CHECKED
 41
1.0000004
  0
TEXT
  8
1
  6
CONTINUOUS
 62
40
 10
3.2755029E+002
 20
1.0159831E+001
 40
1.1998795
  1
APPROVED
 41
1.0000004
  0
LINE
  8
1
  6
CONTINUOUS
 62
40
 10
2.6974758E+002
 20
3.0857464E+001
 11
2.7274401E+002
 21
2.9880631E+001
  0
TEXT
  8
1
  6
CONTINUOUS
 62
40
 10
2.8825394E+002
 20
1.0106965E+001
 40
1.1998795
  1
HYVÄKSYI
 41
1.0000004
  0
TEXT
  8
1
  6
CONTINUOUS
 62
40
 10
2.8825394E+002
 20
8.3116
 40
1.1998795
  1
GODKÄND
 41
1.0000004
  0
TEXT
  8
1
  6
CONTINUOUS
 62
40
 10
2.8825394E+002
 20
1.6614532E+001
 40
1.1998795
  1
TARKASTI
 41
1.0000004
  0
TEXT
  8
1
  6
CONTINUOUS
 62
40
 10
2.8825394E+002
 20
1.4806099E+001
 40
1.1998795
  1
GRANSKAD
 41
1.0000004
  0
TEXT
  8
1
  6
CONTINUOUS
 62
40
 10
2.8825394E+002
 20
2.5458598E+001
 40
1.1998795
  1
TEKI
 41
1.0000004
  0
TEXT
  8
1
  6
CONTINUOUS
 62
40
 10
2.8825394E+002
 20
2.3663233E+001
 40
1.1998795
  1
RITAD
 41
1.0000004
  0
TEXT
  8
1
  6
CONTINUOUS
 62
40
 10
2.8825394E+002
 20
2.1868165E+001
 40
1.1998795
  1
DRAWN
 41
1.0000004
  0
TEXT
  8
1
  6
CONTINUOUS
 62
40
 10
2.8825394E+002
 20
3.3207031E+001
 40
1.1998795
  1
OSASTO
 41
1.0000004
  0
TEXT
  8
1
  6
CONTINUOUS
 62
40
 10
2.8825394E+002
 20
3.1411666E+001
 40
1.1998795
  1
AVDELNING
 41
1.0000004
  0
TEXT
  8
1
  6
CONTINUOUS
 62
40
 10
2.8825394E+002
 20
2.9616598E+001
 40
1.1998795
  1
DEPARTMENT
 41
1.0000004
  0
TEXT
  8
1
  6
CONTINUOUS
 62
40
 10
3.3966756E+002
 20
1.6635305E+001
 40
1.1998795
  1
PROJECT
 41
1.0000004
  0
TEXT
  8
1
  6
CONTINUOUS
 62
40
 10
3.3974718E+002
 20
1.1311019E+001
 40
1.1998795
  1
LIBRARY
 41
1.0000004
  0
TEXT
  8
1
  6
CONTINUOUS
 62
40
 10
3.3974718E+002
 20
3.3207031E+001
 40
1.1998795
  1
LAJI
 41
1.0000004
  0
TEXT
  8
1
  6
CONTINUOUS
 62
40
 10
3.3974718E+002
 20
3.1411666E+001
 40
1.1998795
  1
TYP
 41
1.0000004
  0
TEXT
  8
1
  6
CONTINUOUS
 62
40
 10
3.3974718E+002
 20
2.9616598E+001
 40
1.1998795
  1
TYPE
 41
1.0000004
  0
TEXT
  8
1
  6
CONTINUOUS
 62
40
 10
3.04628E+002
 20
2.4497E+001
 40
2.5
  1
1997-09-02
  0
TEXT
  8
1
  6
CONTINUOUS
 62
40
 10
3.1140485E+002
 20
3.0125864E+001
 40
3.0
  1
LSO
  0
TEXT
  8
1
  6
CONTINUOUS
 62
30
 10
2.3758829E+002
 20
1.316435E+001
 40
3.55
  1
Low Voltage Products
 41
6.35E-001
  0
LINE
  8
1
  6
CONTINUOUS
 62
40
 10
2.8775231E+002
 20
6.265864
 11
2.8775231E+002
 21
3.5358499E+001
  0
LINE
  8
1
  6
CONTINUOUS
 62
40
 10
3.3924555E+002
 20
6.463666
 11
3.3924555E+002
 21
3.5358499E+001
  0
LINE
  8
1
  6
CONTINUOUS
 62
40
 10
4.1324485E+002
 20
6.463666
 11
2.3425283E+002
 21
6.463666
  0
LINE
  8
1
  6
CONTINUOUS
 62
40
 10
2.3425283E+002
 20
3.5358499E+001
 11
2.3425283E+002
 21
6.463666
  0
TEXT
  8
1
  6
CONTINUOUS
 62
4
 10
3.52436E+002
 20
2.2916E+001
 40
3.0
  1
14 OT
  0
TEXT
  8
1
  6
CONTINUOUS
 62
40
 10
3.3974718E+002
 20
2.6247384E+001
 40
1.1998795
  1
KIRJAUS
 41
1.0000004
  0
TEXT
  8
3
  6
CONTINUOUS
 62
30
 10
2.379748E+002
 20
1.8092303E+001
 40
4.5
  1
ABB Oy
 41
7.62E-001
  0
TEXT
  8
3
  6
CONTINUOUS
 62
4
 10
3.02258E+002
 20
2.0546E+001
 40
2.5
  1
Marko Pikkala
  0
INSERT
  2
*TX37
  8
3
 10
3.82069E+002
 20
2.4497E+001
  0
ENDSEC
  0
EOF
