  0
SECTION
  2
HEADER
  9
$ACADVER
  1
AC1009
999
I-DEAS 8 Not Encoded
  9
$EXTMIN
 10
0.0
 20
0.0
  9
$EXTMAX
 10
2.1E+002
 20
2.97E+002
  9
$TEXTSIZE
 40
1.25E-001
  9
$LTSCALE
 40
1.0
  9
$CLAYER
  8
1
  9
$CECOLOR
 62
1
  9
$DIMASZ
 40
1.25E-001
  9
$DIMEXO
 40
6.25E-002
  9
$DIMDLI
 40
2.5E-001
  9
$DIMEXE
 40
1.25E-001
  9
$DIMTP
 40
5.0E-003
  9
$DIMTM
 40
-5.0E-003
  9
$DIMTXT
 40
3.0
  9
$DIMLIM
 70
0
  9
$DIMTIH
 70
1
  9
$DIMTOH
 70
1
  9
$DIMSE1
 70
0
  9
$DIMSE2
 70
0
  9
$DIMTAD
 70
0
  9
$DIMASO
 70
1
  9
$DIMALT
 70
0
  9
$DIMALTD
 70
0
  9
$DIMTOFL
 70
1
  9
$DIMTIX
 70
0
  9
$DIMSAH
 70
0
  9
$DIMTFAC
 40
1.0
  9
$DIMGAP
 40
6.25E-002
  9
$LUNITS
 70
2
  9
$LUPREC
 70
3
  9
$FILLETRAD
 40
1.0E+001
  9
$AUNITS
 70
0
  9
$AUPREC
 70
1
  9
$CHAMFERA
 40
6.0
  9
$CHAMFERB
 40
6.0
  9
$ANGBASE
 50
0.0
  9
$ANGDIR
 70
0
  9
$PEXTMIN
 10
0.0
 20
0.0
 30
0.0
  9
$PEXTMAX
 10
2.1E+002
 20
2.97E+002
 30
0.0
  9
$PLIMMIN
 10
0.0
 20
0.0
  9
$PLIMMAX
 10
2.1E+002
 20
2.97E+002
  9
$PDMODE
 70
2
  9
$PDSIZE
 40
-1.0E-002
  9
$SPLINETYPE
 70
6
  9
$TILEMODE
 70
0
  0
ENDSEC
  0
SECTION
  2
TABLES
  0
TABLE
  2
VPORT
 70
2
  0
VPORT
  2
*Active
 70
0
 10
0.0
 20
0.0
 11
2.1E+002
 21
2.97E+002
 12
1.05E+002
 22
1.485E+002
 13
0.0
 23
0.0
 14
1.0
 24
1.0
 15
0.0
 25
0.0
 16
0.0
 26
0.0
 36
1.0
 17
0.0
 27
0.0
 37
0.0
 40
2.97E+002
 41
7.0707071E-001
 42
5.0E+001
 43
0.0
 44
0.0
 50
0.0
 51
0.0
 71
0
 72
100
 73
1
 74
3
 75
0
 76
0
 77
0
 78
0
  0
ENDTAB
  0
TABLE
  2
LTYPE
 70
7
  0
LTYPE
  2
HIDDENNEW00
  3
_ 
 70
64
 72
65
 73
3
 40
4.5
 49
1.5
 49
-1.5
 49
1.5
  0
LTYPE
  2
HIDDENNEW01
  3
_ 
 70
64
 72
65
 73
3
 40
4.5
 49
1.5
 49
-1.5
 49
1.5
  0
LTYPE
  2
HIDDEN
  3
_ 
 70
64
 72
65
 73
3
 40
4.5
 49
1.5
 49
-1.5
 49
1.5
  0
LTYPE
  2
CENTERLINE
  3
_ 
 70
64
 72
65
 73
5
 40
3.0E+001
 49
1.2E+001
 49
-1.5
 49
3.0
 49
-1.5
 49
1.2E+001
  0
LTYPE
  2
PHANTOM
  3
_ 
 70
64
 72
65
 73
7
 40
2.95E+001
 49
9.5
 49
-1.5
 49
3.0
 49
-1.5
 49
3.0
 49
-1.5
 49
9.5
  0
LTYPE
  2
SHORT_DASH
  3
_ 
 70
64
 72
65
 73
3
 40
3.0
 49
7.5E-001
 49
-1.5
 49
7.5E-001
  0
LTYPE
  2
LONG_DASH
  3
_ 
 70
64
 72
65
 73
3
 40
9.0
 49
2.25
 49
-4.5
 49
2.25
  0
ENDTAB
  0
TABLE
  2
LAYER
 70
258
  0
LAYER
  2
1
 70
0
 62
7
  6
CONTINUOUS
  0
LAYER
  2
Drafting_Hidden_Entities
 70
1
 62
7
  6
CONTINUOUS
  0
ENDTAB
  0
TABLE
  2
STYLE
 70
1
  0
STYLE
  2
STANDARD
 70
64
 40
0.0
 41
1.0
 50
0.0
 71
0
 42
1.0
  3
monotxt.shx
  4

  0
ENDTAB
  0
TABLE
  2
VIEW
 70
0
  0
ENDTAB
  0
TABLE
  2
DIMSTYLE
 70
2
  0
DIMSTYLE
  2
DSTYLE1
 70
0
  3

  4

  5

  6

  7

 40
1.0
 41
3.0
 42
0.0
 43
3.8E-001
 44
1.5
 45
1.0E-001
 46
0.0
 47
0.0
 48
0.0
 71
0
 72
0
 73
0
 74
0
 75
0
 76
0
 77
1
 78
11
140
3.0
141
9.0E-002
142
0.0
143
2.54E+001
144
1.0
145
0.0
146
1.0
147
1.5
170
0
171
2
172
0
173
0
174
0
175
0
176
0
177
0
178
0
  0
DIMSTYLE
  2
DSTYLE2
 70
0
  3

  4

  5

  6

  7

 40
1.0
 41
3.0
 42
0.0
 43
3.8E-001
 44
1.5
 45
0.0
 46
0.0
 47
0.0
 48
0.0
 71
0
 72
0
 73
0
 74
0
 75
0
 76
0
 77
1
 78
11
140
3.0
141
9.0E-002
142
0.0
143
2.54E+001
144
1.0
145
0.0
146
1.0
147
1.5
170
0
171
2
172
0
173
0
174
0
175
0
176
0
177
0
178
0
  0
ENDTAB
  0
ENDSEC
  0
SECTION
  2
BLOCKS
  0
BLOCK
  2
*AH13
  3
*AH
 10
0.0
 20
0.0
 70
65
  0
LINE
  8
1
  6
CONTINUOUS
 62
0
 10
0.0
 20
0.0
 11
1.0
 21
-1.666679E-001
  0
LINE
  8
1
  6
CONTINUOUS
 62
0
 10
1.0
 20
-1.666679E-001
 11
1.0
 21
1.66668E-001
  0
LINE
  8
1
  6
CONTINUOUS
 62
0
 10
1.0
 20
1.66668E-001
 11
0.0
 21
0.0
  0
ENDBLK
  0
BLOCK
  2
XHXH1NEW02NEW00NEW00
 10
0.0
 20
0.0
 70
0
  0
POLYLINE
  8
254
  6
CONTINUOUS
 62
6
 66
1
 40
1.0E-003
 41
1.0E-003
 70
0
  0
VERTEX
  8
254
 42
0.0
 10
-2.2647095E-001
 20
-2.2647285E-001
 70
0
  0
VERTEX
  8
254
 42
0.0
 10
2.2647095E-001
 20
2.2647285E-001
 70
0
  0
SEQEND
  0
POLYLINE
  8
254
  6
CONTINUOUS
 62
6
 66
1
 40
1.0E-003
 41
1.0E-003
 70
0
  0
VERTEX
  8
254
 42
0.0
 10
-3.9656067E-001
 20
-6.7941666E-001
 70
0
  0
VERTEX
  8
254
 42
0.0
 10
4.2364502E-001
 20
1.4080048E-001
 70
0
  0
SEQEND
  0
POLYLINE
  8
254
  6
CONTINUOUS
 62
6
 66
1
 40
1.0E-003
 41
1.0E-003
 70
0
  0
VERTEX
  8
254
 42
0.0
 10
-5.6666565E-001
 20
-1.1323624
 70
0
  0
VERTEX
  8
254
 42
0.0
 10
4.2364502E-001
 20
-1.4204407E-001
 70
0
  0
SEQEND
  0
POLYLINE
  8
254
  6
CONTINUOUS
 62
6
 66
1
 40
1.0E-003
 41
1.0E-003
 70
0
  0
VERTEX
  8
254
 42
0.0
 10
-7.3677063E-001
 20
-1.5853081
 70
0
  0
VERTEX
  8
254
 42
0.0
 10
4.2364502E-001
 20
-4.248867E-001
 70
0
  0
SEQEND
  0
POLYLINE
  8
254
  6
CONTINUOUS
 62
6
 66
1
 40
1.0E-003
 41
1.0E-003
 70
0
  0
VERTEX
  8
254
 42
0.0
 10
8.1364441E-001
 20
-3.4885406E-002
 70
0
  0
VERTEX
  8
254
 42
0.0
 10
1.0749969
 20
2.2647285E-001
 70
0
  0
SEQEND
  0
POLYLINE
  8
254
  6
CONTINUOUS
 62
6
 66
1
 40
1.0E-003
 41
1.0E-003
 70
0
  0
VERTEX
  8
254
 42
0.0
 10
-6.9714355E-001
 20
-1.8285255
 70
0
  0
VERTEX
  8
254
 42
0.0
 10
4.2364502E-001
 20
-7.0773125E-001
 70
0
  0
SEQEND
  0
POLYLINE
  8
254
  6
CONTINUOUS
 62
6
 66
1
 40
1.0E-003
 41
1.0E-003
 70
0
  0
VERTEX
  8
254
 42
0.0
 10
8.1364441E-001
 20
-3.1772995E-001
 70
0
  0
VERTEX
  8
254
 42
0.0
 10
1.3111725
 20
1.7979813E-001
 70
0
  0
SEQEND
  0
POLYLINE
  8
254
  6
CONTINUOUS
 62
6
 66
1
 40
1.0E-003
 41
1.0E-003
 70
0
  0
VERTEX
  8
254
 42
0.0
 10
-8.928833E-001
 20
-2.3071117
 70
0
  0
VERTEX
  8
254
 42
0.0
 10
-8.0430603E-001
 20
-2.2185249
 70
0
  0
SEQEND
  0
POLYLINE
  8
254
  6
CONTINUOUS
 62
6
 66
1
 40
1.0E-003
 41
1.0E-003
 70
0
  0
VERTEX
  8
254
 42
0.0
 10
-4.1430664E-001
 20
-1.8285255
 70
0
  0
VERTEX
  8
254
 42
0.0
 10
4.2364502E-001
 20
-9.9057388E-001
 70
0
  0
SEQEND
  0
POLYLINE
  8
254
  6
CONTINUOUS
 62
6
 66
1
 40
1.0E-003
 41
1.0E-003
 70
0
  0
VERTEX
  8
254
 42
0.0
 10
8.1364441E-001
 20
-6.0057259E-001
 70
0
  0
VERTEX
  8
254
 42
0.0
 10
1.3883972
 20
-2.58255E-002
 70
0
  0
SEQEND
  0
POLYLINE
  8
254
  6
CONTINUOUS
 62
6
 66
1
 40
1.0E-003
 41
1.0E-003
 70
0
  0
VERTEX
  8
254
 42
0.0
 10
-1.0629883
 20
-2.7600574
 70
0
  0
VERTEX
  8
254
 42
0.0
 10
-5.2145386E-001
 20
-2.2185249
 70
0
  0
SEQEND
  0
POLYLINE
  8
254
  6
CONTINUOUS
 62
6
 66
1
 40
1.0E-003
 41
1.0E-003
 70
0
  0
VERTEX
  8
254
 42
0.0
 10
-1.3145447E-001
 20
-1.8285255
 70
0
  0
VERTEX
  8
254
 42
0.0
 10
4.2364502E-001
 20
-1.2734165
 70
0
  0
SEQEND
  0
POLYLINE
  8
254
  6
CONTINUOUS
 62
6
 66
1
 40
1.0E-003
 41
1.0E-003
 70
0
  0
VERTEX
  8
254
 42
0.0
 10
8.1364441E-001
 20
-8.8341522E-001
 70
0
  0
VERTEX
  8
254
 42
0.0
 10
1.4656067
 20
-2.3144722E-001
 70
0
  0
SEQEND
  0
POLYLINE
  8
254
  6
CONTINUOUS
 62
6
 66
1
 40
1.0E-003
 41
1.0E-003
 70
0
  0
VERTEX
  8
254
 42
0.0
 10
-1.2330933
 20
-3.2130032
 70
0
  0
VERTEX
  8
254
 42
0.0
 10
-2.3861694E-001
 20
-2.2185249
 70
0
  0
SEQEND
  0
POLYLINE
  8
254
  6
CONTINUOUS
 62
6
 66
1
 40
1.0E-003
 41
1.0E-003
 70
0
  0
VERTEX
  8
254
 42
0.0
 10
1.5138245E-001
 20
-1.8285255
 70
0
  0
VERTEX
  8
254
 42
0.0
 10
4.2364502E-001
 20
-1.5562611
 70
0
  0
SEQEND
  0
POLYLINE
  8
254
  6
CONTINUOUS
 62
6
 66
1
 40
1.0E-003
 41
1.0E-003
 70
0
  0
VERTEX
  8
254
 42
0.0
 10
8.1364441E-001
 20
-1.1662598
 70
0
  0
VERTEX
  8
254
 42
0.0
 10
1.5428314
 20
-4.3707085E-001
 70
0
  0
SEQEND
  0
POLYLINE
  8
254
  6
CONTINUOUS
 62
6
 66
1
 40
1.0E-003
 41
1.0E-003
 70
0
  0
VERTEX
  8
254
 42
0.0
 10
-1.4031982
 20
-3.665947
 70
0
  0
VERTEX
  8
254
 42
0.0
 10
4.4219971E-002
 20
-2.2185249
 70
0
  0
SEQEND
  0
POLYLINE
  8
254
  6
CONTINUOUS
 62
6
 66
1
 40
1.0E-003
 41
1.0E-003
 70
0
  0
VERTEX
  8
254
 42
0.0
 10
8.1364441E-001
 20
-1.4491024
 70
0
  0
VERTEX
  8
254
 42
0.0
 10
1.6200562
 20
-6.4269257E-001
 70
0
  0
SEQEND
  0
POLYLINE
  8
254
  6
CONTINUOUS
 62
6
 66
1
 40
1.0E-003
 41
1.0E-003
 70
0
  0
VERTEX
  8
254
 42
0.0
 10
-1.573288
 20
-4.1188927
 70
0
  0
VERTEX
  8
254
 42
0.0
 10
3.2707214E-001
 20
-2.2185249
 70
0
  0
SEQEND
  0
POLYLINE
  8
254
  6
CONTINUOUS
 62
6
 66
1
 40
1.0E-003
 41
1.0E-003
 70
0
  0
VERTEX
  8
254
 42
0.0
 10
8.1364441E-001
 20
-1.731945
 70
0
  0
VERTEX
  8
254
 42
0.0
 10
1.6972656
 20
-8.4831619E-001
 70
0
  0
SEQEND
  0
POLYLINE
  8
254
  6
CONTINUOUS
 62
6
 66
1
 40
1.0E-003
 41
1.0E-003
 70
0
  0
VERTEX
  8
254
 42
0.0
 10
-1.4450836
 20
-4.2735233
 70
0
  0
VERTEX
  8
254
 42
0.0
 10
4.2364502E-001
 20
-2.4047909
 70
0
  0
SEQEND
  0
POLYLINE
  8
254
  6
CONTINUOUS
 62
6
 66
1
 40
1.0E-003
 41
1.0E-003
 70
0
  0
VERTEX
  8
254
 42
0.0
 10
9.9990845E-001
 20
-1.8285255
 70
0
  0
VERTEX
  8
254
 42
0.0
 10
1.7744904
 20
-1.0539379
 70
0
  0
SEQEND
  0
POLYLINE
  8
254
  6
CONTINUOUS
 62
6
 66
1
 40
1.0E-003
 41
1.0E-003
 70
0
  0
VERTEX
  8
254
 42
0.0
 10
-1.1622314
 20
-4.2735233
 70
0
  0
VERTEX
  8
254
 42
0.0
 10
4.2364502E-001
 20
-2.6876335
 70
0
  0
SEQEND
  0
POLYLINE
  8
254
  6
CONTINUOUS
 62
6
 66
1
 40
1.0E-003
 41
1.0E-003
 70
0
  0
VERTEX
  8
254
 42
0.0
 10
8.1364441E-001
 20
-2.2976322
 70
0
  0
VERTEX
  8
254
 42
0.0
 10
8.9274597E-001
 20
-2.2185249
 70
0
  0
SEQEND
  0
POLYLINE
  8
254
  6
CONTINUOUS
 62
6
 66
1
 40
1.0E-003
 41
1.0E-003
 70
0
  0
VERTEX
  8
254
 42
0.0
 10
1.2827454
 20
-1.8285255
 70
0
  0
VERTEX
  8
254
 42
0.0
 10
1.8517151
 20
-1.2595596
 70
0
  0
SEQEND
  0
POLYLINE
  8
254
  6
CONTINUOUS
 62
6
 66
1
 40
1.0E-003
 41
1.0E-003
 70
0
  0
VERTEX
  8
254
 42
0.0
 10
3.1836395
 20
7.2372437E-002
 70
0
  0
VERTEX
  8
254
 42
0.0
 10
3.337738
 20
2.2647285E-001
 70
0
  0
SEQEND
  0
POLYLINE
  8
254
  6
CONTINUOUS
 62
6
 66
1
 40
1.0E-003
 41
1.0E-003
 70
0
  0
VERTEX
  8
254
 42
0.0
 10
-8.7939453E-001
 20
-4.2735233
 70
0
  0
VERTEX
  8
254
 42
0.0
 10
-3.0549622E-001
 20
-3.6996193
 70
0
  0
SEQEND
  0
POLYLINE
  8
254
  6
CONTINUOUS
 62
6
 66
1
 40
1.0E-003
 41
1.0E-003
 70
0
  0
VERTEX
  8
254
 42
0.0
 10
2.0599365E-002
 20
-3.3735256
 70
0
  0
VERTEX
  8
254
 42
0.0
 10
4.2364502E-001
 20
-2.9704762
 70
0
  0
SEQEND
  0
POLYLINE
  8
254
  6
CONTINUOUS
 62
6
 66
1
 40
1.0E-003
 41
1.0E-003
 70
0
  0
VERTEX
  8
254
 42
0.0
 10
8.1364441E-001
 20
-2.5804749
 70
0
  0
VERTEX
  8
254
 42
0.0
 10
1.1755981
 20
-2.2185249
 70
0
  0
SEQEND
  0
POLYLINE
  8
254
  6
CONTINUOUS
 62
6
 66
1
 40
1.0E-003
 41
1.0E-003
 70
0
  0
VERTEX
  8
254
 42
0.0
 10
1.5655975
 20
-1.8285255
 70
0
  0
VERTEX
  8
254
 42
0.0
 10
1.9289398
 20
-1.4651833
 70
0
  0
SEQEND
  0
POLYLINE
  8
254
  6
CONTINUOUS
 62
6
 66
1
 40
1.0E-003
 41
1.0E-003
 70
0
  0
VERTEX
  8
254
 42
0.0
 10
3.1836395
 20
-2.104702E-001
 70
0
  0
VERTEX
  8
254
 42
0.0
 10
3.620575
 20
2.2647285E-001
 70
0
  0
SEQEND
  0
POLYLINE
  8
254
  6
CONTINUOUS
 62
6
 66
1
 40
1.0E-003
 41
1.0E-003
 70
0
  0
VERTEX
  8
254
 42
0.0
 10
-5.9655762E-001
 20
-4.2735233
 70
0
  0
VERTEX
  8
254
 42
0.0
 10
-4.5779419E-001
 20
-4.1347656
 70
0
  0
SEQEND
  0
POLYLINE
  8
254
  6
CONTINUOUS
 62
6
 66
1
 40
1.0E-003
 41
1.0E-003
 70
0
  0
VERTEX
  8
254
 42
0.0
 10
3.0343628E-001
 20
-3.3735256
 70
0
  0
VERTEX
  8
254
 42
0.0
 10
4.2364502E-001
 20
-3.2533207
 70
0
  0
SEQEND
  0
POLYLINE
  8
254
  6
CONTINUOUS
 62
6
 66
1
 40
1.0E-003
 41
1.0E-003
 70
0
  0
VERTEX
  8
254
 42
0.0
 10
8.1364441E-001
 20
-2.8633194
 70
0
  0
VERTEX
  8
254
 42
0.0
 10
1.4584351
 20
-2.2185249
 70
0
  0
SEQEND
  0
POLYLINE
  8
254
  6
CONTINUOUS
 62
6
 66
1
 40
1.0E-003
 41
1.0E-003
 70
0
  0
VERTEX
  8
254
 42
0.0
 10
1.8484344
 20
-1.8285255
 70
0
  0
VERTEX
  8
254
 42
0.0
 10
2.0061493
 20
-1.670805
 70
0
  0
SEQEND
  0
POLYLINE
  8
254
  6
CONTINUOUS
 62
6
 66
1
 40
1.0E-003
 41
1.0E-003
 70
0
  0
VERTEX
  8
254
 42
0.0
 10
3.1836395
 20
-4.9331474E-001
 70
0
  0
VERTEX
  8
254
 42
0.0
 10
3.9034271
 20
2.2647285E-001
 70
0
  0
SEQEND
  0
POLYLINE
  8
254
  6
CONTINUOUS
 62
6
 66
1
 40
1.0E-003
 41
1.0E-003
 70
0
  0
VERTEX
  8
254
 42
0.0
 10
8.1364441E-001
 20
-3.146162
 70
0
  0
VERTEX
  8
254
 42
0.0
 10
1.741272
 20
-2.2185249
 70
0
  0
SEQEND
  0
POLYLINE
  8
254
  6
CONTINUOUS
 62
6
 66
1
 40
1.0E-003
 41
1.0E-003
 70
0
  0
VERTEX
  8
254
 42
0.0
 10
3.1836395
 20
-7.7615738E-001
 70
0
  0
VERTEX
  8
254
 42
0.0
 10
4.186264
 20
2.2647285E-001
 70
0
  0
SEQEND
  0
POLYLINE
  8
254
  6
CONTINUOUS
 62
6
 66
1
 40
1.0E-003
 41
1.0E-003
 70
0
  0
VERTEX
  8
254
 42
0.0
 10
8.6912537E-001
 20
-3.3735256
 70
0
  0
VERTEX
  8
254
 42
0.0
 10
2.0241241
 20
-2.2185249
 70
0
  0
SEQEND
  0
POLYLINE
  8
254
  6
CONTINUOUS
 62
6
 66
1
 40
1.0E-003
 41
1.0E-003
 70
0
  0
VERTEX
  8
254
 42
0.0
 10
3.1836395
 20
-1.059
 70
0
  0
VERTEX
  8
254
 42
0.0
 10
4.3386536
 20
9.6017838E-002
 70
0
  0
SEQEND
  0
POLYLINE
  8
254
  6
CONTINUOUS
 62
6
 66
1
 40
1.0E-003
 41
1.0E-003
 70
0
  0
VERTEX
  8
254
 42
0.0
 10
1.1519623
 20
-3.3735256
 70
0
  0
VERTEX
  8
254
 42
0.0
 10
2.1542511
 20
-2.3712425
 70
0
  0
SEQEND
  0
POLYLINE
  8
254
  6
CONTINUOUS
 62
6
 66
1
 40
1.0E-003
 41
1.0E-003
 70
0
  0
VERTEX
  8
254
 42
0.0
 10
3.1836395
 20
-1.3418446
 70
0
  0
VERTEX
  8
254
 42
0.0
 10
4.3386536
 20
-1.868248E-001
 70
0
  0
SEQEND
  0
POLYLINE
  8
254
  6
CONTINUOUS
 62
6
 66
1
 40
1.0E-003
 41
1.0E-003
 70
0
  0
VERTEX
  8
254
 42
0.0
 10
4.7286377
 20
2.0316124E-001
 70
0
  0
VERTEX
  8
254
 42
0.0
 10
4.7519531
 20
2.2647285E-001
 70
0
  0
SEQEND
  0
POLYLINE
  8
254
  6
CONTINUOUS
 62
6
 66
1
 40
1.0E-003
 41
1.0E-003
 70
0
  0
VERTEX
  8
254
 42
0.0
 10
1.4302368
 20
-3.3780994
 70
0
  0
VERTEX
  8
254
 42
0.0
 10
2.2314606
 20
-2.5768642
 70
0
  0
SEQEND
  0
POLYLINE
  8
254
  6
CONTINUOUS
 62
6
 66
1
 40
1.0E-003
 41
1.0E-003
 70
0
  0
VERTEX
  8
254
 42
0.0
 10
3.1836395
 20
-1.6246872
 70
0
  0
VERTEX
  8
254
 42
0.0
 10
4.3386536
 20
-4.6966743E-001
 70
0
  0
SEQEND
  0
POLYLINE
  8
254
  6
CONTINUOUS
 62
6
 66
1
 40
1.0E-003
 41
1.0E-003
 70
0
  0
VERTEX
  8
254
 42
0.0
 10
4.7286377
 20
-7.9683304E-002
 70
0
  0
VERTEX
  8
254
 42
0.0
 10
5.0330811
 20
2.2476578E-001
 70
0
  0
SEQEND
  0
POLYLINE
  8
254
  6
CONTINUOUS
 62
6
 66
1
 40
1.0E-003
 41
1.0E-003
 70
0
  0
VERTEX
  8
254
 42
0.0
 10
1.5035706
 20
-3.5876122
 70
0
  0
VERTEX
  8
254
 42
0.0
 10
2.3086853
 20
-2.7824879
 70
0
  0
SEQEND
  0
POLYLINE
  8
254
  6
CONTINUOUS
 62
6
 66
1
 40
1.0E-003
 41
1.0E-003
 70
0
  0
VERTEX
  8
254
 42
0.0
 10
3.2626495
 20
-1.8285255
 70
0
  0
VERTEX
  8
254
 42
0.0
 10
4.3386536
 20
-7.5251198E-001
 70
0
  0
SEQEND
  0
POLYLINE
  8
254
  6
CONTINUOUS
 62
6
 66
1
 40
1.0E-003
 41
1.0E-003
 70
0
  0
VERTEX
  8
254
 42
0.0
 10
4.7286377
 20
-3.6252594E-001
 70
0
  0
VERTEX
  8
254
 42
0.0
 10
5.2719421
 20
1.8078232E-001
 70
0
  0
SEQEND
  0
POLYLINE
  8
254
  6
CONTINUOUS
 62
6
 66
1
 40
1.0E-003
 41
1.0E-003
 70
0
  0
VERTEX
  8
254
 42
0.0
 10
1.576889
 20
-3.7971249
 70
0
  0
VERTEX
  8
254
 42
0.0
 10
2.38591
 20
-2.9881096
 70
0
  0
SEQEND
  0
POLYLINE
  8
254
  6
CONTINUOUS
 62
6
 66
1
 40
1.0E-003
 41
1.0E-003
 70
0
  0
VERTEX
  8
254
 42
0.0
 10
3.5454865
 20
-1.8285255
 70
0
  0
VERTEX
  8
254
 42
0.0
 10
4.3386536
 20
-1.0353546
 70
0
  0
SEQEND
  0
POLYLINE
  8
254
  6
CONTINUOUS
 62
6
 66
1
 40
1.0E-003
 41
1.0E-003
 70
0
  0
VERTEX
  8
254
 42
0.0
 10
4.7286377
 20
-6.4536858E-001
 70
0
  0
VERTEX
  8
254
 42
0.0
 10
5.4707031
 20
9.6696854E-002
 70
0
  0
SEQEND
  0
POLYLINE
  8
254
  6
CONTINUOUS
 62
6
 66
1
 40
1.0E-003
 41
1.0E-003
 70
0
  0
VERTEX
  8
254
 42
0.0
 10
1.6502228
 20
-4.0066376
 70
0
  0
VERTEX
  8
254
 42
0.0
 10
2.4631348
 20
-3.1937332
 70
0
  0
SEQEND
  0
POLYLINE
  8
254
  6
CONTINUOUS
 62
6
 66
1
 40
1.0E-003
 41
1.0E-003
 70
0
  0
VERTEX
  8
254
 42
0.0
 10
3.1836395
 20
-2.473217
 70
0
  0
VERTEX
  8
254
 42
0.0
 10
3.438324
 20
-2.2185249
 70
0
  0
SEQEND
  0
POLYLINE
  8
254
  6
CONTINUOUS
 62
6
 66
1
 40
1.0E-003
 41
1.0E-003
 70
0
  0
VERTEX
  8
254
 42
0.0
 10
3.8283234
 20
-1.8285255
 70
0
  0
VERTEX
  8
254
 42
0.0
 10
4.3386536
 20
-1.3181992
 70
0
  0
SEQEND
  0
POLYLINE
  8
254
  6
CONTINUOUS
 62
6
 66
1
 40
1.0E-003
 41
1.0E-003
 70
0
  0
VERTEX
  8
254
 42
0.0
 10
4.7286377
 20
-9.2821312E-001
 70
0
  0
VERTEX
  8
254
 42
0.0
 10
5.6378021
 20
-1.9039154E-002
 70
0
  0
SEQEND
  0
POLYLINE
  8
254
  6
CONTINUOUS
 62
6
 66
1
 40
1.0E-003
 41
1.0E-003
 70
0
  0
VERTEX
  8
254
 42
0.0
 10
1.7235565
 20
-4.2161503
 70
0
  0
VERTEX
  8
254
 42
0.0
 10
2.5403442
 20
-3.3993549
 70
0
  0
SEQEND
  0
POLYLINE
  8
254
  6
CONTINUOUS
 62
6
 66
1
 40
1.0E-003
 41
1.0E-003
 70
0
  0
VERTEX
  8
254
 42
0.0
 10
3.1836395
 20
-2.7560596
 70
0
  0
VERTEX
  8
254
 42
0.0
 10
3.7211761
 20
-2.2185249
 70
0
  0
SEQEND
  0
POLYLINE
  8
254
  6
CONTINUOUS
 62
6
 66
1
 40
1.0E-003
 41
1.0E-003
 70
0
  0
VERTEX
  8
254
 42
0.0
 10
4.1111755
 20
-1.8285255
 70
0
  0
VERTEX
  8
254
 42
0.0
 10
4.3386536
 20
-1.6010418
 70
0
  0
SEQEND
  0
POLYLINE
  8
254
  6
CONTINUOUS
 62
6
 66
1
 40
1.0E-003
 41
1.0E-003
 70
0
  0
VERTEX
  8
254
 42
0.0
 10
4.7286377
 20
-1.2110558
 70
0
  0
VERTEX
  8
254
 42
0.0
 10
5.7763824
 20
-1.633091E-001
 70
0
  0
SEQEND
  0
POLYLINE
  8
254
  6
CONTINUOUS
 62
6
 66
1
 40
1.0E-003
 41
1.0E-003
 70
0
  0
VERTEX
  8
254
 42
0.0
 10
1.9490204
 20
-4.2735233
 70
0
  0
VERTEX
  8
254
 42
0.0
 10
2.617569
 20
-3.6049767
 70
0
  0
SEQEND
  0
POLYLINE
  8
254
  6
CONTINUOUS
 62
6
 66
1
 40
1.0E-003
 41
1.0E-003
 70
0
  0
VERTEX
  8
254
 42
0.0
 10
3.1836395
 20
-3.0389042
 70
0
  0
VERTEX
  8
254
 42
0.0
 10
4.0040131
 20
-2.2185249
 70
0
  0
SEQEND
  0
POLYLINE
  8
254
  6
CONTINUOUS
 62
6
 66
1
 40
1.0E-003
 41
1.0E-003
 70
0
  0
VERTEX
  8
254
 42
0.0
 10
4.7286377
 20
-1.4938984
 70
0
  0
VERTEX
  8
254
 42
0.0
 10
5.885849
 20
-3.3667946E-001
 70
0
  0
SEQEND
  0
POLYLINE
  8
254
  6
CONTINUOUS
 62
6
 66
1
 40
1.0E-003
 41
1.0E-003
 70
0
  0
VERTEX
  8
254
 42
0.0
 10
2.2318726
 20
-4.2735233
 70
0
  0
VERTEX
  8
254
 42
0.0
 10
2.6947937
 20
-3.8106003
 70
0
  0
SEQEND
  0
POLYLINE
  8
254
  6
CONTINUOUS
 62
6
 66
1
 40
1.0E-003
 41
1.0E-003
 70
0
  0
VERTEX
  8
254
 42
0.0
 10
3.1836395
 20
-3.3217468
 70
0
  0
VERTEX
  8
254
 42
0.0
 10
4.2868652
 20
-2.2185249
 70
0
  0
SEQEND
  0
POLYLINE
  8
254
  6
CONTINUOUS
 62
6
 66
1
 40
1.0E-003
 41
1.0E-003
 70
0
  0
VERTEX
  8
254
 42
0.0
 10
4.7286377
 20
-1.7767429
 70
0
  0
VERTEX
  8
254
 42
0.0
 10
5.9616241
 20
-5.4375839E-001
 70
0
  0
SEQEND
  0
POLYLINE
  8
254
  6
CONTINUOUS
 62
6
 66
1
 40
1.0E-003
 41
1.0E-003
 70
0
  0
VERTEX
  8
254
 42
0.0
 10
6.693634
 20
1.8826294E-001
 70
0
  0
VERTEX
  8
254
 42
0.0
 10
6.731842
 20
2.2647285E-001
 70
0
  0
SEQEND
  0
POLYLINE
  8
254
  6
CONTINUOUS
 62
6
 66
1
 40
1.0E-003
 41
1.0E-003
 70
0
  0
VERTEX
  8
254
 42
0.0
 10
2.5147095
 20
-4.2735233
 70
0
  0
VERTEX
  8
254
 42
0.0
 10
2.7720032
 20
-4.016222
 70
0
  0
SEQEND
  0
POLYLINE
  8
254
  6
CONTINUOUS
 62
6
 66
1
 40
1.0E-003
 41
1.0E-003
 70
0
  0
VERTEX
  8
254
 42
0.0
 10
3.1836395
 20
-3.6045914
 70
0
  0
VERTEX
  8
254
 42
0.0
 10
4.3386536
 20
-2.4495716
 70
0
  0
SEQEND
  0
POLYLINE
  8
254
  6
CONTINUOUS
 62
6
 66
1
 40
1.0E-003
 41
1.0E-003
 70
0
  0
VERTEX
  8
254
 42
0.0
 10
4.9597015
 20
-1.8285255
 70
0
  0
VERTEX
  8
254
 42
0.0
 10
5.9921417
 20
-7.9607391E-001
 70
0
  0
SEQEND
  0
POLYLINE
  8
254
  6
CONTINUOUS
 62
6
 66
1
 40
1.0E-003
 41
1.0E-003
 70
0
  0
VERTEX
  8
254
 42
0.0
 10
6.693634
 20
-9.4581604E-002
 70
0
  0
VERTEX
  8
254
 42
0.0
 10
7.0146942
 20
2.2647285E-001
 70
0
  0
SEQEND
  0
POLYLINE
  8
254
  6
CONTINUOUS
 62
6
 66
1
 40
1.0E-003
 41
1.0E-003
 70
0
  0
VERTEX
  8
254
 42
0.0
 10
2.7975464
 20
-4.2735233
 70
0
  0
VERTEX
  8
254
 42
0.0
 10
2.8492279
 20
-4.2218456
 70
0
  0
SEQEND
  0
POLYLINE
  8
254
  6
CONTINUOUS
 62
6
 66
1
 40
1.0E-003
 41
1.0E-003
 70
0
  0
VERTEX
  8
254
 42
0.0
 10
3.1836395
 20
-3.887434
 70
0
  0
VERTEX
  8
254
 42
0.0
 10
4.3386536
 20
-2.7324142
 70
0
  0
SEQEND
  0
POLYLINE
  8
254
  6
CONTINUOUS
 62
6
 66
1
 40
1.0E-003
 41
1.0E-003
 70
0
  0
VERTEX
  8
254
 42
0.0
 10
4.7286377
 20
-2.3424282
 70
0
  0
VERTEX
  8
254
 42
0.0
 10
4.8525391
 20
-2.2185249
 70
0
  0
SEQEND
  0
POLYLINE
  8
254
  6
CONTINUOUS
 62
6
 66
1
 40
1.0E-003
 41
1.0E-003
 70
0
  0
VERTEX
  8
254
 42
0.0
 10
5.2425385
 20
-1.8285255
 70
0
  0
VERTEX
  8
254
 42
0.0
 10
5.9243927
 20
-1.1466713
 70
0
  0
SEQEND
  0
POLYLINE
  8
254
  6
CONTINUOUS
 62
6
 66
1
 40
1.0E-003
 41
1.0E-003
 70
0
  0
VERTEX
  8
254
 42
0.0
 10
6.693634
 20
-3.7742424E-001
 70
0
  0
VERTEX
  8
254
 42
0.0
 10
7.2975311
 20
2.2647285E-001
 70
0
  0
SEQEND
  0
POLYLINE
  8
254
  6
CONTINUOUS
 62
6
 66
1
 40
1.0E-003
 41
1.0E-003
 70
0
  0
VERTEX
  8
254
 42
0.0
 10
3.1836395
 20
-4.1702766
 70
0
  0
VERTEX
  8
254
 42
0.0
 10
4.3386536
 20
-3.0152588
 70
0
  0
SEQEND
  0
POLYLINE
  8
254
  6
CONTINUOUS
 62
6
 66
1
 40
1.0E-003
 41
1.0E-003
 70
0
  0
VERTEX
  8
254
 42
0.0
 10
4.7286377
 20
-2.6252728
 70
0
  0
VERTEX
  8
254
 42
0.0
 10
5.1353912
 20
-2.2185249
 70
0
  0
SEQEND
  0
POLYLINE
  8
254
  6
CONTINUOUS
 62
6
 66
1
 40
1.0E-003
 41
1.0E-003
 70
0
  0
VERTEX
  8
254
 42
0.0
 10
5.5253754
 20
-1.8285255
 70
0
  0
VERTEX
  8
254
 42
0.0
 10
5.618103
 20
-1.7358074
 70
0
  0
SEQEND
  0
POLYLINE
  8
254
  6
CONTINUOUS
 62
6
 66
1
 40
1.0E-003
 41
1.0E-003
 70
0
  0
VERTEX
  8
254
 42
0.0
 10
6.693634
 20
-6.6026688E-001
 70
0
  0
VERTEX
  8
254
 42
0.0
 10
7.580368
 20
2.2647285E-001
 70
0
  0
SEQEND
  0
POLYLINE
  8
254
  6
CONTINUOUS
 62
6
 66
1
 40
1.0E-003
 41
1.0E-003
 70
0
  0
VERTEX
  8
254
 42
0.0
 10
3.3632355
 20
-4.2735233
 70
0
  0
VERTEX
  8
254
 42
0.0
 10
4.3386536
 20
-3.2981014
 70
0
  0
SEQEND
  0
POLYLINE
  8
254
  6
CONTINUOUS
 62
6
 66
1
 40
1.0E-003
 41
1.0E-003
 70
0
  0
VERTEX
  8
254
 42
0.0
 10
4.7286377
 20
-2.9081154
 70
0
  0
VERTEX
  8
254
 42
0.0
 10
5.4182281
 20
-2.2185249
 70
0
  0
SEQEND
  0
POLYLINE
  8
254
  6
CONTINUOUS
 62
6
 66
1
 40
1.0E-003
 41
1.0E-003
 70
0
  0
VERTEX
  8
254
 42
0.0
 10
6.693634
 20
-9.4311142E-001
 70
0
  0
VERTEX
  8
254
 42
0.0
 10
7.8486481
 20
2.1190834E-001
 70
0
  0
SEQEND
  0
POLYLINE
  8
254
  6
CONTINUOUS
 62
6
 66
1
 40
1.0E-003
 41
1.0E-003
 70
0
  0
VERTEX
  8
254
 42
0.0
 10
3.6460724
 20
-4.2735233
 70
0
  0
VERTEX
  8
254
 42
0.0
 10
4.3386536
 20
-3.5809441
 70
0
  0
SEQEND
  0
POLYLINE
  8
254
  6
CONTINUOUS
 62
6
 66
1
 40
1.0E-003
 41
1.0E-003
 70
0
  0
VERTEX
  8
254
 42
0.0
 10
4.7286377
 20
-3.1909599
 70
0
  0
VERTEX
  8
254
 42
0.0
 10
5.7010651
 20
-2.2185249
 70
0
  0
SEQEND
  0
POLYLINE
  8
254
  6
CONTINUOUS
 62
6
 66
1
 40
1.0E-003
 41
1.0E-003
 70
0
  0
VERTEX
  8
254
 42
0.0
 10
6.693634
 20
-1.2259541
 70
0
  0
VERTEX
  8
254
 42
0.0
 10
7.8486481
 20
-7.0936203E-002
 70
0
  0
SEQEND
  0
POLYLINE
  8
254
  6
CONTINUOUS
 62
6
 66
1
 40
1.0E-003
 41
1.0E-003
 70
0
  0
VERTEX
  8
254
 42
0.0
 10
3.9289246
 20
-4.2735233
 70
0
  0
VERTEX
  8
254
 42
0.0
 10
4.3386536
 20
-3.8637886
 70
0
  0
SEQEND
  0
POLYLINE
  8
254
  6
CONTINUOUS
 62
6
 66
1
 40
1.0E-003
 41
1.0E-003
 70
0
  0
VERTEX
  8
254
 42
0.0
 10
4.7286377
 20
-3.4738026
 70
0
  0
VERTEX
  8
254
 42
0.0
 10
5.9839172
 20
-2.2185249
 70
0
  0
SEQEND
  0
POLYLINE
  8
254
  6
CONTINUOUS
 62
6
 66
1
 40
1.0E-003
 41
1.0E-003
 70
0
  0
VERTEX
  8
254
 42
0.0
 10
6.693634
 20
-1.5087986
 70
0
  0
VERTEX
  8
254
 42
0.0
 10
7.8486481
 20
-3.5377884E-001
 70
0
  0
SEQEND
  0
POLYLINE
  8
254
  6
CONTINUOUS
 62
6
 66
1
 40
1.0E-003
 41
1.0E-003
 70
0
  0
VERTEX
  8
254
 42
0.0
 10
8.2386322
 20
3.6207199E-002
 70
0
  0
VERTEX
  8
254
 42
0.0
 10
8.428894
 20
2.2647285E-001
 70
0
  0
SEQEND
  0
POLYLINE
  8
254
  6
CONTINUOUS
 62
6
 66
1
 40
1.0E-003
 41
1.0E-003
 70
0
  0
VERTEX
  8
254
 42
0.0
 10
4.2117615
 20
-4.2735233
 70
0
  0
VERTEX
  8
254
 42
0.0
 10
4.3386536
 20
-4.1466312
 70
0
  0
SEQEND
  0
POLYLINE
  8
254
  6
CONTINUOUS
 62
6
 66
1
 40
1.0E-003
 41
1.0E-003
 70
0
  0
VERTEX
  8
254
 42
0.0
 10
4.7286377
 20
-3.7566452
 70
0
  0
VERTEX
  8
254
 42
0.0
 10
6.181076
 20
-2.3042011
 70
0
  0
SEQEND
  0
POLYLINE
  8
254
  6
CONTINUOUS
 62
6
 66
1
 40
1.0E-003
 41
1.0E-003
 70
0
  0
VERTEX
  8
254
 42
0.0
 10
6.693634
 20
-1.7916412
 70
0
  0
VERTEX
  8
254
 42
0.0
 10
7.8486481
 20
-6.3662148E-001
 70
0
  0
SEQEND
  0
POLYLINE
  8
254
  6
CONTINUOUS
 62
6
 66
1
 40
1.0E-003
 41
1.0E-003
 70
0
  0
VERTEX
  8
254
 42
0.0
 10
8.2386322
 20
-2.4663544E-001
 70
0
  0
VERTEX
  8
254
 42
0.0
 10
8.6889954
 20
2.0372772E-001
 70
0
  0
SEQEND
  0
POLYLINE
  8
254
  6
CONTINUOUS
 62
6
 66
1
 40
1.0E-003
 41
1.0E-003
 70
0
  0
VERTEX
  8
254
 42
0.0
 10
4.7286377
 20
-4.0394897
 70
0
  0
VERTEX
  8
254
 42
0.0
 10
6.2656097
 20
-2.5025082
 70
0
  0
SEQEND
  0
POLYLINE
  8
254
  6
CONTINUOUS
 62
6
 66
1
 40
1.0E-003
 41
1.0E-003
 70
0
  0
VERTEX
  8
254
 42
0.0
 10
6.9395905
 20
-1.8285255
 70
0
  0
VERTEX
  8
254
 42
0.0
 10
7.8486481
 20
-9.1946602E-001
 70
0
  0
SEQEND
  0
POLYLINE
  8
254
  6
CONTINUOUS
 62
6
 66
1
 40
1.0E-003
 41
1.0E-003
 70
0
  0
VERTEX
  8
254
 42
0.0
 10
8.2386322
 20
-5.2947998E-001
 70
0
  0
VERTEX
  8
254
 42
0.0
 10
8.9050598
 20
1.3694763E-001
 70
0
  0
SEQEND
  0
POLYLINE
  8
254
  6
CONTINUOUS
 62
6
 66
1
 40
1.0E-003
 41
1.0E-003
 70
0
  0
VERTEX
  8
254
 42
0.0
 10
4.7774506
 20
-4.2735233
 70
0
  0
VERTEX
  8
254
 42
0.0
 10
6.3190155
 20
-2.7319412
 70
0
  0
SEQEND
  0
POLYLINE
  8
254
  6
CONTINUOUS
 62
6
 66
1
 40
1.0E-003
 41
1.0E-003
 70
0
  0
VERTEX
  8
254
 42
0.0
 10
6.693634
 20
-2.3573284
 70
0
  0
VERTEX
  8
254
 42
0.0
 10
6.8324432
 20
-2.2185249
 70
0
  0
SEQEND
  0
POLYLINE
  8
254
  6
CONTINUOUS
 62
6
 66
1
 40
1.0E-003
 41
1.0E-003
 70
0
  0
VERTEX
  8
254
 42
0.0
 10
7.2224274
 20
-1.8285255
 70
0
  0
VERTEX
  8
254
 42
0.0
 10
7.8486481
 20
-1.2023087
 70
0
  0
SEQEND
  0
POLYLINE
  8
254
  6
CONTINUOUS
 62
6
 66
1
 40
1.0E-003
 41
1.0E-003
 70
0
  0
VERTEX
  8
254
 42
0.0
 10
8.2386322
 20
-8.1232262E-001
 70
0
  0
VERTEX
  8
254
 42
0.0
 10
9.0850067
 20
3.4049988E-002
 70
0
  0
SEQEND
  0
POLYLINE
  8
254
  6
CONTINUOUS
 62
6
 66
1
 40
1.0E-003
 41
1.0E-003
 70
0
  0
VERTEX
  8
254
 42
0.0
 10
5.0675201
 20
-4.2662849
 70
0
  0
VERTEX
  8
254
 42
0.0
 10
6.3274994
 20
-3.0063057
 70
0
  0
SEQEND
  0
POLYLINE
  8
254
  6
CONTINUOUS
 62
6
 66
1
 40
1.0E-003
 41
1.0E-003
 70
0
  0
VERTEX
  8
254
 42
0.0
 10
6.693634
 20
-2.6401711
 70
0
  0
VERTEX
  8
254
 42
0.0
 10
7.1152802
 20
-2.2185249
 70
0
  0
SEQEND
  0
POLYLINE
  8
254
  6
CONTINUOUS
 62
6
 66
1
 40
1.0E-003
 41
1.0E-003
 70
0
  0
VERTEX
  8
254
 42
0.0
 10
7.5052795
 20
-1.8285255
 70
0
  0
VERTEX
  8
254
 42
0.0
 10
7.8486481
 20
-1.4851513
 70
0
  0
SEQEND
  0
POLYLINE
  8
254
  6
CONTINUOUS
 62
6
 66
1
 40
1.0E-003
 41
1.0E-003
 70
0
  0
VERTEX
  8
254
 42
0.0
 10
8.2386322
 20
-1.0951672
 70
0
  0
VERTEX
  8
254
 42
0.0
 10
9.2350922
 20
-9.869957E-002
 70
0
  0
SEQEND
  0
POLYLINE
  8
254
  6
CONTINUOUS
 62
6
 66
1
 40
1.0E-003
 41
1.0E-003
 70
0
  0
VERTEX
  8
254
 42
0.0
 10
5.416275
 20
-4.2003727
 70
0
  0
VERTEX
  8
254
 42
0.0
 10
6.2580872
 20
-3.3585587
 70
0
  0
SEQEND
  0
POLYLINE
  8
254
  6
CONTINUOUS
 62
6
 66
1
 40
1.0E-003
 41
1.0E-003
 70
0
  0
VERTEX
  8
254
 42
0.0
 10
6.693634
 20
-2.9230137
 70
0
  0
VERTEX
  8
254
 42
0.0
 10
7.3981171
 20
-2.2185249
 70
0
  0
SEQEND
  0
POLYLINE
  8
254
  6
CONTINUOUS
 62
6
 66
1
 40
1.0E-003
 41
1.0E-003
 70
0
  0
VERTEX
  8
254
 42
0.0
 10
7.7881165
 20
-1.8285255
 70
0
  0
VERTEX
  8
254
 42
0.0
 10
7.8486481
 20
-1.7679958
 70
0
  0
SEQEND
  0
POLYLINE
  8
254
  6
CONTINUOUS
 62
6
 66
1
 40
1.0E-003
 41
1.0E-003
 70
0
  0
VERTEX
  8
254
 42
0.0
 10
8.2386322
 20
-1.3780098
 70
0
  0
VERTEX
  8
254
 42
0.0
 10
9.3569641
 20
-2.5967217E-001
 70
0
  0
SEQEND
  0
POLYLINE
  8
254
  6
CONTINUOUS
 62
6
 66
1
 40
1.0E-003
 41
1.0E-003
 70
0
  0
VERTEX
  8
254
 42
0.0
 10
6.693634
 20
-3.2058582
 70
0
  0
VERTEX
  8
254
 42
0.0
 10
7.6809692
 20
-2.2185249
 70
0
  0
SEQEND
  0
POLYLINE
  8
254
  6
CONTINUOUS
 62
6
 66
1
 40
1.0E-003
 41
1.0E-003
 70
0
  0
VERTEX
  8
254
 42
0.0
 10
8.2386322
 20
-1.6608524
 70
0
  0
VERTEX
  8
254
 42
0.0
 10
9.4486694
 20
-4.5081711E-001
 70
0
  0
SEQEND
  0
POLYLINE
  8
254
  6
CONTINUOUS
 62
6
 66
1
 40
1.0E-003
 41
1.0E-003
 70
0
  0
VERTEX
  8
254
 42
0.0
 10
6.693634
 20
-3.4887009
 70
0
  0
VERTEX
  8
254
 42
0.0
 10
7.8486481
 20
-2.3336811
 70
0
  0
SEQEND
  0
POLYLINE
  8
254
  6
CONTINUOUS
 62
6
 66
1
 40
1.0E-003
 41
1.0E-003
 70
0
  0
VERTEX
  8
254
 42
0.0
 10
8.3538055
 20
-1.8285255
 70
0
  0
VERTEX
  8
254
 42
0.0
 10
9.4981384
 20
-6.8418121E-001
 70
0
  0
SEQEND
  0
POLYLINE
  8
254
  6
CONTINUOUS
 62
6
 66
1
 40
1.0E-003
 41
1.0E-003
 70
0
  0
VERTEX
  8
254
 42
0.0
 10
6.693634
 20
-3.7715435
 70
0
  0
VERTEX
  8
254
 42
0.0
 10
7.8486481
 20
-2.6165256
 70
0
  0
SEQEND
  0
POLYLINE
  8
254
  6
CONTINUOUS
 62
6
 66
1
 40
1.0E-003
 41
1.0E-003
 70
0
  0
VERTEX
  8
254
 42
0.0
 10
8.2386322
 20
-2.2265396
 70
0
  0
VERTEX
  8
254
 42
0.0
 10
8.2466431
 20
-2.2185249
 70
0
  0
SEQEND
  0
POLYLINE
  8
254
  6
CONTINUOUS
 62
6
 66
1
 40
1.0E-003
 41
1.0E-003
 70
0
  0
VERTEX
  8
254
 42
0.0
 10
8.6366425
 20
-1.8285255
 70
0
  0
VERTEX
  8
254
 42
0.0
 10
9.4822998
 20
-9.8287392E-001
 70
0
  0
SEQEND
  0
POLYLINE
  8
254
  6
CONTINUOUS
 62
6
 66
1
 40
1.0E-003
 41
1.0E-003
 70
0
  0
VERTEX
  8
254
 42
0.0
 10
6.693634
 20
-4.054388
 70
0
  0
VERTEX
  8
254
 42
0.0
 10
7.8486481
 20
-2.8993683
 70
0
  0
SEQEND
  0
POLYLINE
  8
254
  6
CONTINUOUS
 62
6
 66
1
 40
1.0E-003
 41
1.0E-003
 70
0
  0
VERTEX
  8
254
 42
0.0
 10
8.2386322
 20
-2.5093822
 70
0
  0
VERTEX
  8
254
 42
0.0
 10
8.5294952
 20
-2.2185249
 70
0
  0
SEQEND
  0
POLYLINE
  8
254
  6
CONTINUOUS
 62
6
 66
1
 40
1.0E-003
 41
1.0E-003
 70
0
  0
VERTEX
  8
254
 42
0.0
 10
8.9194946
 20
-1.8285255
 70
0
  0
VERTEX
  8
254
 42
0.0
 10
9.0524445
 20
-1.6955605
 70
0
  0
SEQEND
  0
POLYLINE
  8
254
  6
CONTINUOUS
 62
6
 66
1
 40
1.0E-003
 41
1.0E-003
 70
0
  0
VERTEX
  8
254
 42
0.0
 10
6.7573395
 20
-4.2735233
 70
0
  0
VERTEX
  8
254
 42
0.0
 10
7.8486481
 20
-3.1822128
 70
0
  0
SEQEND
  0
POLYLINE
  8
254
  6
CONTINUOUS
 62
6
 66
1
 40
1.0E-003
 41
1.0E-003
 70
0
  0
VERTEX
  8
254
 42
0.0
 10
8.2386322
 20
-2.7922268
 70
0
  0
VERTEX
  8
254
 42
0.0
 10
8.8123322
 20
-2.2185249
 70
0
  0
SEQEND
  0
POLYLINE
  8
254
  6
CONTINUOUS
 62
6
 66
1
 40
1.0E-003
 41
1.0E-003
 70
0
  0
VERTEX
  8
254
 42
0.0
 10
9.2023315
 20
-1.8285255
 70
0
  0
VERTEX
  8
254
 42
0.0
 10
9.2325897
 20
-1.7982578
 70
0
  0
SEQEND
  0
POLYLINE
  8
254
  6
CONTINUOUS
 62
6
 66
1
 40
1.0E-003
 41
1.0E-003
 70
0
  0
VERTEX
  8
254
 42
0.0
 10
7.0401917
 20
-4.2735233
 70
0
  0
VERTEX
  8
254
 42
0.0
 10
7.8486481
 20
-3.4650555
 70
0
  0
SEQEND
  0
POLYLINE
  8
254
  6
CONTINUOUS
 62
6
 66
1
 40
1.0E-003
 41
1.0E-003
 70
0
  0
VERTEX
  8
254
 42
0.0
 10
8.2386322
 20
-3.0750694
 70
0
  0
VERTEX
  8
254
 42
0.0
 10
9.0951691
 20
-2.2185249
 70
0
  0
SEQEND
  0
POLYLINE
  8
254
  6
CONTINUOUS
 62
6
 66
1
 40
1.0E-003
 41
1.0E-003
 70
0
  0
VERTEX
  8
254
 42
0.0
 10
7.3230286
 20
-4.2735233
 70
0
  0
VERTEX
  8
254
 42
0.0
 10
7.8486481
 20
-3.7478981
 70
0
  0
SEQEND
  0
POLYLINE
  8
254
  6
CONTINUOUS
 62
6
 66
1
 40
1.0E-003
 41
1.0E-003
 70
0
  0
VERTEX
  8
254
 42
0.0
 10
8.2386322
 20
-3.3579121
 70
0
  0
VERTEX
  8
254
 42
0.0
 10
9.3780212
 20
-2.2185249
 70
0
  0
SEQEND
  0
POLYLINE
  8
254
  6
CONTINUOUS
 62
6
 66
1
 40
1.0E-003
 41
1.0E-003
 70
0
  0
VERTEX
  8
254
 42
0.0
 10
7.6058655
 20
-4.2735233
 70
0
  0
VERTEX
  8
254
 42
0.0
 10
7.8486481
 20
-4.0307426
 70
0
  0
SEQEND
  0
POLYLINE
  8
254
  6
CONTINUOUS
 62
6
 66
1
 40
1.0E-003
 41
1.0E-003
 70
0
  0
VERTEX
  8
254
 42
0.0
 10
8.2386322
 20
-3.6407566
 70
0
  0
VERTEX
  8
254
 42
0.0
 10
9.6507568
 20
-2.228632
 70
0
  0
SEQEND
  0
POLYLINE
  8
254
  6
CONTINUOUS
 62
6
 66
1
 40
1.0E-003
 41
1.0E-003
 70
0
  0
VERTEX
  8
254
 42
0.0
 10
8.2386322
 20
-3.9235992
 70
0
  0
VERTEX
  8
254
 42
0.0
 10
9.7415924
 20
-2.4206371
 70
0
  0
SEQEND
  0
POLYLINE
  8
254
  6
CONTINUOUS
 62
6
 66
1
 40
1.0E-003
 41
1.0E-003
 70
0
  0
VERTEX
  8
254
 42
0.0
 10
8.2386322
 20
-4.2064419
 70
0
  0
VERTEX
  8
254
 42
0.0
 10
9.8081055
 20
-2.6369629
 70
0
  0
SEQEND
  0
POLYLINE
  8
254
  6
CONTINUOUS
 62
6
 66
1
 40
1.0E-003
 41
1.0E-003
 70
0
  0
VERTEX
  8
254
 42
0.0
 10
8.4543915
 20
-4.2735233
 70
0
  0
VERTEX
  8
254
 42
0.0
 10
9.8392181
 20
-2.8886967
 70
0
  0
SEQEND
  0
POLYLINE
  8
254
  6
CONTINUOUS
 62
6
 66
1
 40
1.0E-003
 41
1.0E-003
 70
0
  0
VERTEX
  8
254
 42
0.0
 10
8.7687836
 20
-4.2419796
 70
0
  0
VERTEX
  8
254
 42
0.0
 10
9.8147125
 20
-3.196043
 70
0
  0
SEQEND
  0
POLYLINE
  8
254
  6
CONTINUOUS
 62
6
 66
1
 40
1.0E-003
 41
1.0E-003
 70
0
  0
VERTEX
  8
254
 42
0.0
 10
9.275238
 20
-4.0183601
 70
0
  0
VERTEX
  8
254
 42
0.0
 10
9.5876312
 20
-3.7059689
 70
0
  0
SEQEND
  0
ENDBLK
  0
BLOCK
  2
RAHMENA4
 10
0.0
 20
0.0
 70
0
  0
POLYLINE
  8
1
  6
CONTINUOUS
 62
6
 66
1
 40
7.0E-001
 41
7.0E-001
 70
0
  0
VERTEX
  8
1
 42
0.0
 10
1.9000008E+001
 20
2.9150003E+002
 70
0
  0
VERTEX
  8
1
 42
0.0
 10
1.9000008E+001
 20
5.5
 70
0
  0
SEQEND
  0
POLYLINE
  8
1
  6
CONTINUOUS
 62
6
 66
1
 40
7.0E-001
 41
7.0E-001
 70
0
  0
VERTEX
  8
1
 42
0.0
 10
2.05E+002
 20
5.5
 70
0
  0
VERTEX
  8
1
 42
0.0
 10
1.9000008E+001
 20
5.5
 70
0
  0
SEQEND
  0
POLYLINE
  8
1
  6
CONTINUOUS
 62
6
 66
1
 40
7.0E-001
 41
7.0E-001
 70
0
  0
VERTEX
  8
1
 42
0.0
 10
5.0
 20
5.5
 70
0
  0
VERTEX
  8
1
 42
0.0
 10
5.0
 20
1.045E+002
 70
0
  0
SEQEND
  0
POLYLINE
  8
1
  6
CONTINUOUS
 62
6
 66
1
 40
7.0E-001
 41
7.0E-001
 70
0
  0
VERTEX
  8
1
 42
0.0
 10
5.0
 20
1.045E+002
 70
0
  0
VERTEX
  8
1
 42
0.0
 10
1.9000008E+001
 20
1.045E+002
 70
0
  0
SEQEND
  0
POLYLINE
  8
1
  6
CONTINUOUS
 62
6
 66
1
 40
1.0E-003
 41
1.0E-003
 70
0
  0
VERTEX
  8
1
 42
0.0
 10
1.9000008E+001
 20
1.335E+002
 70
0
  0
VERTEX
  8
1
 42
0.0
 10
1.4500008E+001
 20
1.335E+002
 70
0
  0
SEQEND
  0
POLYLINE
  8
1
  6
CONTINUOUS
 62
6
 66
1
 40
1.0E-003
 41
1.0E-003
 70
0
  0
VERTEX
  8
1
 42
0.0
 10
1.9000008E+001
 20
1.435E+002
 70
0
  0
VERTEX
  8
1
 42
0.0
 10
1.4500008E+001
 20
1.435E+002
 70
0
  0
SEQEND
  0
POLYLINE
  8
1
  6
CONTINUOUS
 62
6
 66
1
 40
1.0E-003
 41
1.0E-003
 70
0
  0
VERTEX
  8
1
 42
0.0
 10
1.9000008E+001
 20
1.5350002E+002
 70
0
  0
VERTEX
  8
1
 42
0.0
 10
1.4500008E+001
 20
1.5350002E+002
 70
0
  0
SEQEND
  0
POLYLINE
  8
1
  6
CONTINUOUS
 62
6
 66
1
 40
1.0E-003
 41
1.0E-003
 70
0
  0
VERTEX
  8
1
 42
0.0
 10
1.9000008E+001
 20
1.6350002E+002
 70
0
  0
VERTEX
  8
1
 42
0.0
 10
1.4500008E+001
 20
1.6350002E+002
 70
0
  0
SEQEND
  0
POLYLINE
  8
1
  6
CONTINUOUS
 62
6
 66
1
 40
1.0E-003
 41
1.0E-003
 70
0
  0
VERTEX
  8
1
 42
0.0
 10
1.9000008E+001
 20
1.7350002E+002
 70
0
  0
VERTEX
  8
1
 42
0.0
 10
1.4500008E+001
 20
1.7350002E+002
 70
0
  0
SEQEND
  0
POLYLINE
  8
1
  6
CONTINUOUS
 62
6
 66
1
 40
1.0E-003
 41
1.0E-003
 70
0
  0
VERTEX
  8
1
 42
0.0
 10
1.9000008E+001
 20
1.285E+002
 70
0
  0
VERTEX
  8
1
 42
0.0
 10
1.7000008E+001
 20
1.285E+002
 70
0
  0
SEQEND
  0
POLYLINE
  8
1
  6
CONTINUOUS
 62
6
 66
1
 40
1.0E-003
 41
1.0E-003
 70
0
  0
VERTEX
  8
1
 42
0.0
 10
1.9000008E+001
 20
1.385E+002
 70
0
  0
VERTEX
  8
1
 42
0.0
 10
1.7000008E+001
 20
1.385E+002
 70
0
  0
SEQEND
  0
POLYLINE
  8
1
  6
CONTINUOUS
 62
6
 66
1
 40
1.0E-003
 41
1.0E-003
 70
0
  0
VERTEX
  8
1
 42
0.0
 10
1.9000008E+001
 20
1.4850002E+002
 70
0
  0
VERTEX
  8
1
 42
0.0
 10
1.2345772E+001
 20
1.4850002E+002
 70
0
  0
SEQEND
  0
POLYLINE
  8
1
  6
CONTINUOUS
 62
6
 66
1
 40
1.0E-003
 41
1.0E-003
 70
0
  0
VERTEX
  8
1
 42
0.0
 10
1.9000008E+001
 20
1.5850002E+002
 70
0
  0
VERTEX
  8
1
 42
0.0
 10
1.7000008E+001
 20
1.5850002E+002
 70
0
  0
SEQEND
  0
POLYLINE
  8
1
  6
CONTINUOUS
 62
6
 66
1
 40
1.0E-003
 41
1.0E-003
 70
0
  0
VERTEX
  8
1
 42
0.0
 10
1.9000008E+001
 20
1.6850002E+002
 70
0
  0
VERTEX
  8
1
 42
0.0
 10
1.7000008E+001
 20
1.6850002E+002
 70
0
  0
SEQEND
  0
POLYLINE
  8
1
  6
CONTINUOUS
 62
6
 66
1
 40
1.0E-003
 41
1.0E-003
 70
0
  0
VERTEX
  8
1
 42
0.0
 10
1.7568611E+001
 20
1.235E+002
 70
0
  0
VERTEX
  8
1
 42
0.0
 10
1.9000008E+001
 20
1.235E+002
 70
0
  0
SEQEND
  0
POLYLINE
  8
1
  6
CONTINUOUS
 62
6
 66
1
 40
1.0E-003
 41
1.0E-003
 70
0
  0
VERTEX
  8
1
 42
0.0
 10
1.9000008E+001
 20
1.235E+002
 70
0
  0
VERTEX
  8
1
 42
0.0
 10
1.5000008E+001
 20
1.235E+002
 70
0
  0
SEQEND
  0
POLYLINE
  8
1
  6
CONTINUOUS
 62
6
 66
1
 40
1.0E-003
 41
1.0E-003
 70
0
  0
VERTEX
  8
1
 42
0.0
 10
1.9000008E+001
 20
1.235E+002
 70
0
  0
VERTEX
  8
1
 42
0.0
 10
1.4500008E+001
 20
1.235E+002
 70
0
  0
SEQEND
  0
POLYLINE
  8
1
  6
CONTINUOUS
 62
3
 66
1
 40
1.0E-003
 41
1.0E-003
 70
0
  0
VERTEX
  8
1
 42
0.0
 10
1.6487923E+001
 20
2.0867195E+002
 70
0
  0
VERTEX
  8
1
 42
0.0
 10
1.3487923E+001
 20
2.0867195E+002
 70
0
  0
SEQEND
  0
POLYLINE
  8
1
  6
CONTINUOUS
 62
3
 66
1
 40
1.0E-003
 41
1.0E-003
 70
0
  0
VERTEX
  8
1
 42
0.0
 10
1.3487923E+001
 20
2.2806367E+002
 70
0
  0
VERTEX
  8
1
 42
0.0
 10
1.6487923E+001
 20
2.2806367E+002
 70
0
  0
SEQEND
  0
POLYLINE
  8
1
  6
CONTINUOUS
 62
3
 66
1
 40
1.0E-003
 41
1.0E-003
 70
0
  0
VERTEX
  8
1
 42
0.0
 10
1.3487923E+001
 20
2.3106367E+002
 70
0
  0
VERTEX
  8
1
 42
0.0
 10
1.6487923E+001
 20
2.3106367E+002
 70
0
  0
SEQEND
  0
POLYLINE
  8
1
  6
CONTINUOUS
 62
3
 66
1
 40
1.0E-003
 41
1.0E-003
 70
0
  0
VERTEX
  8
1
 42
0.0
 10
1.6487923E+001
 20
2.1167192E+002
 70
0
  0
VERTEX
  8
1
 42
0.0
 10
1.3487923E+001
 20
2.1167192E+002
 70
0
  0
SEQEND
  0
POLYLINE
  8
1
  6
CONTINUOUS
 62
3
 66
1
 40
1.0E-003
 41
1.0E-003
 70
0
  0
VERTEX
  8
1
 42
0.0
 10
1.3487923E+001
 20
2.2806367E+002
 70
0
  0
VERTEX
  8
1
 42
0.0
 10
1.3487923E+001
 20
2.3106367E+002
 70
0
  0
SEQEND
  0
POLYLINE
  8
1
  6
CONTINUOUS
 62
3
 66
1
 40
1.0E-003
 41
1.0E-003
 70
0
  0
VERTEX
  8
1
 42
0.0
 10
1.3487923E+001
 20
2.0867195E+002
 70
0
  0
VERTEX
  8
1
 42
0.0
 10
1.3487923E+001
 20
2.1167192E+002
 70
0
  0
SEQEND
  0
POLYLINE
  8
1
  6
CONTINUOUS
 62
3
 66
1
 40
1.0E-003
 41
1.0E-003
 70
0
  0
VERTEX
  8
1
 42
0.0
 10
1.6487923E+001
 20
2.2806367E+002
 70
0
  0
VERTEX
  8
1
 42
0.0
 10
1.6487923E+001
 20
2.3106367E+002
 70
0
  0
SEQEND
  0
POLYLINE
  8
1
  6
CONTINUOUS
 62
4
 66
1
 40
1.0E-003
 41
1.0E-003
 70
0
  0
VERTEX
  8
1
 42
0.0
 10
2.1E+002
 20
0.0
 70
0
  0
VERTEX
  8
1
 42
0.0
 10
2.1E+002
 20
2.9700003E+002
 70
0
  0
SEQEND
  0
POLYLINE
  8
1
  6
CONTINUOUS
 62
6
 66
1
 40
7.0E-001
 41
7.0E-001
 70
0
  0
VERTEX
  8
1
 42
0.0
 10
2.05E+002
 20
2.9150003E+002
 70
0
  0
VERTEX
  8
1
 42
0.0
 10
2.05E+002
 20
5.5
 70
0
  0
SEQEND
  0
POLYLINE
  8
1
  6
CONTINUOUS
 62
6
 66
1
 40
7.0E-001
 41
7.0E-001
 70
0
  0
VERTEX
  8
1
 42
0.0
 10
1.9000008E+001
 20
2.9150003E+002
 70
0
  0
VERTEX
  8
1
 42
0.0
 10
2.05E+002
 20
2.9150003E+002
 70
0
  0
SEQEND
  0
LINE
  8
1
  6
CONTINUOUS
 62
6
 10
3.0000008E+001
 20
2.6550003E+002
 11
2.05E+002
 21
2.6550003E+002
  0
POLYLINE
  8
1
  6
CONTINUOUS
 62
6
 66
1
 40
7.0E-001
 41
7.0E-001
 70
0
  0
VERTEX
  8
1
 42
0.0
 10
2.05E+002
 20
2.7800003E+002
 70
0
  0
VERTEX
  8
1
 42
0.0
 10
3.0000008E+001
 20
2.7800003E+002
 70
0
  0
SEQEND
  0
POLYLINE
  8
1
  6
CONTINUOUS
 62
6
 66
1
 40
7.0E-001
 41
7.0E-001
 70
0
  0
VERTEX
  8
1
 42
0.0
 10
3.0000008E+001
 20
2.9150003E+002
 70
0
  0
VERTEX
  8
1
 42
0.0
 10
3.0000008E+001
 20
2.6550003E+002
 70
0
  0
SEQEND
  0
POLYLINE
  8
1
  6
CONTINUOUS
 62
6
 66
1
 40
5.0E-001
 41
5.0E-001
 70
0
  0
VERTEX
  8
1
 42
0.0
 10
3.7000008E+001
 20
2.9150003E+002
 70
0
  0
VERTEX
  8
1
 42
0.0
 10
3.7000008E+001
 20
2.6550003E+002
 70
0
  0
SEQEND
  0
LINE
  8
1
  6
CONTINUOUS
 62
6
 10
4.2000008E+001
 20
2.9150003E+002
 11
4.2000008E+001
 21
2.6550003E+002
  0
POLYLINE
  8
1
  6
CONTINUOUS
 62
6
 66
1
 40
7.0E-001
 41
7.0E-001
 70
0
  0
VERTEX
  8
1
 42
0.0
 10
5.4000008E+001
 20
2.9150003E+002
 70
0
  0
VERTEX
  8
1
 42
0.0
 10
5.4000008E+001
 20
2.6550003E+002
 70
0
  0
SEQEND
  0
POLYLINE
  8
1
  6
CONTINUOUS
 62
6
 66
1
 40
5.0E-001
 41
5.0E-001
 70
0
  0
VERTEX
  8
1
 42
0.0
 10
1.2000001E+002
 20
2.9150003E+002
 70
0
  0
VERTEX
  8
1
 42
0.0
 10
1.2000001E+002
 20
2.6550003E+002
 70
0
  0
SEQEND
  0
POLYLINE
  8
1
  6
CONTINUOUS
 62
6
 66
1
 40
5.0E-001
 41
5.0E-001
 70
0
  0
VERTEX
  8
1
 42
0.0
 10
1.61E+002
 20
2.9150003E+002
 70
0
  0
VERTEX
  8
1
 42
0.0
 10
1.61E+002
 20
2.6550003E+002
 70
0
  0
SEQEND
  0
POLYLINE
  8
1
  6
CONTINUOUS
 62
6
 66
1
 40
5.0E-001
 41
5.0E-001
 70
0
  0
VERTEX
  8
1
 42
0.0
 10
1.66E+002
 20
2.9150003E+002
 70
0
  0
VERTEX
  8
1
 42
0.0
 10
1.66E+002
 20
2.6550003E+002
 70
0
  0
SEQEND
  0
POLYLINE
  8
1
  6
CONTINUOUS
 62
6
 66
1
 40
5.0E-001
 41
5.0E-001
 70
0
  0
VERTEX
  8
1
 42
0.0
 10
1.76E+002
 20
2.9150003E+002
 70
0
  0
VERTEX
  8
1
 42
0.0
 10
1.76E+002
 20
2.6550003E+002
 70
0
  0
SEQEND
  0
POLYLINE
  8
1
  6
CONTINUOUS
 62
6
 66
1
 40
5.0E-001
 41
5.0E-001
 70
0
  0
VERTEX
  8
1
 42
0.0
 10
1.92E+002
 20
2.9150003E+002
 70
0
  0
VERTEX
  8
1
 42
0.0
 10
1.92E+002
 20
2.6550003E+002
 70
0
  0
SEQEND
  0
LINE
  8
1
  6
CONTINUOUS
 62
6
 10
3.0000008E+001
 20
2.7175003E+002
 11
2.05E+002
 21
2.7175003E+002
  0
POLYLINE
  8
1
  6
CONTINUOUS
 62
6
 66
1
 40
5.0E-001
 41
5.0E-001
 70
0
  0
VERTEX
  8
1
 42
0.0
 10
1.66E+002
 20
2.8475003E+002
 70
0
  0
VERTEX
  8
1
 42
0.0
 10
1.92E+002
 20
2.8475003E+002
 70
0
  0
SEQEND
  0
POLYLINE
  8
1
  6
CONTINUOUS
 62
4
 66
1
 40
1.0E-003
 41
1.0E-003
 70
0
  0
VERTEX
  8
1
 42
0.0
 10
0.0
 20
2.9700003E+002
 70
0
  0
VERTEX
  8
1
 42
0.0
 10
2.1E+002
 20
2.9700003E+002
 70
0
  0
SEQEND
  0
POLYLINE
  8
1
  6
CONTINUOUS
 62
6
 66
1
 40
1.0E-003
 41
1.0E-003
 70
0
  0
VERTEX
  8
1
 42
0.0
 10
2.05E+002
 20
2.5925003E+002
 70
0
  0
VERTEX
  8
1
 42
0.0
 10
2.0E+002
 20
2.5925003E+002
 70
0
  0
SEQEND
  0
POLYLINE
  8
1
  6
CONTINUOUS
 62
6
 66
1
 40
1.0E-003
 41
1.0E-003
 70
0
  0
VERTEX
  8
1
 42
0.0
 10
2.05E+002
 20
2.53E+002
 70
0
  0
VERTEX
  8
1
 42
0.0
 10
2.0E+002
 20
2.53E+002
 70
0
  0
SEQEND
  0
POLYLINE
  8
1
  6
CONTINUOUS
 62
6
 66
1
 40
1.0E-003
 41
1.0E-003
 70
0
  0
VERTEX
  8
1
 42
0.0
 10
2.05E+002
 20
2.4674998E+002
 70
0
  0
VERTEX
  8
1
 42
0.0
 10
2.0E+002
 20
2.4674998E+002
 70
0
  0
SEQEND
  0
POLYLINE
  8
1
  6
CONTINUOUS
 62
6
 66
1
 40
1.0E-003
 41
1.0E-003
 70
0
  0
VERTEX
  8
1
 42
0.0
 10
2.05E+002
 20
2.4049998E+002
 70
0
  0
VERTEX
  8
1
 42
0.0
 10
2.0E+002
 20
2.4049998E+002
 70
0
  0
SEQEND
  0
POLYLINE
  8
1
  6
CONTINUOUS
 62
6
 66
1
 40
1.0E-003
 41
1.0E-003
 70
0
  0
VERTEX
  8
1
 42
0.0
 10
2.05E+002
 20
2.3424998E+002
 70
0
  0
VERTEX
  8
1
 42
0.0
 10
2.0E+002
 20
2.3424998E+002
 70
0
  0
SEQEND
  0
POLYLINE
  8
1
  6
CONTINUOUS
 62
6
 66
1
 40
1.0E-003
 41
1.0E-003
 70
0
  0
VERTEX
  8
1
 42
0.0
 10
2.05E+002
 20
2.2800002E+002
 70
0
  0
VERTEX
  8
1
 42
0.0
 10
2.0E+002
 20
2.2800002E+002
 70
0
  0
SEQEND
  0
POLYLINE
  8
1
  6
CONTINUOUS
 62
6
 66
1
 40
1.0E-003
 41
1.0E-003
 70
0
  0
VERTEX
  8
1
 42
0.0
 10
2.05E+002
 20
2.2175002E+002
 70
0
  0
VERTEX
  8
1
 42
0.0
 10
2.0E+002
 20
2.2175002E+002
 70
0
  0
SEQEND
  0
POLYLINE
  8
1
  6
CONTINUOUS
 62
6
 66
1
 40
1.0E-003
 41
1.0E-003
 70
0
  0
VERTEX
  8
1
 42
0.0
 10
2.05E+002
 20
2.1550002E+002
 70
0
  0
VERTEX
  8
1
 42
0.0
 10
2.0E+002
 20
2.1550002E+002
 70
0
  0
SEQEND
  0
POLYLINE
  8
1
  6
CONTINUOUS
 62
6
 66
1
 40
1.0E-003
 41
1.0E-003
 70
0
  0
VERTEX
  8
1
 42
0.0
 10
2.05E+002
 20
2.9150003E+002
 70
0
  0
VERTEX
  8
1
 42
0.0
 10
2.075E+002
 20
2.9150003E+002
 70
0
  0
SEQEND
  0
POLYLINE
  8
1
  6
CONTINUOUS
 62
6
 66
1
 40
1.0E-003
 41
1.0E-003
 70
0
  0
VERTEX
  8
1
 42
0.0
 10
2.05E+002
 20
2.3175002E+002
 70
0
  0
VERTEX
  8
1
 42
0.0
 10
2.075E+002
 20
2.3175002E+002
 70
0
  0
SEQEND
  0
POLYLINE
  8
1
  6
CONTINUOUS
 62
6
 66
1
 40
1.0E-003
 41
1.0E-003
 70
0
  0
VERTEX
  8
1
 42
0.0
 10
2.05E+002
 20
1.7200002E+002
 70
0
  0
VERTEX
  8
1
 42
0.0
 10
2.075E+002
 20
1.7200002E+002
 70
0
  0
SEQEND
  0
POLYLINE
  8
1
  6
CONTINUOUS
 62
6
 66
1
 40
1.0E-003
 41
1.0E-003
 70
0
  0
VERTEX
  8
1
 42
0.0
 10
2.05E+002
 20
1.1225E+002
 70
0
  0
VERTEX
  8
1
 42
0.0
 10
2.075E+002
 20
1.1225E+002
 70
0
  0
SEQEND
  0
POLYLINE
  8
1
  6
CONTINUOUS
 62
6
 66
1
 40
1.0E-003
 41
1.0E-003
 70
0
  0
VERTEX
  8
1
 42
0.0
 10
2.05E+002
 20
2.9150003E+002
 70
0
  0
VERTEX
  8
1
 42
0.0
 10
2.05E+002
 20
2.9400003E+002
 70
0
  0
SEQEND
  0
POLYLINE
  8
1
  6
CONTINUOUS
 62
6
 66
1
 40
1.0E-003
 41
1.0E-003
 70
0
  0
VERTEX
  8
1
 42
0.0
 10
1.585E+002
 20
2.9150003E+002
 70
0
  0
VERTEX
  8
1
 42
0.0
 10
1.585E+002
 20
2.9400003E+002
 70
0
  0
SEQEND
  0
POLYLINE
  8
1
  6
CONTINUOUS
 62
6
 66
1
 40
1.0E-003
 41
1.0E-003
 70
0
  0
VERTEX
  8
1
 42
0.0
 10
1.1200001E+002
 20
2.9150003E+002
 70
0
  0
VERTEX
  8
1
 42
0.0
 10
1.1200001E+002
 20
2.9400003E+002
 70
0
  0
SEQEND
  0
POLYLINE
  8
1
  6
CONTINUOUS
 62
6
 66
1
 40
1.0E-003
 41
1.0E-003
 70
0
  0
VERTEX
  8
1
 42
0.0
 10
1.9000008E+001
 20
2.9150003E+002
 70
0
  0
VERTEX
  8
1
 42
0.0
 10
1.9000008E+001
 20
2.9400003E+002
 70
0
  0
SEQEND
  0
POLYLINE
  8
1
  6
CONTINUOUS
 62
6
 66
1
 40
1.0E-003
 41
1.0E-003
 70
0
  0
VERTEX
  8
1
 42
0.0
 10
6.5500008E+001
 20
2.9150003E+002
 70
0
  0
VERTEX
  8
1
 42
0.0
 10
6.5500008E+001
 20
2.9400003E+002
 70
0
  0
SEQEND
  0
POLYLINE
  8
1
  6
CONTINUOUS
 62
6
 66
1
 40
7.0E-001
 41
7.0E-001
 70
0
  0
VERTEX
  8
1
 42
0.0
 10
1.0650001E+002
 20
5.5
 70
0
  0
VERTEX
  8
1
 42
0.0
 10
1.0650001E+002
 20
1.5
 70
0
  0
SEQEND
  0
POLYLINE
  8
1
  6
CONTINUOUS
 62
6
 66
1
 40
7.0E-001
 41
7.0E-001
 70
0
  0
VERTEX
  8
1
 42
0.0
 10
1.0350001E+002
 20
5.5
 70
0
  0
VERTEX
  8
1
 42
0.0
 10
1.0350001E+002
 20
1.5
 70
0
  0
SEQEND
  0
POLYLINE
  8
1
  6
CONTINUOUS
 62
6
 66
1
 40
7.0E-001
 41
7.0E-001
 70
0
  0
VERTEX
  8
1
 42
0.0
 10
1.0650001E+002
 20
2.9150003E+002
 70
0
  0
VERTEX
  8
1
 42
0.0
 10
1.0650001E+002
 20
2.9550003E+002
 70
0
  0
SEQEND
  0
POLYLINE
  8
1
  6
CONTINUOUS
 62
6
 66
1
 40
7.0E-001
 41
7.0E-001
 70
0
  0
VERTEX
  8
1
 42
0.0
 10
1.0350001E+002
 20
2.9150003E+002
 70
0
  0
VERTEX
  8
1
 42
0.0
 10
1.0350001E+002
 20
2.9550003E+002
 70
0
  0
SEQEND
  0
POLYLINE
  8
1
  6
CONTINUOUS
 62
6
 66
1
 40
1.0E-003
 41
1.0E-003
 70
0
  0
VERTEX
  8
1
 42
0.0
 10
2.05E+002
 20
5.25E+001
 70
0
  0
VERTEX
  8
1
 42
0.0
 10
2.075E+002
 20
5.25E+001
 70
0
  0
SEQEND
  0
POLYLINE
  8
1
  6
CONTINUOUS
 62
6
 66
1
 40
7.0E-001
 41
7.0E-001
 70
0
  0
VERTEX
  8
1
 42
0.0
 10
1.9000008E+001
 20
5.5
 70
0
  0
VERTEX
  8
1
 42
0.0
 10
5.0
 20
5.5
 70
0
  0
SEQEND
  0
POLYLINE
  8
1
  6
CONTINUOUS
 62
4
 66
1
 40
1.0E-003
 41
1.0E-003
 70
0
  0
VERTEX
  8
1
 42
0.0
 10
0.0
 20
0.0
 70
0
  0
VERTEX
  8
1
 42
0.0
 10
2.1E+002
 20
0.0
 70
0
  0
SEQEND
  0
POLYLINE
  8
1
  6
CONTINUOUS
 62
3
 66
1
 40
1.0E-003
 41
1.0E-003
 70
0
  0
VERTEX
  8
1
 42
0.0
 10
1.6487923E+001
 20
2.1167192E+002
 70
0
  0
VERTEX
  8
1
 42
0.0
 10
1.6487923E+001
 20
2.0867195E+002
 70
0
  0
SEQEND
  0
POLYLINE
  8
1
  6
CONTINUOUS
 62
3
 66
1
 40
1.0E-003
 41
1.0E-003
 70
0
  0
VERTEX
  8
1
 42
0.0
 10
1.6487923E+001
 20
2.1167192E+002
 70
0
  0
VERTEX
  8
1
 42
0.0
 10
1.6487923E+001
 20
2.0867195E+002
 70
0
  0
SEQEND
  0
TEXT
  8
1
  6
CONTINUOUS
 62
3
 10
2.065E+002
 20
2.6162503E+002
 40
2.0
  1
A
  0
TEXT
  8
1
  6
CONTINUOUS
 62
3
 10
2.065E+002
 20
2.0187502E+002
 40
2.0
  1
B
  0
TEXT
  8
1
  6
CONTINUOUS
 62
3
 10
2.065E+002
 20
1.42125E+002
 40
2.0
  1
C
  0
TEXT
  8
1
  6
CONTINUOUS
 62
3
 10
2.065E+002
 20
8.2375E+001
 40
2.0
  1
D
  0
TEXT
  8
1
  6
CONTINUOUS
 62
3
 10
1.6509621E+001
 20
2.1872429E+002
 40
2.0
  1
"grob"
 41
6.5E-001
 50
9.0000003E+001
  0
TEXT
  8
1
  6
CONTINUOUS
 62
3
 10
1.6487923E+001
 20
1.9736339E+002
 40
2.0
  1
"mittel"
 41
6.5E-001
 50
9.0000003E+001
  0
TEXT
  8
1
  6
CONTINUOUS
 62
3
 10
5.8622437
 20
1.9528923E+002
 40
2.0
  1
Allgemeintoleranzen nach
 41
8.0E-001
 50
9.0000003E+001
  0
TEXT
  8
1
  6
CONTINUOUS
 62
3
 10
5.8622437
 20
1.2295421E+002
 40
2.0
  1
Rauheits-Symbole nach GZN 020007
 41
8.0E-001
 50
9.0000003E+001
  0
TEXT
  8
1
  6
CONTINUOUS
 62
3
 10
9.8622437
 20
1.2295421E+002
 40
2.0
  1
    entsprechend DIN ISO 1302
 41
8.0E-001
 50
9.0000003E+001
  0
TEXT
  8
1
  6
CONTINUOUS
 62
6
 10
1.306617E+001
 20
1.2349451E+002
 40
2.0
  1
0
 41
5.25E-001
 50
9.0000003E+001
  0
TEXT
  8
1
  6
CONTINUOUS
 62
6
 10
1.306617E+001
 20
1.7212105E+002
 40
2.0
  1
50
 41
6.75E-001
 50
9.0000003E+001
  0
POLYLINE
  8
1
  6
CONTINUOUS
 62
4
 66
1
 40
1.0E-003
 41
1.0E-003
 70
0
  0
VERTEX
  8
1
 42
0.0
 10
0.0
 20
2.9700003E+002
 70
0
  0
VERTEX
  8
1
 42
0.0
 10
0.0
 20
0.0
 70
0
  0
SEQEND
  0
POLYLINE
  8
1
  6
CONTINUOUS
 62
4
 66
1
 40
1.0E-003
 41
1.0E-003
 70
0
  0
VERTEX
  8
1
 42
0.0
 10
0.0
 20
0.0
 70
0
  0
VERTEX
  8
1
 42
0.0
 10
0.0
 20
2.9700003E+002
 70
0
  0
SEQEND
  0
TEXT
  8
1
  6
CONTINUOUS
 62
3
 10
1.7001917E+002
 20
2.8040002E+002
 40
2.0
  1
I
 41
3.17E-001
  0
TEXT
  8
1
  6
CONTINUOUS
 62
3
 10
4.2250008E+001
 20
2.9300003E+002
 40
2.0
  1
1
  0
TEXT
  8
1
  6
CONTINUOUS
 62
3
 10
8.8750008E+001
 20
2.9300003E+002
 40
2.0
  1
2
  0
TEXT
  8
1
  6
CONTINUOUS
 62
3
 10
1.3525E+002
 20
2.9300003E+002
 40
2.0
  1
3
  0
TEXT
  8
1
  6
CONTINUOUS
 62
3
 10
1.8175E+002
 20
2.9300003E+002
 40
2.0
  1
4
  0
TEXT
  8
1
  6
CONTINUOUS
 62
3
 10
3.0841621E+001
 20
2.8556284E+002
 40
2.0
  1
Ein-
 41
7.925E-001
  0
TEXT
  8
1
  6
CONTINUOUS
 62
3
 10
3.0841621E+001
 20
2.8256284E+002
 40
2.0
  1
heit
 41
7.925E-001
  0
TEXT
  8
1
  6
CONTINUOUS
 62
3
 10
3.8324684E+001
 20
2.8350003E+002
 40
2.0
  1
ZC
 41
7.925E-001
  0
TEXT
  8
1
  6
CONTINUOUS
 62
3
 10
1.6235593E+002
 20
2.8350003E+002
 40
2.0
  1
EC
 41
7.925E-001
  0
TEXT
  8
1
  6
CONTINUOUS
 62
3
 10
1.6759302E+002
 20
2.8716838E+002
 40
2.0
  1
Aend.
 41
8.0E-001
  0
TEXT
  8
1
  6
CONTINUOUS
 62
3
 10
1.7796625E+002
 20
2.8715002E+002
 40
2.0
  1
Masse/E
 41
7.925E-001
  0
TEXT
  8
1
  6
CONTINUOUS
 62
3
 10
1.2262052E+002
 20
2.8350003E+002
 40
2.0
  1
Ident-Nummer
 41
7.925E-001
  0
TEXT
  8
1
  6
CONTINUOUS
 62
3
 10
5.6489449E+001
 20
2.8350003E+002
 40
2.0
  1
Text
 41
7.925E-001
  0
TEXT
  8
1
  6
CONTINUOUS
 62
3
 10
4.343354E+001
 20
2.8350003E+002
 40
2.0
  1
Pos.-Nr.
 41
6.0E-001
  0
TEXT
  8
1
  6
CONTINUOUS
 62
3
 10
1.8364273E+002
 20
2.8040002E+002
 40
2.0
  1
II
 41
7.5E-001
  0
TEXT
  8
1
  6
CONTINUOUS
 62
3
 10
1.9726633E+002
 20
2.8350003E+002
 40
2.0
  1
III
 41
7.5E-001
  0
TEXT
  8
1
  6
CONTINUOUS
 62
3
 10
8.58746
 20
8.773347
 40
1.7
  1
Fuer diese Unterlage behalten wir uns alle Rechte, auch fuer den Fall der Patent-
 41
6.8E-001
 50
9.0000003E+001
  0
TEXT
  8
1
  6
CONTINUOUS
 62
3
 10
1.1408791E+001
 20
8.3925096
 40
1.7
  1
erteilung und der Eintragung eines anderen gewerblichen Schutzrechtes, vor.
 41
6.8E-001
 50
9.0000003E+001
  0
TEXT
  8
1
  6
CONTINUOUS
 62
3
 10
1.4298791E+001
 20
8.3925096
 40
1.7
  1
Missbraeuchliche Verwendung, wie insbesondere Vervielfaeltigung und Weitergabe an
 41
6.8E-001
 50
9.0000003E+001
  0
TEXT
  8
1
  6
CONTINUOUS
 62
3
 10
1.7188792E+001
 20
8.3925096
 40
1.7
  1
Dritte ist nicht gestattet: sie kann zivil- und strafrechtlich geahndet werden.
 41
6.8E-001
 50
9.0000003E+001
  0
TEXT
  8
1
  6
CONTINUOUS
 62
3
 10
1.0199852E+001
 20
2.0239064E+002
 40
2.0
  1
ISO 2768
 41
8.0E-001
 50
9.0000003E+001
  0
POLYLINE
  8
1
  6
CONTINUOUS
 62
6
 66
1
 40
7.0E-001
 41
7.0E-001
 70
0
  0
VERTEX
  8
1
 42
0.0
 10
1.8999985E+001
 20
3.1E+001
 70
0
  0
VERTEX
  8
1
 42
0.0
 10
2.05E+002
 20
3.1E+001
 70
0
  0
SEQEND
  0
POLYLINE
  8
1
  6
CONTINUOUS
 62
6
 66
1
 40
7.0E-001
 41
7.0E-001
 70
0
  0
VERTEX
  8
1
 42
0.0
 10
1.8999985E+001
 20
1.4E+001
 70
0
  0
VERTEX
  8
1
 42
0.0
 10
5.85E+001
 20
1.4E+001
 70
0
  0
SEQEND
  0
LINE
  8
1
  6
CONTINUOUS
 62
6
 10
2.4499985E+001
 20
3.1E+001
 11
2.4499985E+001
 21
1.4E+001
  0
TEXT
  8
1
  6
CONTINUOUS
 62
3
 10
2.2718704E+001
 20
1.9207314E+001
 40
2.0
  1
Aend.
 41
5.0E-001
 50
9.0000003E+001
  0
LINE
  8
1
  6
CONTINUOUS
 62
6
 10
2.4499985E+001
 20
2.675E+001
 11
5.85E+001
 21
2.675E+001
  0
POLYLINE
  8
1
  6
CONTINUOUS
 62
6
 66
1
 40
5.0E-001
 41
5.0E-001
 70
0
  0
VERTEX
  8
1
 42
0.0
 10
1.465E+002
 20
2.675E+001
 70
0
  0
VERTEX
  8
1
 42
0.0
 10
2.05E+002
 20
2.675E+001
 70
0
  0
SEQEND
  0
POLYLINE
  8
1
  6
CONTINUOUS
 62
1
 66
1
 40
1.0E-003
 41
1.0E-003
 70
0
  0
VERTEX
  8
1
 42
0.0
 10
1.75E+002
 20
3.1E+001
 70
0
  0
VERTEX
  8
1
 42
0.0
 10
1.75E+002
 20
2.25E+001
 70
0
  0
SEQEND
  0
POLYLINE
  8
1
  6
CONTINUOUS
 62
6
 66
1
 40
7.0E-001
 41
7.0E-001
 70
0
  0
VERTEX
  8
1
 42
0.0
 10
1.465E+002
 20
3.1E+001
 70
0
  0
VERTEX
  8
1
 42
0.0
 10
1.465E+002
 20
5.5
 70
0
  0
SEQEND
  0
POLYLINE
  8
1
  6
CONTINUOUS
 62
6
 66
1
 40
7.0E-001
 41
7.0E-001
 70
0
  0
VERTEX
  8
1
 42
0.0
 10
1.35E+002
 20
3.0795013E+001
 70
0
  0
VERTEX
  8
1
 42
0.0
 10
1.35E+002
 20
1.4E+001
 70
0
  0
SEQEND
  0
POLYLINE
  8
1
  6
CONTINUOUS
 62
6
 66
1
 40
7.0E-001
 41
7.0E-001
 70
0
  0
VERTEX
  8
1
 42
0.0
 10
9.75E+001
 20
3.1E+001
 70
0
  0
VERTEX
  8
1
 42
0.0
 10
9.75E+001
 20
1.4E+001
 70
0
  0
SEQEND
  0
POLYLINE
  8
1
  6
CONTINUOUS
 62
6
 66
1
 40
7.0E-001
 41
7.0E-001
 70
0
  0
VERTEX
  8
1
 42
0.0
 10
5.85E+001
 20
3.1E+001
 70
0
  0
VERTEX
  8
1
 42
0.0
 10
5.85E+001
 20
1.4E+001
 70
0
  0
SEQEND
  0
POLYLINE
  8
1
  6
CONTINUOUS
 62
6
 66
1
 40
5.0E-001
 41
5.0E-001
 70
0
  0
VERTEX
  8
1
 42
0.0
 10
5.85E+001
 20
2.25E+001
 70
0
  0
VERTEX
  8
1
 42
0.0
 10
1.35E+002
 20
2.25E+001
 70
0
  0
SEQEND
  0
POLYLINE
  8
1
  6
CONTINUOUS
 62
6
 66
1
 40
5.0E-001
 41
5.0E-001
 70
0
  0
VERTEX
  8
1
 42
0.0
 10
5.85E+001
 20
1.825E+001
 70
0
  0
VERTEX
  8
1
 42
0.0
 10
1.35E+002
 20
1.825E+001
 70
0
  0
SEQEND
  0
POLYLINE
  8
1
  6
CONTINUOUS
 62
6
 66
1
 40
7.0E-001
 41
7.0E-001
 70
0
  0
VERTEX
  8
1
 42
0.0
 10
5.85E+001
 20
1.4E+001
 70
0
  0
VERTEX
  8
1
 42
0.0
 10
2.05E+002
 20
1.4E+001
 70
0
  0
SEQEND
  0
POLYLINE
  8
1
  6
CONTINUOUS
 62
6
 66
1
 40
7.0E-001
 41
7.0E-001
 70
0
  0
VERTEX
  8
1
 42
0.0
 10
1.35E+002
 20
2.25E+001
 70
0
  0
VERTEX
  8
1
 42
0.0
 10
2.05E+002
 20
2.25E+001
 70
0
  0
SEQEND
  0
POLYLINE
  8
1
  6
CONTINUOUS
 62
6
 66
1
 40
7.0E-001
 41
7.0E-001
 70
0
  0
VERTEX
  8
1
 42
0.0
 10
1.58E+002
 20
2.25E+001
 70
0
  0
VERTEX
  8
1
 42
0.0
 10
1.58E+002
 20
1.4E+001
 70
0
  0
SEQEND
  0
POLYLINE
  8
1
  6
CONTINUOUS
 62
110
 66
1
 40
7.0E-001
 41
7.0E-001
 70
0
  0
VERTEX
  8
1
 42
0.0
 10
1.68E+002
 20
2.25E+001
 70
0
  0
VERTEX
  8
1
 42
0.0
 10
1.68E+002
 20
1.4E+001
 70
0
  0
SEQEND
  0
POLYLINE
  8
1
  6
CONTINUOUS
 62
110
 66
1
 40
7.0E-001
 41
7.0E-001
 70
0
  0
VERTEX
  8
1
 42
0.0
 10
1.795E+002
 20
2.25E+001
 70
0
  0
VERTEX
  8
1
 42
0.0
 10
1.795E+002
 20
1.4E+001
 70
0
  0
SEQEND
  0
POLYLINE
  8
1
  6
CONTINUOUS
 62
110
 66
1
 40
7.0E-001
 41
7.0E-001
 70
0
  0
VERTEX
  8
1
 42
0.0
 10
1.915E+002
 20
2.25E+001
 70
0
  0
VERTEX
  8
1
 42
0.0
 10
1.915E+002
 20
1.4E+001
 70
0
  0
SEQEND
  0
LINE
  8
1
  6
HIDDEN
 62
6
 10
1.465E+002
 20
7.0
 11
2.05E+002
 21
7.0
  0
LINE
  8
1
  6
CONTINUOUS
 62
6
 10
2.4499985E+001
 20
2.25E+001
 11
5.85E+001
 21
2.25E+001
  0
LINE
  8
1
  6
CONTINUOUS
 62
6
 10
2.4499985E+001
 20
1.825E+001
 11
5.85E+001
 21
1.825E+001
  0
POLYLINE
  8
1
  6
CONTINUOUS
 62
6
 66
1
 40
5.0E-001
 41
5.0E-001
 70
0
  0
VERTEX
  8
1
 42
0.0
 10
5.85E+001
 20
2.675E+001
 70
0
  0
VERTEX
  8
1
 42
0.0
 10
1.35E+002
 20
2.675E+001
 70
0
  0
SEQEND
  0
POLYLINE
  8
1
  6
CONTINUOUS
 62
6
 66
1
 40
7.0E-001
 41
7.0E-001
 70
0
  0
VERTEX
  8
1
 42
0.0
 10
3.3999985E+001
 20
1.4E+001
 70
0
  0
VERTEX
  8
1
 42
0.0
 10
3.3999985E+001
 20
5.5
 70
0
  0
SEQEND
  0
POLYLINE
  8
1
  6
HIDDEN
 62
3
 66
1
 40
1.0E-003
 41
1.0E-003
 70
0
  0
VERTEX
  8
1
 42
0.0
 10
1.5225E+002
 20
1.825E+001
 70
0
  0
VERTEX
  8
1
 42
0.0
 10
1.5225E+002
 20
1.4E+001
 70
0
  0
SEQEND
  0
POLYLINE
  8
1
  6
HIDDEN
 62
3
 66
1
 40
1.0E-003
 41
1.0E-003
 70
0
  0
VERTEX
  8
1
 42
0.0
 10
1.63E+002
 20
1.825E+001
 70
0
  0
VERTEX
  8
1
 42
0.0
 10
1.63E+002
 20
1.4E+001
 70
0
  0
SEQEND
  0
POLYLINE
  8
1
  6
CONTINUOUS
 62
3
 66
1
 40
1.0E-003
 41
1.0E-003
 70
0
  0
VERTEX
  8
1
 42
0.0
 10
1.7079001E+002
 20
2.7410446E+001
 70
0
  0
VERTEX
  8
1
 42
0.0
 10
1.7079001E+002
 20
3.0034676E+001
 70
0
  0
SEQEND
  0
POLYLINE
  8
1
  6
CONTINUOUS
 62
3
 66
1
 40
1.0E-003
 41
1.0E-003
 70
0
  0
VERTEX
  8
1
 42
0.0
 10
1.7079001E+002
 20
3.0034676E+001
 70
0
  0
VERTEX
  8
1
 42
0.0
 10
1.7397659E+002
 20
3.0034676E+001
 70
0
  0
SEQEND
  0
POLYLINE
  8
1
  6
CONTINUOUS
 62
3
 66
1
 40
1.0E-003
 41
1.0E-003
 70
0
  0
VERTEX
  8
1
 42
0.0
 10
1.7397659E+002
 20
3.0034676E+001
 70
0
  0
VERTEX
  8
1
 42
0.0
 10
1.7397659E+002
 20
2.7410446E+001
 70
0
  0
SEQEND
  0
POLYLINE
  8
1
  6
CONTINUOUS
 62
3
 66
1
 40
1.0E-003
 41
1.0E-003
 70
0
  0
VERTEX
  8
1
 42
0.0
 10
1.7397659E+002
 20
2.7410446E+001
 70
0
  0
VERTEX
  8
1
 42
0.0
 10
1.7079001E+002
 20
2.7410446E+001
 70
0
  0
SEQEND
  0
POLYLINE
  8
1
  6
CONTINUOUS
 62
3
 66
1
 40
1.0E-003
 41
1.0E-003
 70
0
  0
VERTEX
  8
1
 42
0.0
 10
2.0079001E+002
 20
2.7410446E+001
 70
0
  0
VERTEX
  8
1
 42
0.0
 10
2.0079001E+002
 20
3.0034676E+001
 70
0
  0
SEQEND
  0
POLYLINE
  8
1
  6
CONTINUOUS
 62
3
 66
1
 40
1.0E-003
 41
1.0E-003
 70
0
  0
VERTEX
  8
1
 42
0.0
 10
2.0079001E+002
 20
3.0034676E+001
 70
0
  0
VERTEX
  8
1
 42
0.0
 10
2.0397659E+002
 20
3.0034676E+001
 70
0
  0
SEQEND
  0
POLYLINE
  8
1
  6
CONTINUOUS
 62
3
 66
1
 40
1.0E-003
 41
1.0E-003
 70
0
  0
VERTEX
  8
1
 42
0.0
 10
2.0397659E+002
 20
3.0034676E+001
 70
0
  0
VERTEX
  8
1
 42
0.0
 10
2.0397659E+002
 20
2.7410446E+001
 70
0
  0
SEQEND
  0
POLYLINE
  8
1
  6
CONTINUOUS
 62
3
 66
1
 40
1.0E-003
 41
1.0E-003
 70
0
  0
VERTEX
  8
1
 42
0.0
 10
2.0397659E+002
 20
2.7410446E+001
 70
0
  0
VERTEX
  8
1
 42
0.0
 10
2.0079001E+002
 20
2.7410446E+001
 70
0
  0
SEQEND
  0
POLYLINE
  8
1
  6
CONTINUOUS
 62
3
 66
1
 40
1.0E-003
 41
1.0E-003
 70
0
  0
VERTEX
  8
1
 42
0.0
 10
1.7079001E+002
 20
2.3160446E+001
 70
0
  0
VERTEX
  8
1
 42
0.0
 10
1.7079001E+002
 20
2.5784676E+001
 70
0
  0
SEQEND
  0
POLYLINE
  8
1
  6
CONTINUOUS
 62
3
 66
1
 40
1.0E-003
 41
1.0E-003
 70
0
  0
VERTEX
  8
1
 42
0.0
 10
1.7079001E+002
 20
2.5784676E+001
 70
0
  0
VERTEX
  8
1
 42
0.0
 10
1.7397659E+002
 20
2.5784676E+001
 70
0
  0
SEQEND
  0
POLYLINE
  8
1
  6
CONTINUOUS
 62
3
 66
1
 40
1.0E-003
 41
1.0E-003
 70
0
  0
VERTEX
  8
1
 42
0.0
 10
1.7397659E+002
 20
2.5784676E+001
 70
0
  0
VERTEX
  8
1
 42
0.0
 10
1.7397659E+002
 20
2.3160446E+001
 70
0
  0
SEQEND
  0
POLYLINE
  8
1
  6
CONTINUOUS
 62
3
 66
1
 40
1.0E-003
 41
1.0E-003
 70
0
  0
VERTEX
  8
1
 42
0.0
 10
1.7397659E+002
 20
2.3160446E+001
 70
0
  0
VERTEX
  8
1
 42
0.0
 10
1.7079001E+002
 20
2.3160446E+001
 70
0
  0
SEQEND
  0
LINE
  8
1
  6
CONTINUOUS
 62
6
 10
3.1499985E+001
 20
3.1E+001
 11
3.1499985E+001
 21
1.4E+001
  0
POLYLINE
  8
1
  6
CONTINUOUS
 62
3
 66
1
 40
1.0E-003
 41
1.0E-003
 70
0
  0
VERTEX
  8
1
 42
0.0
 10
1.3877496E+002
 20
2.025E+001
 70
0
  0
VERTEX
  8
1
 42
0.0
 10
1.3877496E+002
 20
1.625E+001
 70
0
  0
SEQEND
  0
POLYLINE
  8
1
  6
CONTINUOUS
 62
3
 66
1
 40
1.0E-003
 41
1.0E-003
 70
0
  0
VERTEX
  8
1
 42
0.0
 10
1.3601489E+002
 20
1.925E+001
 70
0
  0
VERTEX
  8
1
 42
0.0
 10
1.3601489E+002
 20
1.725E+001
 70
0
  0
SEQEND
  0
POLYLINE
  8
1
  6
CONTINUOUS
 62
3
 66
1
 40
1.0E-003
 41
1.0E-003
 70
0
  0
VERTEX
  8
1
 42
0.0
 10
1.3601489E+002
 20
1.925E+001
 70
0
  0
VERTEX
  8
1
 42
0.0
 10
1.3877496E+002
 20
2.025E+001
 70
0
  0
SEQEND
  0
POLYLINE
  8
1
  6
CONTINUOUS
 62
3
 66
1
 40
1.0E-003
 41
1.0E-003
 70
0
  0
VERTEX
  8
1
 42
0.0
 10
1.3601489E+002
 20
1.725E+001
 70
0
  0
VERTEX
  8
1
 42
0.0
 10
1.3877496E+002
 20
1.625E+001
 70
0
  0
SEQEND
  0
POLYLINE
  8
1
  6
HIDDEN
 62
3
 66
1
 40
1.0E-003
 41
1.0E-003
 70
0
  0
VERTEX
  8
1
 42
0.0
 10
1.4252081E+002
 20
2.0649994E+001
 70
0
  0
VERTEX
  8
1
 42
0.0
 10
1.4252081E+002
 20
1.5849998E+001
 70
0
  0
SEQEND
  0
POLYLINE
  8
1
  6
HIDDEN
 62
3
 66
1
 40
1.0E-003
 41
1.0E-003
 70
0
  0
VERTEX
  8
1
 42
0.0
 10
1.4492081E+002
 20
1.825E+001
 70
0
  0
VERTEX
  8
1
 42
0.0
 10
1.3581775E+002
 20
1.825E+001
 70
0
  0
SEQEND
  0
TEXT
  8
1
  6
CONTINUOUS
 62
3
 10
5.9224213E+001
 20
2.3520981E+001
 40
2.0
  1
Ersatz fuer:
 41
6.0E-001
  0
TEXT
  8
1
  6
CONTINUOUS
 62
3
 10
5.9224213E+001
 20
1.9296745E+001
 40
2.0
  1
Ers. durch:
 41
6.5308091E-001
  0
TEXT
  8
1
  6
CONTINUOUS
 62
3
 10
5.9096191E+001
 20
1.4944511E+001
 40
2.0
  1
Zust. Stelle:
 41
6.3073385E-001
  0
TEXT
  8
1
  6
CONTINUOUS
 62
3
 10
9.8266327E+001
 20
2.7745209E+001
 40
2.0
  1
Ausgest.:
 41
6.0E-001
  0
TEXT
  8
1
  6
CONTINUOUS
 62
3
 10
9.8138336E+001
 20
2.3648987E+001
 40
2.0
  1
Geprueft:
 41
6.0E-001
  0
TEXT
  8
1
  6
CONTINUOUS
 62
3
 10
9.8138336E+001
 20
1.9424751E+001
 40
2.0
  1
Normgepr.:
 41
6.0E-001
  0
TEXT
  8
1
  6
CONTINUOUS
 62
3
 10
9.8138336E+001
 20
1.5072517E+001
 40
2.0
  1
Freigeg.:
 41
6.0E-001
  0
TEXT
  8
1
  6
CONTINUOUS
 62
3
 10
3.4718704E+001
 20
1.0957314E+001
 40
2.0
  1
Titel:
 41
5.9703E-001
  0
TEXT
  8
1
  6
CONTINUOUS
 62
3
 10
1.3619501E+002
 20
2.7965616E+001
 40
2.0
  1
Massstab
 41
6.0E-001
  0
TEXT
  8
1
  6
CONTINUOUS
 62
3
 10
1.7571872E+002
 20
2.7957314E+001
 40
2.0
  1
Sep.SL anderer Nr.
 41
6.0E-001
  0
TEXT
  8
1
  6
CONTINUOUS
 62
3
 10
1.4721872E+002
 20
1.9457314E+001
 40
2.0
  1
Dok.-Art
 41
6.0E-001
  0
TEXT
  8
1
  6
CONTINUOUS
 62
3
 10
1.5971872E+002
 20
1.9457314E+001
 40
2.0
  1
Format
 41
6.0E-001
  0
TEXT
  8
1
  6
CONTINUOUS
 62
3
 10
1.6971872E+002
 20
1.9457314E+001
 40
2.0
  1
Sprache
 41
6.0E-001
  0
TEXT
  8
1
  6
CONTINUOUS
 62
3
 10
1.8171872E+002
 20
1.9457314E+001
 40
2.0
  1
Bl. Nr.
 41
6.0E-001
  0
TEXT
  8
1
  6
CONTINUOUS
 62
3
 10
1.9221872E+002
 20
1.9457314E+001
 40
2.0
  1
Anz. Bl.
 41
6.0E-001
  0
TEXT
  8
1
  6
CONTINUOUS
 62
3
 10
1.4721872E+002
 20
2.7957314E+001
 40
2.0
  1
Sep.SL gleicher Nr.
 41
6.0E-001
  0
TEXT
  8
1
  6
CONTINUOUS
 62
3
 10
1.472323E+002
 20
2.3457428E+001
 40
2.0
  1
O
 41
6.3E-001
  0
TEXT
  8
1
  6
CONTINUOUS
 62
3
 10
1.486723E+002
 20
2.3457428E+001
 40
2.0
  1
hne sep. Stckl.:
 41
6.3727875E-001
  0
TEXT
  8
1
  6
CONTINUOUS
 62
6
 10
1.7570981E+002
 20
2.3817909E+001
 40
2.0
  1
 
 41
8.1E-001
  0
TEXT
  8
1
  6
CONTINUOUS
 62
3
 10
1.7603071E+002
 20
2.3683216E+001
 40
2.0
  1
Uebern. Stelle:
 41
6.0127615E-001
  0
TEXT
  8
1
  6
CONTINUOUS
 62
3
 10
1.595E+002
 20
1.5E+001
 40
2.5
  1
A
  0
TEXT
  8
1
  6
CONTINUOUS
 62
3
 10
1.645E+002
 20
1.5E+001
 40
2.5
  1
4
  0
TEXT
  8
1
  6
CONTINUOUS
 62
3
 10
1.7312595E+002
 20
1.5027565E+001
 40
2.5
  1
D
  0
TEXT
  8
1
  6
CONTINUOUS
 62
3
 10
1.8441553E+002
 20
1.5027565E+001
 40
2.5
  1
1
  0
TEXT
  8
1
  6
CONTINUOUS
 62
3
 10
1.9647238E+002
 20
1.5027565E+001
 40
2.5
  1
1
  0
TEXT
  8
1
  6
CONTINUOUS
 62
3
 10
5.9352203E+001
 20
2.7617203E+001
 40
2.0
  1
E
 41
6.3E-001
  0
TEXT
  8
1
  6
CONTINUOUS
 62
3
 10
6.0612213E+001
 20
2.7617203E+001
 40
2.0
  1
ntst. aus:
 41
6.09444E-001
  0
POLYLINE
  8
1
  6
CONTINUOUS
 62
3
 66
1
 40
1.0E-003
 41
1.0E-003
 70
0
  0
VERTEX
  8
1
 42
0.0
 10
2.0301865E+001
 20
7.3082472
 70
0
  0
VERTEX
  8
1
 42
0.0
 10
2.1426865E+001
 20
7.3082472
 70
0
  0
SEQEND
  0
POLYLINE
  8
1
  6
CONTINUOUS
 62
3
 66
1
 40
1.0E-003
 41
1.0E-003
 70
0
  0
VERTEX
  8
1
 42
0.0
 10
2.1426865E+001
 20
7.3082472
 70
0
  0
VERTEX
  8
1
 42
0.0
 10
2.1741867E+001
 20
8.2082449
 70
0
  0
SEQEND
  0
POLYLINE
  8
1
  6
CONTINUOUS
 62
3
 66
1
 40
1.0E-003
 41
1.0E-003
 70
0
  0
VERTEX
  8
1
 42
0.0
 10
2.1741867E+001
 20
8.2082449
 70
0
  0
VERTEX
  8
1
 42
0.0
 10
2.2356873E+001
 20
8.2082449
 70
0
  0
SEQEND
  0
POLYLINE
  8
1
  6
CONTINUOUS
 62
3
 66
1
 40
1.0E-003
 41
1.0E-003
 70
0
  0
VERTEX
  8
1
 42
0.0
 10
2.2356873E+001
 20
8.2082449
 70
0
  0
VERTEX
  8
1
 42
0.0
 10
2.2356873E+001
 20
9.3632456
 70
0
  0
SEQEND
  0
POLYLINE
  8
1
  6
CONTINUOUS
 62
3
 66
1
 40
1.0E-003
 41
1.0E-003
 70
0
  0
VERTEX
  8
1
 42
0.0
 10
2.2356873E+001
 20
9.3632456
 70
0
  0
VERTEX
  8
1
 42
0.0
 10
2.1073608E+001
 20
9.3632456
 70
0
  0
SEQEND
  0
POLYLINE
  8
1
  6
CONTINUOUS
 62
3
 66
1
 40
1.0E-003
 41
1.0E-003
 70
0
  0
VERTEX
  8
1
 42
0.0
 10
2.1073608E+001
 20
9.3632456
 70
0
  0
VERTEX
  8
1
 42
0.0
 10
2.0301865E+001
 20
7.3082472
 70
0
  0
SEQEND
  0
POLYLINE
  8
1
  6
CONTINUOUS
 62
3
 66
1
 40
1.0E-003
 41
1.0E-003
 70
0
  0
VERTEX
  8
1
 42
0.0
 10
2.4801865E+001
 20
7.3082472
 70
0
  0
VERTEX
  8
1
 42
0.0
 10
2.3676865E+001
 20
7.3082472
 70
0
  0
SEQEND
  0
POLYLINE
  8
1
  6
CONTINUOUS
 62
3
 66
1
 40
1.0E-003
 41
1.0E-003
 70
0
  0
VERTEX
  8
1
 42
0.0
 10
2.3676865E+001
 20
7.3082472
 70
0
  0
VERTEX
  8
1
 42
0.0
 10
2.3361862E+001
 20
8.2082449
 70
0
  0
SEQEND
  0
POLYLINE
  8
1
  6
CONTINUOUS
 62
3
 66
1
 40
1.0E-003
 41
1.0E-003
 70
0
  0
VERTEX
  8
1
 42
0.0
 10
2.3361862E+001
 20
8.2082449
 70
0
  0
VERTEX
  8
1
 42
0.0
 10
2.2746872E+001
 20
8.2082449
 70
0
  0
SEQEND
  0
POLYLINE
  8
1
  6
CONTINUOUS
 62
3
 66
1
 40
1.0E-003
 41
1.0E-003
 70
0
  0
VERTEX
  8
1
 42
0.0
 10
2.2746872E+001
 20
8.2082449
 70
0
  0
VERTEX
  8
1
 42
0.0
 10
2.2746872E+001
 20
9.3632456
 70
0
  0
SEQEND
  0
POLYLINE
  8
1
  6
CONTINUOUS
 62
3
 66
1
 40
1.0E-003
 41
1.0E-003
 70
0
  0
VERTEX
  8
1
 42
0.0
 10
2.2746872E+001
 20
9.3632456
 70
0
  0
VERTEX
  8
1
 42
0.0
 10
2.4030121E+001
 20
9.3632456
 70
0
  0
SEQEND
  0
POLYLINE
  8
1
  6
CONTINUOUS
 62
3
 66
1
 40
1.0E-003
 41
1.0E-003
 70
0
  0
VERTEX
  8
1
 42
0.0
 10
2.4030121E+001
 20
9.3632456
 70
0
  0
VERTEX
  8
1
 42
0.0
 10
2.4801865E+001
 20
7.3082472
 70
0
  0
SEQEND
  0
POLYLINE
  8
1
  6
CONTINUOUS
 62
3
 66
1
 40
1.0E-003
 41
1.0E-003
 70
0
  0
VERTEX
  8
1
 42
0.0
 10
2.2356873E+001
 20
9.753245
 70
0
  0
VERTEX
  8
1
 42
0.0
 10
2.1105118E+001
 20
9.753245
 70
0
  0
SEQEND
  0
POLYLINE
  8
1
  6
CONTINUOUS
 62
3
 66
1
 40
1.0E-003
 41
1.0E-003
 70
0
  0
VERTEX
  8
1
 42
0.0
 10
2.2356873E+001
 20
1.1808243E+001
 70
0
  0
VERTEX
  8
1
 42
0.0
 10
2.2356873E+001
 20
9.753245
 70
0
  0
SEQEND
  0
POLYLINE
  8
1
  6
CONTINUOUS
 62
3
 66
1
 40
1.0E-003
 41
1.0E-003
 70
0
  0
VERTEX
  8
1
 42
0.0
 10
2.2356873E+001
 20
1.1808243E+001
 70
0
  0
VERTEX
  8
1
 42
0.0
 10
2.1876862E+001
 20
1.1808243E+001
 70
0
  0
SEQEND
  0
POLYLINE
  8
1
  6
CONTINUOUS
 62
3
 66
1
 40
1.0E-003
 41
1.0E-003
 70
0
  0
VERTEX
  8
1
 42
0.0
 10
2.1876862E+001
 20
1.1808243E+001
 70
0
  0
VERTEX
  8
1
 42
0.0
 10
2.1105118E+001
 20
9.753245
 70
0
  0
SEQEND
  0
POLYLINE
  8
1
  6
CONTINUOUS
 62
3
 66
1
 40
1.0E-003
 41
1.0E-003
 70
0
  0
VERTEX
  8
1
 42
0.0
 10
2.2746872E+001
 20
9.753245
 70
0
  0
VERTEX
  8
1
 42
0.0
 10
2.3998611E+001
 20
9.753245
 70
0
  0
SEQEND
  0
POLYLINE
  8
1
  6
CONTINUOUS
 62
3
 66
1
 40
1.0E-003
 41
1.0E-003
 70
0
  0
VERTEX
  8
1
 42
0.0
 10
2.2746872E+001
 20
1.1808243E+001
 70
0
  0
VERTEX
  8
1
 42
0.0
 10
2.2746872E+001
 20
9.753245
 70
0
  0
SEQEND
  0
POLYLINE
  8
1
  6
CONTINUOUS
 62
3
 66
1
 40
1.0E-003
 41
1.0E-003
 70
0
  0
VERTEX
  8
1
 42
0.0
 10
2.2746872E+001
 20
1.1808243E+001
 70
0
  0
VERTEX
  8
1
 42
0.0
 10
2.3226868E+001
 20
1.1808243E+001
 70
0
  0
SEQEND
  0
POLYLINE
  8
1
  6
CONTINUOUS
 62
3
 66
1
 40
1.0E-003
 41
1.0E-003
 70
0
  0
VERTEX
  8
1
 42
0.0
 10
2.3226868E+001
 20
1.1808243E+001
 70
0
  0
VERTEX
  8
1
 42
0.0
 10
2.3998611E+001
 20
9.753245
 70
0
  0
SEQEND
  0
POLYLINE
  8
1
  6
CONTINUOUS
 62
3
 66
1
 40
1.0E-003
 41
1.0E-003
 70
0
  0
VERTEX
  8
1
 42
0.0
 10
2.5116867E+001
 20
9.3632456
 70
0
  0
VERTEX
  8
1
 42
0.0
 10
2.5116867E+001
 20
7.3082472
 70
0
  0
SEQEND
  0
POLYLINE
  8
1
  6
CONTINUOUS
 62
3
 66
1
 40
1.0E-003
 41
1.0E-003
 70
0
  0
VERTEX
  8
1
 42
0.0
 10
2.5116867E+001
 20
7.3082472
 70
0
  0
VERTEX
  8
1
 42
0.0
 10
2.6271881E+001
 20
7.3082472
 70
0
  0
SEQEND
  0
POLYLINE
  8
1
  6
CONTINUOUS
 62
3
 66
1
 40
1.0E-003
 41
1.0E-003
 70
0
  0
VERTEX
  8
1
 42
0.0
 10
2.6271881E+001
 20
9.3632456
 70
0
  0
VERTEX
  8
1
 42
0.0
 10
2.6271881E+001
 20
7.3082472
 70
0
  0
SEQEND
  0
POLYLINE
  8
1
  6
CONTINUOUS
 62
3
 66
1
 40
1.0E-003
 41
1.0E-003
 70
0
  0
VERTEX
  8
1
 42
0.0
 10
2.5116867E+001
 20
9.3632456
 70
0
  0
VERTEX
  8
1
 42
0.0
 10
2.6271881E+001
 20
9.3632456
 70
0
  0
SEQEND
  0
POLYLINE
  8
1
  6
CONTINUOUS
 62
3
 66
1
 40
1.0E-003
 41
1.0E-003
 70
0
  0
VERTEX
  8
1
 42
0.0
 10
2.5116867E+001
 20
9.753245
 70
0
  0
VERTEX
  8
1
 42
0.0
 10
2.6271881E+001
 20
9.753245
 70
0
  0
SEQEND
  0
POLYLINE
  8
1
  6
CONTINUOUS
 62
3
 66
1
 40
1.0E-003
 41
1.0E-003
 70
0
  0
VERTEX
  8
1
 42
0.0
 10
2.5116867E+001
 20
1.1808243E+001
 70
0
  0
VERTEX
  8
1
 42
0.0
 10
2.5116867E+001
 20
9.753245
 70
0
  0
SEQEND
  0
POLYLINE
  8
1
  6
CONTINUOUS
 62
3
 66
1
 40
1.0E-003
 41
1.0E-003
 70
0
  0
VERTEX
  8
1
 42
0.0
 10
2.5116867E+001
 20
1.1808243E+001
 70
0
  0
VERTEX
  8
1
 42
0.0
 10
2.6271881E+001
 20
1.1808243E+001
 70
0
  0
SEQEND
  0
POLYLINE
  8
1
  6
CONTINUOUS
 62
3
 66
1
 40
1.0E-003
 41
1.0E-003
 70
0
  0
VERTEX
  8
1
 42
0.0
 10
2.6271881E+001
 20
1.1808243E+001
 70
0
  0
VERTEX
  8
1
 42
0.0
 10
2.6271881E+001
 20
9.753245
 70
0
  0
SEQEND
  0
POLYLINE
  8
1
  6
CONTINUOUS
 62
3
 66
1
 40
1.0E-003
 41
1.0E-003
 70
0
  0
VERTEX
  8
1
 42
0.0
 10
2.6661865E+001
 20
9.3632456
 70
0
  0
VERTEX
  8
1
 42
0.0
 10
2.6661865E+001
 20
7.3082472
 70
0
  0
SEQEND
  0
POLYLINE
  8
1
  6
CONTINUOUS
 62
3
 66
1
 40
1.0E-003
 41
1.0E-003
 70
0
  0
VERTEX
  8
1
 42
0.0
 10
2.6661865E+001
 20
7.3082472
 70
0
  0
VERTEX
  8
1
 42
0.0
 10
2.691687E+001
 20
7.3082472
 70
0
  0
SEQEND
  0
POLYLINE
  8
1
  6
CONTINUOUS
 62
3
 66
1
 40
1.0E-003
 41
1.0E-003
 70
0
  0
VERTEX
  8
1
 42
0.0
 10
2.6661865E+001
 20
9.3632456
 70
0
  0
VERTEX
  8
1
 42
0.0
 10
2.8068161E+001
 20
9.3632456
 70
0
  0
SEQEND
  0
POLYLINE
  8
1
  6
CONTINUOUS
 62
3
 66
1
 40
1.0E-003
 41
1.0E-003
 70
0
  0
VERTEX
  8
1
 42
0.0
 10
2.6661865E+001
 20
1.1808243E+001
 70
0
  0
VERTEX
  8
1
 42
0.0
 10
2.6661865E+001
 20
9.753245
 70
0
  0
SEQEND
  0
POLYLINE
  8
1
  6
CONTINUOUS
 62
3
 66
1
 40
1.0E-003
 41
1.0E-003
 70
0
  0
VERTEX
  8
1
 42
0.0
 10
2.6661865E+001
 20
9.753245
 70
0
  0
VERTEX
  8
1
 42
0.0
 10
2.7706482E+001
 20
9.753245
 70
0
  0
SEQEND
  0
POLYLINE
  8
1
  6
CONTINUOUS
 62
3
 66
1
 40
1.0E-003
 41
1.0E-003
 70
0
  0
VERTEX
  8
1
 42
0.0
 10
2.6661865E+001
 20
1.1808243E+001
 70
0
  0
VERTEX
  8
1
 42
0.0
 10
2.691687E+001
 20
1.1808243E+001
 70
0
  0
SEQEND
  0
POLYLINE
  8
1
  6
CONTINUOUS
 62
3
 66
1
 40
1.0E-003
 41
1.0E-003
 70
0
  0
VERTEX
  8
1
 42
0.0
 10
2.8626862E+001
 20
9.3632456
 70
0
  0
VERTEX
  8
1
 42
0.0
 10
2.8626862E+001
 20
7.3082472
 70
0
  0
SEQEND
  0
POLYLINE
  8
1
  6
CONTINUOUS
 62
3
 66
1
 40
1.0E-003
 41
1.0E-003
 70
0
  0
VERTEX
  8
1
 42
0.0
 10
2.8626862E+001
 20
7.3082472
 70
0
  0
VERTEX
  8
1
 42
0.0
 10
2.9781876E+001
 20
7.3082472
 70
0
  0
SEQEND
  0
POLYLINE
  8
1
  6
CONTINUOUS
 62
3
 66
1
 40
1.0E-003
 41
1.0E-003
 70
0
  0
VERTEX
  8
1
 42
0.0
 10
2.9781876E+001
 20
9.3632456
 70
0
  0
VERTEX
  8
1
 42
0.0
 10
2.9781876E+001
 20
7.3082472
 70
0
  0
SEQEND
  0
POLYLINE
  8
1
  6
CONTINUOUS
 62
3
 66
1
 40
1.0E-003
 41
1.0E-003
 70
0
  0
VERTEX
  8
1
 42
0.0
 10
2.8626862E+001
 20
9.3632456
 70
0
  0
VERTEX
  8
1
 42
0.0
 10
2.9781876E+001
 20
9.3632456
 70
0
  0
SEQEND
  0
POLYLINE
  8
1
  6
CONTINUOUS
 62
3
 66
1
 40
1.0E-003
 41
1.0E-003
 70
0
  0
VERTEX
  8
1
 42
0.0
 10
2.8626862E+001
 20
1.1808243E+001
 70
0
  0
VERTEX
  8
1
 42
0.0
 10
2.8626862E+001
 20
9.753245
 70
0
  0
SEQEND
  0
POLYLINE
  8
1
  6
CONTINUOUS
 62
3
 66
1
 40
1.0E-003
 41
1.0E-003
 70
0
  0
VERTEX
  8
1
 42
0.0
 10
2.8626862E+001
 20
9.753245
 70
0
  0
VERTEX
  8
1
 42
0.0
 10
2.9781876E+001
 20
9.753245
 70
0
  0
SEQEND
  0
POLYLINE
  8
1
  6
CONTINUOUS
 62
3
 66
1
 40
1.0E-003
 41
1.0E-003
 70
0
  0
VERTEX
  8
1
 42
0.0
 10
2.9781876E+001
 20
1.1808243E+001
 70
0
  0
VERTEX
  8
1
 42
0.0
 10
2.9781876E+001
 20
9.753245
 70
0
  0
SEQEND
  0
POLYLINE
  8
1
  6
CONTINUOUS
 62
3
 66
1
 40
1.0E-003
 41
1.0E-003
 70
0
  0
VERTEX
  8
1
 42
0.0
 10
2.8626862E+001
 20
1.1808243E+001
 70
0
  0
VERTEX
  8
1
 42
0.0
 10
2.9781876E+001
 20
1.1808243E+001
 70
0
  0
SEQEND
  0
POLYLINE
  8
1
  6
CONTINUOUS
 62
3
 66
1
 40
1.0E-003
 41
1.0E-003
 70
0
  0
VERTEX
  8
1
 42
0.0
 10
3.017186E+001
 20
9.3632456
 70
0
  0
VERTEX
  8
1
 42
0.0
 10
3.017186E+001
 20
7.3082472
 70
0
  0
SEQEND
  0
POLYLINE
  8
1
  6
CONTINUOUS
 62
3
 66
1
 40
1.0E-003
 41
1.0E-003
 70
0
  0
VERTEX
  8
1
 42
0.0
 10
3.017186E+001
 20
7.3082472
 70
0
  0
VERTEX
  8
1
 42
0.0
 10
3.0426865E+001
 20
7.3082472
 70
0
  0
SEQEND
  0
POLYLINE
  8
1
  6
CONTINUOUS
 62
3
 66
1
 40
1.0E-003
 41
1.0E-003
 70
0
  0
VERTEX
  8
1
 42
0.0
 10
3.017186E+001
 20
9.3632456
 70
0
  0
VERTEX
  8
1
 42
0.0
 10
3.1578156E+001
 20
9.3632456
 70
0
  0
SEQEND
  0
POLYLINE
  8
1
  6
CONTINUOUS
 62
3
 66
1
 40
1.0E-003
 41
1.0E-003
 70
0
  0
VERTEX
  8
1
 42
0.0
 10
3.017186E+001
 20
1.1808243E+001
 70
0
  0
VERTEX
  8
1
 42
0.0
 10
3.017186E+001
 20
9.753245
 70
0
  0
SEQEND
  0
POLYLINE
  8
1
  6
CONTINUOUS
 62
3
 66
1
 40
1.0E-003
 41
1.0E-003
 70
0
  0
VERTEX
  8
1
 42
0.0
 10
3.017186E+001
 20
9.753245
 70
0
  0
VERTEX
  8
1
 42
0.0
 10
3.1216476E+001
 20
9.753245
 70
0
  0
SEQEND
  0
POLYLINE
  8
1
  6
CONTINUOUS
 62
3
 66
1
 40
1.0E-003
 41
1.0E-003
 70
0
  0
VERTEX
  8
1
 42
0.0
 10
3.017186E+001
 20
1.1808243E+001
 70
0
  0
VERTEX
  8
1
 42
0.0
 10
3.0426865E+001
 20
1.1808243E+001
 70
0
  0
SEQEND
  0
INSERT
  2
XHXH1NEW02NEW00NEW00
  8
1
 10
2.1933228E+001
 20
1.1581771E+001
  0
POLYLINE
  8
1
  6
CONTINUOUS
 62
3
 66
1
 40
1.0E-003
 41
1.0E-003
 70
0
  0
VERTEX
  8
1
 42
1.0
 10
1.4452078E+002
 20
1.825E+001
 70
0
  0
VERTEX
  8
1
 42
1.0
 10
1.4052078E+002
 20
1.825E+001
 70
0
  0
VERTEX
  8
1
 42
0.0
 10
1.4452078E+002
 20
1.825E+001
 70
0
  0
SEQEND
  0
POLYLINE
  8
1
  6
CONTINUOUS
 62
3
 66
1
 40
1.0E-003
 41
1.0E-003
 70
0
  0
VERTEX
  8
1
 42
1.0
 10
1.4352078E+002
 20
1.825E+001
 70
0
  0
VERTEX
  8
1
 42
1.0
 10
1.4152078E+002
 20
1.825E+001
 70
0
  0
VERTEX
  8
1
 42
0.0
 10
1.4352078E+002
 20
1.825E+001
 70
0
  0
SEQEND
  0
POLYLINE
  8
1
  6
CONTINUOUS
 62
3
 66
1
 40
1.0E-003
 41
1.0E-003
 70
0
  0
VERTEX
  8
1
 42
5.8600137E-001
 10
2.691687E+001
 20
7.3082456
 70
0
  0
VERTEX
  8
1
 42
0.0
 10
2.8068163E+001
 20
9.3632459
 70
0
  0
SEQEND
  0
POLYLINE
  8
1
  6
CONTINUOUS
 62
3
 66
1
 40
1.0E-003
 41
1.0E-003
 70
0
  0
VERTEX
  8
1
 42
6.2051509E-002
 10
2.7706476E+001
 20
9.7532445
 70
0
  0
VERTEX
  8
1
 42
0.0
 10
2.7413674E+001
 20
9.9135089
 70
0
  0
SEQEND
  0
POLYLINE
  8
1
  6
CONTINUOUS
 62
3
 66
1
 40
1.0E-003
 41
1.0E-003
 70
0
  0
VERTEX
  8
1
 42
7.7160142E-001
 10
2.7413674E+001
 20
9.9135095
 70
0
  0
VERTEX
  8
1
 42
0.0
 10
2.691687E+001
 20
1.1808246E+001
 70
0
  0
SEQEND
  0
POLYLINE
  8
1
  6
CONTINUOUS
 62
3
 66
1
 40
1.0E-003
 41
1.0E-003
 70
0
  0
VERTEX
  8
1
 42
5.8600137E-001
 10
3.0426865E+001
 20
7.3082456
 70
0
  0
VERTEX
  8
1
 42
0.0
 10
3.1578157E+001
 20
9.3632459
 70
0
  0
SEQEND
  0
POLYLINE
  8
1
  6
CONTINUOUS
 62
3
 66
1
 40
1.0E-003
 41
1.0E-003
 70
0
  0
VERTEX
  8
1
 42
6.2051509E-002
 10
3.1216471E+001
 20
9.7532445
 70
0
  0
VERTEX
  8
1
 42
0.0
 10
3.0923669E+001
 20
9.9135089
 70
0
  0
SEQEND
  0
POLYLINE
  8
1
  6
CONTINUOUS
 62
3
 66
1
 40
1.0E-003
 41
1.0E-003
 70
0
  0
VERTEX
  8
1
 42
7.7160142E-001
 10
3.0923669E+001
 20
9.9135095
 70
0
  0
VERTEX
  8
1
 42
0.0
 10
3.0426865E+001
 20
1.1808246E+001
 70
0
  0
SEQEND
  0
POINT
  8
Drafting_Hidden_Entities
  6
CONTINUOUS
 62
1
 10
0.0
 20
0.0
  0
ENDBLK
  0
BLOCK
  2
NG_RAHMEN_A4
 10
0.0
 20
0.0
 70
0
  0
POINT
  8
1
  6
CONTINUOUS
 62
7
 10
0.0
 20
0.0
  0
ENDBLK
  0
BLOCK
  2
NG_RAHMEN_A4NEW00
 10
0.0
 20
0.0
 70
0
  0
POINT
  8
1
  6
CONTINUOUS
 62
7
 10
0.0
 20
0.0
  0
ENDBLK
  0
BLOCK
  2
NG_RAHMEN_A4NEW01
 10
0.0
 20
0.0
 70
0
  0
POINT
  8
1
  6
CONTINUOUS
 62
7
 10
0.0
 20
0.0
  0
ENDBLK
  0
BLOCK
  2
*D408
  3
*D
 10
0.0
 20
0.0
 70
65
  0
LINE
  8
1
  6
CONTINUOUS
 62
4
 10
1.8206059E+002
 20
1.9355294E+002
 11
1.8206059E+002
 21
2.4276864E+002
  0
LINE
  8
1
  6
CONTINUOUS
 62
4
 10
1.3056059E+002
 20
2.0145294E+002
 11
1.3056059E+002
 21
2.4276864E+002
  0
SOLID
  8
1
  6
CONTINUOUS
 62
0
 10
1.8206059E+002
 20
2.4126864E+002
 11
1.7906059E+002
 21
2.4176865E+002
 12
1.7906059E+002
 22
2.4076864E+002
 13
1.7906059E+002
 23
2.4076864E+002
  0
SOLID
  8
1
  6
CONTINUOUS
 62
0
 10
1.3056059E+002
 20
2.4126864E+002
 11
1.3356059E+002
 21
2.4076864E+002
 12
1.3356059E+002
 22
2.4176865E+002
 13
1.3356059E+002
 23
2.4176865E+002
  0
LINE
  8
1
  6
CONTINUOUS
 62
4
 10
1.8206059E+002
 20
2.4126864E+002
 11
1.5882779E+002
 21
2.4126864E+002
  0
LINE
  8
1
  6
CONTINUOUS
 62
4
 10
1.3056059E+002
 20
2.4126864E+002
 11
1.5882779E+002
 21
2.4126864E+002
  0
ENDBLK
  0
BLOCK
  2
*D415
  3
*D
 10
0.0
 20
0.0
 70
65
  0
LINE
  8
1
  6
CONTINUOUS
 62
4
 10
8.3251758E+001
 20
1.9955294E+002
 11
8.3251758E+001
 21
2.3476864E+002
  0
LINE
  8
1
  6
CONTINUOUS
 62
4
 10
3.5751738E+001
 20
1.9955294E+002
 11
3.5751738E+001
 21
2.3476864E+002
  0
SOLID
  8
1
  6
CONTINUOUS
 62
0
 10
8.3251758E+001
 20
2.3326864E+002
 11
8.0251758E+001
 21
2.3376865E+002
 12
8.0251758E+001
 22
2.3276864E+002
 13
8.0251758E+001
 23
2.3276864E+002
  0
SOLID
  8
1
  6
CONTINUOUS
 62
0
 10
3.5751738E+001
 20
2.3326864E+002
 11
3.8751738E+001
 21
2.3276864E+002
 12
3.8751738E+001
 22
2.3376865E+002
 13
3.8751738E+001
 23
2.3376865E+002
  0
LINE
  8
1
  6
CONTINUOUS
 62
4
 10
8.3251758E+001
 20
2.3326864E+002
 11
5.678833E+001
 21
2.3326864E+002
  0
LINE
  8
1
  6
CONTINUOUS
 62
4
 10
3.5751738E+001
 20
2.3326864E+002
 11
5.678833E+001
 21
2.3326864E+002
  0
ENDBLK
  0
BLOCK
  2
*D420
  3
*D
 10
0.0
 20
0.0
 70
65
  0
LINE
  8
1
  6
CONTINUOUS
 62
4
 10
1.8206069E+002
 20
1.9355284E+002
 11
1.9401479E+002
 21
1.9355284E+002
  0
LINE
  8
1
  6
CONTINUOUS
 62
4
 10
1.8206069E+002
 20
1.9255284E+002
 11
1.9401479E+002
 21
1.9255284E+002
  0
SOLID
  8
1
  6
CONTINUOUS
 62
0
 10
1.9251479E+002
 20
1.9355284E+002
 11
1.9301479E+002
 21
1.9655284E+002
 12
1.9201478E+002
 22
1.9655284E+002
 13
1.9201478E+002
 23
1.9655284E+002
  0
SOLID
  8
1
  6
CONTINUOUS
 62
0
 10
1.9251479E+002
 20
1.9255284E+002
 11
1.9201478E+002
 21
1.8955284E+002
 12
1.9301479E+002
 22
1.8955284E+002
 13
1.9301479E+002
 23
1.8955284E+002
  0
LINE
  8
1
  6
CONTINUOUS
 62
4
 10
1.9251479E+002
 20
1.9355284E+002
 11
1.9251479E+002
 21
2.0012954E+002
  0
LINE
  8
1
  6
CONTINUOUS
 62
4
 10
1.9251479E+002
 20
1.8655284E+002
 11
1.9251479E+002
 21
1.9355284E+002
  0
TEXT
  8
1
  6
CONTINUOUS
 62
4
 10
1.9101379E+002
 20
1.9622954E+002
 40
3.0
  1
1
 41
8.0E-001
 50
9.0E+001
 51
1.0
  0
ENDBLK
  0
BLOCK
  2
*D453
  3
*D
 10
0.0
 20
0.0
 70
65
  0
LINE
  8
1
  6
CONTINUOUS
 62
4
 10
8.9251738E+001
 20
1.7835274E+002
 11
8.9251738E+001
 21
1.7112109E+002
  0
LINE
  8
1
  6
CONTINUOUS
 62
4
 10
8.3251738E+001
 20
1.6115294E+002
 11
8.3251738E+001
 21
1.7412109E+002
  0
SOLID
  8
1
  6
CONTINUOUS
 62
0
 10
8.9251738E+001
 20
1.7262109E+002
 11
9.2251738E+001
 21
1.7212109E+002
 12
9.2251738E+001
 22
1.731211E+002
 13
9.2251738E+001
 23
1.731211E+002
  0
SOLID
  8
1
  6
CONTINUOUS
 62
0
 10
8.3251738E+001
 20
1.7262109E+002
 11
8.0251738E+001
 21
1.731211E+002
 12
8.0251738E+001
 22
1.7212109E+002
 13
8.0251738E+001
 23
1.7212109E+002
  0
LINE
  8
1
  6
CONTINUOUS
 62
4
 10
9.5251738E+001
 20
1.7262109E+002
 11
8.9251738E+001
 21
1.7262109E+002
  0
LINE
  8
1
  6
CONTINUOUS
 62
4
 10
7.7251738E+001
 20
1.7262109E+002
 11
8.9251738E+001
 21
1.7262109E+002
  0
TEXT
  8
1
  6
CONTINUOUS
 62
4
 10
8.4840662E+001
 20
1.7412209E+002
 40
3.0
  1
6
 41
8.0E-001
 50
3.6E+002
 51
1.0
  0
ENDBLK
  0
BLOCK
  2
*D477
  3
*D
 10
0.0
 20
0.0
 70
65
  0
LINE
  8
1
  6
CONTINUOUS
 62
4
 10
6.1501838E+001
 20
2.0295284E+002
 11
1.0932879E+002
 21
2.0295284E+002
  0
LINE
  8
1
  6
CONTINUOUS
 62
4
 10
6.1501838E+001
 20
1.5775284E+002
 11
1.0932879E+002
 21
1.5775284E+002
  0
SOLID
  8
1
  6
CONTINUOUS
 62
0
 10
1.0782879E+002
 20
2.0295284E+002
 11
1.0732878E+002
 21
1.9995284E+002
 12
1.0832879E+002
 22
1.9995284E+002
 13
1.0832879E+002
 23
1.9995284E+002
  0
SOLID
  8
1
  6
CONTINUOUS
 62
0
 10
1.0782879E+002
 20
1.5775284E+002
 11
1.0832879E+002
 21
1.6075284E+002
 12
1.0732878E+002
 22
1.6075284E+002
 13
1.0732878E+002
 23
1.6075284E+002
  0
LINE
  8
1
  6
CONTINUOUS
 62
4
 10
1.0782879E+002
 20
2.0295284E+002
 11
1.0782879E+002
 21
1.8026964E+002
  0
LINE
  8
1
  6
CONTINUOUS
 62
4
 10
1.0782879E+002
 20
1.5775284E+002
 11
1.0782879E+002
 21
1.8026964E+002
  0
TEXT
  8
1
  6
CONTINUOUS
 62
4
 10
1.0632779E+002
 20
1.7786964E+002
 40
3.0
  1
45
 41
8.0E-001
 50
9.0E+001
 51
1.0
  0
ENDBLK
  0
BLOCK
  2
*D496
  3
*D
 10
0.0
 20
0.0
 70
65
  0
LINE
  8
1
  6
CONTINUOUS
 62
4
 10
4.0241738E+001
 20
1.9464124E+002
 11
4.0241738E+001
 21
2.1876864E+002
  0
LINE
  8
1
  6
CONTINUOUS
 62
4
 10
5.0401738E+001
 20
1.9464124E+002
 11
5.0401738E+001
 21
2.1876864E+002
  0
SOLID
  8
1
  6
CONTINUOUS
 62
0
 10
4.0241738E+001
 20
2.1726864E+002
 11
4.3241738E+001
 21
2.1676864E+002
 12
4.3241738E+001
 22
2.1776865E+002
 13
4.3241738E+001
 23
2.1776865E+002
  0
SOLID
  8
1
  6
CONTINUOUS
 62
0
 10
5.0401738E+001
 20
2.1726864E+002
 11
4.7401738E+001
 21
2.1776865E+002
 12
4.7401738E+001
 22
2.1676864E+002
 13
4.7401738E+001
 23
2.1676864E+002
  0
LINE
  8
1
  6
CONTINUOUS
 62
4
 10
4.0241738E+001
 20
2.1726864E+002
 11
4.4827788E+001
 21
2.1726864E+002
  0
LINE
  8
1
  6
CONTINUOUS
 62
4
 10
5.0401738E+001
 20
2.1726864E+002
 11
4.4827788E+001
 21
2.1726864E+002
  0
ENDBLK
  0
BLOCK
  2
*D498
  3
*D
 10
0.0
 20
0.0
 70
65
  0
LINE
  8
1
  6
CONTINUOUS
 62
4
 10
1.3356059E+002
 20
1.9785294E+002
 11
1.3356059E+002
 21
2.1876864E+002
  0
LINE
  8
1
  6
CONTINUOUS
 62
4
 10
1.6716059E+002
 20
1.9805294E+002
 11
1.6716059E+002
 21
2.1876864E+002
  0
SOLID
  8
1
  6
CONTINUOUS
 62
0
 10
1.3356059E+002
 20
2.1726864E+002
 11
1.3656059E+002
 21
2.1676864E+002
 12
1.3656059E+002
 22
2.1776865E+002
 13
1.3656059E+002
 23
2.1776865E+002
  0
SOLID
  8
1
  6
CONTINUOUS
 62
0
 10
1.6716059E+002
 20
2.1726864E+002
 11
1.6416059E+002
 21
2.1776865E+002
 12
1.6416059E+002
 22
2.1676864E+002
 13
1.6416059E+002
 23
2.1676864E+002
  0
LINE
  8
1
  6
CONTINUOUS
 62
4
 10
1.3356059E+002
 20
2.1726864E+002
 11
1.4882779E+002
 21
2.1726864E+002
  0
LINE
  8
1
  6
CONTINUOUS
 62
4
 10
1.6716059E+002
 20
2.1726864E+002
 11
1.4882779E+002
 21
2.1726864E+002
  0
ENDBLK
  0
BLOCK
  2
*D502
  3
*D
 10
0.0
 20
0.0
 70
65
  0
LINE
  8
1
  6
CONTINUOUS
 62
4
 10
1.3356059E+002
 20
1.9785294E+002
 11
1.3356059E+002
 21
2.2676864E+002
  0
LINE
  8
1
  6
CONTINUOUS
 62
4
 10
1.7806059E+002
 20
2.0035294E+002
 11
1.7806059E+002
 21
2.2676864E+002
  0
SOLID
  8
1
  6
CONTINUOUS
 62
0
 10
1.3356059E+002
 20
2.2526864E+002
 11
1.3656059E+002
 21
2.2476864E+002
 12
1.3656059E+002
 22
2.2576865E+002
 13
1.3656059E+002
 23
2.2576865E+002
  0
SOLID
  8
1
  6
CONTINUOUS
 62
0
 10
1.7806059E+002
 20
2.2526864E+002
 11
1.7506059E+002
 21
2.2576865E+002
 12
1.7506059E+002
 22
2.2476864E+002
 13
1.7506059E+002
 23
2.2476864E+002
  0
LINE
  8
1
  6
CONTINUOUS
 62
4
 10
1.3356059E+002
 20
2.2526864E+002
 11
1.5682779E+002
 21
2.2526864E+002
  0
LINE
  8
1
  6
CONTINUOUS
 62
4
 10
1.7806059E+002
 20
2.2526864E+002
 11
1.5682779E+002
 21
2.2526864E+002
  0
ENDBLK
  0
BLOCK
  2
*D515
  3
*D
 10
0.0
 20
0.0
 70
65
  0
LINE
  8
1
  6
CONTINUOUS
 62
4
 10
1.8206059E+002
 20
1.9355294E+002
 11
1.8206059E+002
 21
2.2676864E+002
  0
LINE
  8
1
  6
CONTINUOUS
 62
4
 10
1.7806059E+002
 20
2.0035294E+002
 11
1.7806059E+002
 21
2.2676864E+002
  0
SOLID
  8
1
  6
CONTINUOUS
 62
0
 10
1.8206059E+002
 20
2.2526864E+002
 11
1.8506059E+002
 21
2.2476864E+002
 12
1.8506059E+002
 22
2.2576865E+002
 13
1.8506059E+002
 23
2.2576865E+002
  0
SOLID
  8
1
  6
CONTINUOUS
 62
0
 10
1.7806059E+002
 20
2.2526864E+002
 11
1.7506059E+002
 21
2.2576865E+002
 12
1.7506059E+002
 22
2.2476864E+002
 13
1.7506059E+002
 23
2.2476864E+002
  0
LINE
  8
1
  6
CONTINUOUS
 62
4
 10
1.8206059E+002
 20
2.2526864E+002
 11
1.8841887E+002
 21
2.2526864E+002
  0
LINE
  8
1
  6
CONTINUOUS
 62
4
 10
1.7206059E+002
 20
2.2526864E+002
 11
1.8206059E+002
 21
2.2526864E+002
  0
TEXT
  8
1
  6
CONTINUOUS
 62
4
 10
1.8451887E+002
 20
2.2676964E+002
 40
3.0
  1
4
 41
8.0E-001
 50
3.6E+002
 51
1.0
  0
ENDBLK
  0
BLOCK
  2
*D570
  3
*D
 10
0.0
 20
0.0
 70
65
  0
LINE
  8
1
  6
CONTINUOUS
 62
4
 10
1.7901259E+002
 20
1.9305284E+002
 11
1.9977939E+002
 21
1.9305284E+002
  0
LINE
  8
1
  6
CONTINUOUS
 62
4
 10
1.7901259E+002
 20
1.6765284E+002
 11
1.9977939E+002
 21
1.6765284E+002
  0
SOLID
  8
1
  6
CONTINUOUS
 62
0
 10
1.9827939E+002
 20
1.9305284E+002
 11
1.9777938E+002
 21
1.9005284E+002
 12
1.9877939E+002
 22
1.9005284E+002
 13
1.9877939E+002
 23
1.9005284E+002
  0
SOLID
  8
1
  6
CONTINUOUS
 62
0
 10
1.9827939E+002
 20
1.6765284E+002
 11
1.9877939E+002
 21
1.7065284E+002
 12
1.9777938E+002
 22
1.7065284E+002
 13
1.9777938E+002
 23
1.7065284E+002
  0
LINE
  8
1
  6
CONTINUOUS
 62
4
 10
1.9827939E+002
 20
1.9305284E+002
 11
1.9827939E+002
 21
1.8002104E+002
  0
LINE
  8
1
  6
CONTINUOUS
 62
4
 10
1.9827939E+002
 20
1.6765284E+002
 11
1.9827939E+002
 21
1.8002104E+002
  0
ENDBLK
  0
BLOCK
  2
*E653
  3
*E653
 10
3.6551748E+001
 20
2.0065284E+002
 70
65
  0
ARC
  8
1
  6
CONTINUOUS
 62
3
 10
3.6551748E+001
 20
2.0065284E+002
 40
8.0E-001
 50
1.7999999E+002
 51
2.7E+002
  0
ENDBLK
  0
BLOCK
  2
*E680
  3
*E680
 10
4.5451738E+001
 20
1.7830284E+002
 70
65
  0
ARC
  8
1
  6
CONTINUOUS
 62
3
 10
4.5451738E+001
 20
1.7830284E+002
 40
5.0E-001
 50
0.0
 51
9.0E+001
  0
ENDBLK
  0
BLOCK
  2
*E681
  3
*E681
 10
8.2451738E+001
 20
1.6005284E+002
 70
65
  0
ARC
  8
1
  6
CONTINUOUS
 62
3
 10
8.2451738E+001
 20
1.6005284E+002
 40
8.0E-001
 50
0.0
 51
9.0E+001
  0
ENDBLK
  0
BLOCK
  2
*E682
  3
*E682
 10
7.3154008E+001
 20
1.5960504E+002
 70
65
  0
ARC
  8
1
  6
CONTINUOUS
 62
3
 10
7.3154008E+001
 20
1.5960504E+002
 40
3.522591E-001
 50
2.703412E+002
 51
4.59195E+002
  0
ENDBLK
  0
BLOCK
  2
*E684
  3
*E684
 10
6.4053998E+001
 20
1.5960504E+002
 70
65
  0
ARC
  8
1
  6
CONTINUOUS
 62
3
 10
6.4053998E+001
 20
1.5960504E+002
 40
3.522591E-001
 50
2.703412E+002
 51
4.59195E+002
  0
ENDBLK
  0
BLOCK
  2
*E685
  3
*E685
 10
5.4954008E+001
 20
1.5960504E+002
 70
65
  0
ARC
  8
1
  6
CONTINUOUS
 62
3
 10
5.4954008E+001
 20
1.5960504E+002
 40
3.522591E-001
 50
2.703412E+002
 51
4.59195E+002
  0
ENDBLK
  0
BLOCK
  2
*E686
  3
*E686
 10
4.5853998E+001
 20
1.5960504E+002
 70
65
  0
ARC
  8
1
  6
CONTINUOUS
 62
3
 10
4.5853998E+001
 20
1.5960504E+002
 40
3.522591E-001
 50
2.703412E+002
 51
4.59195E+002
  0
ENDBLK
  0
BLOCK
  2
*E688
  3
*E688
 10
3.6601728E+001
 20
1.5975284E+002
 70
65
  0
ARC
  8
1
  6
CONTINUOUS
 62
3
 10
3.6601728E+001
 20
1.5975284E+002
 40
5.0E-001
 50
0.0
 51
9.0E+001
  0
ENDBLK
  0
BLOCK
  2
*E692
  3
*E692
 10
8.2401748E+001
 20
2.0095284E+002
 70
65
  0
ARC
  8
1
  6
CONTINUOUS
 62
3
 10
8.2401748E+001
 20
2.0095284E+002
 40
5.0E-001
 50
1.7999999E+002
 51
2.7E+002
  0
ENDBLK
  0
BLOCK
  2
*E696
  3
*E696
 10
8.2451738E+001
 20
1.6005284E+002
 70
65
  0
ARC
  8
1
  6
CONTINUOUS
 62
3
 10
8.2451738E+001
 20
1.6005284E+002
 40
8.0E-001
 50
0.0
 51
9.0E+001
  0
ENDBLK
  0
BLOCK
  2
*E697
  3
*E697
 10
3.6551748E+001
 20
1.6005284E+002
 70
65
  0
ARC
  8
1
  6
CONTINUOUS
 62
3
 10
3.6551748E+001
 20
1.6005284E+002
 40
8.0E-001
 50
2.7E+002
 51
3.6E+002
  0
ENDBLK
  0
BLOCK
  2
*E699
  3
*E699
 10
8.2451748E+001
 20
2.0065284E+002
 70
65
  0
ARC
  8
1
  6
CONTINUOUS
 62
3
 10
8.2451748E+001
 20
2.0065284E+002
 40
8.0E-001
 50
9.0E+001
 51
1.7999999E+002
  0
ENDBLK
  0
BLOCK
  2
*D701
  3
*D
 10
0.0
 20
0.0
 70
65
  0
LINE
  8
1
  6
CONTINUOUS
 62
4
 10
5.0401738E+001
 20
1.9464124E+002
 11
5.0401738E+001
 21
2.2676864E+002
  0
LINE
  8
1
  6
CONTINUOUS
 62
4
 10
3.5751738E+001
 20
1.9955294E+002
 11
3.5751738E+001
 21
2.2676864E+002
  0
SOLID
  8
1
  6
CONTINUOUS
 62
0
 10
5.0401738E+001
 20
2.2526864E+002
 11
4.7401738E+001
 21
2.2576865E+002
 12
4.7401738E+001
 22
2.2476864E+002
 13
4.7401738E+001
 23
2.2476864E+002
  0
SOLID
  8
1
  6
CONTINUOUS
 62
0
 10
3.5751738E+001
 20
2.2526864E+002
 11
3.8751738E+001
 21
2.2476864E+002
 12
3.8751738E+001
 22
2.2576865E+002
 13
3.8751738E+001
 23
2.2576865E+002
  0
LINE
  8
1
  6
CONTINUOUS
 62
4
 10
5.0401738E+001
 20
2.2526864E+002
 11
4.3362317E+001
 21
2.2526864E+002
  0
LINE
  8
1
  6
CONTINUOUS
 62
4
 10
3.5751738E+001
 20
2.2526864E+002
 11
4.3362317E+001
 21
2.2526864E+002
  0
ENDBLK
  0
BLOCK
  2
*D707
  3
*D
 10
0.0
 20
0.0
 70
65
  0
LINE
  8
1
  6
CONTINUOUS
 62
4
 10
5.0401738E+001
 20
1.9464124E+002
 11
5.0401738E+001
 21
2.1876864E+002
  0
LINE
  8
1
  6
CONTINUOUS
 62
4
 10
6.0561748E+001
 20
1.9464124E+002
 11
6.0561748E+001
 21
2.1876864E+002
  0
SOLID
  8
1
  6
CONTINUOUS
 62
0
 10
5.0401738E+001
 20
2.1726864E+002
 11
5.3401738E+001
 21
2.1676864E+002
 12
5.3401738E+001
 22
2.1776865E+002
 13
5.3401738E+001
 23
2.1776865E+002
  0
SOLID
  8
1
  6
CONTINUOUS
 62
0
 10
6.0561748E+001
 20
2.1726864E+002
 11
5.7561748E+001
 21
2.1776865E+002
 12
5.7561748E+001
 22
2.1676864E+002
 13
5.7561748E+001
 23
2.1676864E+002
  0
LINE
  8
1
  6
CONTINUOUS
 62
4
 10
5.0401738E+001
 20
2.1726864E+002
 11
5.4685313E+001
 21
2.1726864E+002
  0
LINE
  8
1
  6
CONTINUOUS
 62
4
 10
6.0561748E+001
 20
2.1726864E+002
 11
5.4685313E+001
 21
2.1726864E+002
  0
ENDBLK
  0
BLOCK
  2
*E727
  3
*E727
 10
3.9086378E+001
 20
1.8134604E+002
 70
65
  0
ARC
  8
1
  6
CONTINUOUS
 62
3
 10
3.9086378E+001
 20
1.8134604E+002
 40
6.419031E-002
 50
2.0695312E+002
 51
3.79765E+002
  0
ENDBLK
  0
BLOCK
  2
*E732
  3
*E732
 10
4.2775768E+001
 20
1.8223564E+002
 70
65
  0
ARC
  8
1
  6
CONTINUOUS
 62
3
 10
4.2775768E+001
 20
1.8223564E+002
 40
5.0E-001
 50
1.7999999E+002
 51
2.7E+002
  0
ENDBLK
  0
BLOCK
  2
*D783
  3
*D
 10
0.0
 20
0.0
 70
65
  0
LINE
  8
1
  6
CONTINUOUS
 62
4
 10
7.0721748E+001
 20
1.9464124E+002
 11
7.0721748E+001
 21
2.1876864E+002
  0
LINE
  8
1
  6
CONTINUOUS
 62
4
 10
7.8341748E+001
 20
1.9464124E+002
 11
7.8341748E+001
 21
2.1876864E+002
  0
SOLID
  8
1
  6
CONTINUOUS
 62
0
 10
7.0721748E+001
 20
2.1726864E+002
 11
6.7721748E+001
 21
2.1776865E+002
 12
6.7721748E+001
 22
2.1676864E+002
 13
6.7721748E+001
 23
2.1676864E+002
  0
SOLID
  8
1
  6
CONTINUOUS
 62
0
 10
7.8341748E+001
 20
2.1726864E+002
 11
8.1341748E+001
 21
2.1676864E+002
 12
8.1341748E+001
 22
2.1776865E+002
 13
8.1341748E+001
 23
2.1776865E+002
  0
LINE
  8
1
  6
CONTINUOUS
 62
4
 10
6.4721748E+001
 20
2.1726864E+002
 11
7.8341748E+001
 21
2.1726864E+002
  0
LINE
  8
1
  6
CONTINUOUS
 62
4
 10
7.8341748E+001
 20
2.1726864E+002
 11
9.3518226E+001
 21
2.1726864E+002
  0
ENDBLK
  0
BLOCK
  2
*D785
  3
*D
 10
0.0
 20
0.0
 70
65
  0
LINE
  8
1
  6
CONTINUOUS
 62
4
 10
6.0561748E+001
 20
1.9464124E+002
 11
6.0561748E+001
 21
2.1876864E+002
  0
LINE
  8
1
  6
CONTINUOUS
 62
4
 10
7.0721748E+001
 20
1.9464124E+002
 11
7.0721748E+001
 21
2.1876864E+002
  0
SOLID
  8
1
  6
CONTINUOUS
 62
0
 10
6.0561748E+001
 20
2.1726864E+002
 11
6.3561748E+001
 21
2.1676864E+002
 12
6.3561748E+001
 22
2.1776865E+002
 13
6.3561748E+001
 23
2.1776865E+002
  0
SOLID
  8
1
  6
CONTINUOUS
 62
0
 10
7.0721748E+001
 20
2.1726864E+002
 11
6.7721748E+001
 21
2.1776865E+002
 12
6.7721748E+001
 22
2.1676864E+002
 13
6.7721748E+001
 23
2.1676864E+002
  0
LINE
  8
1
  6
CONTINUOUS
 62
4
 10
6.0561748E+001
 20
2.1726864E+002
 11
6.5385025E+001
 21
2.1726864E+002
  0
LINE
  8
1
  6
CONTINUOUS
 62
4
 10
7.0721748E+001
 20
2.1726864E+002
 11
6.5385025E+001
 21
2.1726864E+002
  0
ENDBLK
  0
BLOCK
  2
*D786
  3
*D
 10
0.0
 20
0.0
 70
65
  0
LINE
  8
1
  6
CONTINUOUS
 62
4
 10
7.3801838E+001
 20
2.0145284E+002
 11
1.0132879E+002
 21
2.0145284E+002
  0
LINE
  8
1
  6
CONTINUOUS
 62
4
 10
7.3801838E+001
 20
1.5925284E+002
 11
1.0132879E+002
 21
1.5925284E+002
  0
SOLID
  8
1
  6
CONTINUOUS
 62
0
 10
9.9828788E+001
 20
2.0145284E+002
 11
9.9328784E+001
 21
1.9845284E+002
 12
1.0032879E+002
 22
1.9845284E+002
 13
1.0032879E+002
 23
1.9845284E+002
  0
SOLID
  8
1
  6
CONTINUOUS
 62
0
 10
9.9828788E+001
 20
1.5925284E+002
 11
1.0032879E+002
 21
1.6225284E+002
 12
9.9328784E+001
 22
1.6225284E+002
 13
9.9328784E+001
 23
1.6225284E+002
  0
LINE
  8
1
  6
CONTINUOUS
 62
4
 10
9.9828788E+001
 20
2.0145284E+002
 11
9.9828788E+001
 21
1.8026964E+002
  0
LINE
  8
1
  6
CONTINUOUS
 62
4
 10
9.9828788E+001
 20
1.5925284E+002
 11
9.9828788E+001
 21
1.8026964E+002
  0
TEXT
  8
1
  6
CONTINUOUS
 62
4
 10
9.8327788E+001
 20
1.7786964E+002
 40
3.0
  1
42
 41
8.0E-001
 50
9.0E+001
 51
1.0
  0
ENDBLK
  0
BLOCK
  2
*E793
  3
*E793
 10
1.7116059E+002
 20
1.9155284E+002
 70
65
  0
ARC
  8
1
  6
HIDDEN
 62
3
 10
1.7116059E+002
 20
1.9155284E+002
 40
1.0
 50
1.7999998E+002
 51
2.7E+002
  0
ENDBLK
  0
BLOCK
  2
*E796
  3
*E796
 10
1.7116059E+002
 20
1.9455284E+002
 70
65
  0
ARC
  8
1
  6
HIDDEN
 62
3
 10
1.7116059E+002
 20
1.9455284E+002
 40
1.0
 50
2.7E+002
 51
3.6E+002
  0
ENDBLK
  0
BLOCK
  2
*E804
  3
*E804
 10
1.7116059E+002
 20
1.6615284E+002
 70
65
  0
ARC
  8
1
  6
HIDDEN
 62
3
 10
1.7116059E+002
 20
1.6615284E+002
 40
1.0
 50
1.7999998E+002
 51
2.7E+002
  0
ENDBLK
  0
BLOCK
  2
*E807
  3
*E807
 10
1.7116059E+002
 20
1.6915284E+002
 70
65
  0
ARC
  8
1
  6
HIDDEN
 62
3
 10
1.7116059E+002
 20
1.6915284E+002
 40
1.0
 50
2.7E+002
 51
3.6E+002
  0
ENDBLK
  0
BLOCK
  2
*E830
  3
*E
 10
0.0
 20
0.0
 70
65
  0
CIRCLE
  8
1
  6
CONTINUOUS
 62
3
 10
0.0
 20
0.0
 40
1.0
  0
ENDBLK
  0
BLOCK
  2
*E831
  3
*E
 10
0.0
 20
0.0
 70
65
  0
CIRCLE
  8
1
  6
CONTINUOUS
 62
3
 10
0.0
 20
0.0
 40
1.0
  0
ENDBLK
  0
BLOCK
  2
*E832
  3
*E
 10
0.0
 20
0.0
 70
65
  0
CIRCLE
  8
1
  6
CONTINUOUS
 62
3
 10
0.0
 20
0.0
 40
1.0
  0
ENDBLK
  0
BLOCK
  2
*E833
  3
*E
 10
0.0
 20
0.0
 70
65
  0
CIRCLE
  8
1
  6
CONTINUOUS
 62
3
 10
0.0
 20
0.0
 40
1.0
  0
ENDBLK
  0
BLOCK
  2
*E834
  3
*E
 10
0.0
 20
0.0
 70
65
  0
CIRCLE
  8
1
  6
CONTINUOUS
 62
3
 10
0.0
 20
0.0
 40
1.0
  0
ENDBLK
  0
BLOCK
  2
*D850
  3
*D
 10
0.0
 20
0.0
 70
65
  0
LINE
  8
1
  6
CONTINUOUS
 62
4
 10
1.3056059E+002
 20
2.0145294E+002
 11
1.3056059E+002
 21
2.3476864E+002
  0
LINE
  8
1
  6
CONTINUOUS
 62
4
 10
1.7806059E+002
 20
2.0035294E+002
 11
1.7806059E+002
 21
2.3476864E+002
  0
SOLID
  8
1
  6
CONTINUOUS
 62
0
 10
1.3056059E+002
 20
2.3326864E+002
 11
1.3356059E+002
 21
2.3276864E+002
 12
1.3356059E+002
 22
2.3376865E+002
 13
1.3356059E+002
 23
2.3376865E+002
  0
SOLID
  8
1
  6
CONTINUOUS
 62
0
 10
1.7806059E+002
 20
2.3326864E+002
 11
1.7506059E+002
 21
2.3376865E+002
 12
1.7506059E+002
 22
2.3276864E+002
 13
1.7506059E+002
 23
2.3276864E+002
  0
LINE
  8
1
  6
CONTINUOUS
 62
4
 10
1.3056059E+002
 20
2.3326864E+002
 11
1.5682779E+002
 21
2.3326864E+002
  0
LINE
  8
1
  6
CONTINUOUS
 62
4
 10
1.7806059E+002
 20
2.3326864E+002
 11
1.5682779E+002
 21
2.3326864E+002
  0
ENDBLK
  0
ENDSEC
  0
SECTION
  2
ENTITIES
  0
INSERT
  2
RAHMENA4
  8
1
 10
0.0
 20
0.0
  0
TEXT
  8
1
  6
CONTINUOUS
 62
4
 10
1.5346902E+002
 20
2.4258038E+002
 40
3.0
  1
51,5
 41
8.0E-001
  0
DIMENSION
  8
1
  6
CONTINUOUS
 62
4
  1
       
  2
*D408
  3
DSTYLE1
 10
1.3056059E+002
 20
2.4126864E+002
 11
1.5882779E+002
 21
2.4426964E+002
 70
128
 13
1.8206059E+002
 23
1.9355294E+002
 14
1.3056059E+002
 24
2.0145294E+002
 40
1.25E-001
 50
0.0
  0
POLYLINE
  8
1
  6
CONTINUOUS
 62
3
 66
1
 40
5.0E-001
 41
5.0E-001
 70
0
  0
VERTEX
  8
1
 42
4.1421356E-001
 10
1.4206059E+002
 20
2.0045274E+002
 70
0
  0
VERTEX
  8
1
 42
0.0
 10
1.4156059E+002
 20
1.9995274E+002
 70
0
  0
SEQEND
  0
POLYLINE
  8
1
  6
CONTINUOUS
 62
3
 66
1
 40
5.0E-001
 41
5.0E-001
 70
0
  0
VERTEX
  8
1
 42
4.5162701E-002
 10
1.3338097E+002
 20
1.9386922E+002
 70
0
  0
VERTEX
  8
1
 42
0.0
 10
1.3356051E+002
 20
1.9285284E+002
 70
0
  0
SEQEND
  0
POLYLINE
  8
1
  6
CONTINUOUS
 62
3
 66
1
 40
5.0E-001
 41
5.0E-001
 70
0
  0
VERTEX
  8
1
 42
5.549069E-002
 10
1.3226842E+002
 20
1.9605279E+002
 70
0
  0
VERTEX
  8
1
 42
0.0
 10
1.3256057E+002
 20
1.9652256E+002
 70
0
  0
SEQEND
  0
POLYLINE
  8
1
  6
CONTINUOUS
 62
3
 66
1
 40
5.0E-001
 41
5.0E-001
 70
0
  0
VERTEX
  8
1
 42
4.1421356E-001
 10
1.4156059E+002
 20
1.6075284E+002
 70
0
  0
VERTEX
  8
1
 42
0.0
 10
1.4206059E+002
 20
1.6025284E+002
 70
0
  0
SEQEND
  0
POLYLINE
  8
1
  6
PHANTOM
 62
3
 66
1
 40
5.0E-001
 41
5.0E-001
 70
0
  0
VERTEX
  8
1
 42
0.0
 10
1.3265889E+002
 20
1.6245284E+002
 70
0
  0
VERTEX
  8
1
 42
0.0
 10
1.3056059E+002
 20
1.6189054E+002
 70
0
  0
SEQEND
  0
TEXT
  8
1
  6
CONTINUOUS
 62
4
 10
5.4264405E+001
 20
2.3571398E+002
 40
3.0
  1
47,5
 41
8.0E-001
  0
DIMENSION
  8
1
  6
CONTINUOUS
 62
4
  1
       
  2
*D415
  3
DSTYLE1
 10
3.5751738E+001
 20
2.3326864E+002
 11
5.678833E+001
 21
2.3626964E+002
 70
128
 13
8.3251758E+001
 23
1.9955294E+002
 14
3.5751738E+001
 24
1.9955294E+002
 40
1.25E-001
 50
0.0
  0
POLYLINE
  8
1
  6
CONTINUOUS
 62
3
 66
1
 40
5.0E-001
 41
5.0E-001
 70
0
  0
VERTEX
  8
1
 42
0.0
 10
1.5166059E+002
 20
1.5925284E+002
 70
0
  0
VERTEX
  8
1
 42
0.0
 10
1.3056059E+002
 20
1.5925284E+002
 70
0
  0
SEQEND
  0
POLYLINE
  8
1
  6
CONTINUOUS
 62
3
 66
1
 40
5.0E-001
 41
5.0E-001
 70
0
  0
VERTEX
  8
1
 42
0.0
 10
1.4206059E+002
 20
1.6025284E+002
 70
0
  0
VERTEX
  8
1
 42
0.0
 10
1.5166059E+002
 20
1.6025284E+002
 70
0
  0
SEQEND
  0
POLYLINE
  8
1
  6
CONTINUOUS
 62
3
 66
1
 40
5.0E-001
 41
5.0E-001
 70
0
  0
VERTEX
  8
1
 42
0.0
 10
1.5166059E+002
 20
2.0045274E+002
 70
0
  0
VERTEX
  8
1
 42
0.0
 10
1.4206059E+002
 20
2.0045274E+002
 70
0
  0
SEQEND
  0
POLYLINE
  8
1
  6
CONTINUOUS
 62
3
 66
1
 40
5.0E-001
 41
5.0E-001
 70
0
  0
VERTEX
  8
1
 42
0.0
 10
1.5166059E+002
 20
2.0145284E+002
 70
0
  0
VERTEX
  8
1
 42
0.0
 10
1.3056059E+002
 20
2.0145284E+002
 70
0
  0
SEQEND
  0
DIMENSION
  8
1
  6
CONTINUOUS
 62
4
  2
*D420
  3
DSTYLE1
 10
1.9251479E+002
 20
1.9255284E+002
 11
1.8951379E+002
 21
1.9742954E+002
 70
128
 13
1.8206069E+002
 23
1.9355284E+002
 14
1.8206069E+002
 24
1.9255284E+002
 40
1.25E-001
 50
9.0E+001
  0
POLYLINE
  8
1
  6
CONTINUOUS
 62
3
 66
1
 40
5.0E-001
 41
5.0E-001
 70
0
  0
VERTEX
  8
1
 42
0.0
 10
1.5166059E+002
 20
2.0145284E+002
 70
0
  0
VERTEX
  8
1
 42
0.0
 10
1.5166059E+002
 20
2.0045274E+002
 70
0
  0
SEQEND
  0
POLYLINE
  8
1
  6
CONTINUOUS
 62
3
 66
1
 40
5.0E-001
 41
5.0E-001
 70
0
  0
VERTEX
  8
1
 42
0.0
 10
1.5166059E+002
 20
1.6025284E+002
 70
0
  0
VERTEX
  8
1
 42
0.0
 10
1.5166059E+002
 20
1.5925284E+002
 70
0
  0
SEQEND
  0
POLYLINE
  8
1
  6
CONTINUOUS
 62
3
 66
1
 40
5.0E-001
 41
5.0E-001
 70
0
  0
VERTEX
  8
1
 42
0.0
 10
1.3056059E+002
 20
1.6216414E+002
 70
0
  0
VERTEX
  8
1
 42
0.0
 10
1.3056059E+002
 20
1.5925284E+002
 70
0
  0
SEQEND
  0
ARC
  8
1
  6
PHANTOM
 62
4
 10
1.2756059E+002
 20
1.6835284E+002
 40
5.0E-001
 50
1.8E+002
 51
2.7E+002
  0
ARC
  8
1
  6
PHANTOM
 62
4
 10
1.3206059E+002
 20
1.6635284E+002
 40
5.0E-001
 50
0.0
 51
9.0E+001
  0
POLYLINE
  8
1
  6
CONTINUOUS
 62
3
 66
1
 40
5.0E-001
 41
5.0E-001
 70
0
  0
VERTEX
  8
1
 42
0.0
 10
1.3356059E+002
 20
1.9465284E+002
 70
0
  0
VERTEX
  8
1
 42
0.0
 10
1.3356059E+002
 20
1.9785284E+002
 70
0
  0
SEQEND
  0
ARC
  8
1
  6
PHANTOM
 62
4
 10
1.2786059E+002
 20
1.6865284E+002
 40
1.8
 50
1.8E+002
 51
2.7E+002
  0
POLYLINE
  8
1
  6
CONTINUOUS
 62
3
 66
1
 40
5.0E-001
 41
5.0E-001
 70
0
  0
VERTEX
  8
1
 42
0.0
 10
1.3356059E+002
 20
1.6605284E+002
 70
0
  0
VERTEX
  8
1
 42
0.0
 10
1.3356059E+002
 20
1.6285284E+002
 70
0
  0
SEQEND
  0
POLYLINE
  8
1
  6
CONTINUOUS
 62
3
 66
1
 40
5.0E-001
 41
5.0E-001
 70
0
  0
VERTEX
  8
1
 42
0.0
 10
1.3226839E+002
 20
1.9605274E+002
 70
0
  0
VERTEX
  8
1
 42
0.0
 10
1.3056059E+002
 20
1.9605274E+002
 70
0
  0
SEQEND
  0
POLYLINE
  8
1
  6
CONTINUOUS
 62
3
 66
1
 40
5.0E-001
 41
5.0E-001
 70
0
  0
VERTEX
  8
1
 42
0.0
 10
1.3056059E+002
 20
2.0145284E+002
 70
0
  0
VERTEX
  8
1
 42
0.0
 10
1.3056059E+002
 20
1.9605274E+002
 70
0
  0
SEQEND
  0
POLYLINE
  8
1
  6
CONTINUOUS
 62
3
 66
1
 40
5.0E-001
 41
5.0E-001
 70
0
  0
VERTEX
  8
1
 42
1.6286034E-001
 10
1.3066127E+002
 20
1.6246505E+002
 70
0
  0
VERTEX
  8
1
 42
0.0
 10
1.3056059E+002
 20
1.6216414E+002
 70
0
  0
SEQEND
  0
POLYLINE
  8
1
  6
PHANTOM
 62
3
 66
1
 40
5.0E-001
 41
5.0E-001
 70
0
  0
VERTEX
  8
1
 42
0.0
 10
1.3265889E+002
 20
1.6245284E+002
 70
0
  0
VERTEX
  8
1
 42
0.0
 10
1.3356059E+002
 20
1.6245284E+002
 70
0
  0
SEQEND
  0
POLYLINE
  8
1
  6
CONTINUOUS
 62
3
 66
1
 40
5.0E-001
 41
5.0E-001
 70
0
  0
VERTEX
  8
1
 42
0.0
 10
1.3355869E+002
 20
1.6285284E+002
 70
0
  0
VERTEX
  8
1
 42
0.0
 10
1.3265889E+002
 20
1.6285284E+002
 70
0
  0
SEQEND
  0
POLYLINE
  8
1
  6
CONTINUOUS
 62
3
 66
1
 40
5.0E-001
 41
5.0E-001
 70
0
  0
VERTEX
  8
1
 42
0.0
 10
1.3356059E+002
 20
1.9785274E+002
 70
0
  0
VERTEX
  8
1
 42
0.0
 10
1.3296059E+002
 20
1.9785274E+002
 70
0
  0
SEQEND
  0
POLYLINE
  8
1
  6
CONTINUOUS
 62
3
 66
1
 40
5.0E-001
 41
5.0E-001
 70
0
  0
VERTEX
  8
1
 42
0.0
 10
1.3256059E+002
 20
1.6324584E+002
 70
0
  0
VERTEX
  8
1
 42
0.0
 10
1.3228369E+002
 20
1.6435284E+002
 70
0
  0
SEQEND
  0
POLYLINE
  8
1
  6
CONTINUOUS
 62
3
 66
1
 40
5.0E-001
 41
5.0E-001
 70
0
  0
VERTEX
  8
1
 42
0.0
 10
1.3356059E+002
 20
1.6435284E+002
 70
0
  0
VERTEX
  8
1
 42
0.0
 10
1.3355759E+002
 20
1.6435284E+002
 70
0
  0
SEQEND
  0
POLYLINE
  8
1
  6
CONTINUOUS
 62
3
 66
1
 40
5.0E-001
 41
5.0E-001
 70
0
  0
VERTEX
  8
1
 42
0.0
 10
1.3356059E+002
 20
1.9785274E+002
 70
0
  0
VERTEX
  8
1
 42
0.0
 10
1.3356059E+002
 20
1.6245284E+002
 70
0
  0
SEQEND
  0
ARC
  8
1
  6
PHANTOM
 62
4
 10
1.3206059E+002
 20
1.9435284E+002
 40
5.0E-001
 50
2.7E+002
 51
3.6E+002
  0
ARC
  8
1
  6
PHANTOM
 62
4
 10
1.3176059E+002
 20
1.6605284E+002
 40
1.8
 50
0.0
 51
9.0E+001
  0
POLYLINE
  8
1
  6
CONTINUOUS
 62
3
 66
1
 40
5.0E-001
 41
5.0E-001
 70
0
  0
VERTEX
  8
1
 42
0.0
 10
1.4635719E+002
 20
2.0145284E+002
 70
0
  0
VERTEX
  8
1
 42
0.0
 10
1.4635729E+002
 20
2.0145274E+002
 70
0
  0
SEQEND
  0
POLYLINE
  8
1
  6
CONTINUOUS
 62
3
 66
1
 40
5.0E-001
 41
5.0E-001
 70
0
  0
VERTEX
  8
1
 42
0.0
 10
1.4282169E+002
 20
2.0145284E+002
 70
0
  0
VERTEX
  8
1
 42
0.0
 10
1.4282169E+002
 20
2.0145274E+002
 70
0
  0
SEQEND
  0
POLYLINE
  8
1
  6
CONTINUOUS
 62
3
 66
1
 40
5.0E-001
 41
5.0E-001
 70
0
  0
VERTEX
  8
1
 42
0.0
 10
1.4635719E+002
 20
2.0145284E+002
 70
0
  0
VERTEX
  8
1
 42
0.0
 10
1.4635729E+002
 20
2.0145274E+002
 70
0
  0
SEQEND
  0
POLYLINE
  8
1
  6
CONTINUOUS
 62
3
 66
1
 40
5.0E-001
 41
5.0E-001
 70
0
  0
VERTEX
  8
1
 42
0.0
 10
1.3356049E+002
 20
1.9679214E+002
 70
0
  0
VERTEX
  8
1
 42
0.0
 10
1.3356059E+002
 20
1.9679214E+002
 70
0
  0
SEQEND
  0
POLYLINE
  8
1
  6
CONTINUOUS
 62
3
 66
1
 40
5.0E-001
 41
5.0E-001
 70
0
  0
VERTEX
  8
1
 42
0.0
 10
1.3208379E+002
 20
1.6435284E+002
 70
0
  0
VERTEX
  8
1
 42
0.0
 10
1.3066119E+002
 20
1.6246504E+002
 70
0
  0
SEQEND
  0
POLYLINE
  8
1
  6
CONTINUOUS
 62
3
 66
1
 40
5.0E-001
 41
5.0E-001
 70
0
  0
VERTEX
  8
1
 42
0.0
 10
1.3355859E+002
 20
1.6285274E+002
 70
0
  0
VERTEX
  8
1
 42
0.0
 10
1.3355869E+002
 20
1.6285274E+002
 70
0
  0
SEQEND
  0
POLYLINE
  8
1
  6
CONTINUOUS
 62
3
 66
1
 40
5.0E-001
 41
5.0E-001
 70
0
  0
VERTEX
  8
1
 42
0.0
 10
1.3228369E+002
 20
1.6435284E+002
 70
0
  0
VERTEX
  8
1
 42
0.0
 10
1.3208379E+002
 20
1.6435284E+002
 70
0
  0
SEQEND
  0
LINE
  8
1
  6
PHANTOM
 62
4
 10
1.3256059E+002
 20
1.9435284E+002
 11
1.3256059E+002
 21
1.9785284E+002
  0
LINE
  8
1
  6
CENTERLINE
 62
1
 10
7.9470408E+001
 20
1.9305284E+002
 11
7.6886598E+001
 21
1.9305284E+002
  0
TEXT
  8
1
  6
CONTINUOUS
 62
4
 10
1.3733358E+002
 20
2.3779371E+001
 40
3.5
  1
1:1
 41
6.2085333E-001
  0
TEXT
  8
1
  6
CONTINUOUS
 62
4
 10
2.5853935E+001
 20
1.8726088E+001
 40
2.5
  1
d
 41
8.666667E-001
  0
TEXT
  8
1
  6
CONTINUOUS
 62
4
 10
2.7925783E+001
 20
7.2478984E+001
 40
3.0
  1
Rastermass : 2,54mm
 41
8.0E-001
  0
TEXT
  8
1
  6
CONTINUOUS
 62
4
 10
2.5853935E+001
 20
2.2866058E+001
 40
2.5
  1
c
 41
8.666667E-001
  0
DIMENSION
  8
1
  6
CONTINUOUS
 62
4
  2
*D453
  3
DSTYLE1
 10
8.3251738E+001
 20
1.7262109E+002
 11
8.6040662E+001
 21
1.7562209E+002
 70
128
 13
8.9251738E+001
 23
1.7835274E+002
 14
8.3251738E+001
 24
1.6115294E+002
 40
1.25E-001
 50
0.0
  0
POLYLINE
  8
1
  6
CONTINUOUS
 62
3
 66
1
 40
5.0E-001
 41
5.0E-001
 70
0
  0
VERTEX
  8
1
 42
0.0
 10
1.7706059E+002
 20
1.9485284E+002
 70
0
  0
VERTEX
  8
1
 42
0.0
 10
1.7706059E+002
 20
1.8315284E+002
 70
0
  0
SEQEND
  0
LINE
  8
1
  6
CONTINUOUS
 62
4
 10
8.6144198E+001
 20
1.8131234E+002
 11
1.0818519E+002
 21
2.4743524E+002
  0
LINE
  8
1
  6
CONTINUOUS
 62
4
 10
1.2647309E+002
 20
1.7046244E+002
 11
1.1091469E+002
 21
1.235827E+002
  0
LINE
  8
1
  6
CONTINUOUS
 62
4
 10
4.0288038E+001
 20
1.8028874E+002
 11
2.2277798E+001
 21
1.237796E+002
  0
LINE
  8
1
  6
CONTINUOUS
 62
4
 10
7.1514104E+001
 20
2.4743524E+002
 11
1.0818519E+002
 21
2.4743524E+002
  0
LINE
  8
1
  6
PHANTOM
 62
4
 10
1.2786059E+002
 20
1.9385284E+002
 11
1.3206059E+002
 21
1.9385284E+002
  0
LINE
  8
1
  6
PHANTOM
 62
4
 10
1.2756059E+002
 20
1.6785284E+002
 11
1.3176059E+002
 21
1.6785284E+002
  0
LINE
  8
1
  6
PHANTOM
 62
4
 10
1.2756059E+002
 20
1.9285284E+002
 11
1.3176059E+002
 21
1.9285284E+002
  0
POLYLINE
  8
1
  6
CONTINUOUS
 62
3
 66
1
 40
5.0E-001
 41
5.0E-001
 70
0
  0
VERTEX
  8
1
 42
0.0
 10
1.6726059E+002
 20
1.8275284E+002
 70
0
  0
VERTEX
  8
1
 42
0.0
 10
1.7396059E+002
 20
1.8275284E+002
 70
0
  0
SEQEND
  0
LINE
  8
1
  6
PHANTOM
 62
4
 10
1.2786059E+002
 20
1.6685284E+002
 11
1.3206059E+002
 21
1.6685284E+002
  0
POLYLINE
  8
1
  6
CONTINUOUS
 62
3
 66
1
 40
5.0E-001
 41
5.0E-001
 70
0
  0
VERTEX
  8
1
 42
0.0
 10
1.7506059E+002
 20
1.6025284E+002
 70
0
  0
VERTEX
  8
1
 42
0.0
 10
1.7406059E+002
 20
1.5925284E+002
 70
0
  0
SEQEND
  0
POLYLINE
  8
1
  6
CONTINUOUS
 62
3
 66
1
 40
5.0E-001
 41
5.0E-001
 70
0
  0
VERTEX
  8
1
 42
0.0
 10
1.5206059E+002
 20
2.0030284E+002
 70
0
  0
VERTEX
  8
1
 42
0.0
 10
1.4206059E+002
 20
2.0030284E+002
 70
0
  0
SEQEND
  0
POLYLINE
  8
1
  6
CONTINUOUS
 62
3
 66
1
 40
5.0E-001
 41
5.0E-001
 70
0
  0
VERTEX
  8
1
 42
0.0
 10
1.5206059E+002
 20
2.0145284E+002
 70
0
  0
VERTEX
  8
1
 42
0.0
 10
1.5206059E+002
 20
2.0030284E+002
 70
0
  0
SEQEND
  0
POLYLINE
  8
1
  6
CONTINUOUS
 62
3
 66
1
 40
5.0E-001
 41
5.0E-001
 70
0
  0
VERTEX
  8
1
 42
0.0
 10
1.5206059E+002
 20
1.6040284E+002
 70
0
  0
VERTEX
  8
1
 42
0.0
 10
1.5206059E+002
 20
1.5925284E+002
 70
0
  0
SEQEND
  0
POLYLINE
  8
1
  6
CONTINUOUS
 62
3
 66
1
 40
5.0E-001
 41
5.0E-001
 70
0
  0
VERTEX
  8
1
 42
0.0
 10
1.4356059E+002
 20
1.7780284E+002
 70
0
  0
VERTEX
  8
1
 42
0.0
 10
1.4406059E+002
 20
1.7830284E+002
 70
0
  0
SEQEND
  0
POLYLINE
  8
1
  6
CONTINUOUS
 62
3
 66
1
 40
5.0E-001
 41
5.0E-001
 70
0
  0
VERTEX
  8
1
 42
0.0
 10
1.4356059E+002
 20
1.8290284E+002
 70
0
  0
VERTEX
  8
1
 42
0.0
 10
1.4406059E+002
 20
1.8240284E+002
 70
0
  0
SEQEND
  0
POLYLINE
  8
1
  6
CONTINUOUS
 62
3
 66
1
 40
5.0E-001
 41
5.0E-001
 70
0
  0
VERTEX
  8
1
 42
0.0
 10
1.4206059E+002
 20
2.0030284E+002
 70
0
  0
VERTEX
  8
1
 42
0.0
 10
1.4156059E+002
 20
1.9980284E+002
 70
0
  0
SEQEND
  0
POLYLINE
  8
1
  6
CONTINUOUS
 62
3
 66
1
 40
5.0E-001
 41
5.0E-001
 70
0
  0
VERTEX
  8
1
 42
0.0
 10
1.4916059E+002
 20
2.0295284E+002
 70
0
  0
VERTEX
  8
1
 42
0.0
 10
1.4916059E+002
 20
2.0145284E+002
 70
0
  0
SEQEND
  0
POLYLINE
  8
1
  6
CONTINUOUS
 62
3
 66
1
 40
5.0E-001
 41
5.0E-001
 70
0
  0
VERTEX
  8
1
 42
0.0
 10
1.5766059E+002
 20
2.0295284E+002
 70
0
  0
VERTEX
  8
1
 42
0.0
 10
1.4916059E+002
 20
2.0295284E+002
 70
0
  0
SEQEND
  0
POLYLINE
  8
1
  6
CONTINUOUS
 62
3
 66
1
 40
5.0E-001
 41
5.0E-001
 70
0
  0
VERTEX
  8
1
 42
0.0
 10
1.5786049E+002
 20
2.0275284E+002
 70
0
  0
VERTEX
  8
1
 42
0.0
 10
1.4916059E+002
 20
2.0275284E+002
 70
0
  0
SEQEND
  0
POLYLINE
  8
1
  6
CONTINUOUS
 62
3
 66
1
 40
5.0E-001
 41
5.0E-001
 70
0
  0
VERTEX
  8
1
 42
0.0
 10
1.5896059E+002
 20
2.0165284E+002
 70
0
  0
VERTEX
  8
1
 42
0.0
 10
1.4916059E+002
 20
2.0165284E+002
 70
0
  0
SEQEND
  0
POLYLINE
  8
1
  6
CONTINUOUS
 62
3
 66
1
 40
5.0E-001
 41
5.0E-001
 70
0
  0
VERTEX
  8
1
 42
0.0
 10
1.6706059E+002
 20
1.8290284E+002
 70
0
  0
VERTEX
  8
1
 42
0.0
 10
1.6706059E+002
 20
1.8035284E+002
 70
0
  0
SEQEND
  0
POLYLINE
  8
1
  6
CONTINUOUS
 62
3
 66
1
 40
5.0E-001
 41
5.0E-001
 70
0
  0
VERTEX
  8
1
 42
0.0
 10
1.7506059E+002
 20
1.8290284E+002
 70
0
  0
VERTEX
  8
1
 42
0.0
 10
1.6706059E+002
 20
1.8290284E+002
 70
0
  0
SEQEND
  0
DIMENSION
  8
1
  6
CONTINUOUS
 62
4
  2
*D477
  3
DSTYLE2
 10
1.0782879E+002
 20
1.5775284E+002
 11
1.0482779E+002
 21
1.8026964E+002
 70
128
 13
6.1501838E+001
 23
2.0295284E+002
 14
6.1501838E+001
 24
1.5775284E+002
 40
1.25E-001
 50
9.0E+001
  0
POLYLINE
  8
1
  6
CONTINUOUS
 62
3
 66
1
 40
5.0E-001
 41
5.0E-001
 70
0
  0
VERTEX
  8
1
 42
0.0
 10
1.5206059E+002
 20
1.6040284E+002
 70
0
  0
VERTEX
  8
1
 42
0.0
 10
1.4206059E+002
 20
1.6040284E+002
 70
0
  0
SEQEND
  0
POLYLINE
  8
1
  6
CONTINUOUS
 62
3
 66
1
 40
5.0E-001
 41
5.0E-001
 70
0
  0
VERTEX
  8
1
 42
0.0
 10
1.4156059E+002
 20
1.7780284E+002
 70
0
  0
VERTEX
  8
1
 42
0.0
 10
1.4156059E+002
 20
1.6075284E+002
 70
0
  0
SEQEND
  0
LINE
  8
1
  6
PHANTOM
 62
4
 10
1.3256059E+002
 20
1.6635284E+002
 11
1.3256059E+002
 21
1.6285284E+002
  0
POLYLINE
  8
1
  6
CONTINUOUS
 62
3
 66
1
 40
5.0E-001
 41
5.0E-001
 70
0
  0
VERTEX
  8
1
 42
0.0
 10
1.7506059E+002
 20
2.0045284E+002
 70
0
  0
VERTEX
  8
1
 42
0.0
 10
1.7406059E+002
 20
2.0145284E+002
 70
0
  0
SEQEND
  0
POLYLINE
  8
1
  6
CONTINUOUS
 62
3
 66
1
 40
5.0E-001
 41
5.0E-001
 70
0
  0
VERTEX
  8
1
 42
0.0
 10
1.5916059E+002
 20
2.0145284E+002
 70
0
  0
VERTEX
  8
1
 42
0.0
 10
1.5766059E+002
 20
2.0295284E+002
 70
0
  0
SEQEND
  0
POLYLINE
  8
1
  6
CONTINUOUS
 62
3
 66
1
 40
5.0E-001
 41
5.0E-001
 70
0
  0
VERTEX
  8
1
 42
0.0
 10
1.4356059E+002
 20
1.7780284E+002
 70
0
  0
VERTEX
  8
1
 42
0.0
 10
1.4156059E+002
 20
1.7780284E+002
 70
0
  0
SEQEND
  0
POLYLINE
  8
1
  6
CONTINUOUS
 62
3
 66
1
 40
5.0E-001
 41
5.0E-001
 70
0
  0
VERTEX
  8
1
 42
0.0
 10
1.4406059E+002
 20
1.8240284E+002
 70
0
  0
VERTEX
  8
1
 42
0.0
 10
1.4406059E+002
 20
1.7830284E+002
 70
0
  0
SEQEND
  0
POLYLINE
  8
1
  6
CONTINUOUS
 62
3
 66
1
 40
5.0E-001
 41
5.0E-001
 70
0
  0
VERTEX
  8
1
 42
0.0
 10
1.4356059E+002
 20
1.8290284E+002
 70
0
  0
VERTEX
  8
1
 42
0.0
 10
1.4156059E+002
 20
1.8290284E+002
 70
0
  0
SEQEND
  0
POLYLINE
  8
1
  6
CONTINUOUS
 62
3
 66
1
 40
5.0E-001
 41
5.0E-001
 70
0
  0
VERTEX
  8
1
 42
0.0
 10
1.4156059E+002
 20
1.9995274E+002
 70
0
  0
VERTEX
  8
1
 42
0.0
 10
1.4156059E+002
 20
1.8290284E+002
 70
0
  0
SEQEND
  0
POLYLINE
  8
1
  6
CONTINUOUS
 62
3
 66
1
 40
5.0E-001
 41
5.0E-001
 70
0
  0
VERTEX
  8
1
 42
0.0
 10
1.7406059E+002
 20
2.0145284E+002
 70
0
  0
VERTEX
  8
1
 42
0.0
 10
1.4916059E+002
 20
2.0145284E+002
 70
0
  0
SEQEND
  0
POLYLINE
  8
1
  6
CONTINUOUS
 62
3
 66
1
 40
5.0E-001
 41
5.0E-001
 70
0
  0
VERTEX
  8
1
 42
0.0
 10
1.7406059E+002
 20
1.5925284E+002
 70
0
  0
VERTEX
  8
1
 42
0.0
 10
1.4916059E+002
 20
1.5925284E+002
 70
0
  0
SEQEND
  0
POLYLINE
  8
1
  6
CONTINUOUS
 62
3
 66
1
 40
5.0E-001
 41
5.0E-001
 70
0
  0
VERTEX
  8
1
 42
0.0
 10
1.4206059E+002
 20
1.6040284E+002
 70
0
  0
VERTEX
  8
1
 42
0.0
 10
1.4156059E+002
 20
1.6090284E+002
 70
0
  0
SEQEND
  0
POLYLINE
  8
1
  6
CONTINUOUS
 62
3
 66
1
 40
5.0E-001
 41
5.0E-001
 70
0
  0
VERTEX
  8
1
 42
4.1421356E-001
 10
1.7446059E+002
 20
1.8100284E+002
 70
0
  0
VERTEX
  8
1
 42
0.0
 10
1.7396059E+002
 20
1.8150284E+002
 70
0
  0
SEQEND
  0
POLYLINE
  8
1
  6
CONTINUOUS
 62
3
 66
1
 40
5.0E-001
 41
5.0E-001
 70
0
  0
VERTEX
  8
1
 42
0.0
 10
1.6726059E+002
 20
1.8290284E+002
 70
0
  0
VERTEX
  8
1
 42
0.0
 10
1.6726059E+002
 20
1.7780274E+002
 70
0
  0
SEQEND
  0
POLYLINE
  8
1
  6
HIDDEN
 62
3
 66
1
 40
5.0E-001
 41
5.0E-001
 70
0
  0
VERTEX
  8
1
 42
0.0
 10
8.9251738E+001
 20
1.7835284E+002
 70
0
  0
VERTEX
  8
1
 42
0.0
 10
8.9251738E+001
 20
1.8235284E+002
 70
0
  0
SEQEND
  0
TEXT
  8
1
  6
CONTINUOUS
 62
4
 10
2.6216818E+001
 20
1.2544211E+002
 40
3.0
  1
Schaltstellungsanzeige
 41
8.0672693E-001
  0
TEXT
  8
1
  6
CONTINUOUS
 62
4
 10
1.2518017E+002
 20
9.4972933E+001
 40
3.0
  1
Massaenderungen vorbehalten !
 41
8.3323629E-001
  0
TEXT
  8
1
  6
CONTINUOUS
 62
4
 10
4.0453657E+001
 20
2.1882215E+002
 40
2.7
  1
10,16
 41
7.0E-001
  0
DIMENSION
  8
1
  6
CONTINUOUS
 62
4
  1
       
  2
*D496
  3
DSTYLE1
 10
5.0401738E+001
 20
2.1726864E+002
 11
4.4827788E+001
 21
2.2026964E+002
 70
128
 13
4.0241738E+001
 23
1.9464124E+002
 14
5.0401738E+001
 24
1.9464124E+002
 40
1.25E-001
 50
0.0
  0
TEXT
  8
1
  6
CONTINUOUS
 62
4
 10
1.4428443E+002
 20
2.1909813E+002
 40
3.0
  1
33,5
 41
8.0E-001
  0
DIMENSION
  8
1
  6
CONTINUOUS
 62
4
  1
       
  2
*D498
  3
DSTYLE1
 10
1.6716059E+002
 20
2.1726864E+002
 11
1.4882779E+002
 21
2.2026964E+002
 70
128
 13
1.3356059E+002
 23
1.9785294E+002
 14
1.6716059E+002
 24
1.9805294E+002
 40
1.25E-001
 50
0.0
  0
POLYLINE
  8
1
  6
CONTINUOUS
 62
3
 66
1
 40
5.0E-001
 41
5.0E-001
 70
0
  0
VERTEX
  8
1
 42
4.1421356E-001
 10
1.7446059E+002
 20
1.8225284E+002
 70
0
  0
VERTEX
  8
1
 42
0.0
 10
1.7396059E+002
 20
1.8275284E+002
 70
0
  0
SEQEND
  0
POLYLINE
  8
1
  6
CONTINUOUS
 62
3
 66
1
 40
5.0E-001
 41
5.0E-001
 70
0
  0
VERTEX
  8
1
 42
4.1421356E-001
 10
1.7396059E+002
 20
1.7920284E+002
 70
0
  0
VERTEX
  8
1
 42
0.0
 10
1.7446059E+002
 20
1.7970284E+002
 70
0
  0
SEQEND
  0
TEXT
  8
1
  6
CONTINUOUS
 62
4
 10
1.5018829E+002
 20
2.2653515E+002
 40
3.0
  1
44,5
 41
8.0E-001
  0
DIMENSION
  8
1
  6
CONTINUOUS
 62
4
  1
       
  2
*D502
  3
DSTYLE1
 10
1.7806059E+002
 20
2.2526864E+002
 11
1.5682779E+002
 21
2.2826964E+002
 70
128
 13
1.3356059E+002
 23
1.9785294E+002
 14
1.7806059E+002
 24
2.0035294E+002
 40
1.25E-001
 50
0.0
  0
POLYLINE
  8
1
  6
CONTINUOUS
 62
3
 66
1
 40
5.0E-001
 41
5.0E-001
 70
0
  0
VERTEX
  8
1
 42
4.1421356E-001
 10
1.7396059E+002
 20
1.7795284E+002
 70
0
  0
VERTEX
  8
1
 42
0.0
 10
1.7446059E+002
 20
1.7845284E+002
 70
0
  0
SEQEND
  0
POLYLINE
  8
1
  6
CONTINUOUS
 62
3
 66
1
 40
5.0E-001
 41
5.0E-001
 70
0
  0
VERTEX
  8
1
 42
1.0
 10
7.8991748E+001
 20
1.9305284E+002
 70
0
  0
VERTEX
  8
1
 42
1.0
 10
7.7691748E+001
 20
1.9305284E+002
 70
0
  0
VERTEX
  8
1
 42
0.0
 10
7.8991748E+001
 20
1.9305284E+002
 70
0
  0
SEQEND
  0
LINE
  8
1
  6
CONTINUOUS
 62
4
 10
1.1091469E+002
 20
1.235827E+002
 11
1.7032934E+002
 21
1.235827E+002
  0
LINE
  8
1
  6
CONTINUOUS
 62
4
 10
2.2277798E+001
 20
1.237796E+002
 11
9.6562427E+001
 21
1.237796E+002
  0
TEXT
  8
1
  6
CONTINUOUS
 62
4
 10
1.4541189E+002
 20
1.0521245E+001
 40
2.2
  1
B6/K6/BC6/KC6/B7/BC7 ( -P )
 41
8.0E-001
 72
1
 11
1.2165189E+002
 21
1.0521245E+001
  0
TEXT
  8
1
  6
CONTINUOUS
 62
4
 10
1.1019152E+002
 20
2.7746346E+001
 40
2.4
  1
14.2.85  Dietzel
 41
6.0E-001
  0
TEXT
  8
1
  6
CONTINUOUS
 62
4
 10
1.4845046E+002
 20
7.06584
 40
5.0
  1
GJL 120 0403
 41
8.0E-001
  0
TEXT
  8
1
  6
CONTINUOUS
 62
4
 10
1.7105243E+002
 20
2.3176765E+001
 40
2.5
  1
X
 41
1.066667
  0
TEXT
  8
1
  6
CONTINUOUS
 62
4
 10
7.6169429E+001
 20
1.5014693E+001
 40
2.5
  1
STO/CLD
 41
1.083333
  0
POLYLINE
  8
1
  6
CONTINUOUS
 62
3
 66
1
 40
5.0E-001
 41
5.0E-001
 70
0
  0
VERTEX
  8
1
 42
1.0
 10
6.1211748E+001
 20
1.9305284E+002
 70
0
  0
VERTEX
  8
1
 42
1.0
 10
5.9911748E+001
 20
1.9305284E+002
 70
0
  0
VERTEX
  8
1
 42
0.0
 10
6.1211748E+001
 20
1.9305284E+002
 70
0
  0
SEQEND
  0
POLYLINE
  8
1
  6
HIDDEN
 62
3
 66
1
 40
5.0E-001
 41
5.0E-001
 70
0
  0
VERTEX
  8
1
 42
0.0
 10
8.9251738E+001
 20
1.8235284E+002
 70
0
  0
VERTEX
  8
1
 42
0.0
 10
8.3251738E+001
 20
1.8235284E+002
 70
0
  0
SEQEND
  0
POLYLINE
  8
1
  6
HIDDEN
 62
3
 66
1
 40
5.0E-001
 41
5.0E-001
 70
0
  0
VERTEX
  8
1
 42
0.0
 10
8.9251738E+001
 20
1.7835284E+002
 70
0
  0
VERTEX
  8
1
 42
0.0
 10
8.3251738E+001
 20
1.7835284E+002
 70
0
  0
SEQEND
  0
DIMENSION
  8
1
  6
CONTINUOUS
 62
4
  2
*D515
  3
DSTYLE1
 10
1.7806059E+002
 20
2.2526864E+002
 11
1.8571887E+002
 21
2.2826964E+002
 70
128
 13
1.8206059E+002
 23
1.9355294E+002
 14
1.7806059E+002
 24
2.0035294E+002
 40
1.25E-001
 50
0.0
  0
TEXT
  8
1
  6
CONTINUOUS
 62
4
 10
1.0984685E+002
 20
2.3437907E+001
 40
2.4
  1
2.8.04 SteFei
 41
6.0E-001
  0
POLYLINE
  8
1
  6
CONTINUOUS
 62
3
 66
1
 40
5.0E-001
 41
5.0E-001
 70
0
  0
VERTEX
  8
1
 42
0.0
 10
1.7706059E+002
 20
1.9485284E+002
 70
0
  0
VERTEX
  8
1
 42
0.0
 10
1.7706059E+002
 20
1.8110284E+002
 70
0
  0
SEQEND
  0
TEXT
  8
1
  6
CONTINUOUS
 62
4
 10
1.1019152E+002
 20
1.4993367E+001
 40
2.4
  1
2.8.04 GuNi
 41
6.0E-001
  0
POLYLINE
  8
1
  6
CONTINUOUS
 62
3
 66
1
 40
5.0E-001
 41
5.0E-001
 70
0
  0
VERTEX
  8
1
 42
0.0
 10
1.7806059E+002
 20
2.0035284E+002
 70
0
  0
VERTEX
  8
1
 42
0.0
 10
1.7506059E+002
 20
2.0035284E+002
 70
0
  0
SEQEND
  0
POLYLINE
  8
1
  6
CONTINUOUS
 62
3
 66
1
 40
5.0E-001
 41
5.0E-001
 70
0
  0
VERTEX
  8
1
 42
0.0
 10
1.7556059E+002
 20
1.8295284E+002
 70
0
  0
VERTEX
  8
1
 42
0.0
 10
1.7506059E+002
 20
1.8295284E+002
 70
0
  0
SEQEND
  0
POLYLINE
  8
1
  6
CONTINUOUS
 62
3
 66
1
 40
5.0E-001
 41
5.0E-001
 70
0
  0
VERTEX
  8
1
 42
0.0
 10
1.7616059E+002
 20
1.8355284E+002
 70
0
  0
VERTEX
  8
1
 42
0.0
 10
1.7506059E+002
 20
1.8355284E+002
 70
0
  0
SEQEND
  0
POLYLINE
  8
1
  6
CONTINUOUS
 62
3
 66
1
 40
5.0E-001
 41
5.0E-001
 70
0
  0
VERTEX
  8
1
 42
0.0
 10
1.7616059E+002
 20
1.7715284E+002
 70
0
  0
VERTEX
  8
1
 42
0.0
 10
1.7506059E+002
 20
1.7715284E+002
 70
0
  0
SEQEND
  0
POLYLINE
  8
1
  6
CONTINUOUS
 62
3
 66
1
 40
5.0E-001
 41
5.0E-001
 70
0
  0
VERTEX
  8
1
 42
0.0
 10
1.7556059E+002
 20
1.8295284E+002
 70
0
  0
VERTEX
  8
1
 42
0.0
 10
1.7706059E+002
 20
1.8445284E+002
 70
0
  0
SEQEND
  0
POLYLINE
  8
1
  6
CONTINUOUS
 62
3
 66
1
 40
5.0E-001
 41
5.0E-001
 70
0
  0
VERTEX
  8
1
 42
0.0
 10
1.7806059E+002
 20
1.6035284E+002
 70
0
  0
VERTEX
  8
1
 42
0.0
 10
1.7506059E+002
 20
1.6035284E+002
 70
0
  0
SEQEND
  0
POLYLINE
  8
1
  6
CONTINUOUS
 62
3
 66
1
 40
5.0E-001
 41
5.0E-001
 70
0
  0
VERTEX
  8
1
 42
0.0
 10
1.6726059E+002
 20
1.7795284E+002
 70
0
  0
VERTEX
  8
1
 42
0.0
 10
1.7396059E+002
 20
1.7795284E+002
 70
0
  0
SEQEND
  0
LINE
  8
1
  6
CENTERLINE
 62
1
 10
1.7901249E+002
 20
1.9305284E+002
 11
1.5894999E+002
 21
1.9305284E+002
  0
POLYLINE
  8
1
  6
HIDDEN
 62
3
 66
1
 40
5.0E-001
 41
5.0E-001
 70
0
  0
VERTEX
  8
1
 42
0.0
 10
1.7901249E+002
 20
1.6765284E+002
 70
0
  0
VERTEX
  8
1
 42
0.0
 10
1.7706059E+002
 20
1.6765284E+002
 70
0
  0
SEQEND
  0
POLYLINE
  8
1
  6
CONTINUOUS
 62
3
 66
1
 40
5.0E-001
 41
5.0E-001
 70
0
  0
VERTEX
  8
1
 42
0.0
 10
1.7706059E+002
 20
1.9935284E+002
 70
0
  0
VERTEX
  8
1
 42
0.0
 10
1.7706059E+002
 20
1.8235284E+002
 70
0
  0
SEQEND
  0
POLYLINE
  8
1
  6
CONTINUOUS
 62
3
 66
1
 40
5.0E-001
 41
5.0E-001
 70
0
  0
VERTEX
  8
1
 42
0.0
 10
1.7506059E+002
 20
2.0045284E+002
 70
0
  0
VERTEX
  8
1
 42
0.0
 10
1.7506059E+002
 20
1.8235284E+002
 70
0
  0
SEQEND
  0
POLYLINE
  8
1
  6
CONTINUOUS
 62
3
 66
1
 40
5.0E-001
 41
5.0E-001
 70
0
  0
VERTEX
  8
1
 42
0.0
 10
1.7556059E+002
 20
1.8295284E+002
 70
0
  0
VERTEX
  8
1
 42
0.0
 10
1.7556059E+002
 20
1.8235284E+002
 70
0
  0
SEQEND
  0
POLYLINE
  8
1
  6
CONTINUOUS
 62
3
 66
1
 40
5.0E-001
 41
5.0E-001
 70
0
  0
VERTEX
  8
1
 42
0.0
 10
1.7556059E+002
 20
1.7775284E+002
 70
0
  0
VERTEX
  8
1
 42
0.0
 10
1.7706059E+002
 20
1.7625284E+002
 70
0
  0
SEQEND
  0
POLYLINE
  8
1
  6
CONTINUOUS
 62
3
 66
1
 40
5.0E-001
 41
5.0E-001
 70
0
  0
VERTEX
  8
1
 42
0.0
 10
1.7556059E+002
 20
1.7775284E+002
 70
0
  0
VERTEX
  8
1
 42
0.0
 10
1.7506059E+002
 20
1.7775284E+002
 70
0
  0
SEQEND
  0
POLYLINE
  8
1
  6
CONTINUOUS
 62
3
 66
1
 40
5.0E-001
 41
5.0E-001
 70
0
  0
VERTEX
  8
1
 42
0.0
 10
1.5896059E+002
 20
1.5905274E+002
 70
0
  0
VERTEX
  8
1
 42
0.0
 10
1.4916059E+002
 20
1.5905274E+002
 70
0
  0
SEQEND
  0
POLYLINE
  8
1
  6
CONTINUOUS
 62
3
 66
1
 40
5.0E-001
 41
5.0E-001
 70
0
  0
VERTEX
  8
1
 42
0.0
 10
1.5786049E+002
 20
1.5795284E+002
 70
0
  0
VERTEX
  8
1
 42
0.0
 10
1.4916059E+002
 20
1.5795284E+002
 70
0
  0
SEQEND
  0
POLYLINE
  8
1
  6
CONTINUOUS
 62
3
 66
1
 40
5.0E-001
 41
5.0E-001
 70
0
  0
VERTEX
  8
1
 42
0.0
 10
1.5766059E+002
 20
1.5775284E+002
 70
0
  0
VERTEX
  8
1
 42
0.0
 10
1.4916059E+002
 20
1.5775284E+002
 70
0
  0
SEQEND
  0
POLYLINE
  8
1
  6
CONTINUOUS
 62
3
 66
1
 40
5.0E-001
 41
5.0E-001
 70
0
  0
VERTEX
  8
1
 42
0.0
 10
1.5916059E+002
 20
1.5925284E+002
 70
0
  0
VERTEX
  8
1
 42
0.0
 10
1.5766059E+002
 20
1.5775284E+002
 70
0
  0
SEQEND
  0
POLYLINE
  8
1
  6
CONTINUOUS
 62
3
 66
1
 40
5.0E-001
 41
5.0E-001
 70
0
  0
VERTEX
  8
1
 42
0.0
 10
1.4916059E+002
 20
1.5775284E+002
 70
0
  0
VERTEX
  8
1
 42
0.0
 10
1.4916059E+002
 20
1.5925284E+002
 70
0
  0
SEQEND
  0
POLYLINE
  8
1
  6
CONTINUOUS
 62
3
 66
1
 40
5.0E-001
 41
5.0E-001
 70
0
  0
VERTEX
  8
1
 42
0.0
 10
1.7506059E+002
 20
1.7780274E+002
 70
0
  0
VERTEX
  8
1
 42
0.0
 10
1.6706059E+002
 20
1.7780274E+002
 70
0
  0
SEQEND
  0
POLYLINE
  8
1
  6
CONTINUOUS
 62
3
 66
1
 40
5.0E-001
 41
5.0E-001
 70
0
  0
VERTEX
  8
1
 42
0.0
 10
1.6706059E+002
 20
1.7780274E+002
 70
0
  0
VERTEX
  8
1
 42
0.0
 10
1.6706059E+002
 20
1.8035284E+002
 70
0
  0
SEQEND
  0
TEXT
  8
1
  6
CONTINUOUS
 62
4
 10
2.5853935E+001
 20
2.7207958E+001
 40
2.5
  1
b
 41
8.666667E-001
  0
TEXT
  8
1
  6
CONTINUOUS
 62
4
 10
1.2475298E+002
 20
7.3341418E+001
 40
3.0
  1
Befestigungsaugen abbrechbar
 41
8.307072E-001
  0
POLYLINE
  8
1
  6
CONTINUOUS
 62
3
 66
1
 40
5.0E-001
 41
5.0E-001
 70
0
  0
VERTEX
  8
1
 42
0.0
 10
1.7396059E+002
 20
1.8150284E+002
 70
0
  0
VERTEX
  8
1
 42
0.0
 10
1.6726059E+002
 20
1.8150284E+002
 70
0
  0
SEQEND
  0
POLYLINE
  8
1
  6
CONTINUOUS
 62
3
 66
1
 40
5.0E-001
 41
5.0E-001
 70
0
  0
VERTEX
  8
1
 42
0.0
 10
1.6726059E+002
 20
1.7920284E+002
 70
0
  0
VERTEX
  8
1
 42
0.0
 10
1.7396059E+002
 20
1.7920284E+002
 70
0
  0
SEQEND
  0
POLYLINE
  8
1
  6
CONTINUOUS
 62
3
 66
1
 40
5.0E-001
 41
5.0E-001
 70
0
  0
VERTEX
  8
1
 42
0.0
 10
1.7446059E+002
 20
1.7845284E+002
 70
0
  0
VERTEX
  8
1
 42
0.0
 10
1.7446059E+002
 20
1.8225284E+002
 70
0
  0
SEQEND
  0
ARC
  8
1
  6
PHANTOM
 62
4
 10
1.2756059E+002
 20
1.9235284E+002
 40
5.0E-001
 50
9.0E+001
 51
1.8E+002
  0
POLYLINE
  8
1
  6
HIDDEN
 62
3
 66
1
 40
5.0E-001
 41
5.0E-001
 70
0
  0
VERTEX
  8
1
 42
0.0
 10
1.6716059E+002
 20
1.6265284E+002
 70
0
  0
VERTEX
  8
1
 42
0.0
 10
1.6716059E+002
 20
1.7265284E+002
 70
0
  0
SEQEND
  0
POLYLINE
  8
1
  6
CONTINUOUS
 62
3
 66
1
 40
5.0E-001
 41
5.0E-001
 70
0
  0
VERTEX
  8
1
 42
0.0
 10
1.7446059E+002
 20
1.7835284E+002
 70
0
  0
VERTEX
  8
1
 42
0.0
 10
1.7658549E+002
 20
1.7835284E+002
 70
0
  0
SEQEND
  0
POLYLINE
  8
1
  6
CONTINUOUS
 62
3
 66
1
 40
5.0E-001
 41
5.0E-001
 70
0
  0
VERTEX
  8
1
 42
0.0
 10
1.7706059E+002
 20
1.7755274E+002
 70
0
  0
VERTEX
  8
1
 42
0.0
 10
1.7706059E+002
 20
1.6585274E+002
 70
0
  0
SEQEND
  0
POLYLINE
  8
1
  6
CONTINUOUS
 62
3
 66
1
 40
5.0E-001
 41
5.0E-001
 70
0
  0
VERTEX
  8
1
 42
0.0
 10
1.7706059E+002
 20
1.7835284E+002
 70
0
  0
VERTEX
  8
1
 42
0.0
 10
1.7706059E+002
 20
1.6135284E+002
 70
0
  0
SEQEND
  0
TEXT
  8
1
  6
CONTINUOUS
 62
4
 10
7.1514104E+001
 20
2.4937304E+002
 40
3.0
  1
Handbetaetigung
 41
8.0E-001
  0
LINE
  8
1
  6
PHANTOM
 62
4
 10
1.3256059E+002
 20
1.6285284E+002
 11
1.3356059E+002
 21
1.6285284E+002
  0
ARC
  8
1
  6
PHANTOM
 62
4
 10
1.3176059E+002
 20
1.9465284E+002
 40
1.8
 50
2.7E+002
 51
3.6E+002
  0
POLYLINE
  8
1
  6
CONTINUOUS
 62
3
 66
1
 40
5.0E-001
 41
5.0E-001
 70
0
  0
VERTEX
  8
1
 42
0.0
 10
1.3356059E+002
 20
1.9785284E+002
 70
0
  0
VERTEX
  8
1
 42
0.0
 10
1.3256059E+002
 20
1.9785284E+002
 70
0
  0
SEQEND
  0
POLYLINE
  8
1
  6
CONTINUOUS
 62
3
 66
1
 40
5.0E-001
 41
5.0E-001
 70
0
  0
VERTEX
  8
1
 42
0.0
 10
1.7506059E+002
 20
1.7835284E+002
 70
0
  0
VERTEX
  8
1
 42
0.0
 10
1.7506059E+002
 20
1.6025284E+002
 70
0
  0
SEQEND
  0
POLYLINE
  8
1
  6
CONTINUOUS
 62
3
 66
1
 40
5.0E-001
 41
5.0E-001
 70
0
  0
VERTEX
  8
1
 42
0.0
 10
1.7446059E+002
 20
1.8235284E+002
 70
0
  0
VERTEX
  8
1
 42
0.0
 10
1.7658549E+002
 20
1.8235284E+002
 70
0
  0
SEQEND
  0
POLYLINE
  8
1
  6
CONTINUOUS
 62
3
 66
1
 40
5.0E-001
 41
5.0E-001
 70
0
  0
VERTEX
  8
1
 42
0.0
 10
1.7706059E+002
 20
1.7960284E+002
 70
0
  0
VERTEX
  8
1
 42
0.0
 10
1.7706059E+002
 20
1.6585274E+002
 70
0
  0
SEQEND
  0
POLYLINE
  8
1
  6
CONTINUOUS
 62
3
 66
1
 40
5.0E-001
 41
5.0E-001
 70
0
  0
VERTEX
  8
1
 42
0.0
 10
1.7456059E+002
 20
1.7960284E+002
 70
0
  0
VERTEX
  8
1
 42
0.0
 10
1.7456059E+002
 20
1.8110284E+002
 70
0
  0
SEQEND
  0
POLYLINE
  8
1
  6
CONTINUOUS
 62
3
 66
1
 40
5.0E-001
 41
5.0E-001
 70
0
  0
VERTEX
  8
1
 42
0.0
 10
1.7556059E+002
 20
1.7835284E+002
 70
0
  0
VERTEX
  8
1
 42
0.0
 10
1.7556059E+002
 20
1.7775284E+002
 70
0
  0
SEQEND
  0
POLYLINE
  8
1
  6
HIDDEN
 62
3
 66
1
 40
5.0E-001
 41
5.0E-001
 70
0
  0
VERTEX
  8
1
 42
0.0
 10
1.6616059E+002
 20
1.6265284E+002
 70
0
  0
VERTEX
  8
1
 42
0.0
 10
1.6616059E+002
 20
1.7265284E+002
 70
0
  0
SEQEND
  0
POLYLINE
  8
1
  6
CONTINUOUS
 62
3
 66
1
 40
5.0E-001
 41
5.0E-001
 70
0
  0
VERTEX
  8
1
 42
0.0
 10
1.7691949E+002
 20
1.7835284E+002
 70
0
  0
VERTEX
  8
1
 42
0.0
 10
1.7643559E+002
 20
1.7835284E+002
 70
0
  0
SEQEND
  0
POLYLINE
  8
1
  6
CONTINUOUS
 62
3
 66
1
 40
5.0E-001
 41
5.0E-001
 70
0
  0
VERTEX
  8
1
 42
0.0
 10
1.7556059E+002
 20
1.8110284E+002
 70
0
  0
VERTEX
  8
1
 42
0.0
 10
1.7556059E+002
 20
1.7960284E+002
 70
0
  0
SEQEND
  0
TEXT
  8
1
  6
CONTINUOUS
 62
4
 10
3.2983335E+001
 20
2.7510888E+001
 40
2.2
  1
JL 121 013
 41
6.8621326E-001
  0
POLYLINE
  8
1
  6
CONTINUOUS
 62
3
 66
1
 40
5.0E-001
 41
5.0E-001
 70
0
  0
VERTEX
  8
1
 42
0.0
 10
1.7706059E+002
 20
1.7835284E+002
 70
0
  0
VERTEX
  8
1
 42
0.0
 10
1.7691949E+002
 20
1.7835284E+002
 70
0
  0
SEQEND
  0
POLYLINE
  8
1
  6
CONTINUOUS
 62
3
 66
1
 40
5.0E-001
 41
5.0E-001
 70
0
  0
VERTEX
  8
1
 42
0.0
 10
1.7706059E+002
 20
1.8235284E+002
 70
0
  0
VERTEX
  8
1
 42
0.0
 10
1.7595349E+002
 20
1.8235284E+002
 70
0
  0
SEQEND
  0
LINE
  8
1
  6
PHANTOM
 62
4
 10
1.2706059E+002
 20
1.6835284E+002
 11
1.2706059E+002
 21
1.9235284E+002
  0
LINE
  8
1
  6
PHANTOM
 62
4
 10
1.2606059E+002
 20
1.6865284E+002
 11
1.2606059E+002
 21
1.9205284E+002
  0
TEXT
  8
1
  6
CONTINUOUS
 62
4
 10
1.9623523E+002
 20
1.7513976E+002
 40
3.0
  1
25,4
 41
8.0E-001
 50
9.0E+001
  0
DIMENSION
  8
1
  6
CONTINUOUS
 62
4
  1
       
  2
*D570
  3
DSTYLE1
 10
1.9827939E+002
 20
1.6765284E+002
 11
1.9527839E+002
 21
1.8002104E+002
 70
128
 13
1.7901259E+002
 23
1.9305284E+002
 14
1.7901259E+002
 24
1.6765284E+002
 40
1.25E-001
 50
9.0E+001
  0
TEXT
  8
1
  6
CONTINUOUS
 62
4
 10
1.1682865E+002
 20
1.2548331E+002
 40
3.0
  1
Hutschiene 35 EN50022
 41
8.0E-001
  0
POLYLINE
  8
1
  6
HIDDEN
 62
3
 66
1
 40
5.0E-001
 41
5.0E-001
 70
0
  0
VERTEX
  8
1
 42
0.0
 10
1.6716059E+002
 20
1.8805284E+002
 70
0
  0
VERTEX
  8
1
 42
0.0
 10
1.6716059E+002
 20
1.9805284E+002
 70
0
  0
SEQEND
  0
POLYLINE
  8
1
  6
HIDDEN
 62
3
 66
1
 40
5.0E-001
 41
5.0E-001
 70
0
  0
VERTEX
  8
1
 42
0.0
 10
1.6616059E+002
 20
1.8805284E+002
 70
0
  0
VERTEX
  8
1
 42
0.0
 10
1.6616059E+002
 20
1.9805284E+002
 70
0
  0
SEQEND
  0
POLYLINE
  8
1
  6
CONTINUOUS
 62
3
 66
1
 40
5.0E-001
 41
5.0E-001
 70
0
  0
VERTEX
  8
1
 42
0.0
 10
1.7456059E+002
 20
1.8110284E+002
 70
0
  0
VERTEX
  8
1
 42
0.0
 10
1.7706059E+002
 20
1.8110284E+002
 70
0
  0
SEQEND
  0
POLYLINE
  8
1
  6
CONTINUOUS
 62
3
 66
1
 40
5.0E-001
 41
5.0E-001
 70
0
  0
VERTEX
  8
1
 42
0.0
 10
1.7456059E+002
 20
1.7960284E+002
 70
0
  0
VERTEX
  8
1
 42
0.0
 10
1.7706059E+002
 20
1.7960284E+002
 70
0
  0
SEQEND
  0
TEXT
  8
1
  6
CONTINUOUS
 62
4
 10
7.9178968E+001
 20
6.756536
 40
5.0
  1
Massbild
 41
8.9370686E-001
 72
1
 11
6.1304831E+001
 21
6.756536
  0
ARC
  8
1
  6
PHANTOM
 62
4
 10
1.2786059E+002
 20
1.9205284E+002
 40
1.8
 50
9.0E+001
 51
1.8E+002
  0
POLYLINE
  8
1
  6
CONTINUOUS
 62
3
 66
1
 40
5.0E-001
 41
5.0E-001
 70
0
  0
VERTEX
  8
1
 42
0.0
 10
8.3251738E+001
 20
1.6005284E+002
 70
0
  0
VERTEX
  8
1
 42
0.0
 10
8.3251738E+001
 20
1.8035284E+002
 70
0
  0
SEQEND
  0
POLYLINE
  8
1
  6
CONTINUOUS
 62
3
 66
1
 40
5.0E-001
 41
5.0E-001
 70
0
  0
VERTEX
  8
1
 42
0.0
 10
3.5751728E+001
 20
1.6025284E+002
 70
0
  0
VERTEX
  8
1
 42
0.0
 10
3.5751738E+001
 20
1.8035284E+002
 70
0
  0
SEQEND
  0
POLYLINE
  8
1
  6
CONTINUOUS
 62
3
 66
1
 40
5.0E-001
 41
5.0E-001
 70
0
  0
VERTEX
  8
1
 42
0.0
 10
3.6701738E+001
 20
1.7780284E+002
 70
0
  0
VERTEX
  8
1
 42
0.0
 10
3.6701738E+001
 20
1.8035284E+002
 70
0
  0
SEQEND
  0
POLYLINE
  8
1
  6
CONTINUOUS
 62
3
 66
1
 40
5.0E-001
 41
5.0E-001
 70
0
  0
VERTEX
  8
1
 42
0.0
 10
4.5451738E+001
 20
1.7780284E+002
 70
0
  0
VERTEX
  8
1
 42
0.0
 10
3.5751738E+001
 20
1.7780284E+002
 70
0
  0
SEQEND
  0
POLYLINE
  8
1
  6
CONTINUOUS
 62
3
 66
1
 40
5.0E-001
 41
5.0E-001
 70
0
  0
VERTEX
  8
1
 42
0.0
 10
4.5951738E+001
 20
1.7830284E+002
 70
0
  0
VERTEX
  8
1
 42
0.0
 10
4.5951738E+001
 20
1.8035284E+002
 70
0
  0
SEQEND
  0
POLYLINE
  8
1
  6
CONTINUOUS
 62
3
 66
1
 40
5.0E-001
 41
5.0E-001
 70
0
  0
VERTEX
  8
1
 42
0.0
 10
8.3251738E+001
 20
1.6025284E+002
 70
0
  0
VERTEX
  8
1
 42
0.0
 10
8.1901728E+001
 20
1.6025284E+002
 70
0
  0
SEQEND
  0
POLYLINE
  8
1
  6
CONTINUOUS
 62
3
 66
1
 40
5.0E-001
 41
5.0E-001
 70
0
  0
VERTEX
  8
1
 42
0.0
 10
8.2451738E+001
 20
1.5925284E+002
 70
0
  0
VERTEX
  8
1
 42
0.0
 10
8.2401728E+001
 20
1.5925284E+002
 70
0
  0
SEQEND
  0
POLYLINE
  8
1
  6
CONTINUOUS
 62
3
 66
1
 40
5.0E-001
 41
5.0E-001
 70
0
  0
VERTEX
  8
1
 42
0.0
 10
6.1001738E+001
 20
1.5905284E+002
 70
0
  0
VERTEX
  8
1
 42
0.0
 10
6.1001738E+001
 20
1.5925284E+002
 70
0
  0
SEQEND
  0
POLYLINE
  8
1
  6
CONTINUOUS
 62
3
 66
1
 40
5.0E-001
 41
5.0E-001
 70
0
  0
VERTEX
  8
1
 42
0.0
 10
6.2001738E+001
 20
1.5925284E+002
 70
0
  0
VERTEX
  8
1
 42
0.0
 10
5.7001738E+001
 20
1.5925284E+002
 70
0
  0
SEQEND
  0
POLYLINE
  8
1
  6
CONTINUOUS
 62
3
 66
1
 40
5.0E-001
 41
5.0E-001
 70
0
  0
VERTEX
  8
1
 42
0.0
 10
6.1501738E+001
 20
1.5775284E+002
 70
0
  0
VERTEX
  8
1
 42
0.0
 10
5.7501738E+001
 20
1.5775284E+002
 70
0
  0
SEQEND
  0
POLYLINE
  8
1
  6
CONTINUOUS
 62
3
 66
1
 40
5.0E-001
 41
5.0E-001
 70
0
  0
VERTEX
  8
1
 42
0.0
 10
6.1501738E+001
 20
1.5775284E+002
 70
0
  0
VERTEX
  8
1
 42
0.0
 10
6.1501738E+001
 20
1.5795284E+002
 70
0
  0
SEQEND
  0
POLYLINE
  8
1
  6
CONTINUOUS
 62
3
 66
1
 40
5.0E-001
 41
5.0E-001
 70
0
  0
VERTEX
  8
1
 42
0.0
 10
5.7501738E+001
 20
1.5775284E+002
 70
0
  0
VERTEX
  8
1
 42
0.0
 10
5.7501738E+001
 20
1.5795284E+002
 70
0
  0
SEQEND
  0
POLYLINE
  8
1
  6
CONTINUOUS
 62
3
 66
1
 40
5.0E-001
 41
5.0E-001
 70
0
  0
VERTEX
  8
1
 42
0.0
 10
6.1001738E+001
 20
1.5905284E+002
 70
0
  0
VERTEX
  8
1
 42
0.0
 10
6.1501738E+001
 20
1.5795284E+002
 70
0
  0
SEQEND
  0
POLYLINE
  8
1
  6
CONTINUOUS
 62
3
 66
1
 40
5.0E-001
 41
5.0E-001
 70
0
  0
VERTEX
  8
1
 42
0.0
 10
5.8001738E+001
 20
1.5905284E+002
 70
0
  0
VERTEX
  8
1
 42
0.0
 10
5.7501738E+001
 20
1.5795284E+002
 70
0
  0
SEQEND
  0
POLYLINE
  8
1
  6
CONTINUOUS
 62
3
 66
1
 40
5.0E-001
 41
5.0E-001
 70
0
  0
VERTEX
  8
1
 42
0.0
 10
7.3501738E+001
 20
1.5966134E+002
 70
0
  0
VERTEX
  8
1
 42
0.0
 10
7.3501738E+001
 20
1.6035284E+002
 70
0
  0
SEQEND
  0
POLYLINE
  8
1
  6
CONTINUOUS
 62
3
 66
1
 40
5.0E-001
 41
5.0E-001
 70
0
  0
VERTEX
  8
1
 42
0.0
 10
7.2801738E+001
 20
1.5960294E+002
 70
0
  0
VERTEX
  8
1
 42
0.0
 10
7.2801738E+001
 20
1.6035284E+002
 70
0
  0
SEQEND
  0
POLYLINE
  8
1
  6
CONTINUOUS
 62
3
 66
1
 40
5.0E-001
 41
5.0E-001
 70
0
  0
VERTEX
  8
1
 42
0.0
 10
8.1901728E+001
 20
1.5975284E+002
 70
0
  0
VERTEX
  8
1
 42
0.0
 10
8.1901728E+001
 20
1.6035284E+002
 70
0
  0
SEQEND
  0
POLYLINE
  8
1
  6
CONTINUOUS
 62
3
 66
1
 40
5.0E-001
 41
5.0E-001
 70
0
  0
VERTEX
  8
1
 42
0.0
 10
7.9301738E+001
 20
1.5920284E+002
 70
0
  0
VERTEX
  8
1
 42
0.0
 10
7.9301738E+001
 20
1.6035284E+002
 70
0
  0
SEQEND
  0
POLYLINE
  8
1
  6
CONTINUOUS
 62
3
 66
1
 40
5.0E-001
 41
5.0E-001
 70
0
  0
VERTEX
  8
1
 42
0.0
 10
8.1901728E+001
 20
1.5965284E+002
 70
0
  0
VERTEX
  8
1
 42
0.0
 10
7.9301738E+001
 20
1.5965284E+002
 70
0
  0
SEQEND
  0
POLYLINE
  8
1
  6
CONTINUOUS
 62
3
 66
1
 40
5.0E-001
 41
5.0E-001
 70
0
  0
VERTEX
  8
1
 42
0.0
 10
6.4401728E+001
 20
1.5966134E+002
 70
0
  0
VERTEX
  8
1
 42
0.0
 10
6.4401728E+001
 20
1.6035284E+002
 70
0
  0
SEQEND
  0
POLYLINE
  8
1
  6
CONTINUOUS
 62
3
 66
1
 40
5.0E-001
 41
5.0E-001
 70
0
  0
VERTEX
  8
1
 42
0.0
 10
6.3701738E+001
 20
1.5960294E+002
 70
0
  0
VERTEX
  8
1
 42
0.0
 10
6.3701738E+001
 20
1.6035284E+002
 70
0
  0
SEQEND
  0
POLYLINE
  8
1
  6
CONTINUOUS
 62
3
 66
1
 40
5.0E-001
 41
5.0E-001
 70
0
  0
VERTEX
  8
1
 42
0.0
 10
5.5301738E+001
 20
1.5966134E+002
 70
0
  0
VERTEX
  8
1
 42
0.0
 10
5.5301738E+001
 20
1.6035284E+002
 70
0
  0
SEQEND
  0
POLYLINE
  8
1
  6
CONTINUOUS
 62
3
 66
1
 40
5.0E-001
 41
5.0E-001
 70
0
  0
VERTEX
  8
1
 42
0.0
 10
5.4601748E+001
 20
1.5960294E+002
 70
0
  0
VERTEX
  8
1
 42
0.0
 10
5.4601748E+001
 20
1.6035284E+002
 70
0
  0
SEQEND
  0
POLYLINE
  8
1
  6
CONTINUOUS
 62
3
 66
1
 40
5.0E-001
 41
5.0E-001
 70
0
  0
VERTEX
  8
1
 42
0.0
 10
4.6201738E+001
 20
1.5966134E+002
 70
0
  0
VERTEX
  8
1
 42
0.0
 10
4.6201738E+001
 20
1.6035284E+002
 70
0
  0
SEQEND
  0
POLYLINE
  8
1
  6
CONTINUOUS
 62
3
 66
1
 40
5.0E-001
 41
5.0E-001
 70
0
  0
VERTEX
  8
1
 42
0.0
 10
4.5501738E+001
 20
1.5960294E+002
 70
0
  0
VERTEX
  8
1
 42
0.0
 10
4.5501738E+001
 20
1.6035284E+002
 70
0
  0
SEQEND
  0
POLYLINE
  8
1
  6
CONTINUOUS
 62
3
 66
1
 40
5.0E-001
 41
5.0E-001
 70
0
  0
VERTEX
  8
1
 42
0.0
 10
4.5201738E+001
 20
1.6035284E+002
 70
0
  0
VERTEX
  8
1
 42
0.0
 10
4.5201738E+001
 20
1.5920284E+002
 70
0
  0
SEQEND
  0
POLYLINE
  8
1
  6
CONTINUOUS
 62
3
 66
1
 40
5.0E-001
 41
5.0E-001
 70
0
  0
VERTEX
  8
1
 42
0.0
 10
3.7101728E+001
 20
1.5975284E+002
 70
0
  0
VERTEX
  8
1
 42
0.0
 10
3.7101728E+001
 20
1.6035284E+002
 70
0
  0
SEQEND
  0
POLYLINE
  8
1
  6
CONTINUOUS
 62
3
 66
1
 40
5.0E-001
 41
5.0E-001
 70
0
  0
VERTEX
  8
1
 42
0.0
 10
3.6601728E+001
 20
1.5925284E+002
 70
0
  0
VERTEX
  8
1
 42
0.0
 10
3.6551748E+001
 20
1.5925284E+002
 70
0
  0
SEQEND
  0
POLYLINE
  8
1
  6
CONTINUOUS
 62
3
 66
1
 40
5.0E-001
 41
5.0E-001
 70
0
  0
VERTEX
  8
1
 42
0.0
 10
3.9701738E+001
 20
1.5920284E+002
 70
0
  0
VERTEX
  8
1
 42
0.0
 10
3.9701738E+001
 20
1.6035284E+002
 70
0
  0
SEQEND
  0
POLYLINE
  8
1
  6
CONTINUOUS
 62
3
 66
1
 40
5.0E-001
 41
5.0E-001
 70
0
  0
VERTEX
  8
1
 42
0.0
 10
3.9701738E+001
 20
1.5965284E+002
 70
0
  0
VERTEX
  8
1
 42
0.0
 10
3.7101728E+001
 20
1.5965284E+002
 70
0
  0
SEQEND
  0
POLYLINE
  8
1
  6
CONTINUOUS
 62
3
 66
1
 40
5.0E-001
 41
5.0E-001
 70
0
  0
VERTEX
  8
1
 42
0.0
 10
7.3801738E+001
 20
1.6035284E+002
 70
0
  0
VERTEX
  8
1
 42
0.0
 10
7.3801738E+001
 20
1.5920284E+002
 70
0
  0
SEQEND
  0
POLYLINE
  8
1
  6
CONTINUOUS
 62
3
 66
1
 40
5.0E-001
 41
5.0E-001
 70
0
  0
VERTEX
  8
1
 42
0.0
 10
7.3751708E+001
 20
1.6035284E+002
 70
0
  0
VERTEX
  8
1
 42
0.0
 10
7.3501738E+001
 20
1.6010284E+002
 70
0
  0
SEQEND
  0
POLYLINE
  8
1
  6
CONTINUOUS
 62
3
 66
1
 40
5.0E-001
 41
5.0E-001
 70
0
  0
VERTEX
  8
1
 42
0.0
 10
7.2551758E+001
 20
1.6035284E+002
 70
0
  0
VERTEX
  8
1
 42
0.0
 10
7.2801738E+001
 20
1.6010284E+002
 70
0
  0
SEQEND
  0
POLYLINE
  8
1
  6
CONTINUOUS
 62
3
 66
1
 40
5.0E-001
 41
5.0E-001
 70
0
  0
VERTEX
  8
1
 42
0.0
 10
6.4651718E+001
 20
1.6035284E+002
 70
0
  0
VERTEX
  8
1
 42
0.0
 10
6.4401728E+001
 20
1.6010284E+002
 70
0
  0
SEQEND
  0
POLYLINE
  8
1
  6
CONTINUOUS
 62
3
 66
1
 40
5.0E-001
 41
5.0E-001
 70
0
  0
VERTEX
  8
1
 42
0.0
 10
6.3451748E+001
 20
1.6035284E+002
 70
0
  0
VERTEX
  8
1
 42
0.0
 10
6.3701738E+001
 20
1.6010284E+002
 70
0
  0
SEQEND
  0
POLYLINE
  8
1
  6
CONTINUOUS
 62
3
 66
1
 40
5.0E-001
 41
5.0E-001
 70
0
  0
VERTEX
  8
1
 42
0.0
 10
5.5551728E+001
 20
1.6035284E+002
 70
0
  0
VERTEX
  8
1
 42
0.0
 10
5.5301738E+001
 20
1.6010284E+002
 70
0
  0
SEQEND
  0
POLYLINE
  8
1
  6
CONTINUOUS
 62
3
 66
1
 40
5.0E-001
 41
5.0E-001
 70
0
  0
VERTEX
  8
1
 42
0.0
 10
5.4351758E+001
 20
1.6035284E+002
 70
0
  0
VERTEX
  8
1
 42
0.0
 10
5.4601748E+001
 20
1.6010284E+002
 70
0
  0
SEQEND
  0
POLYLINE
  8
1
  6
CONTINUOUS
 62
3
 66
1
 40
5.0E-001
 41
5.0E-001
 70
0
  0
VERTEX
  8
1
 42
0.0
 10
4.6451718E+001
 20
1.6035284E+002
 70
0
  0
VERTEX
  8
1
 42
0.0
 10
4.6201738E+001
 20
1.6010284E+002
 70
0
  0
SEQEND
  0
POLYLINE
  8
1
  6
CONTINUOUS
 62
3
 66
1
 40
5.0E-001
 41
5.0E-001
 70
0
  0
VERTEX
  8
1
 42
0.0
 10
4.5501738E+001
 20
1.6010284E+002
 70
0
  0
VERTEX
  8
1
 42
0.0
 10
4.5251758E+001
 20
1.6035284E+002
 70
0
  0
SEQEND
  0
POLYLINE
  8
1
  6
CONTINUOUS
 62
3
 66
1
 40
5.0E-001
 41
5.0E-001
 70
0
  0
VERTEX
  8
1
 42
0.0
 10
7.9301738E+001
 20
1.5920284E+002
 70
0
  0
VERTEX
  8
1
 42
0.0
 10
7.3801738E+001
 20
1.5920284E+002
 70
0
  0
SEQEND
  0
POLYLINE
  8
1
  6
CONTINUOUS
 62
3
 66
1
 40
5.0E-001
 41
5.0E-001
 70
0
  0
VERTEX
  8
1
 42
0.0
 10
4.5201738E+001
 20
1.5920284E+002
 70
0
  0
VERTEX
  8
1
 42
0.0
 10
3.9701738E+001
 20
1.5920284E+002
 70
0
  0
SEQEND
  0
POLYLINE
  8
1
  6
CONTINUOUS
 62
3
 66
1
 40
5.0E-001
 41
5.0E-001
 70
0
  0
VERTEX
  8
1
 42
0.0
 10
8.1901728E+001
 20
1.5925284E+002
 70
0
  0
VERTEX
  8
1
 42
0.0
 10
8.2451738E+001
 20
1.5925284E+002
 70
0
  0
SEQEND
  0
POLYLINE
  8
1
  6
CONTINUOUS
 62
3
 66
1
 40
5.0E-001
 41
5.0E-001
 70
0
  0
VERTEX
  8
1
 42
0.0
 10
8.1601728E+001
 20
1.5965284E+002
 70
0
  0
VERTEX
  8
1
 42
0.0
 10
8.1901728E+001
 20
1.5925284E+002
 70
0
  0
SEQEND
  0
POLYLINE
  8
1
  6
CONTINUOUS
 62
3
 66
1
 40
5.0E-001
 41
5.0E-001
 70
0
  0
VERTEX
  8
1
 42
0.0
 10
3.6597098E+001
 20
1.5925284E+002
 70
0
  0
VERTEX
  8
1
 42
0.0
 10
3.7101728E+001
 20
1.5925284E+002
 70
0
  0
SEQEND
  0
POLYLINE
  8
1
  6
CONTINUOUS
 62
3
 66
1
 40
5.0E-001
 41
5.0E-001
 70
0
  0
VERTEX
  8
1
 42
0.0
 10
3.7401738E+001
 20
1.5965284E+002
 70
0
  0
VERTEX
  8
1
 42
0.0
 10
3.7101728E+001
 20
1.5925284E+002
 70
0
  0
SEQEND
  0
POLYLINE
  8
1
  6
CONTINUOUS
 62
3
 66
1
 40
5.0E-001
 41
5.0E-001
 70
0
  0
VERTEX
  8
1
 42
0.0
 10
6.2001738E+001
 20
1.5925284E+002
 70
0
  0
VERTEX
  8
1
 42
0.0
 10
6.2001738E+001
 20
1.6035284E+002
 70
0
  0
SEQEND
  0
POLYLINE
  8
1
  6
CONTINUOUS
 62
3
 66
1
 40
5.0E-001
 41
5.0E-001
 70
0
  0
VERTEX
  8
1
 42
0.0
 10
5.7001738E+001
 20
1.5925284E+002
 70
0
  0
VERTEX
  8
1
 42
0.0
 10
5.7001738E+001
 20
1.6035284E+002
 70
0
  0
SEQEND
  0
POLYLINE
  8
1
  6
CONTINUOUS
 62
3
 66
1
 40
5.0E-001
 41
5.0E-001
 70
0
  0
VERTEX
  8
1
 42
0.0
 10
3.6751738E+001
 20
1.7725284E+002
 70
0
  0
VERTEX
  8
1
 42
0.0
 10
3.5751738E+001
 20
1.7725284E+002
 70
0
  0
SEQEND
  0
POLYLINE
  8
1
  6
CONTINUOUS
 62
3
 66
1
 40
5.0E-001
 41
5.0E-001
 70
0
  0
VERTEX
  8
1
 42
0.0
 10
8.3251758E+001
 20
2.0065284E+002
 70
0
  0
VERTEX
  8
1
 42
0.0
 10
8.3251738E+001
 20
1.8035284E+002
 70
0
  0
SEQEND
  0
POLYLINE
  8
1
  6
CONTINUOUS
 62
3
 66
1
 40
5.0E-001
 41
5.0E-001
 70
0
  0
VERTEX
  8
1
 42
0.0
 10
3.5751758E+001
 20
2.0065284E+002
 70
0
  0
VERTEX
  8
1
 42
0.0
 10
3.5751738E+001
 20
1.8035284E+002
 70
0
  0
SEQEND
  0
POLYLINE
  8
1
  6
CONTINUOUS
 62
3
 66
1
 40
5.0E-001
 41
5.0E-001
 70
0
  0
VERTEX
  8
1
 42
0.0
 10
3.6701738E+001
 20
1.8290284E+002
 70
0
  0
VERTEX
  8
1
 42
0.0
 10
3.6701738E+001
 20
1.8035284E+002
 70
0
  0
SEQEND
  0
POLYLINE
  8
1
  6
CONTINUOUS
 62
3
 66
1
 40
5.0E-001
 41
5.0E-001
 70
0
  0
VERTEX
  8
1
 42
0.0
 10
4.5451738E+001
 20
1.8290284E+002
 70
0
  0
VERTEX
  8
1
 42
0.0
 10
3.5751738E+001
 20
1.8290284E+002
 70
0
  0
SEQEND
  0
POLYLINE
  8
1
  6
CONTINUOUS
 62
3
 66
1
 40
5.0E-001
 41
5.0E-001
 70
0
  0
VERTEX
  8
1
 42
0.0
 10
4.5951738E+001
 20
1.8240284E+002
 70
0
  0
VERTEX
  8
1
 42
0.0
 10
4.5951738E+001
 20
1.8035284E+002
 70
0
  0
SEQEND
  0
POLYLINE
  8
1
  6
CONTINUOUS
 62
3
 66
1
 40
5.0E-001
 41
5.0E-001
 70
0
  0
VERTEX
  8
1
 42
0.0
 10
8.3251758E+001
 20
2.0045284E+002
 70
0
  0
VERTEX
  8
1
 42
0.0
 10
8.1901748E+001
 20
2.0045284E+002
 70
0
  0
SEQEND
  0
POLYLINE
  8
1
  6
CONTINUOUS
 62
3
 66
1
 40
5.0E-001
 41
5.0E-001
 70
0
  0
VERTEX
  8
1
 42
0.0
 10
8.2451748E+001
 20
2.0145284E+002
 70
0
  0
VERTEX
  8
1
 42
0.0
 10
8.2401748E+001
 20
2.0145284E+002
 70
0
  0
SEQEND
  0
POLYLINE
  8
1
  6
CONTINUOUS
 62
3
 66
1
 40
5.0E-001
 41
5.0E-001
 70
0
  0
VERTEX
  8
1
 42
0.0
 10
6.1001738E+001
 20
2.0165284E+002
 70
0
  0
VERTEX
  8
1
 42
0.0
 10
6.1001738E+001
 20
2.0145284E+002
 70
0
  0
SEQEND
  0
POLYLINE
  8
1
  6
CONTINUOUS
 62
3
 66
1
 40
5.0E-001
 41
5.0E-001
 70
0
  0
VERTEX
  8
1
 42
0.0
 10
5.8001738E+001
 20
2.0165284E+002
 70
0
  0
VERTEX
  8
1
 42
0.0
 10
5.8001738E+001
 20
2.0145284E+002
 70
0
  0
SEQEND
  0
POLYLINE
  8
1
  6
CONTINUOUS
 62
3
 66
1
 40
5.0E-001
 41
5.0E-001
 70
0
  0
VERTEX
  8
1
 42
0.0
 10
6.2001738E+001
 20
2.0145284E+002
 70
0
  0
VERTEX
  8
1
 42
0.0
 10
5.7001738E+001
 20
2.0145284E+002
 70
0
  0
SEQEND
  0
POLYLINE
  8
1
  6
CONTINUOUS
 62
3
 66
1
 40
5.0E-001
 41
5.0E-001
 70
0
  0
VERTEX
  8
1
 42
0.0
 10
7.3501738E+001
 20
2.0104434E+002
 70
0
  0
VERTEX
  8
1
 42
0.0
 10
7.3501738E+001
 20
2.0035284E+002
 70
0
  0
SEQEND
  0
POLYLINE
  8
1
  6
CONTINUOUS
 62
3
 66
1
 40
5.0E-001
 41
5.0E-001
 70
0
  0
VERTEX
  8
1
 42
0.0
 10
7.2801738E+001
 20
2.0110274E+002
 70
0
  0
VERTEX
  8
1
 42
0.0
 10
7.2801738E+001
 20
2.0035284E+002
 70
0
  0
SEQEND
  0
POLYLINE
  8
1
  6
CONTINUOUS
 62
3
 66
1
 40
5.0E-001
 41
5.0E-001
 70
0
  0
VERTEX
  8
1
 42
0.0
 10
7.3501738E+001
 20
2.0045284E+002
 70
0
  0
VERTEX
  8
1
 42
0.0
 10
7.2801738E+001
 20
2.0045284E+002
 70
0
  0
SEQEND
  0
POLYLINE
  8
1
  6
CONTINUOUS
 62
3
 66
1
 40
5.0E-001
 41
5.0E-001
 70
0
  0
VERTEX
  8
1
 42
0.0
 10
8.1901748E+001
 20
2.0095284E+002
 70
0
  0
VERTEX
  8
1
 42
0.0
 10
8.1901748E+001
 20
2.0035284E+002
 70
0
  0
SEQEND
  0
POLYLINE
  8
1
  6
CONTINUOUS
 62
3
 66
1
 40
5.0E-001
 41
5.0E-001
 70
0
  0
VERTEX
  8
1
 42
0.0
 10
7.9301738E+001
 20
2.0150284E+002
 70
0
  0
VERTEX
  8
1
 42
0.0
 10
7.9301738E+001
 20
2.0035284E+002
 70
0
  0
SEQEND
  0
POLYLINE
  8
1
  6
CONTINUOUS
 62
3
 66
1
 40
5.0E-001
 41
5.0E-001
 70
0
  0
VERTEX
  8
1
 42
0.0
 10
8.1901748E+001
 20
2.0105284E+002
 70
0
  0
VERTEX
  8
1
 42
0.0
 10
7.9301738E+001
 20
2.0105284E+002
 70
0
  0
SEQEND
  0
POLYLINE
  8
1
  6
CONTINUOUS
 62
3
 66
1
 40
5.0E-001
 41
5.0E-001
 70
0
  0
VERTEX
  8
1
 42
0.0
 10
6.4401748E+001
 20
2.0045284E+002
 70
0
  0
VERTEX
  8
1
 42
0.0
 10
6.3701748E+001
 20
2.0045284E+002
 70
0
  0
SEQEND
  0
POLYLINE
  8
1
  6
CONTINUOUS
 62
3
 66
1
 40
5.0E-001
 41
5.0E-001
 70
0
  0
VERTEX
  8
1
 42
0.0
 10
6.4401748E+001
 20
2.0104434E+002
 70
0
  0
VERTEX
  8
1
 42
0.0
 10
6.4401748E+001
 20
2.0035284E+002
 70
0
  0
SEQEND
  0
POLYLINE
  8
1
  6
CONTINUOUS
 62
3
 66
1
 40
5.0E-001
 41
5.0E-001
 70
0
  0
VERTEX
  8
1
 42
0.0
 10
6.3701748E+001
 20
2.0110274E+002
 70
0
  0
VERTEX
  8
1
 42
0.0
 10
6.3701748E+001
 20
2.0035284E+002
 70
0
  0
SEQEND
  0
POLYLINE
  8
1
  6
CONTINUOUS
 62
3
 66
1
 40
5.0E-001
 41
5.0E-001
 70
0
  0
VERTEX
  8
1
 42
0.0
 10
5.5301738E+001
 20
2.0045284E+002
 70
0
  0
VERTEX
  8
1
 42
0.0
 10
5.4601748E+001
 20
2.0045284E+002
 70
0
  0
SEQEND
  0
POLYLINE
  8
1
  6
CONTINUOUS
 62
3
 66
1
 40
5.0E-001
 41
5.0E-001
 70
0
  0
VERTEX
  8
1
 42
0.0
 10
5.5301738E+001
 20
2.0104434E+002
 70
0
  0
VERTEX
  8
1
 42
0.0
 10
5.5301738E+001
 20
2.0035284E+002
 70
0
  0
SEQEND
  0
POLYLINE
  8
1
  6
CONTINUOUS
 62
3
 66
1
 40
5.0E-001
 41
5.0E-001
 70
0
  0
VERTEX
  8
1
 42
0.0
 10
5.4601748E+001
 20
2.0110274E+002
 70
0
  0
VERTEX
  8
1
 42
0.0
 10
5.4601748E+001
 20
2.0035284E+002
 70
0
  0
SEQEND
  0
POLYLINE
  8
1
  6
CONTINUOUS
 62
3
 66
1
 40
5.0E-001
 41
5.0E-001
 70
0
  0
VERTEX
  8
1
 42
0.0
 10
4.6201748E+001
 20
2.0045284E+002
 70
0
  0
VERTEX
  8
1
 42
0.0
 10
4.5501758E+001
 20
2.0045284E+002
 70
0
  0
SEQEND
  0
POLYLINE
  8
1
  6
CONTINUOUS
 62
3
 66
1
 40
5.0E-001
 41
5.0E-001
 70
0
  0
VERTEX
  8
1
 42
0.0
 10
4.6201748E+001
 20
2.0104434E+002
 70
0
  0
VERTEX
  8
1
 42
0.0
 10
4.6201748E+001
 20
2.0035284E+002
 70
0
  0
SEQEND
  0
POLYLINE
  8
1
  6
CONTINUOUS
 62
3
 66
1
 40
5.0E-001
 41
5.0E-001
 70
0
  0
VERTEX
  8
1
 42
0.0
 10
4.5501758E+001
 20
2.0110274E+002
 70
0
  0
VERTEX
  8
1
 42
0.0
 10
4.5501758E+001
 20
2.0035284E+002
 70
0
  0
SEQEND
  0
POLYLINE
  8
1
  6
CONTINUOUS
 62
3
 66
1
 40
5.0E-001
 41
5.0E-001
 70
0
  0
VERTEX
  8
1
 42
0.0
 10
4.5201748E+001
 20
2.0035284E+002
 70
0
  0
VERTEX
  8
1
 42
0.0
 10
4.5201748E+001
 20
2.0150284E+002
 70
0
  0
SEQEND
  0
POLYLINE
  8
1
  6
CONTINUOUS
 62
3
 66
1
 40
5.0E-001
 41
5.0E-001
 70
0
  0
VERTEX
  8
1
 42
0.0
 10
3.7101748E+001
 20
2.0095284E+002
 70
0
  0
VERTEX
  8
1
 42
0.0
 10
3.7101748E+001
 20
2.0035284E+002
 70
0
  0
SEQEND
  0
INSERT
  2
*E653
  8
1
 10
3.6551748E+001
 20
2.0065284E+002
 41
1.0
 42
1.0
 43
1.0
 50
2.7E+002
 62
3
  0
POLYLINE
  8
1
  6
CONTINUOUS
 62
3
 66
1
 40
5.0E-001
 41
5.0E-001
 70
0
  0
VERTEX
  8
1
 42
0.0
 10
3.6601748E+001
 20
2.0145284E+002
 70
0
  0
VERTEX
  8
1
 42
0.0
 10
3.6551748E+001
 20
2.0145284E+002
 70
0
  0
SEQEND
  0
POLYLINE
  8
1
  6
CONTINUOUS
 62
3
 66
1
 40
5.0E-001
 41
5.0E-001
 70
0
  0
VERTEX
  8
1
 42
4.1421356E-001
 10
3.7101748E+001
 20
2.0095284E+002
 70
0
  0
VERTEX
  8
1
 42
0.0
 10
3.6601748E+001
 20
2.0145284E+002
 70
0
  0
SEQEND
  0
POLYLINE
  8
1
  6
CONTINUOUS
 62
3
 66
1
 40
5.0E-001
 41
5.0E-001
 70
0
  0
VERTEX
  8
1
 42
0.0
 10
3.5777148E+001
 20
2.0045284E+002
 70
0
  0
VERTEX
  8
1
 42
0.0
 10
3.7101748E+001
 20
2.0045284E+002
 70
0
  0
SEQEND
  0
POLYLINE
  8
1
  6
CONTINUOUS
 62
3
 66
1
 40
5.0E-001
 41
5.0E-001
 70
0
  0
VERTEX
  8
1
 42
0.0
 10
3.9701738E+001
 20
2.0150284E+002
 70
0
  0
VERTEX
  8
1
 42
0.0
 10
3.9701738E+001
 20
2.0035284E+002
 70
0
  0
SEQEND
  0
POLYLINE
  8
1
  6
CONTINUOUS
 62
3
 66
1
 40
5.0E-001
 41
5.0E-001
 70
0
  0
VERTEX
  8
1
 42
0.0
 10
3.9701738E+001
 20
2.0105284E+002
 70
0
  0
VERTEX
  8
1
 42
0.0
 10
3.7101748E+001
 20
2.0105284E+002
 70
0
  0
SEQEND
  0
POLYLINE
  8
1
  6
CONTINUOUS
 62
3
 66
1
 40
5.0E-001
 41
5.0E-001
 70
0
  0
VERTEX
  8
1
 42
0.0
 10
7.3751758E+001
 20
2.0035284E+002
 70
0
  0
VERTEX
  8
1
 42
0.0
 10
7.3501738E+001
 20
2.0060284E+002
 70
0
  0
SEQEND
  0
POLYLINE
  8
1
  6
CONTINUOUS
 62
3
 66
1
 40
5.0E-001
 41
5.0E-001
 70
0
  0
VERTEX
  8
1
 42
0.0
 10
7.2551728E+001
 20
2.0035284E+002
 70
0
  0
VERTEX
  8
1
 42
0.0
 10
7.2801738E+001
 20
2.0060284E+002
 70
0
  0
SEQEND
  0
POLYLINE
  8
1
  6
CONTINUOUS
 62
3
 66
1
 40
5.0E-001
 41
5.0E-001
 70
0
  0
VERTEX
  8
1
 42
0.0
 10
6.4651748E+001
 20
2.0035284E+002
 70
0
  0
VERTEX
  8
1
 42
0.0
 10
6.4401748E+001
 20
2.0060284E+002
 70
0
  0
SEQEND
  0
POLYLINE
  8
1
  6
CONTINUOUS
 62
3
 66
1
 40
5.0E-001
 41
5.0E-001
 70
0
  0
VERTEX
  8
1
 42
0.0
 10
6.3701748E+001
 20
2.0060284E+002
 70
0
  0
VERTEX
  8
1
 42
0.0
 10
6.3451738E+001
 20
2.0035284E+002
 70
0
  0
SEQEND
  0
POLYLINE
  8
1
  6
CONTINUOUS
 62
3
 66
1
 40
5.0E-001
 41
5.0E-001
 70
0
  0
VERTEX
  8
1
 42
0.0
 10
5.5551758E+001
 20
2.0035284E+002
 70
0
  0
VERTEX
  8
1
 42
0.0
 10
5.5301738E+001
 20
2.0060284E+002
 70
0
  0
SEQEND
  0
POLYLINE
  8
1
  6
CONTINUOUS
 62
3
 66
1
 40
5.0E-001
 41
5.0E-001
 70
0
  0
VERTEX
  8
1
 42
0.0
 10
5.4351748E+001
 20
2.0035284E+002
 70
0
  0
VERTEX
  8
1
 42
0.0
 10
5.4601748E+001
 20
2.0060284E+002
 70
0
  0
SEQEND
  0
POLYLINE
  8
1
  6
CONTINUOUS
 62
3
 66
1
 40
5.0E-001
 41
5.0E-001
 70
0
  0
VERTEX
  8
1
 42
0.0
 10
4.6451748E+001
 20
2.0035284E+002
 70
0
  0
VERTEX
  8
1
 42
0.0
 10
4.6201748E+001
 20
2.0060284E+002
 70
0
  0
SEQEND
  0
POLYLINE
  8
1
  6
CONTINUOUS
 62
3
 66
1
 40
5.0E-001
 41
5.0E-001
 70
0
  0
VERTEX
  8
1
 42
0.0
 10
4.5251738E+001
 20
2.0035284E+002
 70
0
  0
VERTEX
  8
1
 42
0.0
 10
4.5501758E+001
 20
2.0060284E+002
 70
0
  0
SEQEND
  0
POLYLINE
  8
1
  6
CONTINUOUS
 62
3
 66
1
 40
5.0E-001
 41
5.0E-001
 70
0
  0
VERTEX
  8
1
 42
0.0
 10
7.9301738E+001
 20
2.0150284E+002
 70
0
  0
VERTEX
  8
1
 42
0.0
 10
7.3801738E+001
 20
2.0150284E+002
 70
0
  0
SEQEND
  0
POLYLINE
  8
1
  6
CONTINUOUS
 62
3
 66
1
 40
5.0E-001
 41
5.0E-001
 70
0
  0
VERTEX
  8
1
 42
0.0
 10
4.5201748E+001
 20
2.0150284E+002
 70
0
  0
VERTEX
  8
1
 42
0.0
 10
3.9701738E+001
 20
2.0150284E+002
 70
0
  0
SEQEND
  0
POLYLINE
  8
1
  6
CONTINUOUS
 62
3
 66
1
 40
5.0E-001
 41
5.0E-001
 70
0
  0
VERTEX
  8
1
 42
0.0
 10
8.1901748E+001
 20
2.0145284E+002
 70
0
  0
VERTEX
  8
1
 42
0.0
 10
8.2451748E+001
 20
2.0145284E+002
 70
0
  0
SEQEND
  0
POLYLINE
  8
1
  6
CONTINUOUS
 62
3
 66
1
 40
5.0E-001
 41
5.0E-001
 70
0
  0
VERTEX
  8
1
 42
0.0
 10
8.1601748E+001
 20
2.0105284E+002
 70
0
  0
VERTEX
  8
1
 42
0.0
 10
8.1901748E+001
 20
2.0145284E+002
 70
0
  0
SEQEND
  0
POLYLINE
  8
1
  6
CONTINUOUS
 62
3
 66
1
 40
5.0E-001
 41
5.0E-001
 70
0
  0
VERTEX
  8
1
 42
0.0
 10
3.6597128E+001
 20
2.0145284E+002
 70
0
  0
VERTEX
  8
1
 42
0.0
 10
3.7101748E+001
 20
2.0145284E+002
 70
0
  0
SEQEND
  0
POLYLINE
  8
1
  6
CONTINUOUS
 62
3
 66
1
 40
5.0E-001
 41
5.0E-001
 70
0
  0
VERTEX
  8
1
 42
0.0
 10
3.7401748E+001
 20
2.0105284E+002
 70
0
  0
VERTEX
  8
1
 42
0.0
 10
3.7101748E+001
 20
2.0145284E+002
 70
0
  0
SEQEND
  0
POLYLINE
  8
1
  6
CONTINUOUS
 62
3
 66
1
 40
5.0E-001
 41
5.0E-001
 70
0
  0
VERTEX
  8
1
 42
0.0
 10
3.6751738E+001
 20
1.8345284E+002
 70
0
  0
VERTEX
  8
1
 42
0.0
 10
3.6751738E+001
 20
1.8290284E+002
 70
0
  0
SEQEND
  0
POLYLINE
  8
1
  6
CONTINUOUS
 62
3
 66
1
 40
5.0E-001
 41
5.0E-001
 70
0
  0
VERTEX
  8
1
 42
0.0
 10
3.6751738E+001
 20
1.8345284E+002
 70
0
  0
VERTEX
  8
1
 42
0.0
 10
3.5751738E+001
 20
1.8345284E+002
 70
0
  0
SEQEND
  0
POLYLINE
  8
1
  6
CONTINUOUS
 62
3
 66
1
 40
5.0E-001
 41
5.0E-001
 70
0
  0
VERTEX
  8
1
 42
0.0
 10
5.8001738E+001
 20
2.0165284E+002
 70
0
  0
VERTEX
  8
1
 42
0.0
 10
5.7501738E+001
 20
2.0275284E+002
 70
0
  0
SEQEND
  0
POLYLINE
  8
1
  6
CONTINUOUS
 62
3
 66
1
 40
5.0E-001
 41
5.0E-001
 70
0
  0
VERTEX
  8
1
 42
0.0
 10
6.1501738E+001
 20
2.0295284E+002
 70
0
  0
VERTEX
  8
1
 42
0.0
 10
5.7501738E+001
 20
2.0295284E+002
 70
0
  0
SEQEND
  0
POLYLINE
  8
1
  6
CONTINUOUS
 62
3
 66
1
 40
5.0E-001
 41
5.0E-001
 70
0
  0
VERTEX
  8
1
 42
0.0
 10
6.1501738E+001
 20
2.0295284E+002
 70
0
  0
VERTEX
  8
1
 42
0.0
 10
6.1501738E+001
 20
2.0275284E+002
 70
0
  0
SEQEND
  0
POLYLINE
  8
1
  6
CONTINUOUS
 62
3
 66
1
 40
5.0E-001
 41
5.0E-001
 70
0
  0
VERTEX
  8
1
 42
0.0
 10
5.7501738E+001
 20
2.0295284E+002
 70
0
  0
VERTEX
  8
1
 42
0.0
 10
5.7501738E+001
 20
2.0275284E+002
 70
0
  0
SEQEND
  0
POLYLINE
  8
1
  6
CONTINUOUS
 62
3
 66
1
 40
5.0E-001
 41
5.0E-001
 70
0
  0
VERTEX
  8
1
 42
0.0
 10
6.1001738E+001
 20
2.0165284E+002
 70
0
  0
VERTEX
  8
1
 42
0.0
 10
6.1501738E+001
 20
2.0275284E+002
 70
0
  0
SEQEND
  0
INSERT
  2
*E680
  8
1
 10
4.5451738E+001
 20
1.7830284E+002
 41
1.0
 42
1.0
 43
1.0
 50
2.7E+002
 62
3
  0
INSERT
  2
*E681
  8
1
 10
8.2451738E+001
 20
1.6005284E+002
 41
1.0
 42
1.0
 43
1.0
 50
2.7E+002
 62
3
  0
INSERT
  2
*E682
  8
1
 10
7.3154008E+001
 20
1.5960504E+002
 41
1.0
 42
1.0
 43
1.0
 50
2.7E+002
 62
3
  0
POLYLINE
  8
1
  6
CONTINUOUS
 62
3
 66
1
 40
5.0E-001
 41
5.0E-001
 70
0
  0
VERTEX
  8
1
 42
4.1421356E-001
 10
8.1901728E+001
 20
1.5975284E+002
 70
0
  0
VERTEX
  8
1
 42
0.0
 10
8.2401728E+001
 20
1.5925284E+002
 70
0
  0
SEQEND
  0
INSERT
  2
*E684
  8
1
 10
6.4053998E+001
 20
1.5960504E+002
 41
1.0
 42
1.0
 43
1.0
 50
2.7E+002
 62
3
  0
INSERT
  2
*E685
  8
1
 10
5.4954008E+001
 20
1.5960504E+002
 41
1.0
 42
1.0
 43
1.0
 50
2.7E+002
 62
3
  0
INSERT
  2
*E686
  8
1
 10
4.5853998E+001
 20
1.5960504E+002
 41
1.0
 42
1.0
 43
1.0
 50
2.7E+002
 62
3
  0
POLYLINE
  8
1
  6
CONTINUOUS
 62
3
 66
1
 40
5.0E-001
 41
5.0E-001
 70
0
  0
VERTEX
  8
1
 42
4.1421356E-001
 10
3.5751748E+001
 20
1.6005284E+002
 70
0
  0
VERTEX
  8
1
 42
0.0
 10
3.6551748E+001
 20
1.5925284E+002
 70
0
  0
SEQEND
  0
INSERT
  2
*E688
  8
1
 10
3.6601728E+001
 20
1.5975284E+002
 41
1.0
 42
1.0
 43
1.0
 50
2.7E+002
 62
3
  0
POLYLINE
  8
1
  6
CONTINUOUS
 62
3
 66
1
 40
5.0E-001
 41
5.0E-001
 70
0
  0
VERTEX
  8
1
 42
4.1421356E-001
 10
4.5951738E+001
 20
1.8240284E+002
 70
0
  0
VERTEX
  8
1
 42
0.0
 10
4.5451738E+001
 20
1.8290284E+002
 70
0
  0
SEQEND
  0
POLYLINE
  8
1
  6
CONTINUOUS
 62
3
 66
1
 40
5.0E-001
 41
5.0E-001
 70
0
  0
VERTEX
  8
1
 42
4.1421356E-001
 10
8.3251748E+001
 20
2.0065284E+002
 70
0
  0
VERTEX
  8
1
 42
0.0
 10
8.2451748E+001
 20
2.0145284E+002
 70
0
  0
SEQEND
  0
POLYLINE
  8
1
  6
CONTINUOUS
 62
3
 66
1
 40
5.0E-001
 41
5.0E-001
 70
0
  0
VERTEX
  8
1
 42
1.0804113
 10
7.350174E+001
 20
2.0104435E+002
 70
0
  0
VERTEX
  8
1
 42
0.0
 10
7.2801755E+001
 20
2.0110274E+002
 70
0
  0
SEQEND
  0
INSERT
  2
*E692
  8
1
 10
8.2401748E+001
 20
2.0095284E+002
 41
1.0
 42
1.0
 43
1.0
 50
2.7E+002
 62
3
  0
POLYLINE
  8
1
  6
CONTINUOUS
 62
3
 66
1
 40
5.0E-001
 41
5.0E-001
 70
0
  0
VERTEX
  8
1
 42
1.0804113
 10
6.440175E+001
 20
2.0104435E+002
 70
0
  0
VERTEX
  8
1
 42
0.0
 10
6.3701765E+001
 20
2.0110274E+002
 70
0
  0
SEQEND
  0
POLYLINE
  8
1
  6
CONTINUOUS
 62
3
 66
1
 40
5.0E-001
 41
5.0E-001
 70
0
  0
VERTEX
  8
1
 42
1.0804113
 10
5.530174E+001
 20
2.0104435E+002
 70
0
  0
VERTEX
  8
1
 42
0.0
 10
5.4601755E+001
 20
2.0110274E+002
 70
0
  0
SEQEND
  0
POLYLINE
  8
1
  6
CONTINUOUS
 62
3
 66
1
 40
5.0E-001
 41
5.0E-001
 70
0
  0
VERTEX
  8
1
 42
1.0804113
 10
4.620175E+001
 20
2.0104435E+002
 70
0
  0
VERTEX
  8
1
 42
0.0
 10
4.5501765E+001
 20
2.0110274E+002
 70
0
  0
SEQEND
  0
INSERT
  2
*E696
  8
1
 10
8.2451738E+001
 20
1.6005284E+002
 41
1.0
 42
1.0
 43
1.0
 50
2.7E+002
 62
3
  0
INSERT
  2
*E697
  8
1
 10
3.6551748E+001
 20
1.6005284E+002
 41
1.0
 42
1.0
 43
1.0
 50
2.7E+002
 62
3
  0
POLYLINE
  8
1
  6
CONTINUOUS
 62
3
 66
1
 40
5.0E-001
 41
5.0E-001
 70
0
  0
VERTEX
  8
1
 42
4.1421351E-001
 10
3.6551747E+001
 20
2.0145284E+002
 70
0
  0
VERTEX
  8
1
 42
0.0
 10
3.5751748E+001
 20
2.0065284E+002
 70
0
  0
SEQEND
  0
INSERT
  2
*E699
  8
1
 10
8.2451748E+001
 20
2.0065284E+002
 41
1.0
 42
1.0
 43
1.0
 50
2.7E+002
 62
3
  0
TEXT
  8
1
  6
CONTINUOUS
 62
4
 10
3.7227906E+001
 20
2.2730089E+002
 40
3.0
  1
14,65
 41
8.0E-001
  0
DIMENSION
  8
1
  6
CONTINUOUS
 62
4
  1
        
  2
*D701
  3
DSTYLE1
 10
3.5751738E+001
 20
2.2526864E+002
 11
4.3362317E+001
 21
2.2826964E+002
 70
128
 13
5.0401738E+001
 23
1.9464124E+002
 14
3.5751738E+001
 24
1.9955294E+002
 40
1.25E-001
 50
0.0
  0
TEXT
  8
1
  6
CONTINUOUS
 62
4
 10
3.2983335E+001
 20
2.3068008E+001
 40
2.2
  1
JL 121 031
 41
6.8621326E-001
  0
TEXT
  8
1
  6
CONTINUOUS
 62
4
 10
3.3000185E+001
 20
1.8726088E+001
 40
2.2
  1
ohne KAE 16.4.92
 41
7.0E-001
  0
POLYLINE
  8
1
  6
CONTINUOUS
 62
3
 66
1
 40
5.0E-001
 41
5.0E-001
 70
0
  0
VERTEX
  8
1
 42
0.0
 10
3.9701738E+001
 20
1.5925284E+002
 70
0
  0
VERTEX
  8
1
 42
0.0
 10
3.6551748E+001
 20
1.5925284E+002
 70
0
  0
SEQEND
  0
POLYLINE
  8
1
  6
CONTINUOUS
 62
3
 66
1
 40
5.0E-001
 41
5.0E-001
 70
0
  0
VERTEX
  8
1
 42
0.0
 10
3.9701738E+001
 20
2.0145284E+002
 70
0
  0
VERTEX
  8
1
 42
0.0
 10
3.6551748E+001
 20
2.0145284E+002
 70
0
  0
SEQEND
  0
TEXT
  8
1
  6
CONTINUOUS
 62
4
 10
5.0945608E+001
 20
2.1882215E+002
 40
2.7
  1
10,16
 41
7.0E-001
  0
DIMENSION
  8
1
  6
CONTINUOUS
 62
4
  1
       
  2
*D707
  3
DSTYLE1
 10
6.0561748E+001
 20
2.1726864E+002
 11
5.4685313E+001
 21
2.2026964E+002
 70
128
 13
5.0401738E+001
 23
1.9464124E+002
 14
6.0561748E+001
 24
1.9464124E+002
 40
1.25E-001
 50
0.0
  0
POLYLINE
  8
1
  6
CONTINUOUS
 62
3
 66
1
 40
5.0E-001
 41
5.0E-001
 70
0
  0
VERTEX
  8
1
 42
0.0
 10
6.1551758E+001
 20
2.0145284E+002
 70
0
  0
VERTEX
  8
1
 42
0.0
 10
6.1551758E+001
 20
2.0035284E+002
 70
0
  0
SEQEND
  0
POLYLINE
  8
1
  6
CONTINUOUS
 62
3
 66
1
 40
5.0E-001
 41
5.0E-001
 70
0
  0
VERTEX
  8
1
 42
0.0
 10
5.7451748E+001
 20
2.0145284E+002
 70
0
  0
VERTEX
  8
1
 42
0.0
 10
5.7451748E+001
 20
2.0035284E+002
 70
0
  0
SEQEND
  0
POLYLINE
  8
1
  6
CONTINUOUS
 62
3
 66
1
 40
5.0E-001
 41
5.0E-001
 70
0
  0
VERTEX
  8
1
 42
0.0
 10
6.2551738E+001
 20
1.6035284E+002
 70
0
  0
VERTEX
  8
1
 42
0.0
 10
6.2551738E+001
 20
1.5925284E+002
 70
0
  0
SEQEND
  0
POLYLINE
  8
1
  6
CONTINUOUS
 62
3
 66
1
 40
5.0E-001
 41
5.0E-001
 70
0
  0
VERTEX
  8
1
 42
0.0
 10
5.6451738E+001
 20
1.6035284E+002
 70
0
  0
VERTEX
  8
1
 42
0.0
 10
5.6451738E+001
 20
1.5925284E+002
 70
0
  0
SEQEND
  0
POLYLINE
  8
1
  6
CONTINUOUS
 62
3
 66
1
 40
5.0E-001
 41
5.0E-001
 70
0
  0
VERTEX
  8
1
 42
0.0
 10
5.6951748E+001
 20
2.0145284E+002
 70
0
  0
VERTEX
  8
1
 42
0.0
 10
5.6951748E+001
 20
2.0035284E+002
 70
0
  0
SEQEND
  0
POLYLINE
  8
1
  6
CONTINUOUS
 62
3
 66
1
 40
5.0E-001
 41
5.0E-001
 70
0
  0
VERTEX
  8
1
 42
0.0
 10
6.2051758E+001
 20
2.0145284E+002
 70
0
  0
VERTEX
  8
1
 42
0.0
 10
6.2051758E+001
 20
2.0035284E+002
 70
0
  0
SEQEND
  0
POLYLINE
  8
1
  6
CONTINUOUS
 62
3
 66
1
 40
5.0E-001
 41
5.0E-001
 70
0
  0
VERTEX
  8
1
 42
0.0
 10
3.5751738E+001
 20
2.0065284E+002
 70
0
  0
VERTEX
  8
1
 42
0.0
 10
3.5751738E+001
 20
1.6005284E+002
 70
0
  0
SEQEND
  0
POLYLINE
  8
1
  6
CONTINUOUS
 62
3
 66
1
 40
5.0E-001
 41
5.0E-001
 70
0
  0
VERTEX
  8
1
 42
0.0
 10
7.3801738E+001
 20
1.5925284E+002
 70
0
  0
VERTEX
  8
1
 42
0.0
 10
6.2051738E+001
 20
1.5925284E+002
 70
0
  0
SEQEND
  0
POLYLINE
  8
1
  6
CONTINUOUS
 62
3
 66
1
 40
5.0E-001
 41
5.0E-001
 70
0
  0
VERTEX
  8
1
 42
0.0
 10
5.8001738E+001
 20
1.5905284E+002
 70
0
  0
VERTEX
  8
1
 42
0.0
 10
5.8001738E+001
 20
1.5925284E+002
 70
0
  0
SEQEND
  0
POLYLINE
  8
1
  6
CONTINUOUS
 62
3
 66
1
 40
5.0E-001
 41
5.0E-001
 70
0
  0
VERTEX
  8
1
 42
0.0
 10
5.6951738E+001
 20
1.5925284E+002
 70
0
  0
VERTEX
  8
1
 42
0.0
 10
4.5201738E+001
 20
1.5925284E+002
 70
0
  0
SEQEND
  0
POLYLINE
  8
1
  6
CONTINUOUS
 62
3
 66
1
 40
5.0E-001
 41
5.0E-001
 70
0
  0
VERTEX
  8
1
 42
0.0
 10
8.2451738E+001
 20
1.5925284E+002
 70
0
  0
VERTEX
  8
1
 42
0.0
 10
7.9301738E+001
 20
1.5925284E+002
 70
0
  0
SEQEND
  0
POLYLINE
  8
1
  6
CONTINUOUS
 62
3
 66
1
 40
5.0E-001
 41
5.0E-001
 70
0
  0
VERTEX
  8
1
 42
0.0
 10
7.3801738E+001
 20
2.0145284E+002
 70
0
  0
VERTEX
  8
1
 42
0.0
 10
4.5201748E+001
 20
2.0145284E+002
 70
0
  0
SEQEND
  0
POLYLINE
  8
1
  6
CONTINUOUS
 62
3
 66
1
 40
5.0E-001
 41
5.0E-001
 70
0
  0
VERTEX
  8
1
 42
0.0
 10
8.2451748E+001
 20
2.0145284E+002
 70
0
  0
VERTEX
  8
1
 42
0.0
 10
7.9301738E+001
 20
2.0145284E+002
 70
0
  0
SEQEND
  0
POLYLINE
  8
1
  6
CONTINUOUS
 62
3
 66
1
 40
5.0E-001
 41
5.0E-001
 70
0
  0
VERTEX
  8
1
 42
0.0
 10
3.9328418E+001
 20
1.8290284E+002
 70
0
  0
VERTEX
  8
1
 42
0.0
 10
3.9328418E+001
 20
1.8148564E+002
 70
0
  0
SEQEND
  0
POLYLINE
  8
1
  6
CONTINUOUS
 62
3
 66
1
 40
5.0E-001
 41
5.0E-001
 70
0
  0
VERTEX
  8
1
 42
0.0
 10
3.9328418E+001
 20
1.8148564E+002
 70
0
  0
VERTEX
  8
1
 42
0.0
 10
4.2275768E+001
 20
1.8148564E+002
 70
0
  0
SEQEND
  0
POLYLINE
  8
1
  6
CONTINUOUS
 62
3
 66
1
 40
5.0E-001
 41
5.0E-001
 70
0
  0
VERTEX
  8
1
 42
0.0
 10
3.8828418E+001
 20
1.8098564E+002
 70
0
  0
VERTEX
  8
1
 42
0.0
 10
3.8828418E+001
 20
1.7972314E+002
 70
0
  0
SEQEND
  0
POLYLINE
  8
1
  6
CONTINUOUS
 62
3
 66
1
 40
5.0E-001
 41
5.0E-001
 70
0
  0
VERTEX
  8
1
 42
4.1421351E-001
 10
3.9328418E+001
 20
1.8148564E+002
 70
0
  0
VERTEX
  8
1
 42
0.0
 10
3.8828418E+001
 20
1.8098564E+002
 70
0
  0
SEQEND
  0
POLYLINE
  8
1
  6
CONTINUOUS
 62
3
 66
1
 40
5.0E-001
 41
5.0E-001
 70
0
  0
VERTEX
  8
1
 42
0.0
 10
4.3828418E+001
 20
1.8273564E+002
 70
0
  0
VERTEX
  8
1
 42
0.0
 10
4.3828418E+001
 20
1.8033564E+002
 70
0
  0
SEQEND
  0
POLYLINE
  8
1
  6
CONTINUOUS
 62
3
 66
1
 40
5.0E-001
 41
5.0E-001
 70
0
  0
VERTEX
  8
1
 42
0.0
 10
4.1028398E+001
 20
1.8148564E+002
 70
0
  0
VERTEX
  8
1
 42
0.0
 10
4.1028398E+001
 20
1.8033564E+002
 70
0
  0
SEQEND
  0
INSERT
  2
*E727
  8
1
 10
3.9086378E+001
 20
1.8134604E+002
 41
1.0
 42
1.0
 43
1.0
 50
2.7E+002
 62
3
  0
POLYLINE
  8
1
  6
CONTINUOUS
 62
3
 66
1
 40
5.0E-001
 41
5.0E-001
 70
0
  0
VERTEX
  8
1
 42
0.0
 10
3.9093088E+001
 20
1.8128224E+002
 70
0
  0
VERTEX
  8
1
 42
0.0
 10
4.1028398E+001
 20
1.8148564E+002
 70
0
  0
SEQEND
  0
POLYLINE
  8
1
  6
CONTINUOUS
 62
3
 66
1
 40
5.0E-001
 41
5.0E-001
 70
0
  0
VERTEX
  8
1
 42
0.0
 10
4.1975778E+001
 20
1.8148564E+002
 70
0
  0
VERTEX
  8
1
 42
0.0
 10
4.1975778E+001
 20
1.8033564E+002
 70
0
  0
SEQEND
  0
POLYLINE
  8
1
  6
CONTINUOUS
 62
3
 66
1
 40
5.0E-001
 41
5.0E-001
 70
0
  0
VERTEX
  8
1
 42
0.0
 10
4.1028398E+001
 20
1.8093564E+002
 70
0
  0
VERTEX
  8
1
 42
0.0
 10
4.1975778E+001
 20
1.8093564E+002
 70
0
  0
SEQEND
  0
POLYLINE
  8
1
  6
CONTINUOUS
 62
3
 66
1
 40
5.0E-001
 41
5.0E-001
 70
0
  0
VERTEX
  8
1
 42
0.0
 10
4.2275768E+001
 20
1.8223564E+002
 70
0
  0
VERTEX
  8
1
 42
0.0
 10
4.2275768E+001
 20
1.8033564E+002
 70
0
  0
SEQEND
  0
INSERT
  2
*E732
  8
1
 10
4.2775768E+001
 20
1.8223564E+002
 41
1.0
 42
1.0
 43
1.0
 50
2.7E+002
 62
3
  0
POLYLINE
  8
1
  6
CONTINUOUS
 62
3
 66
1
 40
5.0E-001
 41
5.0E-001
 70
0
  0
VERTEX
  8
1
 42
0.0
 10
3.9326158E+001
 20
1.7780284E+002
 70
0
  0
VERTEX
  8
1
 42
0.0
 10
3.9327408E+001
 20
1.7922314E+002
 70
0
  0
SEQEND
  0
POLYLINE
  8
1
  6
CONTINUOUS
 62
3
 66
1
 40
5.0E-001
 41
5.0E-001
 70
0
  0
VERTEX
  8
1
 42
0.0
 10
3.9327958E+001
 20
1.7922314E+002
 70
0
  0
VERTEX
  8
1
 42
0.0
 10
4.2274798E+001
 20
1.7922054E+002
 70
0
  0
SEQEND
  0
POLYLINE
  8
1
  6
CONTINUOUS
 62
3
 66
1
 40
5.0E-001
 41
5.0E-001
 70
0
  0
VERTEX
  8
1
 42
0.0
 10
4.3826308E+001
 20
1.7796914E+002
 70
0
  0
VERTEX
  8
1
 42
0.0
 10
4.3828418E+001
 20
1.8036914E+002
 70
0
  0
SEQEND
  0
POLYLINE
  8
1
  6
CONTINUOUS
 62
3
 66
1
 40
5.0E-001
 41
5.0E-001
 70
0
  0
VERTEX
  8
1
 42
0.0
 10
4.1027418E+001
 20
1.7922164E+002
 70
0
  0
VERTEX
  8
1
 42
0.0
 10
4.1028428E+001
 20
1.8037164E+002
 70
0
  0
SEQEND
  0
POLYLINE
  8
1
  6
CONTINUOUS
 62
3
 66
1
 40
5.0E-001
 41
5.0E-001
 70
0
  0
VERTEX
  8
1
 42
9.3915998E-001
 10
3.9107288E+001
 20
1.7942333E+002
 70
0
  0
VERTEX
  8
1
 42
0.0
 10
3.9056382E+001
 20
1.7930575E+002
 70
0
  0
SEQEND
  0
POLYLINE
  8
1
  6
CONTINUOUS
 62
3
 66
1
 40
5.0E-001
 41
5.0E-001
 70
0
  0
VERTEX
  8
1
 42
0.0
 10
3.9092268E+001
 20
1.7942674E+002
 70
0
  0
VERTEX
  8
1
 42
0.0
 10
4.1027418E+001
 20
1.7922164E+002
 70
0
  0
SEQEND
  0
POLYLINE
  8
1
  6
CONTINUOUS
 62
3
 66
1
 40
5.0E-001
 41
5.0E-001
 70
0
  0
VERTEX
  8
1
 42
0.0
 10
4.1974778E+001
 20
1.7922074E+002
 70
0
  0
VERTEX
  8
1
 42
0.0
 10
4.1975778E+001
 20
1.8037074E+002
 70
0
  0
SEQEND
  0
POLYLINE
  8
1
  6
CONTINUOUS
 62
3
 66
1
 40
5.0E-001
 41
5.0E-001
 70
0
  0
VERTEX
  8
1
 42
0.0
 10
4.1027908E+001
 20
1.7977164E+002
 70
0
  0
VERTEX
  8
1
 42
0.0
 10
4.1975268E+001
 20
1.7977074E+002
 70
0
  0
SEQEND
  0
POLYLINE
  8
1
  6
CONTINUOUS
 62
3
 66
1
 40
5.0E-001
 41
5.0E-001
 70
0
  0
VERTEX
  8
1
 42
0.0
 10
4.2274118E+001
 20
1.7847054E+002
 70
0
  0
VERTEX
  8
1
 42
0.0
 10
4.2275798E+001
 20
1.8037054E+002
 70
0
  0
SEQEND
  0
POLYLINE
  8
1
  6
CONTINUOUS
 62
3
 66
1
 40
5.0E-001
 41
5.0E-001
 70
0
  0
VERTEX
  8
1
 42
4.1421407E-001
 10
4.2274118E+001
 20
1.7847048E+002
 70
0
  0
VERTEX
  8
1
 42
0.0
 10
4.2773678E+001
 20
1.7797004E+002
 70
0
  0
SEQEND
  0
POLYLINE
  8
1
  6
CONTINUOUS
 62
3
 66
1
 40
5.0E-001
 41
5.0E-001
 70
0
  0
VERTEX
  8
1
 42
4.1395441E-001
 10
3.8828418E+001
 20
1.7972314E+002
 70
0
  0
VERTEX
  8
1
 42
0.0
 10
3.9327975E+001
 20
1.7922314E+002
 70
0
  0
SEQEND
  0
POLYLINE
  8
1
  6
CONTINUOUS
 62
3
 66
1
 40
5.0E-001
 41
5.0E-001
 70
0
  0
VERTEX
  8
1
 42
0.0
 10
4.2775768E+001
 20
1.8273564E+002
 70
0
  0
VERTEX
  8
1
 42
0.0
 10
4.5824888E+001
 20
1.8273564E+002
 70
0
  0
SEQEND
  0
POLYLINE
  8
1
  6
CONTINUOUS
 62
3
 66
1
 40
5.0E-001
 41
5.0E-001
 70
0
  0
VERTEX
  8
1
 42
0.0
 10
4.2773678E+001
 20
1.7797004E+002
 70
0
  0
VERTEX
  8
1
 42
0.0
 10
4.5824918E+001
 20
1.7797004E+002
 70
0
  0
SEQEND
  0
POLYLINE
  8
1
  6
CONTINUOUS
 62
3
 66
1
 40
5.0E-001
 41
5.0E-001
 70
0
  0
VERTEX
  8
1
 42
0.0
 10
8.3251758E+001
 20
1.9955284E+002
 70
0
  0
VERTEX
  8
1
 42
0.0
 10
8.3251738E+001
 20
1.6115284E+002
 70
0
  0
SEQEND
  0
POLYLINE
  8
1
  6
CONTINUOUS
 62
3
 66
1
 40
5.0E-001
 41
5.0E-001
 70
0
  0
VERTEX
  8
1
 42
0.0
 10
3.5751738E+001
 20
1.7715284E+002
 70
0
  0
VERTEX
  8
1
 42
0.0
 10
3.5751738E+001
 20
1.6115284E+002
 70
0
  0
SEQEND
  0
POLYLINE
  8
1
  6
CONTINUOUS
 62
3
 66
1
 40
5.0E-001
 41
5.0E-001
 70
0
  0
VERTEX
  8
1
 42
0.0
 10
8.2451748E+001
 20
2.0035284E+002
 70
0
  0
VERTEX
  8
1
 42
0.0
 10
3.6551748E+001
 20
2.0035284E+002
 70
0
  0
SEQEND
  0
POLYLINE
  8
1
  6
CONTINUOUS
 62
3
 66
1
 40
5.0E-001
 41
5.0E-001
 70
0
  0
VERTEX
  8
1
 42
0.0
 10
8.2451738E+001
 20
1.6035284E+002
 70
0
  0
VERTEX
  8
1
 42
0.0
 10
3.6551748E+001
 20
1.6035284E+002
 70
0
  0
SEQEND
  0
POLYLINE
  8
1
  6
CONTINUOUS
 62
3
 66
1
 40
5.0E-001
 41
5.0E-001
 70
0
  0
VERTEX
  8
1
 42
4.1421356E-001
 10
8.3251748E+001
 20
1.9955284E+002
 70
0
  0
VERTEX
  8
1
 42
0.0
 10
8.2451748E+001
 20
2.0035284E+002
 70
0
  0
SEQEND
  0
POLYLINE
  8
1
  6
CONTINUOUS
 62
3
 66
1
 40
5.0E-001
 41
5.0E-001
 70
0
  0
VERTEX
  8
1
 42
4.1421402E-001
 10
3.6551747E+001
 20
2.0035284E+002
 70
0
  0
VERTEX
  8
1
 42
0.0
 10
3.5751748E+001
 20
1.9955284E+002
 70
0
  0
SEQEND
  0
POLYLINE
  8
1
  6
CONTINUOUS
 62
3
 66
1
 40
5.0E-001
 41
5.0E-001
 70
0
  0
VERTEX
  8
1
 42
4.1421356E-001
 10
3.5751748E+001
 20
1.6115284E+002
 70
0
  0
VERTEX
  8
1
 42
0.0
 10
3.6551748E+001
 20
1.6035284E+002
 70
0
  0
SEQEND
  0
POLYLINE
  8
1
  6
CONTINUOUS
 62
3
 66
1
 40
5.0E-001
 41
5.0E-001
 70
0
  0
VERTEX
  8
1
 42
4.1421356E-001
 10
8.2451738E+001
 20
1.6035284E+002
 70
0
  0
VERTEX
  8
1
 42
0.0
 10
8.3251738E+001
 20
1.6115284E+002
 70
0
  0
SEQEND
  0
POLYLINE
  8
1
  6
CONTINUOUS
 62
3
 66
1
 40
5.0E-001
 41
5.0E-001
 70
0
  0
VERTEX
  8
1
 42
1.0
 10
7.1371748E+001
 20
1.9305284E+002
 70
0
  0
VERTEX
  8
1
 42
1.0
 10
7.0071748E+001
 20
1.9305284E+002
 70
0
  0
VERTEX
  8
1
 42
0.0
 10
7.1371748E+001
 20
1.9305284E+002
 70
0
  0
SEQEND
  0
POLYLINE
  8
1
  6
CONTINUOUS
 62
3
 66
1
 40
5.0E-001
 41
5.0E-001
 70
0
  0
VERTEX
  8
1
 42
1.0
 10
5.1051738E+001
 20
1.9305284E+002
 70
0
  0
VERTEX
  8
1
 42
1.0
 10
4.9751738E+001
 20
1.9305284E+002
 70
0
  0
VERTEX
  8
1
 42
0.0
 10
5.1051738E+001
 20
1.9305284E+002
 70
0
  0
SEQEND
  0
POLYLINE
  8
1
  6
CONTINUOUS
 62
3
 66
1
 40
5.0E-001
 41
5.0E-001
 70
0
  0
VERTEX
  8
1
 42
1.0
 10
4.0891738E+001
 20
1.9305284E+002
 70
0
  0
VERTEX
  8
1
 42
1.0
 10
3.9591738E+001
 20
1.9305284E+002
 70
0
  0
VERTEX
  8
1
 42
0.0
 10
4.0891738E+001
 20
1.9305284E+002
 70
0
  0
SEQEND
  0
LINE
  8
1
  6
CENTERLINE
 62
1
 10
7.8341748E+001
 20
1.9142884E+002
 11
7.8341748E+001
 21
1.9464114E+002
  0
POLYLINE
  8
1
  6
CONTINUOUS
 62
3
 66
1
 40
5.0E-001
 41
5.0E-001
 70
0
  0
VERTEX
  8
1
 42
0.0
 10
7.7251738E+001
 20
1.6035284E+002
 70
0
  0
VERTEX
  8
1
 42
0.0
 10
7.7251738E+001
 20
1.6135284E+002
 70
0
  0
SEQEND
  0
POLYLINE
  8
1
  6
CONTINUOUS
 62
3
 66
1
 40
5.0E-001
 41
5.0E-001
 70
0
  0
VERTEX
  8
1
 42
0.0
 10
4.5951738E+001
 20
1.8245284E+002
 70
0
  0
VERTEX
  8
1
 42
0.0
 10
4.5951738E+001
 20
1.7825284E+002
 70
0
  0
SEQEND
  0
POLYLINE
  8
1
  6
CONTINUOUS
 62
3
 66
1
 40
5.0E-001
 41
5.0E-001
 70
0
  0
VERTEX
  8
1
 42
0.0
 10
4.5451738E+001
 20
1.8295284E+002
 70
0
  0
VERTEX
  8
1
 42
0.0
 10
3.7301748E+001
 20
1.8295284E+002
 70
0
  0
SEQEND
  0
POLYLINE
  8
1
  6
CONTINUOUS
 62
3
 66
1
 40
5.0E-001
 41
5.0E-001
 70
0
  0
VERTEX
  8
1
 42
0.0
 10
4.5451738E+001
 20
1.7775284E+002
 70
0
  0
VERTEX
  8
1
 42
0.0
 10
3.7301748E+001
 20
1.7775284E+002
 70
0
  0
SEQEND
  0
POLYLINE
  8
1
  6
CONTINUOUS
 62
3
 66
1
 40
5.0E-001
 41
5.0E-001
 70
0
  0
VERTEX
  8
1
 42
0.0
 10
3.7301748E+001
 20
1.8355284E+002
 70
0
  0
VERTEX
  8
1
 42
0.0
 10
3.5751738E+001
 20
1.8355284E+002
 70
0
  0
SEQEND
  0
POLYLINE
  8
1
  6
CONTINUOUS
 62
3
 66
1
 40
5.0E-001
 41
5.0E-001
 70
0
  0
VERTEX
  8
1
 42
0.0
 10
3.7301748E+001
 20
1.7715284E+002
 70
0
  0
VERTEX
  8
1
 42
0.0
 10
3.5751738E+001
 20
1.7715284E+002
 70
0
  0
SEQEND
  0
POLYLINE
  8
1
  6
CONTINUOUS
 62
3
 66
1
 40
5.0E-001
 41
5.0E-001
 70
0
  0
VERTEX
  8
1
 42
0.0
 10
3.7301748E+001
 20
1.7775284E+002
 70
0
  0
VERTEX
  8
1
 42
0.0
 10
3.7301748E+001
 20
1.7715284E+002
 70
0
  0
SEQEND
  0
POLYLINE
  8
1
  6
CONTINUOUS
 62
3
 66
1
 40
5.0E-001
 41
5.0E-001
 70
0
  0
VERTEX
  8
1
 42
0.0
 10
3.7301748E+001
 20
1.8355284E+002
 70
0
  0
VERTEX
  8
1
 42
0.0
 10
3.7301748E+001
 20
1.8295284E+002
 70
0
  0
SEQEND
  0
POLYLINE
  8
1
  6
CONTINUOUS
 62
3
 66
1
 40
5.0E-001
 41
5.0E-001
 70
0
  0
VERTEX
  8
1
 42
0.0
 10
4.1751738E+001
 20
1.6035284E+002
 70
0
  0
VERTEX
  8
1
 42
0.0
 10
4.1751738E+001
 20
1.6135284E+002
 70
0
  0
SEQEND
  0
POLYLINE
  8
1
  6
CONTINUOUS
 62
3
 66
1
 40
5.0E-001
 41
5.0E-001
 70
0
  0
VERTEX
  8
1
 42
0.0
 10
7.7251738E+001
 20
1.6135284E+002
 70
0
  0
VERTEX
  8
1
 42
0.0
 10
8.3251738E+001
 20
1.6135284E+002
 70
0
  0
SEQEND
  0
POLYLINE
  8
1
  6
CONTINUOUS
 62
3
 66
1
 40
5.0E-001
 41
5.0E-001
 70
0
  0
VERTEX
  8
1
 42
0.0
 10
3.5751728E+001
 20
1.6135284E+002
 70
0
  0
VERTEX
  8
1
 42
0.0
 10
4.1751738E+001
 20
1.6135284E+002
 70
0
  0
SEQEND
  0
POLYLINE
  8
1
  6
CONTINUOUS
 62
3
 66
1
 40
5.0E-001
 41
5.0E-001
 70
0
  0
VERTEX
  8
1
 42
4.1421356E-001
 10
4.5951738E+001
 20
1.8245284E+002
 70
0
  0
VERTEX
  8
1
 42
0.0
 10
4.5451738E+001
 20
1.8295284E+002
 70
0
  0
SEQEND
  0
POLYLINE
  8
1
  6
CONTINUOUS
 62
3
 66
1
 40
5.0E-001
 41
5.0E-001
 70
0
  0
VERTEX
  8
1
 42
4.1421356E-001
 10
4.5451738E+001
 20
1.7775284E+002
 70
0
  0
VERTEX
  8
1
 42
0.0
 10
4.5951738E+001
 20
1.7825284E+002
 70
0
  0
SEQEND
  0
POLYLINE
  8
1
  6
CONTINUOUS
 62
3
 66
1
 40
5.0E-001
 41
5.0E-001
 70
0
  0
VERTEX
  8
1
 42
0.0
 10
3.5751738E+001
 20
1.9955284E+002
 70
0
  0
VERTEX
  8
1
 42
0.0
 10
3.5751738E+001
 20
1.8355284E+002
 70
0
  0
SEQEND
  0
POLYLINE
  8
1
  6
CONTINUOUS
 62
3
 66
1
 40
5.0E-001
 41
5.0E-001
 70
0
  0
VERTEX
  8
1
 42
0.0
 10
1.7806059E+002
 20
1.9935284E+002
 70
0
  0
VERTEX
  8
1
 42
0.0
 10
1.7706059E+002
 20
1.9935284E+002
 70
0
  0
SEQEND
  0
POLYLINE
  8
1
  6
CONTINUOUS
 62
3
 66
1
 40
5.0E-001
 41
5.0E-001
 70
0
  0
VERTEX
  8
1
 42
0.0
 10
1.7706059E+002
 20
1.6135284E+002
 70
0
  0
VERTEX
  8
1
 42
0.0
 10
1.7806059E+002
 20
1.6135284E+002
 70
0
  0
SEQEND
  0
POLYLINE
  8
1
  6
CONTINUOUS
 62
3
 66
1
 40
5.0E-001
 41
5.0E-001
 70
0
  0
VERTEX
  8
1
 42
0.0
 10
1.7806059E+002
 20
1.6035284E+002
 70
0
  0
VERTEX
  8
1
 42
0.0
 10
1.7806059E+002
 20
1.6135284E+002
 70
0
  0
SEQEND
  0
POLYLINE
  8
1
  6
CONTINUOUS
 62
3
 66
1
 40
5.0E-001
 41
5.0E-001
 70
0
  0
VERTEX
  8
1
 42
0.0
 10
4.5451738E+001
 20
1.8445284E+002
 70
0
  0
VERTEX
  8
1
 42
0.0
 10
3.5751738E+001
 20
1.8445284E+002
 70
0
  0
SEQEND
  0
POLYLINE
  8
1
  6
CONTINUOUS
 62
3
 66
1
 40
5.0E-001
 41
5.0E-001
 70
0
  0
VERTEX
  8
1
 42
0.0
 10
4.5451738E+001
 20
1.7625284E+002
 70
0
  0
VERTEX
  8
1
 42
0.0
 10
3.5751738E+001
 20
1.7625284E+002
 70
0
  0
SEQEND
  0
POLYLINE
  8
1
  6
CONTINUOUS
 62
3
 66
1
 40
5.0E-001
 41
5.0E-001
 70
0
  0
VERTEX
  8
1
 42
0.0
 10
4.7451738E+001
 20
1.8245284E+002
 70
0
  0
VERTEX
  8
1
 42
0.0
 10
4.7451738E+001
 20
1.7825284E+002
 70
0
  0
SEQEND
  0
POLYLINE
  8
1
  6
CONTINUOUS
 62
3
 66
1
 40
5.0E-001
 41
5.0E-001
 70
0
  0
VERTEX
  8
1
 42
4.1421356E-001
 10
4.7451738E+001
 20
1.8245284E+002
 70
0
  0
VERTEX
  8
1
 42
0.0
 10
4.5451738E+001
 20
1.8445284E+002
 70
0
  0
SEQEND
  0
POLYLINE
  8
1
  6
CONTINUOUS
 62
3
 66
1
 40
5.0E-001
 41
5.0E-001
 70
0
  0
VERTEX
  8
1
 42
4.1421356E-001
 10
4.5451738E+001
 20
1.7625284E+002
 70
0
  0
VERTEX
  8
1
 42
0.0
 10
4.7451738E+001
 20
1.7825284E+002
 70
0
  0
SEQEND
  0
POLYLINE
  8
1
  6
CONTINUOUS
 62
3
 66
1
 40
5.0E-001
 41
5.0E-001
 70
0
  0
VERTEX
  8
1
 42
0.0
 10
7.3801738E+001
 20
2.0150284E+002
 70
0
  0
VERTEX
  8
1
 42
0.0
 10
7.3801738E+001
 20
2.0035284E+002
 70
0
  0
SEQEND
  0
POLYLINE
  8
1
  6
CONTINUOUS
 62
3
 66
1
 40
5.0E-001
 41
5.0E-001
 70
0
  0
VERTEX
  8
1
 42
0.0
 10
3.7101728E+001
 20
1.6025284E+002
 70
0
  0
VERTEX
  8
1
 42
0.0
 10
3.5751738E+001
 20
1.6025284E+002
 70
0
  0
SEQEND
  0
TEXT
  8
1
  6
CONTINUOUS
 62
4
 10
8.4499074E+001
 20
2.1851051E+002
 40
2.7
  1
7,62
 41
7.0E-001
  0
DIMENSION
  8
1
  6
CONTINUOUS
 62
4
  1
       
  2
*D783
  3
DSTYLE1
 10
7.8341748E+001
 20
2.1726864E+002
 11
8.1590414E+001
 21
2.2026964E+002
 70
128
 13
7.0721748E+001
 23
1.9464124E+002
 14
7.8341748E+001
 24
1.9464124E+002
 40
1.25E-001
 50
0.0
  0
TEXT
  8
1
  6
CONTINUOUS
 62
4
 10
6.1229797E+001
 20
2.1871827E+002
 40
2.7
  1
10,16
 41
7.0E-001
  0
DIMENSION
  8
1
  6
CONTINUOUS
 62
4
  1
       
  2
*D785
  3
DSTYLE1
 10
7.0721748E+001
 20
2.1726864E+002
 11
6.5385025E+001
 21
2.2026964E+002
 70
128
 13
6.0561748E+001
 23
1.9464124E+002
 14
7.0721748E+001
 24
1.9464124E+002
 40
1.25E-001
 50
0.0
  0
DIMENSION
  8
1
  6
CONTINUOUS
 62
4
  2
*D786
  3
DSTYLE2
 10
9.9828788E+001
 20
1.5925284E+002
 11
9.6827788E+001
 21
1.8026964E+002
 70
128
 13
7.3801838E+001
 23
2.0145284E+002
 14
7.3801838E+001
 24
1.5925284E+002
 40
1.25E-001
 50
9.0E+001
  0
POLYLINE
  8
1
  6
CONTINUOUS
 62
3
 66
1
 40
5.0E-001
 41
5.0E-001
 70
0
  0
VERTEX
  8
1
 42
0.0
 10
3.6751738E+001
 20
1.7780284E+002
 70
0
  0
VERTEX
  8
1
 42
0.0
 10
3.6751738E+001
 20
1.7725284E+002
 70
0
  0
SEQEND
  0
POLYLINE
  8
1
  6
CONTINUOUS
 62
3
 66
1
 40
5.0E-001
 41
5.0E-001
 70
0
  0
VERTEX
  8
1
 42
0.0
 10
1.7806059E+002
 20
1.9935284E+002
 70
0
  0
VERTEX
  8
1
 42
0.0
 10
1.7806059E+002
 20
2.0035284E+002
 70
0
  0
SEQEND
  0
TEXT
  8
1
  6
CONTINUOUS
 62
4
 10
2.6921875E+001
 20
9.4778307E+001
 40
3.0
  1
Loetstifte : 1mm
 41
8.1448608E-001
  0
POLYLINE
  8
1
  6
CONTINUOUS
 62
3
 66
1
 40
5.0E-001
 41
5.0E-001
 70
0
  0
VERTEX
  8
1
 42
0.0
 10
1.8206059E+002
 20
1.9255284E+002
 70
0
  0
VERTEX
  8
1
 42
0.0
 10
1.8206059E+002
 20
1.9355284E+002
 70
0
  0
SEQEND
  0
POLYLINE
  8
1
  6
CONTINUOUS
 62
3
 66
1
 40
5.0E-001
 41
5.0E-001
 70
0
  0
VERTEX
  8
1
 42
0.0
 10
1.8206059E+002
 20
1.9355284E+002
 70
0
  0
VERTEX
  8
1
 42
0.0
 10
1.7806059E+002
 20
1.9355284E+002
 70
0
  0
SEQEND
  0
POLYLINE
  8
1
  6
CONTINUOUS
 62
3
 66
1
 40
5.0E-001
 41
5.0E-001
 70
0
  0
VERTEX
  8
1
 42
0.0
 10
1.8206059E+002
 20
1.9255284E+002
 70
0
  0
VERTEX
  8
1
 42
0.0
 10
1.7806059E+002
 20
1.9255284E+002
 70
0
  0
SEQEND
  0
INSERT
  2
*E793
  8
1
 10
1.7116059E+002
 20
1.9155284E+002
 41
1.0
 42
1.0
 43
1.0
 50
2.7E+002
 62
3
  0
POLYLINE
  8
1
  6
HIDDEN
 62
3
 66
1
 40
5.0E-001
 41
5.0E-001
 70
0
  0
VERTEX
  8
1
 42
0.0
 10
1.7016059E+002
 20
1.9025284E+002
 70
0
  0
VERTEX
  8
1
 42
0.0
 10
1.7016059E+002
 20
1.9155284E+002
 70
0
  0
SEQEND
  0
POLYLINE
  8
1
  6
HIDDEN
 62
3
 66
1
 40
5.0E-001
 41
5.0E-001
 70
0
  0
VERTEX
  8
1
 42
0.0
 10
1.6916059E+002
 20
1.8925284E+002
 70
0
  0
VERTEX
  8
1
 42
0.0
 10
1.7016059E+002
 20
1.9025284E+002
 70
0
  0
SEQEND
  0
INSERT
  2
*E796
  8
1
 10
1.7116059E+002
 20
1.9455284E+002
 41
1.0
 42
1.0
 43
1.0
 50
2.7E+002
 62
3
  0
POLYLINE
  8
1
  6
HIDDEN
 62
3
 66
1
 40
5.0E-001
 41
5.0E-001
 70
0
  0
VERTEX
  8
1
 42
0.0
 10
1.7016059E+002
 20
1.9455284E+002
 70
0
  0
VERTEX
  8
1
 42
0.0
 10
1.7016059E+002
 20
1.9585284E+002
 70
0
  0
SEQEND
  0
POLYLINE
  8
1
  6
HIDDEN
 62
3
 66
1
 40
5.0E-001
 41
5.0E-001
 70
0
  0
VERTEX
  8
1
 42
0.0
 10
1.6916059E+002
 20
1.9685284E+002
 70
0
  0
VERTEX
  8
1
 42
0.0
 10
1.7016059E+002
 20
1.9585284E+002
 70
0
  0
SEQEND
  0
POLYLINE
  8
1
  6
HIDDEN
 62
3
 66
1
 40
5.0E-001
 41
5.0E-001
 70
0
  0
VERTEX
  8
1
 42
0.0
 10
1.6916059E+002
 20
1.9685284E+002
 70
0
  0
VERTEX
  8
1
 42
0.0
 10
1.6716059E+002
 20
1.9685284E+002
 70
0
  0
SEQEND
  0
POLYLINE
  8
1
  6
HIDDEN
 62
3
 66
1
 40
5.0E-001
 41
5.0E-001
 70
0
  0
VERTEX
  8
1
 42
0.0
 10
1.6916059E+002
 20
1.8925274E+002
 70
0
  0
VERTEX
  8
1
 42
0.0
 10
1.6716059E+002
 20
1.8925274E+002
 70
0
  0
SEQEND
  0
POLYLINE
  8
1
  6
CONTINUOUS
 62
3
 66
1
 40
5.0E-001
 41
5.0E-001
 70
0
  0
VERTEX
  8
1
 42
0.0
 10
1.8206059E+002
 20
1.6715284E+002
 70
0
  0
VERTEX
  8
1
 42
0.0
 10
1.8206059E+002
 20
1.6815284E+002
 70
0
  0
SEQEND
  0
POLYLINE
  8
1
  6
CONTINUOUS
 62
3
 66
1
 40
5.0E-001
 41
5.0E-001
 70
0
  0
VERTEX
  8
1
 42
0.0
 10
1.8206059E+002
 20
1.6815284E+002
 70
0
  0
VERTEX
  8
1
 42
0.0
 10
1.7806059E+002
 20
1.6815284E+002
 70
0
  0
SEQEND
  0
POLYLINE
  8
1
  6
CONTINUOUS
 62
3
 66
1
 40
5.0E-001
 41
5.0E-001
 70
0
  0
VERTEX
  8
1
 42
0.0
 10
1.8206059E+002
 20
1.6715284E+002
 70
0
  0
VERTEX
  8
1
 42
0.0
 10
1.7806059E+002
 20
1.6715284E+002
 70
0
  0
SEQEND
  0
INSERT
  2
*E804
  8
1
 10
1.7116059E+002
 20
1.6615284E+002
 41
1.0
 42
1.0
 43
1.0
 50
2.7E+002
 62
3
  0
POLYLINE
  8
1
  6
HIDDEN
 62
3
 66
1
 40
5.0E-001
 41
5.0E-001
 70
0
  0
VERTEX
  8
1
 42
0.0
 10
1.7016059E+002
 20
1.6485284E+002
 70
0
  0
VERTEX
  8
1
 42
0.0
 10
1.7016059E+002
 20
1.6615284E+002
 70
0
  0
SEQEND
  0
POLYLINE
  8
1
  6
HIDDEN
 62
3
 66
1
 40
5.0E-001
 41
5.0E-001
 70
0
  0
VERTEX
  8
1
 42
0.0
 10
1.6916059E+002
 20
1.6385284E+002
 70
0
  0
VERTEX
  8
1
 42
0.0
 10
1.7016059E+002
 20
1.6485284E+002
 70
0
  0
SEQEND
  0
INSERT
  2
*E807
  8
1
 10
1.7116059E+002
 20
1.6915284E+002
 41
1.0
 42
1.0
 43
1.0
 50
2.7E+002
 62
3
  0
POLYLINE
  8
1
  6
HIDDEN
 62
3
 66
1
 40
5.0E-001
 41
5.0E-001
 70
0
  0
VERTEX
  8
1
 42
0.0
 10
1.7016059E+002
 20
1.6915284E+002
 70
0
  0
VERTEX
  8
1
 42
0.0
 10
1.7016059E+002
 20
1.7045284E+002
 70
0
  0
SEQEND
  0
POLYLINE
  8
1
  6
HIDDEN
 62
3
 66
1
 40
5.0E-001
 41
5.0E-001
 70
0
  0
VERTEX
  8
1
 42
0.0
 10
1.6916059E+002
 20
1.7145284E+002
 70
0
  0
VERTEX
  8
1
 42
0.0
 10
1.7016059E+002
 20
1.7045284E+002
 70
0
  0
SEQEND
  0
POLYLINE
  8
1
  6
HIDDEN
 62
3
 66
1
 40
5.0E-001
 41
5.0E-001
 70
0
  0
VERTEX
  8
1
 42
0.0
 10
1.6916059E+002
 20
1.7145284E+002
 70
0
  0
VERTEX
  8
1
 42
0.0
 10
1.6716059E+002
 20
1.7145284E+002
 70
0
  0
SEQEND
  0
POLYLINE
  8
1
  6
HIDDEN
 62
3
 66
1
 40
5.0E-001
 41
5.0E-001
 70
0
  0
VERTEX
  8
1
 42
0.0
 10
1.6916059E+002
 20
1.6385274E+002
 70
0
  0
VERTEX
  8
1
 42
0.0
 10
1.6716059E+002
 20
1.6385274E+002
 70
0
  0
SEQEND
  0
LINE
  8
1
  6
CENTERLINE
 62
1
 10
7.1850398E+001
 20
1.9305284E+002
 11
6.9266588E+001
 21
1.9305284E+002
  0
LINE
  8
1
  6
CENTERLINE
 62
1
 10
7.0721748E+001
 20
1.9142884E+002
 11
7.0721748E+001
 21
1.9464114E+002
  0
LINE
  8
1
  6
CENTERLINE
 62
1
 10
6.1690398E+001
 20
1.9305284E+002
 11
5.9106588E+001
 21
1.9305284E+002
  0
LINE
  8
1
  6
CENTERLINE
 62
1
 10
6.0561748E+001
 20
1.9142884E+002
 11
6.0561748E+001
 21
1.9464114E+002
  0
LINE
  8
1
  6
CENTERLINE
 62
1
 10
5.1530398E+001
 20
1.9305284E+002
 11
4.8946588E+001
 21
1.9305284E+002
  0
LINE
  8
1
  6
CENTERLINE
 62
1
 10
5.0401738E+001
 20
1.9142884E+002
 11
5.0401738E+001
 21
1.9464114E+002
  0
LINE
  8
1
  6
CENTERLINE
 62
1
 10
4.1370398E+001
 20
1.9305284E+002
 11
3.8786588E+001
 21
1.9305284E+002
  0
LINE
  8
1
  6
CENTERLINE
 62
1
 10
4.0241738E+001
 20
1.9142884E+002
 11
4.0241738E+001
 21
1.9464114E+002
  0
LINE
  8
1
  6
CENTERLINE
 62
1
 10
7.8341748E+001
 20
1.6927664E+002
 11
7.8341748E+001
 21
1.6606434E+002
  0
LINE
  8
1
  6
CENTERLINE
 62
1
 10
7.9470408E+001
 20
1.6765274E+002
 11
7.6886598E+001
 21
1.6765274E+002
  0
LINE
  8
1
  6
CENTERLINE
 62
1
 10
7.0721748E+001
 20
1.6927664E+002
 11
7.0721748E+001
 21
1.6606434E+002
  0
LINE
  8
1
  6
CENTERLINE
 62
1
 10
7.1850398E+001
 20
1.6765274E+002
 11
6.9266588E+001
 21
1.6765274E+002
  0
LINE
  8
1
  6
CENTERLINE
 62
1
 10
4.0241738E+001
 20
1.6927664E+002
 11
4.0241738E+001
 21
1.6606434E+002
  0
LINE
  8
1
  6
CENTERLINE
 62
1
 10
4.1370398E+001
 20
1.6765274E+002
 11
3.8786588E+001
 21
1.6765274E+002
  0
LINE
  8
1
  6
CENTERLINE
 62
1
 10
5.0401738E+001
 20
1.6927664E+002
 11
5.0401738E+001
 21
1.6606434E+002
  0
LINE
  8
1
  6
CENTERLINE
 62
1
 10
5.1530398E+001
 20
1.6765274E+002
 11
4.8946588E+001
 21
1.6765274E+002
  0
LINE
  8
1
  6
CENTERLINE
 62
1
 10
6.0561748E+001
 20
1.6927664E+002
 11
6.0561748E+001
 21
1.6606434E+002
  0
LINE
  8
1
  6
CENTERLINE
 62
1
 10
6.1690398E+001
 20
1.6765274E+002
 11
5.9106588E+001
 21
1.6765274E+002
  0
INSERT
  2
*E830
  8
1
 10
4.0241738E+001
 20
1.6765274E+002
 41
6.5E-001
 42
6.5E-001
 43
6.5E-001
 50
2.7E+002
 62
3
  0
INSERT
  2
*E831
  8
1
 10
5.0401738E+001
 20
1.6765274E+002
 41
6.5E-001
 42
6.5E-001
 43
6.5E-001
 50
2.7E+002
 62
3
  0
INSERT
  2
*E832
  8
1
 10
7.0721748E+001
 20
1.6765274E+002
 41
6.5E-001
 42
6.5E-001
 43
6.5E-001
 50
2.7E+002
 62
3
  0
INSERT
  2
*E833
  8
1
 10
6.0561748E+001
 20
1.6765274E+002
 41
6.5E-001
 42
6.5E-001
 43
6.5E-001
 50
2.7E+002
 62
3
  0
INSERT
  2
*E834
  8
1
 10
7.8341748E+001
 20
1.6765274E+002
 41
6.5E-001
 42
6.5E-001
 43
6.5E-001
 50
2.7E+002
 62
3
  0
POLYLINE
  8
1
  6
CONTINUOUS
 62
3
 66
1
 40
5.0E-001
 41
5.0E-001
 70
0
  0
VERTEX
  8
1
 42
0.0
 10
7.7251738E+001
 20
1.9935274E+002
 70
0
  0
VERTEX
  8
1
 42
0.0
 10
8.3251738E+001
 20
1.9935274E+002
 70
0
  0
SEQEND
  0
POLYLINE
  8
1
  6
CONTINUOUS
 62
3
 66
1
 40
5.0E-001
 41
5.0E-001
 70
0
  0
VERTEX
  8
1
 42
0.0
 10
7.7251738E+001
 20
2.0035274E+002
 70
0
  0
VERTEX
  8
1
 42
0.0
 10
7.7251738E+001
 20
1.9935274E+002
 70
0
  0
SEQEND
  0
POLYLINE
  8
1
  6
CONTINUOUS
 62
3
 66
1
 40
5.0E-001
 41
5.0E-001
 70
0
  0
VERTEX
  8
1
 42
0.0
 10
4.1751738E+001
 20
2.0035274E+002
 70
0
  0
VERTEX
  8
1
 42
0.0
 10
4.1751738E+001
 20
1.9935274E+002
 70
0
  0
SEQEND
  0
POLYLINE
  8
1
  6
CONTINUOUS
 62
3
 66
1
 40
5.0E-001
 41
5.0E-001
 70
0
  0
VERTEX
  8
1
 42
0.0
 10
3.5751728E+001
 20
1.9935274E+002
 70
0
  0
VERTEX
  8
1
 42
0.0
 10
4.1751738E+001
 20
1.9935274E+002
 70
0
  0
SEQEND
  0
CIRCLE
  8
1
  6
CONTINUOUS
 62
4
 10
1.9083479E+002
 20
2.3411054E+002
 40
2.5
  0
TEXT
  8
1
  6
CONTINUOUS
 62
4
 10
1.8951979E+002
 20
2.3253414E+002
 40
3.0
  1
d
 41
8.666667E-001
  0
POLYLINE
  8
1
  6
CONTINUOUS
 62
3
 66
1
 40
5.0E-001
 41
5.0E-001
 70
0
  0
VERTEX
  8
1
 42
0.0
 10
1.7806059E+002
 20
1.8955274E+002
 70
0
  0
VERTEX
  8
1
 42
0.0
 10
1.7806059E+002
 20
1.9655274E+002
 70
0
  0
SEQEND
  0
POLYLINE
  8
1
  6
CONTINUOUS
 62
3
 66
1
 40
5.0E-001
 41
5.0E-001
 70
0
  0
VERTEX
  8
1
 42
0.0
 10
1.7706059E+002
 20
1.9655274E+002
 70
0
  0
VERTEX
  8
1
 42
0.0
 10
1.7806059E+002
 20
1.9655274E+002
 70
0
  0
SEQEND
  0
POLYLINE
  8
1
  6
CONTINUOUS
 62
3
 66
1
 40
5.0E-001
 41
5.0E-001
 70
0
  0
VERTEX
  8
1
 42
0.0
 10
1.7706059E+002
 20
1.8955274E+002
 70
0
  0
VERTEX
  8
1
 42
0.0
 10
1.7806059E+002
 20
1.8955274E+002
 70
0
  0
SEQEND
  0
POLYLINE
  8
1
  6
HIDDEN
 62
3
 66
1
 40
5.0E-001
 41
5.0E-001
 70
0
  0
VERTEX
  8
1
 42
0.0
 10
1.7806059E+002
 20
1.9355284E+002
 70
0
  0
VERTEX
  8
1
 42
0.0
 10
1.7116059E+002
 20
1.9355284E+002
 70
0
  0
SEQEND
  0
POLYLINE
  8
1
  6
HIDDEN
 62
3
 66
1
 40
5.0E-001
 41
5.0E-001
 70
0
  0
VERTEX
  8
1
 42
0.0
 10
1.7806059E+002
 20
1.9255284E+002
 70
0
  0
VERTEX
  8
1
 42
0.0
 10
1.7116059E+002
 20
1.9255284E+002
 70
0
  0
SEQEND
  0
LINE
  8
1
  6
CENTERLINE
 62
1
 10
1.7706059E+002
 20
1.6765284E+002
 11
1.5914899E+002
 21
1.6765284E+002
  0
POLYLINE
  8
1
  6
HIDDEN
 62
3
 66
1
 40
5.0E-001
 41
5.0E-001
 70
0
  0
VERTEX
  8
1
 42
0.0
 10
1.7806059E+002
 20
1.6815284E+002
 70
0
  0
VERTEX
  8
1
 42
0.0
 10
1.7116059E+002
 20
1.6815284E+002
 70
0
  0
SEQEND
  0
POLYLINE
  8
1
  6
HIDDEN
 62
3
 66
1
 40
5.0E-001
 41
5.0E-001
 70
0
  0
VERTEX
  8
1
 42
0.0
 10
1.7806059E+002
 20
1.6715284E+002
 70
0
  0
VERTEX
  8
1
 42
0.0
 10
1.7116059E+002
 20
1.6715284E+002
 70
0
  0
SEQEND
  0
TEXT
  8
1
  6
CONTINUOUS
 62
4
 10
1.5043319E+002
 20
2.3454379E+002
 40
3.0
  1
47,5
 41
8.0E-001
  0
DIMENSION
  8
1
  6
CONTINUOUS
 62
4
  1
       
  2
*D850
  3
DSTYLE1
 10
1.7806059E+002
 20
2.3326864E+002
 11
1.5682779E+002
 21
2.3626964E+002
 70
128
 13
1.3056059E+002
 23
2.0145294E+002
 14
1.7806059E+002
 24
2.0035294E+002
 40
1.25E-001
 50
0.0
  0
POLYLINE
  8
1
  6
CONTINUOUS
 62
3
 66
1
 40
5.0E-001
 41
5.0E-001
 70
0
  0
VERTEX
  8
1
 42
0.0
 10
6.5041718E+001
 20
1.6415254E+002
 70
0
  0
VERTEX
  8
1
 42
0.0
 10
6.6241728E+001
 20
1.6415254E+002
 70
0
  0
SEQEND
  0
POLYLINE
  8
1
  6
CONTINUOUS
 62
3
 66
1
 40
5.0E-001
 41
5.0E-001
 70
0
  0
VERTEX
  8
1
 42
0.0
 10
6.5041718E+001
 20
1.7115254E+002
 70
0
  0
VERTEX
  8
1
 42
0.0
 10
6.6241728E+001
 20
1.7115254E+002
 70
0
  0
SEQEND
  0
POLYLINE
  8
1
  6
CONTINUOUS
 62
3
 66
1
 40
5.0E-001
 41
5.0E-001
 70
0
  0
VERTEX
  8
1
 42
0.0
 10
8.2051728E+001
 20
1.6415254E+002
 70
0
  0
VERTEX
  8
1
 42
0.0
 10
8.2051728E+001
 20
1.7115254E+002
 70
0
  0
SEQEND
  0
POLYLINE
  8
1
  6
CONTINUOUS
 62
3
 66
1
 40
5.0E-001
 41
5.0E-001
 70
0
  0
VERTEX
  8
1
 42
0.0
 10
7.5321748E+001
 20
1.6415254E+002
 70
0
  0
VERTEX
  8
1
 42
0.0
 10
7.5321748E+001
 20
1.7115254E+002
 70
0
  0
SEQEND
  0
POLYLINE
  8
1
  6
CONTINUOUS
 62
3
 66
1
 40
5.0E-001
 41
5.0E-001
 70
0
  0
VERTEX
  8
1
 42
0.0
 10
7.3721738E+001
 20
1.6415254E+002
 70
0
  0
VERTEX
  8
1
 42
0.0
 10
7.3721738E+001
 20
1.7115254E+002
 70
0
  0
SEQEND
  0
POLYLINE
  8
1
  6
CONTINUOUS
 62
3
 66
1
 40
5.0E-001
 41
5.0E-001
 70
0
  0
VERTEX
  8
1
 42
0.0
 10
6.6241728E+001
 20
1.6415254E+002
 70
0
  0
VERTEX
  8
1
 42
0.0
 10
6.6241728E+001
 20
1.7115254E+002
 70
0
  0
SEQEND
  0
POLYLINE
  8
1
  6
CONTINUOUS
 62
3
 66
1
 40
5.0E-001
 41
5.0E-001
 70
0
  0
VERTEX
  8
1
 42
0.0
 10
6.5041718E+001
 20
1.6415254E+002
 70
0
  0
VERTEX
  8
1
 42
0.0
 10
6.5041718E+001
 20
1.7115254E+002
 70
0
  0
SEQEND
  0
POLYLINE
  8
1
  6
CONTINUOUS
 62
3
 66
1
 40
5.0E-001
 41
5.0E-001
 70
0
  0
VERTEX
  8
1
 42
0.0
 10
8.2051728E+001
 20
1.7115254E+002
 70
0
  0
VERTEX
  8
1
 42
0.0
 10
8.3251738E+001
 20
1.7115254E+002
 70
0
  0
SEQEND
  0
POLYLINE
  8
1
  6
CONTINUOUS
 62
3
 66
1
 40
5.0E-001
 41
5.0E-001
 70
0
  0
VERTEX
  8
1
 42
0.0
 10
8.2051728E+001
 20
1.6415254E+002
 70
0
  0
VERTEX
  8
1
 42
0.0
 10
8.3251738E+001
 20
1.6415254E+002
 70
0
  0
SEQEND
  0
POLYLINE
  8
1
  6
CONTINUOUS
 62
3
 66
1
 40
5.0E-001
 41
5.0E-001
 70
0
  0
VERTEX
  8
1
 42
0.0
 10
7.5321748E+001
 20
1.6415254E+002
 70
0
  0
VERTEX
  8
1
 42
0.0
 10
7.6521728E+001
 20
1.6415254E+002
 70
0
  0
SEQEND
  0
POLYLINE
  8
1
  6
CONTINUOUS
 62
3
 66
1
 40
5.0E-001
 41
5.0E-001
 70
0
  0
VERTEX
  8
1
 42
0.0
 10
7.5321748E+001
 20
1.7115254E+002
 70
0
  0
VERTEX
  8
1
 42
0.0
 10
7.6521728E+001
 20
1.7115254E+002
 70
0
  0
SEQEND
  0
POLYLINE
  8
1
  6
CONTINUOUS
 62
3
 66
1
 40
5.0E-001
 41
5.0E-001
 70
0
  0
VERTEX
  8
1
 42
0.0
 10
7.2521728E+001
 20
1.7115254E+002
 70
0
  0
VERTEX
  8
1
 42
0.0
 10
7.3721738E+001
 20
1.7115254E+002
 70
0
  0
SEQEND
  0
POLYLINE
  8
1
  6
CONTINUOUS
 62
3
 66
1
 40
5.0E-001
 41
5.0E-001
 70
0
  0
VERTEX
  8
1
 42
0.0
 10
7.2521728E+001
 20
1.6415254E+002
 70
0
  0
VERTEX
  8
1
 42
0.0
 10
7.3721738E+001
 20
1.6415254E+002
 70
0
  0
SEQEND
  0
POLYLINE
  8
1
  6
CONTINUOUS
 62
3
 66
1
 40
5.0E-001
 41
5.0E-001
 70
0
  0
VERTEX
  8
1
 42
0.0
 10
5.4881708E+001
 20
1.6415254E+002
 70
0
  0
VERTEX
  8
1
 42
0.0
 10
5.4881708E+001
 20
1.7115254E+002
 70
0
  0
SEQEND
  0
POLYLINE
  8
1
  6
CONTINUOUS
 62
3
 66
1
 40
5.0E-001
 41
5.0E-001
 70
0
  0
VERTEX
  8
1
 42
0.0
 10
5.4881708E+001
 20
1.7115254E+002
 70
0
  0
VERTEX
  8
1
 42
0.0
 10
5.6081728E+001
 20
1.7115254E+002
 70
0
  0
SEQEND
  0
POLYLINE
  8
1
  6
CONTINUOUS
 62
3
 66
1
 40
5.0E-001
 41
5.0E-001
 70
0
  0
VERTEX
  8
1
 42
0.0
 10
5.6081728E+001
 20
1.6415254E+002
 70
0
  0
VERTEX
  8
1
 42
0.0
 10
5.6081728E+001
 20
1.7115254E+002
 70
0
  0
SEQEND
  0
POLYLINE
  8
1
  6
CONTINUOUS
 62
3
 66
1
 40
5.0E-001
 41
5.0E-001
 70
0
  0
VERTEX
  8
1
 42
0.0
 10
5.4881708E+001
 20
1.6415254E+002
 70
0
  0
VERTEX
  8
1
 42
0.0
 10
5.6081728E+001
 20
1.6415254E+002
 70
0
  0
SEQEND
  0
POLYLINE
  8
1
  6
CONTINUOUS
 62
3
 66
1
 40
5.0E-001
 41
5.0E-001
 70
0
  0
VERTEX
  8
1
 42
0.0
 10
4.4721708E+001
 20
1.6415254E+002
 70
0
  0
VERTEX
  8
1
 42
0.0
 10
4.4721708E+001
 20
1.7115254E+002
 70
0
  0
SEQEND
  0
POLYLINE
  8
1
  6
CONTINUOUS
 62
3
 66
1
 40
5.0E-001
 41
5.0E-001
 70
0
  0
VERTEX
  8
1
 42
0.0
 10
4.4721708E+001
 20
1.7115254E+002
 70
0
  0
VERTEX
  8
1
 42
0.0
 10
4.5921718E+001
 20
1.7115254E+002
 70
0
  0
SEQEND
  0
POLYLINE
  8
1
  6
CONTINUOUS
 62
3
 66
1
 40
5.0E-001
 41
5.0E-001
 70
0
  0
VERTEX
  8
1
 42
0.0
 10
4.5921718E+001
 20
1.6415254E+002
 70
0
  0
VERTEX
  8
1
 42
0.0
 10
4.5921718E+001
 20
1.7115254E+002
 70
0
  0
SEQEND
  0
POLYLINE
  8
1
  6
CONTINUOUS
 62
3
 66
1
 40
5.0E-001
 41
5.0E-001
 70
0
  0
VERTEX
  8
1
 42
0.0
 10
4.4721708E+001
 20
1.6415254E+002
 70
0
  0
VERTEX
  8
1
 42
0.0
 10
4.5921718E+001
 20
1.6415254E+002
 70
0
  0
SEQEND
  0
POLYLINE
  8
1
  6
CONTINUOUS
 62
3
 66
1
 40
5.0E-001
 41
5.0E-001
 70
0
  0
VERTEX
  8
1
 42
0.0
 10
8.2051728E+001
 20
1.9655274E+002
 70
0
  0
VERTEX
  8
1
 42
0.0
 10
8.2051728E+001
 20
1.8955274E+002
 70
0
  0
SEQEND
  0
POLYLINE
  8
1
  6
CONTINUOUS
 62
3
 66
1
 40
5.0E-001
 41
5.0E-001
 70
0
  0
VERTEX
  8
1
 42
0.0
 10
7.3721738E+001
 20
1.9655274E+002
 70
0
  0
VERTEX
  8
1
 42
0.0
 10
7.3721738E+001
 20
1.8955274E+002
 70
0
  0
SEQEND
  0
POLYLINE
  8
1
  6
CONTINUOUS
 62
3
 66
1
 40
5.0E-001
 41
5.0E-001
 70
0
  0
VERTEX
  8
1
 42
0.0
 10
6.6241728E+001
 20
1.9655274E+002
 70
0
  0
VERTEX
  8
1
 42
0.0
 10
6.6241728E+001
 20
1.8955274E+002
 70
0
  0
SEQEND
  0
POLYLINE
  8
1
  6
CONTINUOUS
 62
3
 66
1
 40
5.0E-001
 41
5.0E-001
 70
0
  0
VERTEX
  8
1
 42
0.0
 10
6.5041718E+001
 20
1.9655274E+002
 70
0
  0
VERTEX
  8
1
 42
0.0
 10
6.5041718E+001
 20
1.8955274E+002
 70
0
  0
SEQEND
  0
POLYLINE
  8
1
  6
CONTINUOUS
 62
3
 66
1
 40
5.0E-001
 41
5.0E-001
 70
0
  0
VERTEX
  8
1
 42
0.0
 10
8.2051728E+001
 20
1.9655274E+002
 70
0
  0
VERTEX
  8
1
 42
0.0
 10
8.3251738E+001
 20
1.9655274E+002
 70
0
  0
SEQEND
  0
POLYLINE
  8
1
  6
CONTINUOUS
 62
3
 66
1
 40
5.0E-001
 41
5.0E-001
 70
0
  0
VERTEX
  8
1
 42
0.0
 10
8.2051728E+001
 20
1.8955274E+002
 70
0
  0
VERTEX
  8
1
 42
0.0
 10
8.3251738E+001
 20
1.8955274E+002
 70
0
  0
SEQEND
  0
POLYLINE
  8
1
  6
CONTINUOUS
 62
3
 66
1
 40
5.0E-001
 41
5.0E-001
 70
0
  0
VERTEX
  8
1
 42
0.0
 10
7.5321748E+001
 20
1.8955274E+002
 70
0
  0
VERTEX
  8
1
 42
0.0
 10
7.6521728E+001
 20
1.8955274E+002
 70
0
  0
SEQEND
  0
POLYLINE
  8
1
  6
CONTINUOUS
 62
3
 66
1
 40
5.0E-001
 41
5.0E-001
 70
0
  0
VERTEX
  8
1
 42
0.0
 10
7.5321748E+001
 20
1.9655274E+002
 70
0
  0
VERTEX
  8
1
 42
0.0
 10
7.6521728E+001
 20
1.9655274E+002
 70
0
  0
SEQEND
  0
POLYLINE
  8
1
  6
CONTINUOUS
 62
3
 66
1
 40
5.0E-001
 41
5.0E-001
 70
0
  0
VERTEX
  8
1
 42
0.0
 10
6.5041718E+001
 20
1.8955274E+002
 70
0
  0
VERTEX
  8
1
 42
0.0
 10
6.6241728E+001
 20
1.8955274E+002
 70
0
  0
SEQEND
  0
POLYLINE
  8
1
  6
CONTINUOUS
 62
3
 66
1
 40
5.0E-001
 41
5.0E-001
 70
0
  0
VERTEX
  8
1
 42
0.0
 10
6.5041718E+001
 20
1.9655274E+002
 70
0
  0
VERTEX
  8
1
 42
0.0
 10
6.6241728E+001
 20
1.9655274E+002
 70
0
  0
SEQEND
  0
POLYLINE
  8
1
  6
CONTINUOUS
 62
3
 66
1
 40
5.0E-001
 41
5.0E-001
 70
0
  0
VERTEX
  8
1
 42
0.0
 10
4.4721708E+001
 20
1.9655274E+002
 70
0
  0
VERTEX
  8
1
 42
0.0
 10
4.5921718E+001
 20
1.9655274E+002
 70
0
  0
SEQEND
  0
POLYLINE
  8
1
  6
CONTINUOUS
 62
3
 66
1
 40
5.0E-001
 41
5.0E-001
 70
0
  0
VERTEX
  8
1
 42
0.0
 10
4.5921718E+001
 20
1.9655274E+002
 70
0
  0
VERTEX
  8
1
 42
0.0
 10
4.5921718E+001
 20
1.8955274E+002
 70
0
  0
SEQEND
  0
POLYLINE
  8
1
  6
CONTINUOUS
 62
3
 66
1
 40
5.0E-001
 41
5.0E-001
 70
0
  0
VERTEX
  8
1
 42
0.0
 10
4.4721708E+001
 20
1.8955274E+002
 70
0
  0
VERTEX
  8
1
 42
0.0
 10
4.5921718E+001
 20
1.8955274E+002
 70
0
  0
SEQEND
  0
POLYLINE
  8
1
  6
CONTINUOUS
 62
3
 66
1
 40
5.0E-001
 41
5.0E-001
 70
0
  0
VERTEX
  8
1
 42
0.0
 10
4.4721708E+001
 20
1.9655274E+002
 70
0
  0
VERTEX
  8
1
 42
0.0
 10
4.4721708E+001
 20
1.8955274E+002
 70
0
  0
SEQEND
  0
POLYLINE
  8
1
  6
CONTINUOUS
 62
3
 66
1
 40
5.0E-001
 41
5.0E-001
 70
0
  0
VERTEX
  8
1
 42
0.0
 10
5.4881708E+001
 20
1.9655274E+002
 70
0
  0
VERTEX
  8
1
 42
0.0
 10
5.6081728E+001
 20
1.9655274E+002
 70
0
  0
SEQEND
  0
POLYLINE
  8
1
  6
CONTINUOUS
 62
3
 66
1
 40
5.0E-001
 41
5.0E-001
 70
0
  0
VERTEX
  8
1
 42
0.0
 10
5.6081728E+001
 20
1.9655274E+002
 70
0
  0
VERTEX
  8
1
 42
0.0
 10
5.6081728E+001
 20
1.8955274E+002
 70
0
  0
SEQEND
  0
POLYLINE
  8
1
  6
CONTINUOUS
 62
3
 66
1
 40
5.0E-001
 41
5.0E-001
 70
0
  0
VERTEX
  8
1
 42
0.0
 10
5.4881708E+001
 20
1.8955274E+002
 70
0
  0
VERTEX
  8
1
 42
0.0
 10
5.6081728E+001
 20
1.8955274E+002
 70
0
  0
SEQEND
  0
POLYLINE
  8
1
  6
CONTINUOUS
 62
3
 66
1
 40
5.0E-001
 41
5.0E-001
 70
0
  0
VERTEX
  8
1
 42
0.0
 10
5.4881708E+001
 20
1.9655274E+002
 70
0
  0
VERTEX
  8
1
 42
0.0
 10
5.4881708E+001
 20
1.8955274E+002
 70
0
  0
SEQEND
  0
POLYLINE
  8
1
  6
CONTINUOUS
 62
3
 66
1
 40
5.0E-001
 41
5.0E-001
 70
0
  0
VERTEX
  8
1
 42
0.0
 10
7.2521728E+001
 20
1.9655274E+002
 70
0
  0
VERTEX
  8
1
 42
0.0
 10
7.3721738E+001
 20
1.9655274E+002
 70
0
  0
SEQEND
  0
POLYLINE
  8
1
  6
CONTINUOUS
 62
3
 66
1
 40
5.0E-001
 41
5.0E-001
 70
0
  0
VERTEX
  8
1
 42
0.0
 10
7.2521728E+001
 20
1.8955274E+002
 70
0
  0
VERTEX
  8
1
 42
0.0
 10
7.3721738E+001
 20
1.8955274E+002
 70
0
  0
SEQEND
  0
POLYLINE
  8
1
  6
CONTINUOUS
 62
3
 66
1
 40
5.0E-001
 41
5.0E-001
 70
0
  0
VERTEX
  8
1
 42
0.0
 10
7.5321748E+001
 20
1.9655274E+002
 70
0
  0
VERTEX
  8
1
 42
0.0
 10
7.5321748E+001
 20
1.8955274E+002
 70
0
  0
SEQEND
  0
POLYLINE
  8
1
  6
CONTINUOUS
 62
3
 66
1
 40
5.0E-001
 41
5.0E-001
 70
0
  0
VERTEX
  8
1
 42
0.0
 10
7.6521728E+001
 20
1.9655274E+002
 70
0
  0
VERTEX
  8
1
 42
0.0
 10
7.6521728E+001
 20
1.8955274E+002
 70
0
  0
SEQEND
  0
POLYLINE
  8
1
  6
CONTINUOUS
 62
3
 66
1
 40
5.0E-001
 41
5.0E-001
 70
0
  0
VERTEX
  8
1
 42
0.0
 10
7.2521728E+001
 20
1.9655274E+002
 70
0
  0
VERTEX
  8
1
 42
0.0
 10
7.2521728E+001
 20
1.8955274E+002
 70
0
  0
SEQEND
  0
POLYLINE
  8
1
  6
CONTINUOUS
 62
3
 66
1
 40
5.0E-001
 41
5.0E-001
 70
0
  0
VERTEX
  8
1
 42
0.0
 10
7.6521728E+001
 20
1.6415254E+002
 70
0
  0
VERTEX
  8
1
 42
0.0
 10
7.6521728E+001
 20
1.7115254E+002
 70
0
  0
SEQEND
  0
POLYLINE
  8
1
  6
CONTINUOUS
 62
3
 66
1
 40
5.0E-001
 41
5.0E-001
 70
0
  0
VERTEX
  8
1
 42
0.0
 10
7.2521728E+001
 20
1.6415254E+002
 70
0
  0
VERTEX
  8
1
 42
0.0
 10
7.2521728E+001
 20
1.7115254E+002
 70
0
  0
SEQEND
  0
POLYLINE
  8
1
  6
CONTINUOUS
 62
3
 66
1
 40
5.0E-001
 41
5.0E-001
 70
0
  0
VERTEX
  8
1
 42
0.0
 10
1.7806059E+002
 20
1.7115284E+002
 70
0
  0
VERTEX
  8
1
 42
0.0
 10
1.7806059E+002
 20
1.6415284E+002
 70
0
  0
SEQEND
  0
POLYLINE
  8
1
  6
CONTINUOUS
 62
3
 66
1
 40
5.0E-001
 41
5.0E-001
 70
0
  0
VERTEX
  8
1
 42
0.0
 10
1.7706059E+002
 20
1.7115284E+002
 70
0
  0
VERTEX
  8
1
 42
0.0
 10
1.7806059E+002
 20
1.7115284E+002
 70
0
  0
SEQEND
  0
POLYLINE
  8
1
  6
CONTINUOUS
 62
3
 66
1
 40
5.0E-001
 41
5.0E-001
 70
0
  0
VERTEX
  8
1
 42
0.0
 10
1.7706059E+002
 20
1.6415284E+002
 70
0
  0
VERTEX
  8
1
 42
0.0
 10
1.7806059E+002
 20
1.6415284E+002
 70
0
  0
SEQEND
  0
TEXT
  8
1
  6
CONTINUOUS
 62
4
 10
8.2854803E+001
 20
6.794971
 40
2.8
  1
dimension drawing
 41
8.0E-001
  0
TEXT
  8
1
  6
CONTINUOUS
 62
4
 10
1.1682865E+002
 20
1.3020892E+002
 40
3.0
  1
DIN rail 35 EN50022
 41
8.0E-001
  0
TEXT
  8
1
  6
CONTINUOUS
 62
4
 10
7.1800151E+001
 20
2.5423585E+002
 40
3.0
  1
manual operation
 41
8.0E-001
  0
TEXT
  8
1
  6
CONTINUOUS
 62
4
 10
1.2496331E+002
 20
9.9842638E+001
 40
3.0
  1
Changes of dimensions reserved !
 41
8.0E-001
  0
TEXT
  8
1
  6
CONTINUOUS
 62
4
 10
1.24758E+002
 20
7.8468129E+001
 40
3.0
  1
attachment eyes breakable
 41
8.0E-001
  0
TEXT
  8
1
  6
CONTINUOUS
 62
4
 10
2.6921875E+001
 20
9.9615831E+001
 40
3.0
  1
soldering pins : 1mm
 41
8.0E-001
  0
TEXT
  8
1
  6
CONTINUOUS
 62
4
 10
2.7925783E+001
 20
7.7526836E+001
 40
3.0
  1
spacing : 2,54mm
 41
8.0E-001
  0
TEXT
  8
1
  6
CONTINUOUS
 62
4
 10
2.6265908E+001
 20
1.3034301E+002
 40
3.0
  1
switching position indication
 41
8.0E-001
  0
TEXT
  8
1
  6
CONTINUOUS
 62
4
 10
2.880205E+001
 20
5.3911551E+001
 40
3.0
  1
weight : ca. 170g  
 41
8.0E-001
  0
TEXT
  8
1
  6
CONTINUOUS
 62
4
 10
2.8462955E+001
 20
4.9014481E+001
 40
3.0
  1
Gewicht : ca. 170g
 41
8.0E-001
  0
TEXT
  8
1
  6
CONTINUOUS
 62
4
 10
2.5853935E+001
 20
1.4833948E+001
 40
2.5
  1
e
 41
8.666667E-001
  0
TEXT
  8
1
  6
CONTINUOUS
 62
4
 10
3.2983335E+001
 20
1.5035898E+001
 40
2.2
  1
L12 185  2.8.04 
 41
6.8621326E-001
  0
VIEWPORT
 67
1
  8
0
  6
CONTINUOUS
 62
3
100
AcDbViewport
 10
1.05E+002
 20
1.485E+002
 30
0.0
 40
2.97E+002
 41
2.97E+002
 68
1
 69
1
1001
ACAD
1000
MVIEW
1002
{
1070
16
1010
0.0
1020
0.0
1030
0.0
1010
0.0
1020
0.0
1030
1.0
1040
0.0
1040
2.97E+002
1040
4.2E+001
1040
1.485E+002
1040
5.0E+001
1040
0.0
1040
0.0
1070
0
1070
100
1070
1
1070
0
1070
0
1070
0
1070
0
1070
0
1040
0.0
1040
0.0
1040
0.0
1040
5.0E-001
1040
5.0E-001
1040
5.0E-001
1040
5.0E-001
1070
0
1002
{
1002
}
1002
}
  0
VIEWPORT
 67
1
  8
0
  6
CONTINUOUS
 62
3
100
AcDbViewport
 10
1.05E+002
 20
1.485E+002
 30
0.0
 40
2.1E+002
 41
2.97E+002
 68
2
 69
2
1001
ACAD
1000
MVIEW
1002
{
1070
16
1010
0.0
1020
0.0
1030
0.0
1010
0.0
1020
0.0
1030
1.0
1040
0.0
1040
2.97E+002
1040
1.05E+002
1040
1.485E+002
1040
5.0E+001
1040
0.0
1040
0.0
1070
0
1070
100
1070
1
1070
0
1070
0
1070
0
1070
0
1070
0
1040
0.0
1040
0.0
1040
0.0
1040
5.0E-001
1040
5.0E-001
1040
5.0E-001
1040
5.0E-001
1070
0
1002
{
1002
}
1002
}
  0
ENDSEC
  0
EOF
