  0
SECTION
  2
HEADER
  9
$ACADVER
  1
AC1009
999
I-DEAS 11 NX Not Encoded
  9
$EXTMIN
 10
0.0
 20
0.0
  9
$EXTMAX
 10
4.2E+002
 20
2.97E+002
  9
$TEXTSIZE
 40
1.25E-001
  9
$LTSCALE
 40
1.0
  9
$CLAYER
  8
1
  9
$CECOLOR
 62
1
  9
$DIMASZ
 40
1.25E-001
  9
$DIMEXO
 40
6.25E-002
  9
$DIMDLI
 40
2.5E-001
  9
$DIMEXE
 40
1.25E-001
  9
$DIMTP
 40
5.0E-003
  9
$DIMTM
 40
-5.0E-003
  9
$DIMTXT
 40
3.0
  9
$DIMLIM
 70
0
  9
$DIMTIH
 70
1
  9
$DIMTOH
 70
1
  9
$DIMSE1
 70
0
  9
$DIMSE2
 70
0
  9
$DIMTAD
 70
0
  9
$DIMASO
 70
1
  9
$DIMALT
 70
0
  9
$DIMALTD
 70
0
  9
$DIMTOFL
 70
1
  9
$DIMTIX
 70
0
  9
$DIMSAH
 70
0
  9
$DIMTFAC
 40
1.0
  9
$DIMGAP
 40
6.25E-002
  9
$LUNITS
 70
2
  9
$LUPREC
 70
3
  9
$FILLETRAD
 40
1.0E+001
  9
$AUNITS
 70
0
  9
$AUPREC
 70
1
  9
$CHAMFERA
 40
6.0
  9
$CHAMFERB
 40
6.0
  9
$ANGBASE
 50
0.0
  9
$ANGDIR
 70
0
  9
$PEXTMIN
 10
0.0
 20
0.0
 30
0.0
  9
$PEXTMAX
 10
4.2E+002
 20
2.97E+002
 30
0.0
  9
$PLIMMIN
 10
0.0
 20
0.0
  9
$PLIMMAX
 10
4.2E+002
 20
2.97E+002
  9
$PDMODE
 70
2
  9
$PDSIZE
 40
-1.0E-002
  9
$SPLINETYPE
 70
6
  9
$TILEMODE
 70
1
  0
ENDSEC
  0
SECTION
  2
TABLES
  0
TABLE
  2
VPORT
 70
2
  0
VPORT
  2
*Active
 70
0
 10
0.0
 20
0.0
 11
4.2E+002
 21
2.97E+002
 12
2.1E+002
 22
1.485E+002
 13
0.0
 23
0.0
 14
1.0
 24
1.0
 15
0.0
 25
0.0
 16
0.0
 26
0.0
 36
1.0
 17
0.0
 27
0.0
 37
0.0
 40
2.97E+002
 41
1.4141414
 42
5.0E+001
 43
0.0
 44
0.0
 50
0.0
 51
0.0
 71
0
 72
100
 73
1
 74
3
 75
0
 76
0
 77
0
 78
0
  0
ENDTAB
  0
TABLE
  2
LTYPE
 70
7
  0
LTYPE
  2
HIDDENNEW0
  3
_ 
 70
64
 72
65
 73
3
 40
4.5
 49
1.5
 49
-1.5
 49
1.5
  0
LTYPE
  2
HIDDENNEW1
  3
_ 
 70
64
 72
65
 73
3
 40
4.5
 49
1.5
 49
-1.5
 49
1.5
  0
LTYPE
  2
HIDDEN
  3
_ 
 70
64
 72
65
 73
3
 40
4.5
 49
1.5
 49
-1.5
 49
1.5
  0
LTYPE
  2
CENTERLINE
  3
_ 
 70
64
 72
65
 73
5
 40
3.0E+001
 49
1.2E+001
 49
-1.5
 49
3.0
 49
-1.5
 49
1.2E+001
  0
LTYPE
  2
PHANTOM
  3
_ 
 70
64
 72
65
 73
7
 40
2.95E+001
 49
9.5
 49
-1.5
 49
3.0
 49
-1.5
 49
3.0
 49
-1.5
 49
9.5
  0
LTYPE
  2
SHORT_DASH
  3
_ 
 70
64
 72
65
 73
3
 40
3.0
 49
7.5E-001
 49
-1.5
 49
7.5E-001
  0
LTYPE
  2
LONG_DASH
  3
_ 
 70
64
 72
65
 73
3
 40
9.0
 49
2.25
 49
-4.5
 49
2.25
  0
ENDTAB
  0
TABLE
  2
LAYER
 70
258
  0
LAYER
  2
1
 70
0
 62
7
  6
CONTINUOUS
  0
LAYER
  2
2
 70
0
 62
7
  6
CONTINUOUS
  0
LAYER
  2
Drafting_Hidden_Entities
 70
1
 62
7
  6
CONTINUOUS
  0
ENDTAB
  0
TABLE
  2
STYLE
 70
1
  0
STYLE
  2
STANDARD
 70
64
 40
0.0
 41
1.0
 50
0.0
 71
0
 42
1.0
  3
monotxt.shx
  4

  0
ENDTAB
  0
TABLE
  2
VIEW
 70
0
  0
ENDTAB
  0
TABLE
  2
DIMSTYLE
 70
1
  0
DIMSTYLE
  2
DSTYLE1
 70
0
  3

  4

  5

  6

  7

 40
1.0
 41
3.5001001
 42
9.9990002E-001
 43
3.8E-001
 44
9.9990002E-001
 45
1.0E-002
 46
0.0
 47
0.0
 48
0.0
 71
0
 72
0
 73
0
 74
0
 75
0
 76
0
 77
1
 78
11
140
2.4999
141
9.0E-002
142
0.0
143
3.9370079E-002
144
1.0
145
0.0
146
1.0
147
9.9990002E-001
170
0
171
2
172
0
173
0
174
0
175
0
176
0
177
0
178
0
  0
ENDTAB
  0
ENDSEC
  0
SECTION
  2
BLOCKS
  0
BLOCK
  2
_AH12
  3
_AH
 10
0.0
 20
0.0
 70
64
  0
LINE
  8
0
  6
CONTINUOUS
 62
0
 10
0.0
 20
0.0
 11
1.0
 21
0.0
  0
LINE
  8
0
  6
CONTINUOUS
 62
0
 10
0.0
 20
0.0
 11
-1.0
 21
0.0
  0
ENDBLK
  0
BLOCK
  2
_AH13
  3
_AH
 10
0.0
 20
0.0
 70
64
  0
SOLID
  8
0
  6
CONTINUOUS
 62
0
 10
0.0
 20
0.0
 11
-1.0
 21
1.66667E-001
 12
-1.0
 22
-1.66667E-001
 13
0.0
 23
0.0
  0
ENDBLK
  0
BLOCK
  2
_AH14
  3
_AH
 10
0.0
 20
0.0
 70
64
  0
ENDBLK
  0
BLOCK
  2
_AH15
  3
_AH
 10
0.0
 20
0.0
 70
64
  0
CIRCLE
  8
0
  6
CONTINUOUS
 62
0
 10
0.0
 20
0.0
 40
1.66667E-001
  0
LINE
  8
0
  6
CONTINUOUS
 62
0
 10
0.0
 20
0.0
 11
-1.0
 21
0.0
  0
ENDBLK
  0
BLOCK
  2
_AH16
  3
_AH
 10
0.0
 20
0.0
 70
64
  0
POLYLINE
  8
0
  6
CONTINUOUS
 62
0
 66
1
 40
2.0
 41
2.0
 70
0
  0
VERTEX
  8
0
 42
1.0
 10
8.3335E-002
 20
0.0
 70
0
  0
VERTEX
  8
0
 42
1.0
 10
-8.3335E-002
 20
0.0
 70
0
  0
VERTEX
  8
0
 42
0.0
 10
8.3335E-002
 20
0.0
 70
0
  0
SEQEND
  0
LINE
  8
0
  6
CONTINUOUS
 62
0
 10
0.0
 20
0.0
 11
-1.0
 21
0.0
  0
ENDBLK
  0
BLOCK
  2
_AH17
  3
_AH
 10
0.0
 20
0.0
 70
64
  0
LINE
  8
0
  6
CONTINUOUS
 62
0
 10
-1.66667E-001
 20
-1.66667E-001
 11
1.66667E-001
 21
-1.66667E-001
  0
LINE
  8
0
  6
CONTINUOUS
 62
0
 10
1.66667E-001
 20
-1.66667E-001
 11
1.66667E-001
 21
1.66667E-001
  0
LINE
  8
0
  6
CONTINUOUS
 62
0
 10
1.66667E-001
 20
1.66667E-001
 11
-1.66667E-001
 21
1.66667E-001
  0
LINE
  8
0
  6
CONTINUOUS
 62
0
 10
-1.66667E-001
 20
1.66667E-001
 11
-1.66667E-001
 21
-1.66667E-001
  0
LINE
  8
0
  6
CONTINUOUS
 62
0
 10
0.0
 20
0.0
 11
-1.0
 21
0.0
  0
ENDBLK
  0
BLOCK
  2
_AH18
  3
_AH
 10
0.0
 20
0.0
 70
64
  0
SOLID
  8
0
  6
CONTINUOUS
 62
0
 10
-1.66667E-001
 20
-1.66667E-001
 11
1.66667E-001
 21
-1.66667E-001
 12
-1.66667E-001
 22
1.66667E-001
 13
1.66667E-001
 23
1.66667E-001
  0
LINE
  8
0
  6
CONTINUOUS
 62
0
 10
0.0
 20
0.0
 11
-1.0
 21
0.0
  0
ENDBLK
  0
BLOCK
  2
_AH19
  3
_AH
 10
0.0
 20
0.0
 70
64
  0
LINE
  8
0
  6
CONTINUOUS
 62
0
 10
-5.0E-001
 20
-5.0E-001
 11
5.0E-001
 21
5.0E-001
  0
LINE
  8
0
  6
CONTINUOUS
 62
0
 10
0.0
 20
0.0
 11
-1.0
 21
0.0
  0
ENDBLK
  0
BLOCK
  2
_AH20
  3
_AH
 10
0.0
 20
0.0
 70
64
  0
POLYLINE
  8
0
  6
CONTINUOUS
 62
0
 66
1
 40
5.0E-001
 41
5.0E-001
 70
0
  0
VERTEX
  8
0
 42
4.1421356E-001
 10
-1.66667E-001
 20
-1.66667E-001
 70
0
  0
VERTEX
  8
0
 42
0.0
 10
0.0
 20
0.0
 70
0
  0
SEQEND
  0
POLYLINE
  8
0
  6
CONTINUOUS
 62
0
 66
1
 40
5.0E-001
 41
5.0E-001
 70
0
  0
VERTEX
  8
0
 42
4.1421356E-001
 10
1.66667E-001
 20
1.66667E-001
 70
0
  0
VERTEX
  8
0
 42
0.0
 10
0.0
 20
0.0
 70
0
  0
SEQEND
  0
LINE
  8
0
  6
CONTINUOUS
 62
0
 10
0.0
 20
0.0
 11
-1.0
 21
0.0
  0
ENDBLK
  0
BLOCK
  2
_AH21
  3
_AH
 10
0.0
 20
0.0
 70
64
  0
LINE
  8
0
  6
CONTINUOUS
 62
0
 10
0.0
 20
0.0
 11
-1.0
 21
-1.66667E-001
  0
LINE
  8
0
  6
CONTINUOUS
 62
0
 10
-1.0
 20
-1.66667E-001
 11
-1.0
 21
1.66667E-001
  0
LINE
  8
0
  6
CONTINUOUS
 62
0
 10
-1.0
 20
1.66667E-001
 11
0.0
 21
0.0
  0
ENDBLK
  0
BLOCK
  2
CADRE_A3
 10
0.0
 20
0.0
 70
0
  0
POINT
  8
1
  6
CONTINUOUS
 62
1
 10
3.965E+002
 20
2.78E+002
  0
LINE
  8
1
  6
CONTINUOUS
 62
40
 10
2.3206571E+002
 20
2.3E+001
 11
2.338E+002
 21
2.3E+001
  0
LINE
  8
1
  6
CONTINUOUS
 62
3
 10
2.315E+002
 20
5.0E+001
 11
2.315E+002
 21
5.4E+001
  0
LINE
  8
1
  6
CONTINUOUS
 62
40
 10
3.535E+002
 20
5.0E+001
 11
3.965E+002
 21
5.0E+001
  0
LINE
  8
1
  6
CONTINUOUS
 62
40
 10
2.338E+002
 20
2.3E+001
 11
2.338E+002
 21
2.632E+001
  0
LINE
  8
1
  6
CONTINUOUS
 62
40
 10
2.338E+002
 20
2.632E+001
 11
2.3322771E+002
 21
2.632E+001
  0
LINE
  8
1
  6
CONTINUOUS
 62
40
 10
2.3322771E+002
 20
2.632E+001
 11
2.3206571E+002
 21
2.3E+001
  0
LINE
  8
1
  6
CONTINUOUS
 62
40
 10
2.3231941E+002
 20
2.318E+001
 11
2.3362E+002
 21
2.318E+001
  0
LINE
  8
1
  6
CONTINUOUS
 62
40
 10
2.3362E+002
 20
2.318E+001
 11
2.3362E+002
 21
2.614E+001
  0
LINE
  8
1
  6
CONTINUOUS
 62
40
 10
2.3362E+002
 20
2.614E+001
 11
2.3335541E+002
 21
2.614E+001
  0
LINE
  8
1
  6
CONTINUOUS
 62
40
 10
2.3335541E+002
 20
2.614E+001
 11
2.3231941E+002
 21
2.318E+001
  0
LINE
  8
1
  6
CONTINUOUS
 62
40
 10
2.3257312E+002
 20
2.336E+001
 11
2.3344E+002
 21
2.336E+001
  0
LINE
  8
1
  6
CONTINUOUS
 62
40
 10
2.3344E+002
 20
2.336E+001
 11
2.3344E+002
 21
2.5836801E+001
  0
LINE
  8
1
  6
CONTINUOUS
 62
40
 10
2.3344E+002
 20
2.5836801E+001
 11
2.3257312E+002
 21
2.336E+001
  0
LINE
  8
1
  6
CONTINUOUS
 62
40
 10
2.3282683E+002
 20
2.354E+001
 11
2.3326E+002
 21
2.354E+001
  0
LINE
  8
1
  6
CONTINUOUS
 62
40
 10
2.3326E+002
 20
2.354E+001
 11
2.3326E+002
 21
2.4777639E+001
  0
LINE
  8
1
  6
CONTINUOUS
 62
40
 10
2.3326E+002
 20
2.4777639E+001
 11
2.3282683E+002
 21
2.354E+001
  0
LINE
  8
1
  6
CONTINUOUS
 62
40
 10
2.3303825E+002
 20
2.369E+001
 11
2.3311E+002
 21
2.369E+001
  0
LINE
  8
1
  6
CONTINUOUS
 62
40
 10
2.3311E+002
 20
2.369E+001
 11
2.3311E+002
 21
2.3895004E+001
  0
LINE
  8
1
  6
CONTINUOUS
 62
40
 10
2.3311E+002
 20
2.3895004E+001
 11
2.3303825E+002
 21
2.369E+001
  0
LINE
  8
1
  6
CONTINUOUS
 62
40
 10
2.348E+002
 20
2.3E+001
 11
2.348E+002
 21
2.632E+001
  0
LINE
  8
1
  6
CONTINUOUS
 62
40
 10
2.348E+002
 20
2.632E+001
 11
2.3537229E+002
 21
2.632E+001
  0
LINE
  8
1
  6
CONTINUOUS
 62
40
 10
2.3537229E+002
 20
2.632E+001
 11
2.3653429E+002
 21
2.3E+001
  0
LINE
  8
1
  6
CONTINUOUS
 62
40
 10
2.3653429E+002
 20
2.3E+001
 11
2.348E+002
 21
2.3E+001
  0
LINE
  8
1
  6
CONTINUOUS
 62
40
 10
2.3498E+002
 20
2.318E+001
 11
2.3498E+002
 21
2.614E+001
  0
LINE
  8
1
  6
CONTINUOUS
 62
40
 10
2.3498E+002
 20
2.614E+001
 11
2.3524459E+002
 21
2.614E+001
  0
LINE
  8
1
  6
CONTINUOUS
 62
40
 10
2.3524459E+002
 20
2.614E+001
 11
2.3628059E+002
 21
2.318E+001
  0
LINE
  8
1
  6
CONTINUOUS
 62
40
 10
2.3628059E+002
 20
2.318E+001
 11
2.3498E+002
 21
2.318E+001
  0
LINE
  8
1
  6
CONTINUOUS
 62
40
 10
2.3516E+002
 20
2.336E+001
 11
2.3516E+002
 21
2.5836801E+001
  0
LINE
  8
1
  6
CONTINUOUS
 62
40
 10
2.3516E+002
 20
2.5836801E+001
 11
2.3602688E+002
 21
2.336E+001
  0
LINE
  8
1
  6
CONTINUOUS
 62
40
 10
2.3602688E+002
 20
2.336E+001
 11
2.3516E+002
 21
2.336E+001
  0
LINE
  8
1
  6
CONTINUOUS
 62
40
 10
2.3534E+002
 20
2.354E+001
 11
2.3534E+002
 21
2.4777639E+001
  0
LINE
  8
1
  6
CONTINUOUS
 62
40
 10
2.3534E+002
 20
2.4777639E+001
 11
2.3577317E+002
 21
2.354E+001
  0
LINE
  8
1
  6
CONTINUOUS
 62
40
 10
2.3577317E+002
 20
2.354E+001
 11
2.3534E+002
 21
2.354E+001
  0
LINE
  8
1
  6
CONTINUOUS
 62
40
 10
2.3556175E+002
 20
2.369E+001
 11
2.3549E+002
 21
2.369E+001
  0
LINE
  8
1
  6
CONTINUOUS
 62
40
 10
2.3549E+002
 20
2.369E+001
 11
2.3549E+002
 21
2.3895004E+001
  0
LINE
  8
1
  6
CONTINUOUS
 62
40
 10
2.3549E+002
 20
2.3895004E+001
 11
2.3556175E+002
 21
2.369E+001
  0
LINE
  8
1
  6
CONTINUOUS
 62
40
 10
2.3055371E+002
 20
1.868E+001
 11
2.3171571E+002
 21
2.2E+001
  0
LINE
  8
1
  6
CONTINUOUS
 62
3
 10
2.255E+002
 20
1.5E+001
 11
2.255E+002
 21
5.8E+001
  0
LINE
  8
1
  6
CONTINUOUS
 62
3
 10
2.255E+002
 20
5.8E+001
 11
3.965E+002
 21
5.8E+001
  0
LINE
  8
1
  6
CONTINUOUS
 62
3
 10
2.255E+002
 20
5.4E+001
 11
3.965E+002
 21
5.4E+001
  0
LINE
  8
1
  6
CONTINUOUS
 62
3
 10
2.255E+002
 20
5.0E+001
 11
3.535E+002
 21
5.0E+001
  0
LINE
  8
1
  6
CONTINUOUS
 62
40
 10
2.315E+002
 20
4.6E+001
 11
3.385E+002
 21
4.6E+001
  0
LINE
  8
1
  6
CONTINUOUS
 62
40
 10
2.315E+002
 20
4.2E+001
 11
3.385E+002
 21
4.2E+001
  0
LINE
  8
1
  6
CONTINUOUS
 62
40
 10
2.315E+002
 20
3.8E+001
 11
3.385E+002
 21
3.8E+001
  0
LINE
  8
1
  6
CONTINUOUS
 62
40
 10
2.315E+002
 20
3.4E+001
 11
3.385E+002
 21
3.4E+001
  0
LINE
  8
1
  6
CONTINUOUS
 62
3
 10
2.255E+002
 20
3.0E+001
 11
3.965E+002
 21
3.0E+001
  0
LINE
  8
1
  6
CONTINUOUS
 62
3
 10
2.555E+002
 20
2.6E+001
 11
3.385E+002
 21
2.6E+001
  0
LINE
  8
1
  6
CONTINUOUS
 62
3
 10
3.385E+002
 20
2.3E+001
 11
3.965E+002
 21
2.3E+001
  0
LINE
  8
1
  6
CONTINUOUS
 62
40
 10
2.315E+002
 20
3.0E+001
 11
2.315E+002
 21
5.0E+001
  0
LINE
  8
1
  6
CONTINUOUS
 62
3
 10
2.345E+002
 20
5.4E+001
 11
2.345E+002
 21
5.8E+001
  0
LINE
  8
1
  6
CONTINUOUS
 62
40
 10
2.385E+002
 20
3.0E+001
 11
2.385E+002
 21
5.0E+001
  0
LINE
  8
1
  6
CONTINUOUS
 62
3
 10
2.555E+002
 20
1.5E+001
 11
2.555E+002
 21
3.0E+001
  0
LINE
  8
1
  6
CONTINUOUS
 62
3
 10
2.685E+002
 20
5.4E+001
 11
2.685E+002
 21
5.8E+001
  0
LINE
  8
1
  6
CONTINUOUS
 62
3
 10
2.715E+002
 20
5.0E+001
 11
2.715E+002
 21
5.4E+001
  0
LINE
  8
1
  6
CONTINUOUS
 62
3
 10
2.785E+002
 20
5.4E+001
 11
2.785E+002
 21
5.8E+001
  0
LINE
  8
1
  6
CONTINUOUS
 62
3
 10
3.115E+002
 20
5.0E+001
 11
3.115E+002
 21
5.8E+001
  0
LINE
  8
1
  6
CONTINUOUS
 62
3
 10
3.215E+002
 20
5.4E+001
 11
3.215E+002
 21
5.8E+001
  0
LINE
  8
1
  6
CONTINUOUS
 62
3
 10
3.385E+002
 20
1.5E+001
 11
3.385E+002
 21
5.0E+001
  0
LINE
  8
1
  6
CONTINUOUS
 62
3
 10
3.445E+002
 20
2.3E+001
 11
3.445E+002
 21
2.6107786E+001
  0
LINE
  8
1
  6
CONTINUOUS
 62
3
 10
3.505E+002
 20
2.3E+001
 11
3.505E+002
 21
3.0E+001
  0
LINE
  8
1
  6
CONTINUOUS
 62
3
 10
3.535E+002
 20
3.0E+001
 11
3.535E+002
 21
5.8E+001
  0
LINE
  8
1
  6
CONTINUOUS
 62
3
 10
3.565E+002
 20
2.3E+001
 11
3.565E+002
 21
2.6107786E+001
  0
LINE
  8
1
  6
CONTINUOUS
 62
3
 10
1.95E+001
 20
2.78E+002
 11
1.95E+001
 21
1.5E+001
  0
LINE
  8
1
  6
CONTINUOUS
 62
3
 10
1.95E+001
 20
1.5E+001
 11
3.965E+002
 21
1.5E+001
  0
LINE
  8
1
  6
CONTINUOUS
 62
3
 10
3.625E+002
 20
2.3E+001
 11
3.625E+002
 21
3.0E+001
  0
LINE
  8
1
  6
CONTINUOUS
 62
3
 10
3.635E+002
 20
5.4E+001
 11
3.635E+002
 21
5.8E+001
  0
LINE
  8
1
  6
CONTINUOUS
 62
3
 10
3.735E+002
 20
2.3E+001
 11
3.735E+002
 21
3.0E+001
  0
LINE
  8
1
  6
CONTINUOUS
 62
3
 10
3.855E+002
 20
2.3E+001
 11
3.855E+002
 21
3.0E+001
  0
LINE
  8
1
  6
CONTINUOUS
 62
40
 10
3.93E+002
 20
5.35E+001
 11
3.96E+002
 21
5.35E+001
  0
LINE
  8
1
  6
CONTINUOUS
 62
40
 10
3.96E+002
 20
5.35E+001
 11
3.96E+002
 21
5.05E+001
  0
LINE
  8
1
  6
CONTINUOUS
 62
40
 10
3.93E+002
 20
5.05E+001
 11
3.96E+002
 21
5.05E+001
  0
LINE
  8
1
  6
CONTINUOUS
 62
40
 10
3.93E+002
 20
5.35E+001
 11
3.93E+002
 21
5.05E+001
  0
LINE
  8
1
  6
CONTINUOUS
 62
40
 10
3.93E+002
 20
4.95E+001
 11
3.93E+002
 21
4.65E+001
  0
LINE
  8
1
  6
CONTINUOUS
 62
40
 10
3.93E+002
 20
4.65E+001
 11
3.96E+002
 21
4.65E+001
  0
LINE
  8
1
  6
CONTINUOUS
 62
40
 10
3.96E+002
 20
4.95E+001
 11
3.96E+002
 21
4.65E+001
  0
LINE
  8
1
  6
CONTINUOUS
 62
40
 10
3.93E+002
 20
4.95E+001
 11
3.96E+002
 21
4.95E+001
  0
LINE
  8
1
  6
CONTINUOUS
 62
40
 10
3.93E+002
 20
4.55E+001
 11
3.93E+002
 21
4.25E+001
  0
LINE
  8
1
  6
CONTINUOUS
 62
40
 10
3.93E+002
 20
4.25E+001
 11
3.96E+002
 21
4.25E+001
  0
LINE
  8
1
  6
CONTINUOUS
 62
3
 10
3.965E+002
 20
1.5E+001
 11
3.965E+002
 21
2.78E+002
  0
LINE
  8
1
  6
CONTINUOUS
 62
3
 10
3.965E+002
 20
2.78E+002
 11
1.95E+001
 21
2.78E+002
  0
LINE
  8
1
  6
CONTINUOUS
 62
40
 10
3.96E+002
 20
4.55E+001
 11
3.96E+002
 21
4.25E+001
  0
LINE
  8
1
  6
CONTINUOUS
 62
40
 10
3.93E+002
 20
4.55E+001
 11
3.96E+002
 21
4.55E+001
  0
LINE
  8
1
  6
CONTINUOUS
 62
40
 10
3.965E+002
 20
1.5E+001
 11
4.005E+002
 21
1.5E+001
  0
LINE
  8
1
  6
CONTINUOUS
 62
40
 10
3.965E+002
 20
1.8E+001
 11
4.005E+002
 21
1.8E+001
  0
LINE
  8
1
  6
CONTINUOUS
 62
40
 10
3.965E+002
 20
2.1E+001
 11
4.005E+002
 21
2.1E+001
  0
LINE
  8
1
  6
CONTINUOUS
 62
40
 10
3.965E+002
 20
2.4E+001
 11
4.005E+002
 21
2.4E+001
  0
LINE
  8
1
  6
CONTINUOUS
 62
40
 10
3.965E+002
 20
2.7E+001
 11
4.005E+002
 21
2.7E+001
  0
LINE
  8
1
  6
CONTINUOUS
 62
40
 10
3.965E+002
 20
3.0E+001
 11
4.005E+002
 21
3.0E+001
  0
LINE
  8
1
  6
CONTINUOUS
 62
40
 10
2.331E+002
 20
2.65E+001
 11
2.3398E+002
 21
2.65E+001
  0
LINE
  8
1
  6
CONTINUOUS
 62
40
 10
8.65E+001
 20
2.78E+002
 11
8.65E+001
 21
2.66E+002
  0
LINE
  8
1
  6
CONTINUOUS
 62
3
 10
1.535E+002
 20
2.66E+002
 11
1.535E+002
 21
2.78E+002
  0
LINE
  8
1
  6
CONTINUOUS
 62
3
 10
1.535E+002
 20
2.66E+002
 11
1.95E+001
 21
2.66E+002
  0
LINE
  8
1
  6
CONTINUOUS
 62
40
 10
2.323E+002
 20
1.85E+001
 11
2.303E+002
 21
1.85E+001
  0
LINE
  8
1
  6
CONTINUOUS
 62
40
 10
2.3171571E+002
 20
2.2E+001
 11
2.338E+002
 21
2.2E+001
  0
LINE
  8
1
  6
CONTINUOUS
 62
40
 10
2.303E+002
 20
1.85E+001
 11
2.31588E+002
 21
2.218E+001
  0
LINE
  8
1
  6
CONTINUOUS
 62
40
 10
2.355E+002
 20
2.65E+001
 11
2.36788E+002
 21
2.282E+001
  0
LINE
  8
1
  6
CONTINUOUS
 62
40
 10
2.3574E+002
 20
2.01E+001
 11
2.363E+002
 21
1.85E+001
  0
LINE
  8
1
  6
CONTINUOUS
 62
40
 10
2.323E+002
 20
1.85E+001
 11
2.3286E+002
 21
2.01E+001
  0
LINE
  8
1
  6
CONTINUOUS
 62
40
 10
2.3886E+002
 20
1.85E+001
 11
2.4094E+002
 21
1.85E+001
  0
LINE
  8
1
  6
CONTINUOUS
 62
40
 10
2.3886E+002
 20
2.65E+001
 11
2.4094E+002
 21
2.65E+001
  0
LINE
  8
1
  6
CONTINUOUS
 62
40
 10
2.3286E+002
 20
2.01E+001
 11
2.3398E+002
 21
2.01E+001
  0
LINE
  8
1
  6
CONTINUOUS
 62
40
 10
2.363E+002
 20
1.85E+001
 11
2.383E+002
 21
1.85E+001
  0
LINE
  8
1
  6
CONTINUOUS
 62
40
 10
2.31588E+002
 20
2.218E+001
 11
2.3398E+002
 21
2.218E+001
  0
LINE
  8
1
  6
CONTINUOUS
 62
40
 10
2.31812E+002
 20
2.282E+001
 11
2.3398E+002
 21
2.282E+001
  0
LINE
  8
1
  6
CONTINUOUS
 62
40
 10
6.119113E+001
 20
2.7118273E+002
 11
6.419113E+001
 21
2.7118273E+002
  0
LINE
  8
1
  6
CONTINUOUS
 62
40
 10
6.419113E+001
 20
2.7118273E+002
 11
6.419113E+001
 21
2.6818273E+002
  0
LINE
  8
1
  6
CONTINUOUS
 62
40
 10
2.3398E+002
 20
2.01E+001
 11
2.3398E+002
 21
2.218E+001
  0
LINE
  8
1
  6
CONTINUOUS
 62
40
 10
2.3462E+002
 20
2.01E+001
 11
2.3462E+002
 21
2.218E+001
  0
LINE
  8
1
  6
CONTINUOUS
 62
40
 10
2.3462E+002
 20
2.01E+001
 11
2.3574E+002
 21
2.01E+001
  0
LINE
  8
1
  6
CONTINUOUS
 62
40
 10
2.3462E+002
 20
2.218E+001
 11
2.37012E+002
 21
2.218E+001
  0
LINE
  8
1
  6
CONTINUOUS
 62
40
 10
2.31812E+002
 20
2.282E+001
 11
2.331E+002
 21
2.65E+001
  0
LINE
  8
1
  6
CONTINUOUS
 62
40
 10
2.3462E+002
 20
2.282E+001
 11
2.36788E+002
 21
2.282E+001
  0
LINE
  8
1
  6
CONTINUOUS
 62
40
 10
2.3462E+002
 20
2.282E+001
 11
2.3462E+002
 21
2.65E+001
  0
LINE
  8
1
  6
CONTINUOUS
 62
40
 10
2.3398E+002
 20
2.282E+001
 11
2.3398E+002
 21
2.65E+001
  0
LINE
  8
1
  6
CONTINUOUS
 62
40
 10
2.355E+002
 20
2.65E+001
 11
2.3462E+002
 21
2.65E+001
  0
LINE
  8
1
  6
CONTINUOUS
 62
40
 10
2.37012E+002
 20
2.218E+001
 11
2.383E+002
 21
1.85E+001
  0
LINE
  8
1
  6
CONTINUOUS
 62
40
 10
2.3886E+002
 20
1.85E+001
 11
2.3886E+002
 21
2.218E+001
  0
LINE
  8
1
  6
CONTINUOUS
 62
40
 10
6.119113E+001
 20
2.6818273E+002
 11
6.419113E+001
 21
2.6818273E+002
  0
LINE
  8
1
  6
CONTINUOUS
 62
40
 10
6.119113E+001
 20
2.7118273E+002
 11
6.119113E+001
 21
2.6818273E+002
  0
LINE
  8
1
  6
CONTINUOUS
 62
40
 10
5.171513E+001
 20
2.7118273E+002
 11
5.471513E+001
 21
2.7118273E+002
  0
ARC
  8
1
  6
CONTINUOUS
 62
40
 10
2.4206E+002
 20
2.47E+001
 40
1.8
 50
2.9938468E+002
 51
4.5E+002
  0
ARC
  8
1
  6
CONTINUOUS
 62
40
 10
2.4206E+002
 20
2.09E+001
 40
2.4
 50
2.7E+002
 51
3.9223095E+002
  0
LINE
  8
1
  6
CONTINUOUS
 62
40
 10
5.471513E+001
 20
2.7118273E+002
 11
5.471513E+001
 21
2.6818273E+002
  0
LINE
  8
1
  6
CONTINUOUS
 62
40
 10
5.171513E+001
 20
2.6818273E+002
 11
5.471513E+001
 21
2.6818273E+002
  0
LINE
  8
1
  6
CONTINUOUS
 62
40
 10
2.435E+002
 20
2.282E+001
 11
2.4158E+002
 21
2.282E+001
  0
LINE
  8
1
  6
CONTINUOUS
 62
40
 10
2.4409017E+002
 20
2.218E+001
 11
2.4158E+002
 21
2.218E+001
  0
LINE
  8
1
  6
CONTINUOUS
 62
40
 10
2.4158E+002
 20
1.85E+001
 11
2.4158E+002
 21
2.218E+001
  0
LINE
  8
1
  6
CONTINUOUS
 62
40
 10
2.4094E+002
 20
1.85E+001
 11
2.4094E+002
 21
2.218E+001
  0
LINE
  8
1
  6
CONTINUOUS
 62
40
 10
2.4158E+002
 20
2.65E+001
 11
2.4206E+002
 21
2.65E+001
  0
LINE
  8
1
  6
CONTINUOUS
 62
40
 10
2.4094E+002
 20
2.282E+001
 11
2.3886E+002
 21
2.282E+001
  0
LINE
  8
1
  6
CONTINUOUS
 62
40
 10
2.4094E+002
 20
2.218E+001
 11
2.3886E+002
 21
2.218E+001
  0
LINE
  8
1
  6
CONTINUOUS
 62
40
 10
2.4158E+002
 20
1.85E+001
 11
2.4206E+002
 21
1.85E+001
  0
LINE
  8
1
  6
CONTINUOUS
 62
40
 10
2.3886E+002
 20
2.282E+001
 11
2.3886E+002
 21
2.65E+001
  0
LINE
  8
1
  6
CONTINUOUS
 62
40
 10
5.171513E+001
 20
2.7118273E+002
 11
5.171513E+001
 21
2.6818273E+002
  0
LINE
  8
1
  6
CONTINUOUS
 62
40
 10
2.4094E+002
 20
2.282E+001
 11
2.4094E+002
 21
2.65E+001
  0
LINE
  8
1
  6
CONTINUOUS
 62
40
 10
2.4158E+002
 20
2.282E+001
 11
2.4158E+002
 21
2.65E+001
  0
ARC
  8
1
  6
CONTINUOUS
 62
40
 10
2.4206E+002
 20
2.09E+001
 40
2.4
 50
5.3130102E+001
 51
6.8407484E+001
  0
LINE
  8
1
  6
CONTINUOUS
 62
40
 10
2.451E+002
 20
1.85E+001
 11
2.451E+002
 21
2.218E+001
  0
LINE
  8
1
  6
CONTINUOUS
 62
40
 10
2.4718E+002
 20
2.218E+001
 11
2.451E+002
 21
2.218E+001
  0
LINE
  8
1
  6
CONTINUOUS
 62
40
 10
2.4718E+002
 20
1.85E+001
 11
2.4718E+002
 21
2.218E+001
  0
LINE
  8
1
  6
CONTINUOUS
 62
40
 10
1.275E+002
 20
2.69E+002
 11
1.305E+002
 21
2.69E+002
  0
LINE
  8
1
  6
CONTINUOUS
 62
40
 10
2.451E+002
 20
1.85E+001
 11
2.4718E+002
 21
1.85E+001
  0
LINE
  8
1
  6
CONTINUOUS
 62
40
 10
2.4782E+002
 20
1.85E+001
 11
2.4782E+002
 21
2.218E+001
  0
LINE
  8
1
  6
CONTINUOUS
 62
40
 10
2.5033017E+002
 20
2.218E+001
 11
2.4782E+002
 21
2.218E+001
  0
LINE
  8
1
  6
CONTINUOUS
 62
40
 10
1.305E+002
 20
2.72E+002
 11
1.305E+002
 21
2.69E+002
  0
LINE
  8
1
  6
CONTINUOUS
 62
40
 10
1.275E+002
 20
2.72E+002
 11
1.305E+002
 21
2.72E+002
  0
LINE
  8
1
  6
CONTINUOUS
 62
40
 10
1.275E+002
 20
2.72E+002
 11
1.275E+002
 21
2.69E+002
  0
ARC
  8
1
  6
CONTINUOUS
 62
40
 10
2.483E+002
 20
2.09E+001
 40
2.4
 50
2.7E+002
 51
3.9223095E+002
  0
LINE
  8
1
  6
CONTINUOUS
 62
40
 10
1.405E+002
 20
2.69E+002
 11
1.435E+002
 21
2.69E+002
  0
LINE
  8
1
  6
CONTINUOUS
 62
40
 10
2.4782E+002
 20
1.85E+001
 11
2.483E+002
 21
1.85E+001
  0
LINE
  8
1
  6
CONTINUOUS
 62
40
 10
2.451E+002
 20
2.282E+001
 11
2.451E+002
 21
2.65E+001
  0
LINE
  8
1
  6
CONTINUOUS
 62
40
 10
2.451E+002
 20
2.65E+001
 11
2.4718E+002
 21
2.65E+001
  0
LINE
  8
1
  6
CONTINUOUS
 62
40
 10
2.4718E+002
 20
2.282E+001
 11
2.4718E+002
 21
2.65E+001
  0
LINE
  8
1
  6
CONTINUOUS
 62
40
 10
2.4718E+002
 20
2.282E+001
 11
2.451E+002
 21
2.282E+001
  0
LINE
  8
1
  6
CONTINUOUS
 62
40
 10
2.4782E+002
 20
2.282E+001
 11
2.4782E+002
 21
2.65E+001
  0
LINE
  8
1
  6
CONTINUOUS
 62
40
 10
2.4782E+002
 20
2.65E+001
 11
2.483E+002
 21
2.65E+001
  0
ARC
  8
1
  6
CONTINUOUS
 62
40
 10
2.483E+002
 20
2.47E+001
 40
1.8
 50
2.9938468E+002
 51
4.5E+002
  0
LINE
  8
1
  6
CONTINUOUS
 62
40
 10
1.435E+002
 20
2.72E+002
 11
1.435E+002
 21
2.69E+002
  0
ARC
  8
1
  6
CONTINUOUS
 62
40
 10
2.483E+002
 20
2.09E+001
 40
2.4
 50
5.3130102E+001
 51
6.8407484E+001
  0
LINE
  8
1
  6
CONTINUOUS
 62
40
 10
2.4974E+002
 20
2.282E+001
 11
2.4782E+002
 21
2.282E+001
  0
LINE
  8
1
  6
CONTINUOUS
 62
40
 10
1.405E+002
 20
2.72E+002
 11
1.435E+002
 21
2.72E+002
  0
TEXT
  8
1
  6
CONTINUOUS
 62
40
 10
3.1542442E+001
 20
2.7305173E+002
 40
2.5
  1
Tolerances generales selon ISO 2768
 41
5.0E-001
  0
TEXT
  8
1
  6
CONTINUOUS
 62
40
 10
2.2529304E+001
 20
2.6829203E+002
 40
2.5
  1
Degre de precision   f      m       c       v
 41
5.0E-001
  0
TEXT
  8
1
  6
CONTINUOUS
 62
40
 10
8.9794943E+001
 20
2.736093E+002
 40
2.5
  1
Tolerances generales sur pieces moulees selon
 41
5.0E-001
  0
TEXT
  8
1
  6
CONTINUOUS
 62
40
 10
8.9794943E+001
 20
2.691093E+002
 40
2.5
  1
Din 16901 (FPTC 407364)   130       140   
 41
5.0E-001
  0
LINE
  8
1
  6
CONTINUOUS
 62
40
 10
2.338E+002
 20
2.2E+001
 11
2.338E+002
 21
2.028E+001
  0
LINE
  8
1
  6
CONTINUOUS
 62
40
 10
7.066713E+001
 20
2.6818273E+002
 11
7.366713E+001
 21
2.6818273E+002
  0
LINE
  8
1
  6
CONTINUOUS
 62
40
 10
1.405E+002
 20
2.72E+002
 11
1.405E+002
 21
2.69E+002
  0
LINE
  8
1
  6
CONTINUOUS
 62
40
 10
2.338E+002
 20
2.028E+001
 11
2.3273229E+002
 21
2.028E+001
  0
LINE
  8
1
  6
CONTINUOUS
 62
40
 10
2.3273229E+002
 20
2.028E+001
 11
2.3217229E+002
 21
1.868E+001
  0
LINE
  8
1
  6
CONTINUOUS
 62
40
 10
1.95E+001
 20
2.78E+002
 11
2.1E+001
 21
2.8167156E+002
  0
LINE
  8
1
  6
CONTINUOUS
 62
40
 10
2.1E+001
 20
2.8167156E+002
 11
2.25E+001
 21
2.78E+002
  0
LINE
  8
1
  6
CONTINUOUS
 62
40
 10
2.155E+002
 20
2.78E+002
 11
2.17E+002
 21
2.8167156E+002
  0
LINE
  8
1
  6
CONTINUOUS
 62
40
 10
2.17E+002
 20
2.8167156E+002
 11
2.185E+002
 21
2.78E+002
  0
LINE
  8
1
  6
CONTINUOUS
 62
40
 10
1.95E+001
 20
1.5E+001
 11
2.1E+001
 21
1.1328442E+001
  0
LINE
  8
1
  6
CONTINUOUS
 62
40
 10
2.1E+001
 20
1.1328442E+001
 11
2.25E+001
 21
1.5E+001
  0
LINE
  8
1
  6
CONTINUOUS
 62
40
 10
2.155E+002
 20
1.5E+001
 11
2.17E+002
 21
1.1328442E+001
  0
LINE
  8
1
  6
CONTINUOUS
 62
40
 10
2.17E+002
 20
1.1328442E+001
 11
2.185E+002
 21
1.5E+001
  0
LINE
  8
1
  6
CONTINUOUS
 62
40
 10
2.3217229E+002
 20
1.868E+001
 11
2.3055371E+002
 21
1.868E+001
  0
LINE
  8
1
  6
CONTINUOUS
 62
40
 10
2.3080741E+002
 20
1.886E+001
 11
2.3184341E+002
 21
2.182E+001
  0
LINE
  8
1
  6
CONTINUOUS
 62
40
 10
2.3184341E+002
 20
2.182E+001
 11
2.3362E+002
 21
2.182E+001
  0
LINE
  8
1
  6
CONTINUOUS
 62
40
 10
2.3362E+002
 20
2.182E+001
 11
2.3362E+002
 21
2.046E+001
  0
LINE
  8
1
  6
CONTINUOUS
 62
40
 10
2.3362E+002
 20
2.046E+001
 11
2.3260459E+002
 21
2.046E+001
  0
LINE
  8
1
  6
CONTINUOUS
 62
40
 10
2.3260459E+002
 20
2.046E+001
 11
2.3204459E+002
 21
1.886E+001
  0
LINE
  8
1
  6
CONTINUOUS
 62
40
 10
2.3204459E+002
 20
1.886E+001
 11
2.3080741E+002
 21
1.886E+001
  0
LINE
  8
1
  6
CONTINUOUS
 62
40
 10
2.3106112E+002
 20
1.904E+001
 11
2.3197112E+002
 21
2.164E+001
  0
LINE
  8
1
  6
CONTINUOUS
 62
40
 10
2.3197112E+002
 20
2.164E+001
 11
2.3344E+002
 21
2.164E+001
  0
LINE
  8
1
  6
CONTINUOUS
 62
40
 10
2.3344E+002
 20
2.164E+001
 11
2.3344E+002
 21
2.064E+001
  0
LINE
  8
1
  6
CONTINUOUS
 62
40
 10
2.3344E+002
 20
2.064E+001
 11
2.3247688E+002
 21
2.064E+001
  0
LINE
  8
1
  6
CONTINUOUS
 62
40
 10
2.3247688E+002
 20
2.064E+001
 11
2.3191688E+002
 21
1.904E+001
  0
LINE
  8
1
  6
CONTINUOUS
 62
40
 10
2.3191688E+002
 20
1.904E+001
 11
2.3106112E+002
 21
1.904E+001
  0
LINE
  8
1
  6
CONTINUOUS
 62
40
 10
2.3131483E+002
 20
1.922E+001
 11
2.3209883E+002
 21
2.146E+001
  0
LINE
  8
1
  6
CONTINUOUS
 62
40
 10
2.3209883E+002
 20
2.146E+001
 11
2.3326E+002
 21
2.146E+001
  0
LINE
  8
1
  6
CONTINUOUS
 62
40
 10
2.3326E+002
 20
2.146E+001
 11
2.3326E+002
 21
2.082E+001
  0
LINE
  8
1
  6
CONTINUOUS
 62
40
 10
2.3326E+002
 20
2.082E+001
 11
2.3234917E+002
 21
2.082E+001
  0
LINE
  8
1
  6
CONTINUOUS
 62
40
 10
2.3234917E+002
 20
2.082E+001
 11
2.3178917E+002
 21
1.922E+001
  0
LINE
  8
1
  6
CONTINUOUS
 62
40
 10
2.3178917E+002
 20
1.922E+001
 11
2.3131483E+002
 21
1.922E+001
  0
LINE
  8
1
  6
CONTINUOUS
 62
40
 10
7.366713E+001
 20
2.7118273E+002
 11
7.366713E+001
 21
2.6818273E+002
  0
LINE
  8
1
  6
CONTINUOUS
 62
40
 10
7.066713E+001
 20
2.7118273E+002
 11
7.366713E+001
 21
2.7118273E+002
  0
LINE
  8
1
  6
CONTINUOUS
 62
40
 10
7.066713E+001
 20
2.7118273E+002
 11
7.066713E+001
 21
2.6818273E+002
  0
LINE
  8
1
  6
CONTINUOUS
 62
40
 10
8.014313E+001
 20
2.6818273E+002
 11
8.314313E+001
 21
2.6818273E+002
  0
LINE
  8
1
  6
CONTINUOUS
 62
40
 10
8.314313E+001
 20
2.7118273E+002
 11
8.314313E+001
 21
2.6818273E+002
  0
LINE
  8
1
  6
CONTINUOUS
 62
40
 10
2.3156853E+002
 20
1.94E+001
 11
2.3222653E+002
 21
2.128E+001
  0
LINE
  8
1
  6
CONTINUOUS
 62
40
 10
2.3222653E+002
 20
2.128E+001
 11
2.3308E+002
 21
2.128E+001
  0
TEXT
  8
1
  6
CONTINUOUS
 62
40
 10
3.1283055E+002
 20
5.6201294E+001
 40
1.45
  1
Controle
 41
6.0E-001
  0
TEXT
  8
1
  6
CONTINUOUS
 62
40
 10
3.1283055E+002
 20
5.4461294E+001
 40
1.45
  1
Normes
 41
6.0E-001
  0
TEXT
  8
1
  6
CONTINUOUS
 62
40
 10
3.1283055E+002
 20
5.2201294E+001
 40
1.45
  1
Remplace
 41
6.0E-001
  0
TEXT
  8
1
  6
CONTINUOUS
 62
40
 10
3.1283055E+002
 20
5.0461294E+001
 40
1.45
  1
par :
 41
6.0E-001
  0
TEXT
  8
1
  6
CONTINUOUS
 62
40
 10
3.5483055E+002
 20
5.6201294E+001
 40
1.45
  1
Bon pour
 41
6.0E-001
  0
TEXT
  8
1
  6
CONTINUOUS
 62
40
 10
3.5483055E+002
 20
5.4461294E+001
 40
1.45
  1
execution
 41
6.0E-001
  0
LINE
  8
1
  6
CONTINUOUS
 62
40
 10
8.014313E+001
 20
2.7118273E+002
 11
8.314313E+001
 21
2.7118273E+002
  0
LINE
  8
1
  6
CONTINUOUS
 62
40
 10
2.3308E+002
 20
2.128E+001
 11
2.3308E+002
 21
2.1E+001
  0
LINE
  8
1
  6
CONTINUOUS
 62
40
 10
2.3308E+002
 20
2.1E+001
 11
2.3222147E+002
 21
2.1E+001
  0
LINE
  8
1
  6
CONTINUOUS
 62
40
 10
2.3222147E+002
 20
2.1E+001
 11
2.3166147E+002
 21
1.94E+001
  0
LINE
  8
1
  6
CONTINUOUS
 62
40
 10
2.3166147E+002
 20
1.94E+001
 11
2.3156853E+002
 21
1.94E+001
  0
LINE
  8
1
  6
CONTINUOUS
 62
40
 10
2.3308E+002
 20
2.115E+001
 11
2.3222147E+002
 21
2.115E+001
  0
LINE
  8
1
  6
CONTINUOUS
 62
40
 10
2.3642771E+002
 20
1.868E+001
 11
2.3804629E+002
 21
1.868E+001
  0
LINE
  8
1
  6
CONTINUOUS
 62
40
 10
2.3804629E+002
 20
1.868E+001
 11
2.3688429E+002
 21
2.2E+001
  0
LINE
  8
1
  6
CONTINUOUS
 62
40
 10
2.3688429E+002
 20
2.2E+001
 11
2.348E+002
 21
2.2E+001
  0
LINE
  8
1
  6
CONTINUOUS
 62
40
 10
2.348E+002
 20
2.2E+001
 11
2.348E+002
 21
2.028E+001
  0
LINE
  8
1
  6
CONTINUOUS
 62
40
 10
2.348E+002
 20
2.028E+001
 11
2.3586771E+002
 21
2.028E+001
  0
LINE
  8
1
  6
CONTINUOUS
 62
40
 10
2.3586771E+002
 20
2.028E+001
 11
2.3642771E+002
 21
1.868E+001
  0
LINE
  8
1
  6
CONTINUOUS
 62
40
 10
2.3655541E+002
 20
1.886E+001
 11
2.3779259E+002
 21
1.886E+001
  0
LINE
  8
1
  6
CONTINUOUS
 62
40
 10
2.3779259E+002
 20
1.886E+001
 11
2.3675659E+002
 21
2.182E+001
  0
LINE
  8
1
  6
CONTINUOUS
 62
40
 10
2.3675659E+002
 20
2.182E+001
 11
2.3498E+002
 21
2.182E+001
  0
LINE
  8
1
  6
CONTINUOUS
 62
40
 10
2.3498E+002
 20
2.182E+001
 11
2.3498E+002
 21
2.046E+001
  0
LINE
  8
1
  6
CONTINUOUS
 62
40
 10
2.3498E+002
 20
2.046E+001
 11
2.3599541E+002
 21
2.046E+001
  0
LINE
  8
1
  6
CONTINUOUS
 62
40
 10
2.3599541E+002
 20
2.046E+001
 11
2.3655541E+002
 21
1.886E+001
  0
LINE
  8
1
  6
CONTINUOUS
 62
40
 10
2.3753888E+002
 20
1.904E+001
 11
2.3662888E+002
 21
2.164E+001
  0
LINE
  8
1
  6
CONTINUOUS
 62
40
 10
2.3662888E+002
 20
2.164E+001
 11
2.3516E+002
 21
2.164E+001
  0
LINE
  8
1
  6
CONTINUOUS
 62
40
 10
2.3516E+002
 20
2.164E+001
 11
2.3516E+002
 21
2.064E+001
  0
LINE
  8
1
  6
CONTINUOUS
 62
40
 10
2.3516E+002
 20
2.064E+001
 11
2.3612312E+002
 21
2.064E+001
  0
LINE
  8
1
  6
CONTINUOUS
 62
40
 10
2.3612312E+002
 20
2.064E+001
 11
2.3668312E+002
 21
1.904E+001
  0
LINE
  8
1
  6
CONTINUOUS
 62
40
 10
2.3668312E+002
 20
1.904E+001
 11
2.3753888E+002
 21
1.904E+001
  0
LINE
  8
1
  6
CONTINUOUS
 62
40
 10
2.3728517E+002
 20
1.922E+001
 11
2.3650117E+002
 21
2.146E+001
  0
LINE
  8
1
  6
CONTINUOUS
 62
40
 10
2.3650117E+002
 20
2.146E+001
 11
2.3534E+002
 21
2.146E+001
  0
LINE
  8
1
  6
CONTINUOUS
 62
40
 10
2.3534E+002
 20
2.146E+001
 11
2.3534E+002
 21
2.082E+001
  0
LINE
  8
1
  6
CONTINUOUS
 62
40
 10
2.3534E+002
 20
2.082E+001
 11
2.3625083E+002
 21
2.082E+001
  0
LINE
  8
1
  6
CONTINUOUS
 62
40
 10
2.3625083E+002
 20
2.082E+001
 11
2.3681083E+002
 21
1.922E+001
  0
LINE
  8
1
  6
CONTINUOUS
 62
40
 10
2.3681083E+002
 20
1.922E+001
 11
2.3728517E+002
 21
1.922E+001
  0
LINE
  8
1
  6
CONTINUOUS
 62
40
 10
2.3703147E+002
 20
1.94E+001
 11
2.3637347E+002
 21
2.128E+001
  0
LINE
  8
1
  6
CONTINUOUS
 62
40
 10
2.3637347E+002
 20
2.128E+001
 11
2.3552E+002
 21
2.128E+001
  0
LINE
  8
1
  6
CONTINUOUS
 62
40
 10
2.3552E+002
 20
2.128E+001
 11
2.3552E+002
 21
2.1E+001
  0
LINE
  8
1
  6
CONTINUOUS
 62
40
 10
2.3552E+002
 20
2.1E+001
 11
2.3637853E+002
 21
2.1E+001
  0
LINE
  8
1
  6
CONTINUOUS
 62
40
 10
2.3637853E+002
 20
2.1E+001
 11
2.3693853E+002
 21
1.94E+001
  0
LINE
  8
1
  6
CONTINUOUS
 62
40
 10
2.3693853E+002
 20
1.94E+001
 11
2.3703147E+002
 21
1.94E+001
  0
LINE
  8
1
  6
CONTINUOUS
 62
40
 10
2.3552E+002
 20
2.115E+001
 11
2.3637853E+002
 21
2.115E+001
  0
LINE
  8
1
  6
CONTINUOUS
 62
40
 10
2.3904E+002
 20
2.3E+001
 11
2.3904E+002
 21
2.632E+001
  0
LINE
  8
1
  6
CONTINUOUS
 62
40
 10
2.3904E+002
 20
2.632E+001
 11
2.4076E+002
 21
2.632E+001
  0
LINE
  8
1
  6
CONTINUOUS
 62
40
 10
2.4076E+002
 20
2.632E+001
 11
2.4076E+002
 21
2.3E+001
  0
LINE
  8
1
  6
CONTINUOUS
 62
40
 10
2.4076E+002
 20
2.3E+001
 11
2.3904E+002
 21
2.3E+001
  0
LINE
  8
1
  6
CONTINUOUS
 62
40
 10
2.4058E+002
 20
2.318E+001
 11
2.3922E+002
 21
2.318E+001
  0
LINE
  8
1
  6
CONTINUOUS
 62
40
 10
2.3922E+002
 20
2.318E+001
 11
2.3922E+002
 21
2.614E+001
  0
LINE
  8
1
  6
CONTINUOUS
 62
40
 10
3.535E+002
 20
4.6E+001
 11
3.965E+002
 21
4.6E+001
  0
LINE
  8
1
  6
CONTINUOUS
 62
40
 10
3.535E+002
 20
4.2E+001
 11
3.965E+002
 21
4.2E+001
  0
LINE
  8
1
  6
CONTINUOUS
 62
40
 10
3.535E+002
 20
3.8E+001
 11
3.965E+002
 21
3.8E+001
  0
LINE
  8
1
  6
CONTINUOUS
 62
40
 10
3.385E+002
 20
3.4E+001
 11
3.965E+002
 21
3.4E+001
  0
TEXT
  8
1
  6
CONTINUOUS
 62
40
 10
2.2669606E+002
 20
5.4832339E+001
 40
2.0
  1
Etabli
 41
5.0E-001
  0
TEXT
  8
1
  6
CONTINUOUS
 62
40
 10
2.3269606E+002
 20
5.0832339E+001
 40
2.0
  1
Issu de :
 41
5.0E-001
  0
TEXT
  8
1
  6
CONTINUOUS
 62
40
 10
2.2968532E+002
 20
3.7081261E+001
 40
2.2
  1
Modif.
 41
5.0E-001
 50
9.0E+001
  0
TEXT
  8
1
  6
CONTINUOUS
 62
40
 10
2.6953012E+002
 20
5.4832339E+001
 40
2.0
  1
Controle
 41
5.0E-001
  0
TEXT
  8
1
  6
CONTINUOUS
 62
40
 10
2.7253012E+002
 20
5.0832339E+001
 40
2.0
  1
Remplace
 41
5.0E-001
  0
LINE
  8
1
  6
CONTINUOUS
 62
40
 10
2.3922E+002
 20
2.614E+001
 11
2.4058E+002
 21
2.614E+001
  0
LINE
  8
1
  6
CONTINUOUS
 62
40
 10
2.4058E+002
 20
2.614E+001
 11
2.4058E+002
 21
2.318E+001
  0
LINE
  8
1
  6
CONTINUOUS
 62
40
 10
2.394E+002
 20
2.336E+001
 11
2.394E+002
 21
2.596E+001
  0
TEXT
  8
1
  6
CONTINUOUS
 62
40
 10
3.4204651E+002
 20
4.6906468E+001
 40
2.0
  1
Echelle
 41
5.0E-001
  0
TEXT
  8
1
  6
CONTINUOUS
 62
40
 10
3.5478476E+002
 20
4.3201045E+001
 40
2.0
  1
Nomenclature separee de numero different
 41
4.5E-001
  0
TEXT
  8
1
  6
CONTINUOUS
 62
40
 10
3.5478476E+002
 20
4.7201045E+001
 40
2.0
  1
Nomenclature separee de meme numero
 41
4.5E-001
  0
TEXT
  8
1
  6
CONTINUOUS
 62
40
 10
3.5478476E+002
 20
5.1201045E+001
 40
2.0
  1
Sans nomenclature separee
 41
4.5E-001
  0
TEXT
  8
1
  6
CONTINUOUS
 62
40
 10
3.5478476E+002
 20
3.1201045E+001
 40
2.0
  1
Service resp.: B E
 41
4.5E-001
  0
TEXT
  8
1
  6
CONTINUOUS
 62
40
 10
3.4011841E+002
 20
2.7130883E+001
 40
2.2
  1
Doc. Type     Format     Langue     Feuil.No    Nb.feuil.
 41
4.5E-001
  0
TEXT
  8
1
  6
CONTINUOUS
 62
40
 10
3.6740098E+002
 20
2.3606885E+001
 40
2.2
  1
F
 41
7.5E-001
  0
TEXT
  8
1
  6
CONTINUOUS
 62
40
 10
3.585488E+002
 20
2.3606885E+001
 40
2.2
  1
3
 41
7.5E-001
  0
TEXT
  8
1
  6
CONTINUOUS
 62
5
 10
2.5700904E+002
 20
2.6746705E+001
 40
2.5
  1
ABB Control
 41
9.0E-001
  0
TEXT
  8
1
  6
CONTINUOUS
 62
40
 10
2.5714853E+002
 20
2.2747949E+001
 40
2.0
  1
Titre
 41
7.5E-001
  0
LINE
  8
1
  6
CONTINUOUS
 62
40
 10
3.25E+001
 20
6.9E+001
 11
3.25E+001
 21
1.5E+001
  0
LINE
  8
1
  6
CONTINUOUS
 62
40
 10
1.95E+001
 20
6.9E+001
 11
3.25E+001
 21
6.9E+001
  0
LINE
  8
1
  6
CONTINUOUS
 62
40
 10
2.394E+002
 20
2.596E+001
 11
2.404E+002
 21
2.596E+001
  0
LINE
  8
1
  6
CONTINUOUS
 62
40
 10
1.95E+001
 20
5.8833333E+001
 11
1.7E+001
 21
5.8833333E+001
  0
LINE
  8
1
  6
CONTINUOUS
 62
40
 10
1.95E+001
 20
1.0266667E+002
 11
1.7E+001
 21
1.0266667E+002
  0
LINE
  8
1
  6
CONTINUOUS
 62
40
 10
1.95E+001
 20
1.465E+002
 11
1.7E+001
 21
1.465E+002
  0
LINE
  8
1
  6
CONTINUOUS
 62
40
 10
1.95E+001
 20
1.9033333E+002
 11
1.7E+001
 21
1.9033333E+002
  0
LINE
  8
1
  6
CONTINUOUS
 62
40
 10
1.95E+001
 20
2.3416667E+002
 11
1.7E+001
 21
2.3416667E+002
  0
TEXT
  8
1
  6
CONTINUOUS
 62
40
 10
1.7E+001
 20
3.6916667E+001
 40
2.0
  1
A
  0
TEXT
  8
1
  6
CONTINUOUS
 62
40
 10
1.7E+001
 20
8.075E+001
 40
2.0
  1
B
  0
TEXT
  8
1
  6
CONTINUOUS
 62
40
 10
1.7E+001
 20
1.2458333E+002
 40
2.0
  1
C
  0
TEXT
  8
1
  6
CONTINUOUS
 62
40
 10
1.7E+001
 20
1.6841667E+002
 40
2.0
  1
D
  0
TEXT
  8
1
  6
CONTINUOUS
 62
40
 10
1.7E+001
 20
2.1225E+002
 40
2.0
  1
E
  0
TEXT
  8
1
  6
CONTINUOUS
 62
40
 10
1.7E+001
 20
2.5608333E+002
 40
2.0
  1
F
  0
TEXT
  8
1
  6
CONTINUOUS
 62
40
 10
3.9764933E+002
 20
3.6799778E+001
 40
2.0
  1
A
  0
LINE
  8
1
  6
CONTINUOUS
 62
40
 10
4.005E+002
 20
5.8833333E+001
 11
3.965E+002
 21
5.8833333E+001
  0
TEXT
  8
1
  6
CONTINUOUS
 62
40
 10
3.9764933E+002
 20
8.0633111E+001
 40
2.0
  1
B
  0
LINE
  8
1
  6
CONTINUOUS
 62
40
 10
4.005E+002
 20
1.0266667E+002
 11
3.965E+002
 21
1.0266667E+002
  0
TEXT
  8
1
  6
CONTINUOUS
 62
40
 10
3.9764933E+002
 20
1.2446644E+002
 40
2.0
  1
C
  0
LINE
  8
1
  6
CONTINUOUS
 62
40
 10
4.005E+002
 20
1.465E+002
 11
3.965E+002
 21
1.465E+002
  0
TEXT
  8
1
  6
CONTINUOUS
 62
40
 10
3.9764933E+002
 20
1.6829978E+002
 40
2.0
  1
D
  0
LINE
  8
1
  6
CONTINUOUS
 62
40
 10
4.005E+002
 20
1.9033333E+002
 11
3.965E+002
 21
1.9033333E+002
  0
TEXT
  8
1
  6
CONTINUOUS
 62
40
 10
3.9764933E+002
 20
2.1213311E+002
 40
2.0
  1
E
  0
LINE
  8
1
  6
CONTINUOUS
 62
40
 10
4.005E+002
 20
2.3416667E+002
 11
3.965E+002
 21
2.3416667E+002
  0
TEXT
  8
1
  6
CONTINUOUS
 62
40
 10
3.9814933E+002
 20
2.5596644E+002
 40
2.0
  1
F
  0
LINE
  8
1
  6
CONTINUOUS
 62
40
 10
4.005E+002
 20
1.5E+001
 11
4.005E+002
 21
3.0E+001
  0
LINE
  8
1
  6
CONTINUOUS
 62
40
 10
3.47625E+002
 20
1.5E+001
 11
3.47625E+002
 21
1.0E+001
  0
LINE
  8
1
  6
CONTINUOUS
 62
40
 10
3.47625E+002
 20
2.78E+002
 11
3.47625E+002
 21
2.83E+002
  0
LINE
  8
1
  6
CONTINUOUS
 62
40
 10
2.9875E+002
 20
1.5E+001
 11
2.9875E+002
 21
1.0E+001
  0
LINE
  8
1
  6
CONTINUOUS
 62
40
 10
2.9875E+002
 20
2.78E+002
 11
2.9875E+002
 21
2.83E+002
  0
LINE
  8
1
  6
CONTINUOUS
 62
40
 10
2.49875E+002
 20
1.5E+001
 11
2.49875E+002
 21
1.0E+001
  0
LINE
  8
1
  6
CONTINUOUS
 62
40
 10
2.49875E+002
 20
2.78E+002
 11
2.49875E+002
 21
2.83E+002
  0
LINE
  8
1
  6
CONTINUOUS
 62
40
 10
2.01E+002
 20
1.5E+001
 11
2.01E+002
 21
1.0E+001
  0
LINE
  8
1
  6
CONTINUOUS
 62
40
 10
2.01E+002
 20
2.78E+002
 11
2.01E+002
 21
2.83E+002
  0
LINE
  8
1
  6
CONTINUOUS
 62
40
 10
1.53125E+002
 20
1.5E+001
 11
1.53125E+002
 21
1.0E+001
  0
LINE
  8
1
  6
CONTINUOUS
 62
40
 10
1.53125E+002
 20
2.78E+002
 11
1.53125E+002
 21
2.83E+002
  0
LINE
  8
1
  6
CONTINUOUS
 62
40
 10
1.0425E+002
 20
1.5E+001
 11
1.0425E+002
 21
1.0E+001
  0
LINE
  8
1
  6
CONTINUOUS
 62
40
 10
1.0425E+002
 20
2.78E+002
 11
1.0425E+002
 21
2.83E+002
  0
LINE
  8
1
  6
CONTINUOUS
 62
40
 10
5.5375E+001
 20
1.5E+001
 11
5.5375E+001
 21
1.0E+001
  0
LINE
  8
1
  6
CONTINUOUS
 62
40
 10
5.5375E+001
 20
2.78E+002
 11
5.5375E+001
 21
2.83E+002
  0
TEXT
  8
1
  6
CONTINUOUS
 62
40
 10
3.720625E+002
 20
1.1249993E+001
 40
2.0
  1
1
  0
TEXT
  8
1
  6
CONTINUOUS
 62
40
 10
3.231875E+002
 20
1.1249993E+001
 40
2.0
  1
2
  0
TEXT
  8
1
  6
CONTINUOUS
 62
40
 10
2.743125E+002
 20
1.1249993E+001
 40
2.0
  1
3
  0
TEXT
  8
1
  6
CONTINUOUS
 62
40
 10
2.254375E+002
 20
1.1249993E+001
 40
2.0
  1
4
  0
TEXT
  8
1
  6
CONTINUOUS
 62
40
 10
1.775625E+002
 20
1.1249993E+001
 40
2.0
  1
5
  0
TEXT
  8
1
  6
CONTINUOUS
 62
40
 10
1.286875E+002
 20
1.1249993E+001
 40
2.0
  1
6
  0
TEXT
  8
1
  6
CONTINUOUS
 62
40
 10
7.98125E+001
 20
1.1249993E+001
 40
2.0
  1
7
  0
TEXT
  8
1
  6
CONTINUOUS
 62
40
 10
3.09375E+001
 20
1.1249993E+001
 40
2.0
  1
8
  0
TEXT
  8
1
  6
CONTINUOUS
 62
40
 10
3.720625E+002
 20
2.7924999E+002
 40
2.0
  1
1
  0
TEXT
  8
1
  6
CONTINUOUS
 62
40
 10
3.231875E+002
 20
2.7924999E+002
 40
2.0
  1
2
  0
TEXT
  8
1
  6
CONTINUOUS
 62
40
 10
2.743125E+002
 20
2.7924999E+002
 40
2.0
  1
3
  0
TEXT
  8
1
  6
CONTINUOUS
 62
40
 10
2.254375E+002
 20
2.7924999E+002
 40
2.0
  1
4
  0
TEXT
  8
1
  6
CONTINUOUS
 62
40
 10
1.775625E+002
 20
2.7924999E+002
 40
2.0
  1
5
  0
TEXT
  8
1
  6
CONTINUOUS
 62
40
 10
1.286875E+002
 20
2.7924999E+002
 40
2.0
  1
6
  0
TEXT
  8
1
  6
CONTINUOUS
 62
40
 10
7.98125E+001
 20
2.7924999E+002
 40
2.0
  1
7
  0
TEXT
  8
1
  6
CONTINUOUS
 62
40
 10
3.09375E+001
 20
2.7924999E+002
 40
2.0
  1
8
  0
LINE
  8
1
  6
CONTINUOUS
 62
40
 10
2.404E+002
 20
2.596E+001
 11
2.404E+002
 21
2.336E+001
  0
LINE
  8
1
  6
CONTINUOUS
 62
40
 10
2.404E+002
 20
2.336E+001
 11
2.394E+002
 21
2.336E+001
  0
LINE
  8
1
  6
CONTINUOUS
 62
40
 10
2.3958E+002
 20
2.354E+001
 11
2.3958E+002
 21
2.578E+001
  0
LINE
  8
1
  6
CONTINUOUS
 62
40
 10
2.3958E+002
 20
2.578E+001
 11
2.4022E+002
 21
2.578E+001
  0
LINE
  8
1
  6
CONTINUOUS
 62
40
 10
2.4022E+002
 20
2.578E+001
 11
2.4022E+002
 21
2.354E+001
  0
LINE
  8
1
  6
CONTINUOUS
 62
40
 10
2.4022E+002
 20
2.354E+001
 11
2.3958E+002
 21
2.354E+001
  0
LINE
  8
1
  6
CONTINUOUS
 62
40
 10
2.3976E+002
 20
2.372E+001
 11
2.3976E+002
 21
2.56E+001
  0
LINE
  8
1
  6
CONTINUOUS
 62
40
 10
2.3976E+002
 20
2.56E+001
 11
2.4004E+002
 21
2.56E+001
  0
LINE
  8
1
  6
CONTINUOUS
 62
40
 10
2.4004E+002
 20
2.56E+001
 11
2.4004E+002
 21
2.372E+001
  0
LINE
  8
1
  6
CONTINUOUS
 62
40
 10
2.4004E+002
 20
2.372E+001
 11
2.3976E+002
 21
2.372E+001
  0
LINE
  8
1
  6
CONTINUOUS
 62
40
 10
2.3992E+002
 20
2.384E+001
 11
2.3988E+002
 21
2.384E+001
  0
LINE
  8
1
  6
CONTINUOUS
 62
40
 10
2.3988E+002
 20
2.384E+001
 11
2.3988E+002
 21
2.548E+001
  0
LINE
  8
1
  6
CONTINUOUS
 62
40
 10
2.3988E+002
 20
2.548E+001
 11
2.3992E+002
 21
2.548E+001
  0
LINE
  8
1
  6
CONTINUOUS
 62
40
 10
2.3992E+002
 20
2.548E+001
 11
2.3992E+002
 21
2.384E+001
  0
LINE
  8
1
  6
CONTINUOUS
 62
40
 10
2.3904E+002
 20
1.868E+001
 11
2.4076E+002
 21
1.868E+001
  0
LINE
  8
1
  6
CONTINUOUS
 62
40
 10
2.4076E+002
 20
1.868E+001
 11
2.4076E+002
 21
2.2E+001
  0
LINE
  8
1
  6
CONTINUOUS
 62
40
 10
2.4076E+002
 20
2.2E+001
 11
2.3904E+002
 21
2.2E+001
  0
LINE
  8
1
  6
CONTINUOUS
 62
40
 10
2.3904E+002
 20
2.2E+001
 11
2.3904E+002
 21
1.868E+001
  0
LINE
  8
1
  6
CONTINUOUS
 62
40
 10
2.3922E+002
 20
2.182E+001
 11
2.3922E+002
 21
1.886E+001
  0
LINE
  8
1
  6
CONTINUOUS
 62
40
 10
2.3922E+002
 20
1.886E+001
 11
2.4058E+002
 21
1.886E+001
  0
LINE
  8
1
  6
CONTINUOUS
 62
40
 10
2.4058E+002
 20
1.886E+001
 11
2.4058E+002
 21
2.182E+001
  0
LINE
  8
1
  6
CONTINUOUS
 62
40
 10
2.4058E+002
 20
2.182E+001
 11
2.3922E+002
 21
2.182E+001
  0
LINE
  8
1
  6
CONTINUOUS
 62
40
 10
2.394E+002
 20
2.164E+001
 11
2.394E+002
 21
1.904E+001
  0
LINE
  8
1
  6
CONTINUOUS
 62
40
 10
2.394E+002
 20
1.904E+001
 11
2.404E+002
 21
1.904E+001
  0
LINE
  8
1
  6
CONTINUOUS
 62
40
 10
2.404E+002
 20
1.904E+001
 11
2.404E+002
 21
2.164E+001
  0
LINE
  8
1
  6
CONTINUOUS
 62
40
 10
2.404E+002
 20
2.164E+001
 11
2.394E+002
 21
2.164E+001
  0
LINE
  8
1
  6
CONTINUOUS
 62
40
 10
2.3958E+002
 20
2.146E+001
 11
2.3958E+002
 21
1.922E+001
  0
LINE
  8
1
  6
CONTINUOUS
 62
40
 10
2.3958E+002
 20
1.922E+001
 11
2.4022E+002
 21
1.922E+001
  0
LINE
  8
1
  6
CONTINUOUS
 62
40
 10
2.4022E+002
 20
1.922E+001
 11
2.4022E+002
 21
2.146E+001
  0
LINE
  8
1
  6
CONTINUOUS
 62
40
 10
2.4022E+002
 20
2.146E+001
 11
2.3958E+002
 21
2.146E+001
  0
LINE
  8
1
  6
CONTINUOUS
 62
40
 10
2.3976E+002
 20
1.94E+001
 11
2.4004E+002
 21
1.94E+001
  0
LINE
  8
1
  6
CONTINUOUS
 62
40
 10
2.4004E+002
 20
1.94E+001
 11
2.4004E+002
 21
2.128E+001
  0
LINE
  8
1
  6
CONTINUOUS
 62
40
 10
2.4004E+002
 20
2.128E+001
 11
2.3976E+002
 21
2.128E+001
  0
LINE
  8
1
  6
CONTINUOUS
 62
40
 10
2.3976E+002
 20
2.128E+001
 11
2.3976E+002
 21
1.94E+001
  0
LINE
  8
1
  6
CONTINUOUS
 62
40
 10
2.3988E+002
 20
1.952E+001
 11
2.3992E+002
 21
1.952E+001
  0
LINE
  8
1
  6
CONTINUOUS
 62
40
 10
2.3992E+002
 20
1.952E+001
 11
2.3992E+002
 21
2.116E+001
  0
LINE
  8
1
  6
CONTINUOUS
 62
40
 10
2.3992E+002
 20
2.116E+001
 11
2.3988E+002
 21
2.116E+001
  0
LINE
  8
1
  6
CONTINUOUS
 62
40
 10
2.3988E+002
 20
2.116E+001
 11
2.3988E+002
 21
1.952E+001
  0
LINE
  8
1
  6
CONTINUOUS
 62
40
 10
2.4176E+002
 20
2.3E+001
 11
2.4176E+002
 21
2.632E+001
  0
LINE
  8
1
  6
CONTINUOUS
 62
40
 10
2.4176E+002
 20
2.632E+001
 11
2.4206E+002
 21
2.632E+001
  0
ARC
  8
1
  6
CONTINUOUS
 62
40
 10
2.4206E+002
 20
2.47E+001
 40
1.62
 50
2.9938468E+002
 51
4.5E+002
  0
ARC
  8
1
  6
CONTINUOUS
 62
40
 10
2.4294321E+002
 20
2.3131579E+001
 40
1.8E-001
 50
1.1938468E+002
 51
2.269698E+002
  0
LINE
  8
1
  6
CONTINUOUS
 62
40
 10
2.4282038E+002
 20
2.3E+001
 11
2.4176E+002
 21
2.3E+001
  0
LINE
  8
1
  6
CONTINUOUS
 62
40
 10
2.4194E+002
 20
2.318E+001
 11
2.4194E+002
 21
2.614E+001
  0
LINE
  8
1
  6
CONTINUOUS
 62
40
 10
2.4194E+002
 20
2.614E+001
 11
2.4206E+002
 21
2.614E+001
  0
ARC
  8
1
  6
CONTINUOUS
 62
40
 10
2.4206E+002
 20
2.47E+001
 40
1.44
 50
2.9938468E+002
 51
4.5E+002
  0
ARC
  8
1
  6
CONTINUOUS
 62
40
 10
2.4294321E+002
 20
2.3131579E+001
 40
3.6E-001
 50
1.1938468E+002
 51
1.7227012E+002
  0
LINE
  8
1
  6
CONTINUOUS
 62
40
 10
2.4258648E+002
 20
2.318E+001
 11
2.4194E+002
 21
2.318E+001
  0
LINE
  8
1
  6
CONTINUOUS
 62
40
 10
2.4212E+002
 20
2.336E+001
 11
2.4212E+002
 21
2.5958571E+001
  0
ARC
  8
1
  6
CONTINUOUS
 62
40
 10
2.4206E+002
 20
2.47E+001
 40
1.26
 50
2.9938468E+002
 51
4.472706E+002
  0
ARC
  8
1
  6
CONTINUOUS
 62
40
 10
2.4294321E+002
 20
2.3131579E+001
 40
5.4E-001
 50
1.1938468E+002
 51
1.5497574E+002
  0
LINE
  8
1
  6
CONTINUOUS
 62
40
 10
2.424539E+002
 20
2.336E+001
 11
2.4212E+002
 21
2.336E+001
  0
LINE
  8
1
  6
CONTINUOUS
 62
40
 10
2.423E+002
 20
2.354E+001
 11
2.423E+002
 21
2.5752996E+001
  0
ARC
  8
1
  6
CONTINUOUS
 62
40
 10
2.4206E+002
 20
2.47E+001
 40
1.08
 50
2.9938468E+002
 51
4.3716041E+002
  0
ARC
  8
1
  6
CONTINUOUS
 62
40
 10
2.4294321E+002
 20
2.3131579E+001
 40
7.2E-001
 50
1.1938468E+002
 51
1.4544122E+002
  0
LINE
  8
1
  6
CONTINUOUS
 62
40
 10
2.4235026E+002
 20
2.354E+001
 11
2.423E+002
 21
2.354E+001
  0
LINE
  8
1
  6
CONTINUOUS
 62
40
 10
2.4248E+002
 20
2.3903226E+001
 11
2.4248E+002
 21
2.549599E+001
  0
ARC
  8
1
  6
CONTINUOUS
 62
40
 10
2.4206E+002
 20
2.47E+001
 40
9.0E-001
 50
2.9938468E+002
 51
4.2218186E+002
  0
ARC
  8
1
  6
CONTINUOUS
 62
40
 10
2.4294321E+002
 20
2.3131579E+001
 40
9.0E-001
 50
1.1938468E+002
 51
1.2097573E+002
  0
LINE
  8
1
  6
CONTINUOUS
 62
40
 10
2.426E+002
 20
2.413715E+001
 11
2.426E+002
 21
2.526285E+001
  0
ARC
  8
1
  6
CONTINUOUS
 62
40
 10
2.4206E+002
 20
2.47E+001
 40
7.8E-001
 50
3.1381306E+002
 51
4.0618694E+002
  0
LINE
  8
1
  6
CONTINUOUS
 62
40
 10
2.4176E+002
 20
1.868E+001
 11
2.4176E+002
 21
2.2E+001
  0
LINE
  8
1
  6
CONTINUOUS
 62
40
 10
2.4176E+002
 20
2.2E+001
 11
2.4398832E+002
 21
2.2E+001
  0
ARC
  8
1
  6
CONTINUOUS
 62
40
 10
2.4206E+002
 20
2.09E+001
 40
2.22
 50
2.7E+002
 51
3.8970243E+002
  0
LINE
  8
1
  6
CONTINUOUS
 62
40
 10
2.4206E+002
 20
1.868E+001
 11
2.4176E+002
 21
1.868E+001
  0
LINE
  8
1
  6
CONTINUOUS
 62
40
 10
2.4194E+002
 20
1.886E+001
 11
2.4194E+002
 21
2.182E+001
  0
LINE
  8
1
  6
CONTINUOUS
 62
40
 10
2.4194E+002
 20
2.182E+001
 11
2.4388077E+002
 21
2.182E+001
  0
ARC
  8
1
  6
CONTINUOUS
 62
40
 10
2.4206E+002
 20
2.09E+001
 40
2.04
 50
2.7E+002
 51
3.868066E+002
  0
LINE
  8
1
  6
CONTINUOUS
 62
40
 10
2.4206E+002
 20
1.886E+001
 11
2.4194E+002
 21
1.886E+001
  0
LINE
  8
1
  6
CONTINUOUS
 62
40
 10
2.4212E+002
 20
1.9040968E+001
 11
2.4212E+002
 21
2.164E+001
  0
LINE
  8
1
  6
CONTINUOUS
 62
40
 10
2.4212E+002
 20
2.164E+001
 11
2.4376646E+002
 21
2.164E+001
  0
ARC
  8
1
  6
CONTINUOUS
 62
40
 10
2.4206E+002
 20
2.09E+001
 40
1.86
 50
2.7184857E+002
 51
3.8344381E+002
  0
LINE
  8
1
  6
CONTINUOUS
 62
40
 10
2.423E+002
 20
1.9237231E+001
 11
2.423E+002
 21
2.146E+001
  0
LINE
  8
1
  6
CONTINUOUS
 62
40
 10
2.423E+002
 20
2.146E+001
 11
2.4364392E+002
 21
2.146E+001
  0
ARC
  8
1
  6
CONTINUOUS
 62
40
 10
2.4206E+002
 20
2.09E+001
 40
1.68
 50
2.7821321E+002
 51
3.7947122E+002
  0
LINE
  8
1
  6
CONTINUOUS
 62
40
 10
2.4248E+002
 20
1.946E+001
 11
2.4248E+002
 21
2.128E+001
  0
LINE
  8
1
  6
CONTINUOUS
 62
40
 10
2.4248E+002
 20
2.128E+001
 11
2.4351107E+002
 21
2.128E+001
  0
ARC
  8
1
  6
CONTINUOUS
 62
40
 10
2.4206E+002
 20
2.09E+001
 40
1.5
 50
2.862602E+002
 51
3.7467485E+002
  0
LINE
  8
1
  6
CONTINUOUS
 62
40
 10
2.4266E+002
 20
1.9724245E+001
 11
2.4266E+002
 21
2.11E+001
  0
LINE
  8
1
  6
CONTINUOUS
 62
40
 10
2.4266E+002
 20
2.11E+001
 11
2.4336476E+002
 21
2.11E+001
  0
ARC
  8
1
  6
CONTINUOUS
 62
40
 10
2.4206E+002
 20
2.09E+001
 40
1.32
 50
2.9703569E+002
 51
3.6871474E+002
  0
LINE
  8
1
  6
CONTINUOUS
 62
40
 10
2.4281E+002
 20
2.0002002E+001
 11
2.4281E+002
 21
2.095E+001
  0
LINE
  8
1
  6
CONTINUOUS
 62
40
 10
2.4281E+002
 20
2.095E+001
 11
2.4322893E+002
 21
2.095E+001
  0
ARC
  8
1
  6
CONTINUOUS
 62
40
 10
2.4206E+002
 20
2.09E+001
 40
1.17
 50
3.0986834E+002
 51
3.6244928E+002
  0
LINE
  8
1
  6
CONTINUOUS
 62
40
 10
2.4528E+002
 20
2.3E+001
 11
2.4528E+002
 21
2.632E+001
  0
LINE
  8
1
  6
CONTINUOUS
 62
40
 10
2.4528E+002
 20
2.632E+001
 11
2.47E+002
 21
2.632E+001
  0
LINE
  8
1
  6
CONTINUOUS
 62
40
 10
2.47E+002
 20
2.632E+001
 11
2.47E+002
 21
2.3E+001
  0
LINE
  8
1
  6
CONTINUOUS
 62
40
 10
2.47E+002
 20
2.3E+001
 11
2.4528E+002
 21
2.3E+001
  0
LINE
  8
1
  6
CONTINUOUS
 62
40
 10
2.4682E+002
 20
2.318E+001
 11
2.4546E+002
 21
2.318E+001
  0
LINE
  8
1
  6
CONTINUOUS
 62
40
 10
2.4546E+002
 20
2.318E+001
 11
2.4546E+002
 21
2.614E+001
  0
LINE
  8
1
  6
CONTINUOUS
 62
40
 10
2.4546E+002
 20
2.614E+001
 11
2.4682E+002
 21
2.614E+001
  0
LINE
  8
1
  6
CONTINUOUS
 62
40
 10
2.4682E+002
 20
2.614E+001
 11
2.4682E+002
 21
2.318E+001
  0
LINE
  8
1
  6
CONTINUOUS
 62
40
 10
2.4564E+002
 20
2.336E+001
 11
2.4564E+002
 21
2.596E+001
  0
LINE
  8
1
  6
CONTINUOUS
 62
40
 10
2.4564E+002
 20
2.596E+001
 11
2.4664E+002
 21
2.596E+001
  0
LINE
  8
1
  6
CONTINUOUS
 62
40
 10
2.4664E+002
 20
2.596E+001
 11
2.4664E+002
 21
2.336E+001
  0
LINE
  8
1
  6
CONTINUOUS
 62
40
 10
2.4664E+002
 20
2.336E+001
 11
2.4564E+002
 21
2.336E+001
  0
LINE
  8
1
  6
CONTINUOUS
 62
40
 10
2.4582E+002
 20
2.354E+001
 11
2.4582E+002
 21
2.578E+001
  0
LINE
  8
1
  6
CONTINUOUS
 62
40
 10
2.4582E+002
 20
2.578E+001
 11
2.4646E+002
 21
2.578E+001
  0
LINE
  8
1
  6
CONTINUOUS
 62
40
 10
2.4646E+002
 20
2.578E+001
 11
2.4646E+002
 21
2.354E+001
  0
LINE
  8
1
  6
CONTINUOUS
 62
40
 10
2.4646E+002
 20
2.354E+001
 11
2.4582E+002
 21
2.354E+001
  0
LINE
  8
1
  6
CONTINUOUS
 62
40
 10
2.4628E+002
 20
2.372E+001
 11
2.46E+002
 21
2.372E+001
  0
LINE
  8
1
  6
CONTINUOUS
 62
40
 10
2.46E+002
 20
2.372E+001
 11
2.46E+002
 21
2.56E+001
  0
LINE
  8
1
  6
CONTINUOUS
 62
40
 10
2.46E+002
 20
2.56E+001
 11
2.4628E+002
 21
2.56E+001
  0
LINE
  8
1
  6
CONTINUOUS
 62
40
 10
2.4628E+002
 20
2.56E+001
 11
2.4628E+002
 21
2.372E+001
  0
LINE
  8
1
  6
CONTINUOUS
 62
40
 10
2.4612E+002
 20
2.384E+001
 11
2.4612E+002
 21
2.548E+001
  0
LINE
  8
1
  6
CONTINUOUS
 62
40
 10
2.4612E+002
 20
2.548E+001
 11
2.4616E+002
 21
2.548E+001
  0
LINE
  8
1
  6
CONTINUOUS
 62
40
 10
2.4616E+002
 20
2.548E+001
 11
2.4616E+002
 21
2.384E+001
  0
LINE
  8
1
  6
CONTINUOUS
 62
1
 10
2.4616E+002
 20
2.384E+001
 11
2.4612E+002
 21
2.384E+001
  0
LINE
  8
1
  6
CONTINUOUS
 62
40
 10
2.4528E+002
 20
1.868E+001
 11
2.47E+002
 21
1.868E+001
  0
LINE
  8
1
  6
CONTINUOUS
 62
40
 10
2.47E+002
 20
1.868E+001
 11
2.47E+002
 21
2.2E+001
  0
LINE
  8
1
  6
CONTINUOUS
 62
40
 10
2.47E+002
 20
2.2E+001
 11
2.4528E+002
 21
2.2E+001
  0
LINE
  8
1
  6
CONTINUOUS
 62
40
 10
2.4528E+002
 20
2.2E+001
 11
2.4528E+002
 21
1.868E+001
  0
LINE
  8
1
  6
CONTINUOUS
 62
40
 10
2.4546E+002
 20
2.182E+001
 11
2.4546E+002
 21
1.886E+001
  0
LINE
  8
1
  6
CONTINUOUS
 62
40
 10
2.4546E+002
 20
1.886E+001
 11
2.4682E+002
 21
1.886E+001
  0
LINE
  8
1
  6
CONTINUOUS
 62
40
 10
2.4682E+002
 20
1.886E+001
 11
2.4682E+002
 21
2.182E+001
  0
LINE
  8
1
  6
CONTINUOUS
 62
40
 10
2.4682E+002
 20
2.182E+001
 11
2.4546E+002
 21
2.182E+001
  0
LINE
  8
1
  6
CONTINUOUS
 62
40
 10
2.4564E+002
 20
2.164E+001
 11
2.4564E+002
 21
1.904E+001
  0
LINE
  8
1
  6
CONTINUOUS
 62
40
 10
2.4564E+002
 20
1.904E+001
 11
2.4664E+002
 21
1.904E+001
  0
LINE
  8
1
  6
CONTINUOUS
 62
40
 10
2.4664E+002
 20
1.904E+001
 11
2.4664E+002
 21
2.164E+001
  0
LINE
  8
1
  6
CONTINUOUS
 62
40
 10
2.4664E+002
 20
2.164E+001
 11
2.4564E+002
 21
2.164E+001
  0
LINE
  8
1
  6
CONTINUOUS
 62
40
 10
2.4582E+002
 20
1.922E+001
 11
2.4646E+002
 21
1.922E+001
  0
LINE
  8
1
  6
CONTINUOUS
 62
40
 10
2.4646E+002
 20
1.922E+001
 11
2.4646E+002
 21
2.146E+001
  0
LINE
  8
1
  6
CONTINUOUS
 62
40
 10
2.4646E+002
 20
2.146E+001
 11
2.4582E+002
 21
2.146E+001
  0
LINE
  8
1
  6
CONTINUOUS
 62
40
 10
2.4582E+002
 20
2.146E+001
 11
2.4582E+002
 21
1.922E+001
  0
LINE
  8
1
  6
CONTINUOUS
 62
40
 10
2.46E+002
 20
2.128E+001
 11
2.46E+002
 21
1.94E+001
  0
LINE
  8
1
  6
CONTINUOUS
 62
40
 10
2.46E+002
 20
1.94E+001
 11
2.4628E+002
 21
1.94E+001
  0
LINE
  8
1
  6
CONTINUOUS
 62
40
 10
2.4628E+002
 20
1.94E+001
 11
2.4628E+002
 21
2.128E+001
  0
LINE
  8
1
  6
CONTINUOUS
 62
40
 10
2.4628E+002
 20
2.128E+001
 11
2.46E+002
 21
2.128E+001
  0
LINE
  8
1
  6
CONTINUOUS
 62
40
 10
2.4612E+002
 20
2.116E+001
 11
2.4612E+002
 21
1.952E+001
  0
LINE
  8
1
  6
CONTINUOUS
 62
40
 10
2.4612E+002
 20
1.952E+001
 11
2.4616E+002
 21
1.952E+001
  0
LINE
  8
1
  6
CONTINUOUS
 62
40
 10
2.4616E+002
 20
1.952E+001
 11
2.4616E+002
 21
2.116E+001
  0
LINE
  8
1
  6
CONTINUOUS
 62
40
 10
2.4616E+002
 20
2.116E+001
 11
2.4612E+002
 21
2.116E+001
  0
LINE
  8
1
  6
CONTINUOUS
 62
40
 10
2.4906038E+002
 20
2.3E+001
 11
2.48E+002
 21
2.3E+001
  0
LINE
  8
1
  6
CONTINUOUS
 62
40
 10
2.48E+002
 20
2.3E+001
 11
2.48E+002
 21
2.632E+001
  0
LINE
  8
1
  6
CONTINUOUS
 62
40
 10
2.48E+002
 20
2.632E+001
 11
2.483E+002
 21
2.632E+001
  0
ARC
  8
1
  6
CONTINUOUS
 62
40
 10
2.483E+002
 20
2.47E+001
 40
1.62
 50
2.9938468E+002
 51
4.5E+002
  0
ARC
  8
1
  6
CONTINUOUS
 62
40
 10
2.4918321E+002
 20
2.3131579E+001
 40
1.8E-001
 50
1.1938468E+002
 51
2.269698E+002
  0
LINE
  8
1
  6
CONTINUOUS
 62
40
 10
2.4818E+002
 20
2.318E+001
 11
2.4818E+002
 21
2.614E+001
  0
LINE
  8
1
  6
CONTINUOUS
 62
40
 10
2.4818E+002
 20
2.614E+001
 11
2.483E+002
 21
2.614E+001
  0
ARC
  8
1
  6
CONTINUOUS
 62
40
 10
2.483E+002
 20
2.47E+001
 40
1.44
 50
2.9938468E+002
 51
4.5E+002
  0
ARC
  8
1
  6
CONTINUOUS
 62
40
 10
2.4918321E+002
 20
2.3131579E+001
 40
3.6E-001
 50
1.1938468E+002
 51
1.7227012E+002
  0
LINE
  8
1
  6
CONTINUOUS
 62
40
 10
2.4882648E+002
 20
2.318E+001
 11
2.4818E+002
 21
2.318E+001
  0
LINE
  8
1
  6
CONTINUOUS
 62
40
 10
2.486939E+002
 20
2.336E+001
 11
2.4836E+002
 21
2.336E+001
  0
LINE
  8
1
  6
CONTINUOUS
 62
40
 10
2.4836E+002
 20
2.336E+001
 11
2.4836E+002
 21
2.5958571E+001
  0
ARC
  8
1
  6
CONTINUOUS
 62
40
 10
2.483E+002
 20
2.47E+001
 40
1.26
 50
2.9938468E+002
 51
4.472706E+002
  0
ARC
  8
1
  6
CONTINUOUS
 62
40
 10
2.4918321E+002
 20
2.3131579E+001
 40
5.4E-001
 50
1.1938468E+002
 51
1.5497574E+002
  0
LINE
  8
1
  6
CONTINUOUS
 62
40
 10
2.4854E+002
 20
2.354E+001
 11
2.4854E+002
 21
2.5752996E+001
  0
ARC
  8
1
  6
CONTINUOUS
 62
40
 10
2.483E+002
 20
2.47E+001
 40
1.08
 50
2.9938468E+002
 51
4.3716041E+002
  0
ARC
  8
1
  6
CONTINUOUS
 62
40
 10
2.4918321E+002
 20
2.3131579E+001
 40
7.2E-001
 50
1.1938468E+002
 51
1.4544122E+002
  0
LINE
  8
1
  6
CONTINUOUS
 62
40
 10
2.4859026E+002
 20
2.354E+001
 11
2.4854E+002
 21
2.354E+001
  0
LINE
  8
1
  6
CONTINUOUS
 62
40
 10
2.4872E+002
 20
2.3903226E+001
 11
2.4872E+002
 21
2.549599E+001
  0
ARC
  8
1
  6
CONTINUOUS
 62
40
 10
2.483E+002
 20
2.47E+001
 40
9.0E-001
 50
2.9938468E+002
 51
4.2218186E+002
  0
ARC
  8
1
  6
CONTINUOUS
 62
40
 10
2.4918321E+002
 20
2.3131579E+001
 40
9.0E-001
 50
1.1938468E+002
 51
1.2097573E+002
  0
LINE
  8
1
  6
CONTINUOUS
 62
40
 10
2.4884E+002
 20
2.413715E+001
 11
2.4884E+002
 21
2.526285E+001
  0
ARC
  8
1
  6
CONTINUOUS
 62
40
 10
2.483E+002
 20
2.47E+001
 40
7.8E-001
 50
3.1381306E+002
 51
4.0618694E+002
  0
LINE
  8
1
  6
CONTINUOUS
 62
40
 10
2.48E+002
 20
1.868E+001
 11
2.48E+002
 21
2.2E+001
  0
LINE
  8
1
  6
CONTINUOUS
 62
40
 10
2.48E+002
 20
2.2E+001
 11
2.5022832E+002
 21
2.2E+001
  0
ARC
  8
1
  6
CONTINUOUS
 62
40
 10
2.483E+002
 20
2.09E+001
 40
2.22
 50
2.7E+002
 51
3.8970243E+002
  0
LINE
  8
1
  6
CONTINUOUS
 62
40
 10
2.483E+002
 20
1.868E+001
 11
2.48E+002
 21
1.868E+001
  0
LINE
  8
1
  6
CONTINUOUS
 62
40
 10
2.4818E+002
 20
1.886E+001
 11
2.4818E+002
 21
2.182E+001
  0
LINE
  8
1
  6
CONTINUOUS
 62
40
 10
2.4818E+002
 20
2.182E+001
 11
2.5012077E+002
 21
2.182E+001
  0
ARC
  8
1
  6
CONTINUOUS
 62
40
 10
2.483E+002
 20
2.09E+001
 40
2.04
 50
2.7E+002
 51
3.868066E+002
  0
LINE
  8
1
  6
CONTINUOUS
 62
40
 10
2.483E+002
 20
1.886E+001
 11
2.4818E+002
 21
1.886E+001
  0
LINE
  8
1
  6
CONTINUOUS
 62
40
 10
2.4836E+002
 20
1.9040968E+001
 11
2.4836E+002
 21
2.164E+001
  0
LINE
  8
1
  6
CONTINUOUS
 62
40
 10
2.4836E+002
 20
2.164E+001
 11
2.5000646E+002
 21
2.164E+001
  0
ARC
  8
1
  6
CONTINUOUS
 62
40
 10
2.483E+002
 20
2.09E+001
 40
1.86
 50
2.7184857E+002
 51
3.8344381E+002
  0
LINE
  8
1
  6
CONTINUOUS
 62
40
 10
2.4854E+002
 20
1.9237231E+001
 11
2.4854E+002
 21
2.146E+001
  0
LINE
  8
1
  6
CONTINUOUS
 62
40
 10
2.4854E+002
 20
2.146E+001
 11
2.4988392E+002
 21
2.146E+001
  0
ARC
  8
1
  6
CONTINUOUS
 62
40
 10
2.483E+002
 20
2.09E+001
 40
1.68
 50
2.7821321E+002
 51
3.7947122E+002
  0
LINE
  8
1
  6
CONTINUOUS
 62
40
 10
2.4872E+002
 20
1.946E+001
 11
2.4872E+002
 21
2.128E+001
  0
LINE
  8
1
  6
CONTINUOUS
 62
40
 10
2.4872E+002
 20
2.128E+001
 11
2.4975107E+002
 21
2.128E+001
  0
ARC
  8
1
  6
CONTINUOUS
 62
40
 10
2.483E+002
 20
2.09E+001
 40
1.5
 50
2.862602E+002
 51
3.7467485E+002
  0
LINE
  8
1
  6
CONTINUOUS
 62
40
 10
2.489E+002
 20
1.9724245E+001
 11
2.489E+002
 21
2.11E+001
  0
LINE
  8
1
  6
CONTINUOUS
 62
40
 10
2.489E+002
 20
2.11E+001
 11
2.4960476E+002
 21
2.11E+001
  0
ARC
  8
1
  6
CONTINUOUS
 62
40
 10
2.483E+002
 20
2.09E+001
 40
1.32
 50
2.9703569E+002
 51
3.6871474E+002
  0
LINE
  8
1
  6
CONTINUOUS
 62
40
 10
2.4908E+002
 20
2.0068616E+001
 11
2.4908E+002
 21
2.092E+001
  0
LINE
  8
1
  6
CONTINUOUS
 62
40
 10
2.4908E+002
 20
2.092E+001
 11
2.4943982E+002
 21
2.092E+001
  0
ARC
  8
1
  6
CONTINUOUS
 62
40
 10
2.483E+002
 20
2.09E+001
 40
1.14
 50
3.1317355E+002
 51
3.6100524E+002
  0
LINE
  8
1
  6
CONTINUOUS
 62
40
 10
2.4292E+002
 20
2.084E+001
 11
2.431183E+002
 21
2.084E+001
  0
ARC
  8
1
  6
CONTINUOUS
 62
40
 10
2.4206E+002
 20
2.09E+001
 40
1.06
 50
3.2422517E+002
 51
3.5675511E+002
  0
LINE
  8
1
  6
CONTINUOUS
 62
40
 10
2.4292E+002
 20
2.0280323E+001
 11
2.4292E+002
 21
2.084E+001
  0
LINE
  8
1
  6
CONTINUOUS
 62
40
 10
2.4919E+002
 20
2.0381541E+001
 11
2.4919E+002
 21
2.081E+001
  0
LINE
  8
1
  6
CONTINUOUS
 62
40
 10
2.4919E+002
 20
2.081E+001
 11
2.4932606E+002
 21
2.081E+001
  0
ARC
  8
1
  6
CONTINUOUS
 62
40
 10
2.483E+002
 20
2.09E+001
 40
1.03
 50
3.2977755E+002
 51
3.5498718E+002
  0
LINE
  8
1
  6
CONTINUOUS
 62
40
 10
8.014313E+001
 20
2.7118273E+002
 11
8.014313E+001
 21
2.6818273E+002
  0
TEXT
  8
1
  6
CONTINUOUS
 62
40
 10
2.2394545E+001
 20
1.7473426E+001
 40
2.0
  1
Ce document, propriete exclusive de notre
 41
6.0E-001
 50
9.0E+001
  0
TEXT
  8
1
  6
CONTINUOUS
 62
40
 10
2.5394545E+001
 20
1.7473426E+001
 40
2.0
  1
Societe, est strictement confidentiel. Il
 41
6.0E-001
 50
9.0E+001
  0
TEXT
  8
1
  6
CONTINUOUS
 62
40
 10
2.8394545E+001
 20
1.7473426E+001
 40
2.0
  1
ne peut etre communique, copie ou
 41
6.0E-001
 50
9.0E+001
  0
TEXT
  8
1
  6
CONTINUOUS
 62
40
 10
3.1394545E+001
 20
1.7473426E+001
 40
2.0
  1
reproduit sans son autorisation ecrite.
 41
6.0E-001
 50
9.0E+001
  0
POINT
  8
1
  6
CONTINUOUS
 62
1
 10
3.965E+002
 20
2.78E+002
  0
POINT
  8
1
  6
CONTINUOUS
 62
1
 10
3.965E+002
 20
2.78E+002
  0
ATTDEF
  8
1
  6
CONTINUOUS
 62
3
 10
3.4057224E+002
 20
1.58802E+001
 40
6.0
  1
 
 41
8.0E-001
  3
N_plan
  2
N_plan
 70
0
  0
ATTDEF
  8
1
  6
CONTINUOUS
 62
5
 10
2.705845E+002
 20
2.2158328E+001
 40
2.5
  1
 
 41
8.0E-001
  3
Appareil
  2
Appareil
 70
0
  0
ATTDEF
  8
1
  6
CONTINUOUS
 62
3
 10
3.044375E+002
 20
1.6254832E+001
 40
3.5
  1
 
 41
8.5E-001
 72
1
 11
2.97E+002
 21
1.6254832E+001
  3
Piece
  2
Piece
 70
0
  0
ATTDEF
  8
1
  6
CONTINUOUS
 62
3
 10
3.6523956E+002
 20
4.453937E+001
 40
8.0
  1
 
 41
7.0E-001
 72
1
 11
3.4563956E+002
 21
4.053937E+001
  3
Echelle
  2
Echelle
 70
0
 73
2
 74
2
  0
ATTDEF
  8
1
  6
CONTINUOUS
 62
40
 10
2.3550289E+002
 20
5.4925552E+001
 40
2.2
  1
 
 41
6.0E-001
  3
Etabli
  2
Etabli
 70
0
  0
ATTDEF
  8
1
  6
CONTINUOUS
 62
40
 10
2.7975314E+002
 20
5.4847514E+001
 40
2.2
  1
 
 41
6.0E-001
  3
Controle
  2
Controle
 70
0
  0
ATTDEF
  8
1
  6
CONTINUOUS
 62
40
 10
3.6490138E+002
 20
5.4716689E+001
 40
2.5
  1
 
 41
5.0E-001
  3
Execution
  2
Execution
 70
0
  0
ATTDEF
  8
1
  6
CONTINUOUS
 62
40
 10
2.4266886E+002
 20
5.0869941E+001
 40
2.2
  1
 
 41
6.0E-001
  3
Issu
  2
Issu
 70
0
  0
ATTDEF
  8
1
  6
CONTINUOUS
 62
40
 10
2.8205203E+002
 20
5.0832642E+001
 40
2.2
  1
 
 41
6.0E-001
  3
Remplace
  2
Remplace
 70
0
  0
ATTDEF
  8
1
  6
CONTINUOUS
 62
40
 10
3.2164064E+002
 20
5.0943037E+001
 40
2.2
  1
 
 41
6.0E-001
  3
Remplace_par
  2
Remplace_par
 70
0
  0
ATTDEF
  8
1
  6
CONTINUOUS
 62
40
 10
2.4248861E+002
 20
3.3211826E+001
 40
2.5
  1
 
 72
1
 11
2.3498861E+002
 21
3.1961826E+001
  3
Indice
  2
Indice
 70
0
 73
2
 74
2
  0
ATTDEF
  8
1
  6
CONTINUOUS
 62
40
 10
4.0821335E+002
 20
1.7713872E+001
 40
2.4
  1
 
 72
1
 11
3.9861335E+002
 21
1.6513872E+001
  3
Indice_2
  2
Indice_2
 70
0
 73
2
 74
2
  0
ATTDEF
  8
1
  6
CONTINUOUS
 62
40
 10
2.401432E+002
 20
3.0659267E+001
 40
2.5
  1
 
 41
5.0E-001
  3
Texte_indice
  2
Texte_indice
 70
0
  0
ATTDEF
  8
1
  6
CONTINUOUS
 62
40
 10
4.2659522E+002
 20
5.3448568E+001
 40
2.9
  1
 
 41
1.3
 72
1
 11
3.9455022E+002
 21
5.1998568E+001
  3
Sans_nomenclature
  2
Sans_nomenclature
 70
0
 73
2
 74
2
  0
ATTDEF
  8
1
  6
CONTINUOUS
 62
40
 10
4.2856844E+002
 20
4.9434386E+001
 40
2.9
  1
 
 41
1.3
 72
1
 11
3.9463844E+002
 21
4.7984386E+001
  3
Nomenc_meme_numero
  2
Nomenc_meme_numero
 70
0
 73
2
 74
2
  0
ATTDEF
  8
1
  6
CONTINUOUS
 62
40
 10
4.2663933E+002
 20
4.5376092E+001
 40
2.9
  1
 
 41
1.3
 72
1
 11
3.9459433E+002
 21
4.3926092E+001
  3
Nomenc_numero_dif
  2
Nomenc_numero_dif
 70
0
 73
2
 74
2
  0
ATTDEF
  8
1
  6
CONTINUOUS
 62
40
 10
5.5410405E+001
 20
2.7117194E+002
 40
3.0
  1
 
 41
1.4
 72
1
 11
5.3310405E+001
 21
2.6967194E+002
  3
f
  2
f
 70
0
 73
2
 74
2
  0
ATTDEF
  8
1
  6
CONTINUOUS
 62
40
 10
6.4886971E+001
 20
2.7118863E+002
 40
3.0
  1
 
 41
1.4
 72
1
 11
6.2786971E+001
 21
2.6968863E+002
  3
m
  2
m
 70
0
 73
2
 74
2
  0
ATTDEF
  8
1
  6
CONTINUOUS
 62
40
 10
7.4380531E+001
 20
2.7118698E+002
 40
3.0
  1
 
 41
1.4
 72
1
 11
7.2280531E+001
 21
2.6968698E+002
  3
c
  2
c
 70
0
 73
2
 74
2
  0
ATTDEF
  8
1
  6
CONTINUOUS
 62
40
 10
8.3855731E+001
 20
2.7117858E+002
 40
3.0
  1
 
 41
1.4
 72
1
 11
8.1755731E+001
 21
2.6967858E+002
  3
v
  2
v
 70
0
 73
2
 74
2
  0
ATTDEF
  8
1
  6
CONTINUOUS
 62
40
 10
1.3471797E+002
 20
2.7195796E+002
 40
2.9
  1
 
 41
1.3
 72
1
 11
1.2906297E+002
 21
2.7050796E+002
  3
130
  2
130
 70
0
 73
2
 74
2
  0
ATTDEF
  8
1
  6
CONTINUOUS
 62
40
 10
1.4770684E+002
 20
2.7193317E+002
 40
2.9
  1
 
 41
1.3
 72
1
 11
1.4205184E+002
 21
2.7048317E+002
  3
140
  2
140
 70
0
 73
2
 74
2
  0
POINT
  8
1
  6
CONTINUOUS
 62
1
 10
3.965E+002
 20
2.78E+002
  0
ENDBLK
  0
BLOCK
  2
ABB-S-E-B
 10
0.0
 20
0.0
 70
0
  0
LINE
  8
1
  6
CONTINUOUS
 62
1
 10
3.5E-001
 20
1.0
 11
4.6E-001
 21
1.0
  0
LINE
  8
1
  6
CONTINUOUS
 62
1
 10
4.6E-001
 20
5.4E-001
 11
4.6E-001
 21
1.0
  0
LINE
  8
1
  6
CONTINUOUS
 62
1
 10
1.89E-001
 20
5.4E-001
 11
4.6E-001
 21
5.4E-001
  0
LINE
  8
1
  6
CONTINUOUS
 62
1
 10
1.89E-001
 20
5.4E-001
 11
3.5E-001
 21
1.0
  0
LINE
  8
1
  6
CONTINUOUS
 62
1
 10
6.5E-001
 20
1.0
 11
8.11E-001
 21
5.4E-001
  0
LINE
  8
1
  6
CONTINUOUS
 62
1
 10
5.4E-001
 20
5.4E-001
 11
8.11E-001
 21
5.4E-001
  0
LINE
  8
1
  6
CONTINUOUS
 62
1
 10
5.4E-001
 20
5.4E-001
 11
5.4E-001
 21
1.0
  0
LINE
  8
1
  6
CONTINUOUS
 62
1
 10
5.4E-001
 20
1.0
 11
6.5E-001
 21
1.0
  0
LINE
  8
1
  6
CONTINUOUS
 62
1
 10
0.0
 20
0.0
 11
1.61E-001
 21
4.6E-001
  0
LINE
  8
1
  6
CONTINUOUS
 62
1
 10
0.0
 20
0.0
 11
2.5E-001
 21
0.0
  0
LINE
  8
1
  6
CONTINUOUS
 62
1
 10
2.5E-001
 20
0.0
 11
3.2E-001
 21
2.0E-001
  0
LINE
  8
1
  6
CONTINUOUS
 62
1
 10
3.2E-001
 20
2.0E-001
 11
4.6E-001
 21
2.0E-001
  0
LINE
  8
1
  6
CONTINUOUS
 62
1
 10
4.6E-001
 20
2.0E-001
 11
4.6E-001
 21
4.6E-001
  0
LINE
  8
1
  6
CONTINUOUS
 62
1
 10
1.61E-001
 20
4.6E-001
 11
4.6E-001
 21
4.6E-001
  0
LINE
  8
1
  6
CONTINUOUS
 62
1
 10
5.4E-001
 20
2.0E-001
 11
6.8E-001
 21
2.0E-001
  0
LINE
  8
1
  6
CONTINUOUS
 62
1
 10
7.5E-001
 20
0.0
 11
6.8E-001
 21
2.0E-001
  0
LINE
  8
1
  6
CONTINUOUS
 62
1
 10
7.5E-001
 20
0.0
 11
1.0
 21
0.0
  0
LINE
  8
1
  6
CONTINUOUS
 62
1
 10
8.39E-001
 20
4.6E-001
 11
1.0
 21
0.0
  0
LINE
  8
1
  6
CONTINUOUS
 62
1
 10
5.4E-001
 20
4.6E-001
 11
8.39E-001
 21
4.6E-001
  0
LINE
  8
1
  6
CONTINUOUS
 62
1
 10
5.4E-001
 20
2.0E-001
 11
5.4E-001
 21
4.6E-001
  0
LINE
  8
1
  6
CONTINUOUS
 62
1
 10
1.07
 20
1.0
 11
1.07
 21
5.4E-001
  0
LINE
  8
1
  6
CONTINUOUS
 62
1
 10
1.07
 20
5.4E-001
 11
1.33
 21
5.4E-001
  0
LINE
  8
1
  6
CONTINUOUS
 62
1
 10
1.33
 20
1.0
 11
1.33
 21
5.4E-001
  0
LINE
  8
1
  6
CONTINUOUS
 62
1
 10
1.07
 20
1.0
 11
1.33
 21
1.0
  0
LINE
  8
1
  6
CONTINUOUS
 62
1
 10
1.41
 20
1.0
 11
1.41
 21
5.4E-001
  0
LINE
  8
1
  6
CONTINUOUS
 62
1
 10
1.41
 20
1.0
 11
1.47
 21
1.0
  0
ARC
  8
1
  6
CONTINUOUS
 62
1
 10
1.47
 20
7.75E-001
 40
2.25E-001
 50
2.9938468E+002
 51
4.5E+002
  0
ARC
  8
1
  6
CONTINUOUS
 62
1
 10
1.47
 20
3.0E-001
 40
3.0E-001
 50
5.3130102E+001
 51
6.8407484E+001
  0
LINE
  8
1
  6
CONTINUOUS
 62
1
 10
1.41
 20
5.4E-001
 11
1.65
 21
5.4E-001
  0
LINE
  8
1
  6
CONTINUOUS
 62
1
 10
1.07
 20
0.0
 11
1.33
 21
0.0
  0
LINE
  8
1
  6
CONTINUOUS
 62
1
 10
1.33
 20
4.6E-001
 11
1.33
 21
0.0
  0
LINE
  8
1
  6
CONTINUOUS
 62
1
 10
1.07
 20
4.6E-001
 11
1.33
 21
4.6E-001
  0
LINE
  8
1
  6
CONTINUOUS
 62
1
 10
1.07
 20
4.6E-001
 11
1.07
 21
0.0
  0
LINE
  8
1
  6
CONTINUOUS
 62
1
 10
1.41
 20
0.0
 11
1.47
 21
0.0
  0
ARC
  8
1
  6
CONTINUOUS
 62
1
 10
1.47
 20
3.0E-001
 40
3.0E-001
 50
2.7E+002
 51
3.9223095E+002
  0
LINE
  8
1
  6
CONTINUOUS
 62
1
 10
1.41
 20
4.6E-001
 11
1.7237716
 21
4.6E-001
  0
LINE
  8
1
  6
CONTINUOUS
 62
1
 10
1.41
 20
4.6E-001
 11
1.41
 21
0.0
  0
LINE
  8
1
  6
CONTINUOUS
 62
1
 10
1.85
 20
5.4E-001
 11
2.11
 21
5.4E-001
  0
LINE
  8
1
  6
CONTINUOUS
 62
1
 10
2.11
 20
1.0
 11
2.11
 21
5.4E-001
  0
LINE
  8
1
  6
CONTINUOUS
 62
1
 10
1.85
 20
1.0
 11
2.11
 21
1.0
  0
LINE
  8
1
  6
CONTINUOUS
 62
1
 10
1.85
 20
1.0
 11
1.85
 21
5.4E-001
  0
LINE
  8
1
  6
CONTINUOUS
 62
1
 10
2.19
 20
1.0
 11
2.19
 21
5.4E-001
  0
LINE
  8
1
  6
CONTINUOUS
 62
1
 10
2.19
 20
1.0
 11
2.25
 21
1.0
  0
ARC
  8
1
  6
CONTINUOUS
 62
1
 10
2.25
 20
7.75E-001
 40
2.25E-001
 50
2.9938468E+002
 51
4.5E+002
  0
ARC
  8
1
  6
CONTINUOUS
 62
1
 10
2.25
 20
3.0E-001
 40
3.0E-001
 50
5.3130102E+001
 51
6.8407484E+001
  0
LINE
  8
1
  6
CONTINUOUS
 62
1
 10
2.19
 20
5.4E-001
 11
2.43
 21
5.4E-001
  0
LINE
  8
1
  6
CONTINUOUS
 62
1
 10
1.85
 20
0.0
 11
2.11
 21
0.0
  0
LINE
  8
1
  6
CONTINUOUS
 62
1
 10
2.11
 20
4.6E-001
 11
2.11
 21
0.0
  0
LINE
  8
1
  6
CONTINUOUS
 62
1
 10
1.85
 20
4.6E-001
 11
2.11
 21
4.6E-001
  0
LINE
  8
1
  6
CONTINUOUS
 62
1
 10
1.85
 20
4.6E-001
 11
1.85
 21
0.0
  0
LINE
  8
1
  6
CONTINUOUS
 62
1
 10
2.19
 20
4.6E-001
 11
2.19
 21
0.0
  0
LINE
  8
1
  6
CONTINUOUS
 62
1
 10
2.19
 20
4.6E-001
 11
2.5037716
 21
4.6E-001
  0
ARC
  8
1
  6
CONTINUOUS
 62
1
 10
2.25
 20
3.0E-001
 40
3.0E-001
 50
2.7E+002
 51
3.9223095E+002
  0
LINE
  8
1
  6
CONTINUOUS
 62
1
 10
2.19
 20
0.0
 11
2.25
 21
0.0
  0
ENDBLK
  0
BLOCK
  2
CE
 10
0.0
 20
0.0
 70
0
  0
LINE
  8
1
  6
CONTINUOUS
 62
1
 10
5.0E-001
 20
1.5E-001
 11
5.5E-001
 21
1.5E-001
  0
ARC
  8
1
  6
CONTINUOUS
 62
1
 10
5.0E-001
 20
5.0E-001
 40
3.5E-001
 50
9.0E+001
 51
2.7E+002
  0
LINE
  8
1
  6
CONTINUOUS
 62
1
 10
5.5E-001
 20
1.0
 11
5.5E-001
 21
8.5E-001
  0
LINE
  8
1
  6
CONTINUOUS
 62
1
 10
5.0E-001
 20
1.0
 11
5.5E-001
 21
1.0
  0
ARC
  8
1
  6
CONTINUOUS
 62
1
 10
5.0E-001
 20
5.0E-001
 40
5.0E-001
 50
9.0E+001
 51
2.7E+002
  0
LINE
  8
1
  6
CONTINUOUS
 62
1
 10
5.0E-001
 20
0.0
 11
5.5E-001
 21
0.0
  0
LINE
  8
1
  6
CONTINUOUS
 62
1
 10
5.5E-001
 20
1.5E-001
 11
5.5E-001
 21
0.0
  0
LINE
  8
1
  6
CONTINUOUS
 62
1
 10
5.0E-001
 20
8.5E-001
 11
5.5E-001
 21
8.5E-001
  0
LINE
  8
1
  6
CONTINUOUS
 62
1
 10
1.4
 20
8.5E-001
 11
1.35
 21
8.5E-001
  0
LINE
  8
1
  6
CONTINUOUS
 62
1
 10
1.4
 20
1.0
 11
1.4
 21
8.5E-001
  0
LINE
  8
1
  6
CONTINUOUS
 62
1
 10
1.4
 20
1.0
 11
1.35
 21
1.0
  0
ARC
  8
1
  6
CONTINUOUS
 62
1
 10
1.35
 20
5.0E-001
 40
5.0E-001
 50
9.0E+001
 51
2.7E+002
  0
LINE
  8
1
  6
CONTINUOUS
 62
1
 10
1.4
 20
0.0
 11
1.35
 21
0.0
  0
LINE
  8
1
  6
CONTINUOUS
 62
1
 10
1.4
 20
1.5E-001
 11
1.4
 21
0.0
  0
ARC
  8
1
  6
CONTINUOUS
 62
1
 10
1.35
 20
5.0E-001
 40
3.5E-001
 50
1.9237363E+002
 51
2.7E+002
  0
LINE
  8
1
  6
CONTINUOUS
 62
1
 10
1.0081301
 20
4.25E-001
 11
1.3
 21
4.25E-001
  0
LINE
  8
1
  6
CONTINUOUS
 62
1
 10
1.3
 20
5.75E-001
 11
1.3
 21
4.25E-001
  0
LINE
  8
1
  6
CONTINUOUS
 62
1
 10
1.0081301
 20
5.75E-001
 11
1.3
 21
5.75E-001
  0
ARC
  8
1
  6
CONTINUOUS
 62
1
 10
1.35
 20
5.0E-001
 40
3.5E-001
 50
9.0E+001
 51
1.6762637E+002
  0
LINE
  8
1
  6
CONTINUOUS
 62
1
 10
1.4
 20
1.5E-001
 11
1.35
 21
1.5E-001
  0
ENDBLK
  0
BLOCK
  2
*FC51
  3
*FC
 10
0.0
 20
0.0
 70
65
  0
LINE
  8
1
  6
CONTINUOUS
 62
1
 10
0.0
 20
0.0
 11
0.0
 21
0.0
  0
LINE
  8
1
  6
CONTINUOUS
 62
1
 10
0.0
 20
0.0
 11
-3.4998314E+001
 21
0.0
  0
LINE
  8
1
  6
CONTINUOUS
 62
1
 10
-3.4998314E+001
 20
0.0
 11
-6.0520292E+001
 21
-1.6362848E+001
  0
INSERT
  2
_AH16
  8
1
 10
-6.0520292E+001
 20
-1.6362848E+001
 41
3.5001001
 43
3.5001001
 42
3.5001001
 50
3.2665058E+001
  0
ENDBLK
  0
BLOCK
  2
*FC52
  3
*FC
 10
0.0
 20
0.0
 70
65
  0
LINE
  8
1
  6
CONTINUOUS
 62
1
 10
0.0
 20
0.0
 11
0.0
 21
0.0
  0
LINE
  8
1
  6
CONTINUOUS
 62
1
 10
0.0
 20
0.0
 11
-3.1513634E+001
 21
0.0
  0
LINE
  8
1
  6
CONTINUOUS
 62
1
 10
-3.1513634E+001
 20
0.0
 11
-6.592958E+001
 21
-8.026547
  0
INSERT
  2
_AH16
  8
1
 10
-6.592958E+001
 20
-8.026547
 41
3.5001001
 43
3.5001001
 42
3.5001001
 50
1.3127959E+001
  0
ENDBLK
  0
BLOCK
  2
*FC53
  3
*FC
 10
0.0
 20
0.0
 70
65
  0
LINE
  8
1
  6
CONTINUOUS
 62
1
 10
0.0
 20
0.0
 11
0.0
 21
0.0
  0
LINE
  8
1
  6
CONTINUOUS
 62
1
 10
0.0
 20
0.0
 11
-3.2696334E+001
 21
0.0
  0
LINE
  8
1
  6
CONTINUOUS
 62
1
 10
-3.2696334E+001
 20
0.0
 11
-6.0787551E+001
 21
8.618593
  0
INSERT
  2
_AH16
  8
1
 10
-6.0787551E+001
 20
8.618593
 41
3.5001001
 43
3.5001001
 42
3.5001001
 50
3.429436E+002
  0
ENDBLK
  0
BLOCK
  2
*FC54
  3
*FC
 10
0.0
 20
0.0
 70
65
  0
LINE
  8
1
  6
CONTINUOUS
 62
1
 10
0.0
 20
0.0
 11
0.0
 21
0.0
  0
LINE
  8
1
  6
CONTINUOUS
 62
1
 10
0.0
 20
0.0
 11
-1.6731927E+001
 21
0.0
  0
LINE
  8
1
  6
CONTINUOUS
 62
1
 10
-1.6731927E+001
 20
0.0
 11
-5.3572867E+001
 21
1.3534614E+001
  0
INSERT
  2
_AH16
  8
1
 10
-5.3572867E+001
 20
1.3534614E+001
 41
3.5001001
 43
3.5001001
 42
3.5001001
 50
3.3982769E+002
  0
ENDBLK
  0
BLOCK
  2
*FC55
  3
*FC
 10
0.0
 20
0.0
 70
65
  0
LINE
  8
1
  6
CONTINUOUS
 62
1
 10
0.0
 20
0.0
 11
0.0
 21
0.0
  0
LINE
  8
1
  6
CONTINUOUS
 62
1
 10
0.0
 20
0.0
 11
-2.5538386E+001
 21
0.0
  0
LINE
  8
1
  6
CONTINUOUS
 62
1
 10
-2.5538386E+001
 20
0.0
 11
-5.9453363E+001
 21
-2.6968536E+001
  0
INSERT
  2
_AH16
  8
1
 10
-5.9453363E+001
 20
-2.6968536E+001
 41
3.5001001
 43
3.5001001
 42
3.5001001
 50
3.8491044E+001
  0
ENDBLK
  0
BLOCK
  2
*FC56
  3
*FC
 10
0.0
 20
0.0
 70
65
  0
LINE
  8
1
  6
CONTINUOUS
 62
1
 10
0.0
 20
0.0
 11
0.0
 21
0.0
  0
LINE
  8
1
  6
CONTINUOUS
 62
1
 10
0.0
 20
0.0
 11
3.7786081E+001
 21
0.0
  0
LINE
  8
1
  6
CONTINUOUS
 62
1
 10
3.7786081E+001
 20
0.0
 11
5.1305933E+001
 21
-5.529992
  0
INSERT
  2
_AH16
  8
1
 10
5.1305933E+001
 20
-5.529992
 41
3.5001001
 43
3.5001001
 42
3.5001001
 50
1.5775409E+002
  0
ENDBLK
  0
BLOCK
  2
*FC57
  3
*FC
 10
0.0
 20
0.0
 70
65
  0
LINE
  8
1
  6
CONTINUOUS
 62
1
 10
0.0
 20
0.0
 11
0.0
 21
0.0
  0
LINE
  8
1
  6
CONTINUOUS
 62
1
 10
0.0
 20
0.0
 11
3.0496834E+001
 21
0.0
  0
LINE
  8
1
  6
CONTINUOUS
 62
1
 10
3.0496834E+001
 20
0.0
 11
4.3546908E+001
 21
-7.052855
  0
INSERT
  2
_AH16
  8
1
 10
4.3546908E+001
 20
-7.052855
 41
3.5001001
 43
3.5001001
 42
3.5001001
 50
1.5161119E+002
  0
ENDBLK
  0
BLOCK
  2
*FC58
  3
*FC
 10
0.0
 20
0.0
 70
65
  0
LINE
  8
1
  6
CONTINUOUS
 62
1
 10
0.0
 20
0.0
 11
0.0
 21
0.0
  0
LINE
  8
1
  6
CONTINUOUS
 62
1
 10
0.0
 20
0.0
 11
4.06837E+001
 21
0.0
  0
LINE
  8
1
  6
CONTINUOUS
 62
1
 10
4.06837E+001
 20
0.0
 11
5.4613546E+001
 21
6.412705
  0
INSERT
  2
_AH16
  8
1
 10
5.4613546E+001
 20
6.412705
 41
3.5001001
 43
3.5001001
 42
3.5001001
 50
2.0471932E+002
  0
ENDBLK
  0
BLOCK
  2
*FC59
  3
*FC
 10
0.0
 20
0.0
 70
65
  0
LINE
  8
1
  6
CONTINUOUS
 62
1
 10
0.0
 20
0.0
 11
0.0
 21
0.0
  0
LINE
  8
1
  6
CONTINUOUS
 62
1
 10
0.0
 20
0.0
 11
1.8781292E+001
 21
0.0
  0
LINE
  8
1
  6
CONTINUOUS
 62
1
 10
1.8781292E+001
 20
0.0
 11
3.571199E+001
 21
1.721968E+001
  0
INSERT
  2
_AH16
  8
1
 10
3.571199E+001
 20
1.721968E+001
 41
3.5001001
 43
3.5001001
 42
3.5001001
 50
2.2548483E+002
  0
ENDBLK
  0
BLOCK
  2
*FC60
  3
*FC
 10
0.0
 20
0.0
 70
65
  0
LINE
  8
1
  6
CONTINUOUS
 62
1
 10
0.0
 20
0.0
 11
0.0
 21
0.0
  0
LINE
  8
1
  6
CONTINUOUS
 62
1
 10
0.0
 20
0.0
 11
1.8363219E+001
 21
0.0
  0
LINE
  8
1
  6
CONTINUOUS
 62
1
 10
1.8363219E+001
 20
0.0
 11
2.7095092E+001
 21
-1.3557379E+001
  0
INSERT
  2
_AH16
  8
1
 10
2.7095092E+001
 20
-1.3557379E+001
 41
3.5001001
 43
3.5001001
 42
3.5001001
 50
1.2278429E+002
  0
ENDBLK
  0
BLOCK
  2
*FC61
  3
*FC
 10
0.0
 20
0.0
 70
65
  0
LINE
  8
1
  6
CONTINUOUS
 62
1
 10
0.0
 20
0.0
 11
0.0
 21
0.0
  0
LINE
  8
1
  6
CONTINUOUS
 62
1
 10
0.0
 20
0.0
 11
-2.5838512E+001
 21
0.0
  0
LINE
  8
1
  6
CONTINUOUS
 62
1
 10
-2.5838512E+001
 20
0.0
 11
-5.7202241E+001
 21
-2.193836E+001
  0
INSERT
  2
_AH16
  8
1
 10
-5.7202241E+001
 20
-2.193836E+001
 41
3.5001001
 43
3.5001001
 42
3.5001001
 50
3.4972092E+001
  0
ENDBLK
  0
BLOCK
  2
ETIQUETTE
 10
0.0
 20
0.0
 70
0
  0
LINE
  8
1
  6
CONTINUOUS
 62
3
 10
-1.1181344E+002
 20
1.7396987E+002
 11
-6.9813441E+001
 21
1.7396987E+002
  0
LINE
  8
1
  6
CONTINUOUS
 62
3
 10
-1.1795038E+002
 20
6.8546434E+001
 11
-1.1795038E+002
 21
3.8546434E+001
  0
LINE
  8
1
  6
CONTINUOUS
 62
3
 10
-6.1950377E+001
 20
6.8546434E+001
 11
-6.1950377E+001
 21
3.8546434E+001
  0
LINE
  8
1
  6
CONTINUOUS
 62
3
 10
-1.1181344E+002
 20
1.3196987E+002
 11
-1.1181344E+002
 21
1.7396987E+002
  0
LINE
  8
1
  6
CONTINUOUS
 62
3
 10
-1.1181344E+002
 20
1.3196987E+002
 11
-6.9813441E+001
 21
1.3196987E+002
  0
LINE
  8
1
  6
CONTINUOUS
 62
3
 10
-6.9813441E+001
 20
1.7396987E+002
 11
-6.9813441E+001
 21
1.3196987E+002
  0
LINE
  8
1
  6
CONTINUOUS
 62
3
 10
-1.1795038E+002
 20
6.8546434E+001
 11
-6.1950377E+001
 21
6.8546434E+001
  0
LINE
  8
1
  6
CONTINUOUS
 62
3
 10
-6.1950377E+001
 20
3.8546434E+001
 11
-1.1795038E+002
 21
3.8546434E+001
  0
INSERT
  2
CE
  8
1
 10
-7.1956506E+001
 20
4.2056532E+001
 41
5.0
 43
5.0
 42
5.0
  0
INSERT
  2
ABB-S-E-B
  8
1
 10
-1.0981344E+002
 20
1.6896987E+002
 41
4.0
 43
4.0
 42
4.0
  0
LINE
  8
1
  6
CONTINUOUS
 62
1
 10
-1.1031344E+002
 20
1.4596987E+002
 11
-1.1031344E+002
 21
1.4296987E+002
  0
TEXT
  8
1
  6
CONTINUOUS
 62
1
 10
-1.1031344E+002
 20
1.6946987E+002
 40
2.0
  1
F:
 41
7.0E-001
 11
-1.1031344E+002
 21
1.6746987E+002
 73
3
  0
TEXT
  8
1
  6
CONTINUOUS
 62
1
 10
-1.1031344E+002
 20
1.6596987E+002
 40
2.0
  1
S:
 41
7.0E-001
 11
-1.1031344E+002
 21
1.6396987E+002
 73
3
  0
TEXT
  8
1
  6
CONTINUOUS
 62
1
 10
-1.1031344E+002
 20
1.6246987E+002
 40
2.0
  1
I:
 41
7.0E-001
 11
-1.1031344E+002
 21
1.6046987E+002
 73
3
  0
LINE
  8
1
  6
CONTINUOUS
 62
1
 10
-1.1031344E+002
 20
1.4596987E+002
 11
-1.0231344E+002
 21
1.4596987E+002
  0
LINE
  8
1
  6
CONTINUOUS
 62
1
 10
-1.1031344E+002
 20
1.4296987E+002
 11
-1.0231344E+002
 21
1.4296987E+002
  0
LINE
  8
1
  6
CONTINUOUS
 62
1
 10
-1.1495038E+002
 20
4.0624762E+001
 11
-1.0695038E+002
 21
4.0624762E+001
  0
INSERT
  2
*FC57
  8
1
 10
-1.5849729E+002
 20
6.1099289E+001
  0
LINE
  8
1
  6
CONTINUOUS
 62
1
 10
-1.1495038E+002
 20
4.0624762E+001
 11
-1.1495038E+002
 21
5.0624762E+001
  0
LINE
  8
1
  6
CONTINUOUS
 62
1
 10
-1.0695038E+002
 20
5.0624762E+001
 11
-1.0695038E+002
 21
4.0624762E+001
  0
TEXT
  8
1
  6
CONTINUOUS
 62
1
 10
-1.1614918E+002
 20
6.9566405E+001
 40
2.0
  1
F:
 41
7.0E-001
 11
-1.1614918E+002
 21
6.7566405E+001
 73
3
  0
INSERT
  2
CE
  8
1
 10
-1.0981344E+002
 20
1.3546987E+002
 41
5.0
 43
5.0
 42
5.0
  0
TEXT
  8
1
  6
CONTINUOUS
 62
1
 10
-1.1614918E+002
 20
6.6066405E+001
 40
2.0
  1
S:
 41
7.0E-001
 11
-1.1614918E+002
 21
6.4066405E+001
 73
3
  0
LINE
  8
1
  6
CONTINUOUS
 62
1
 10
-1.0231344E+002
 20
1.4596987E+002
 11
-1.0231344E+002
 21
1.4296987E+002
  0
LINE
  8
1
  6
CONTINUOUS
 62
1
 10
-1.1031344E+002
 20
1.4746987E+002
 11
-9.8813441E+001
 21
1.4746987E+002
  0
LINE
  8
1
  6
CONTINUOUS
 62
1
 10
-1.1031344E+002
 20
1.5746987E+002
 11
-9.8813441E+001
 21
1.5746987E+002
  0
LINE
  8
1
  6
CONTINUOUS
 62
1
 10
-1.1031344E+002
 20
1.5746987E+002
 11
-1.1031344E+002
 21
1.4746987E+002
  0
LINE
  8
1
  6
CONTINUOUS
 62
1
 10
-9.8813441E+001
 20
1.5746987E+002
 11
-9.8813441E+001
 21
1.4746987E+002
  0
TEXT
  8
1
  6
CONTINUOUS
 62
1
 10
-1.1614918E+002
 20
6.2566405E+001
 40
2.0
  1
I:
 41
7.0E-001
 11
-1.1614918E+002
 21
6.0566405E+001
 73
3
  0
LINE
  8
1
  6
CONTINUOUS
 62
1
 10
-1.1327825E+002
 20
6.0566405E+001
 11
-1.0290901E+002
 21
6.0566405E+001
  0
LINE
  8
1
  6
CONTINUOUS
 62
1
 10
-9.4813441E+001
 20
1.5896987E+002
 11
-9.4813441E+001
 21
1.5596987E+002
  0
LINE
  8
1
  6
CONTINUOUS
 62
1
 10
-1.0290901E+002
 20
6.0566405E+001
 11
-1.0290901E+002
 21
5.8566405E+001
  0
LINE
  8
1
  6
CONTINUOUS
 62
1
 10
-1.1327825E+002
 20
5.8566405E+001
 11
-1.0290901E+002
 21
5.8566405E+001
  0
LINE
  8
1
  6
CONTINUOUS
 62
1
 10
-1.1327825E+002
 20
6.0566405E+001
 11
-1.1327825E+002
 21
5.8566405E+001
  0
LINE
  8
1
  6
CONTINUOUS
 62
1
 10
-1.1327825E+002
 20
6.4066405E+001
 11
-1.1327825E+002
 21
6.2066405E+001
  0
LINE
  8
1
  6
CONTINUOUS
 62
1
 10
-1.1327825E+002
 20
6.4066405E+001
 11
-1.0290901E+002
 21
6.4066405E+001
  0
TEXT
  8
1
  6
CONTINUOUS
 62
1
 10
-9.4813441E+001
 20
1.7416987E+002
 40
1.2
  1
AUXILIARY CONTACT
 41
8.0E-001
 11
-9.4813441E+001
 21
1.7296987E+002
 73
3
  0
TEXT
  8
1
  6
CONTINUOUS
 62
1
 10
-9.4813441E+001
 20
1.7216987E+002
 40
1.2
  1
HILFSSCHALTER
 41
8.0E-001
 11
-9.4813441E+001
 21
1.7096987E+002
 73
3
  0
TEXT
  8
1
  6
CONTINUOUS
 62
1
 10
-9.4813441E+001
 20
1.7016987E+002
 40
1.2
  1
CONTACT AUXILIAIRE
 41
8.0E-001
 11
-9.4813441E+001
 21
1.6896987E+002
 73
3
  0
TEXT
  8
1
  6
CONTINUOUS
 62
1
 10
-9.4813441E+001
 20
1.6816987E+002
 40
1.2
  1
HJALPKONTAKT
 41
8.0E-001
 11
-9.4813441E+001
 21
1.6696987E+002
 73
3
  0
TEXT
  8
1
  6
CONTINUOUS
 62
1
 10
-9.4813441E+001
 20
1.6616987E+002
 40
1.2
  1
CONTACTO AUSILIARIO
 41
8.0E-001
 11
-9.4813441E+001
 21
1.6496987E+002
 73
3
  0
TEXT
  8
1
  6
CONTINUOUS
 62
1
 10
-9.4813441E+001
 20
1.6416987E+002
 40
1.2
  1
CONTACTO AUXILIAR
 41
8.0E-001
 11
-9.4813441E+001
 21
1.6296987E+002
 73
3
  0
LINE
  8
1
  6
CONTINUOUS
 62
1
 10
-1.0290901E+002
 20
6.4066405E+001
 11
-1.0290901E+002
 21
6.2066405E+001
  0
LINE
  8
1
  6
CONTINUOUS
 62
1
 10
-1.0744251E+002
 20
1.6746987E+002
 11
-9.707327E+001
 21
1.6746987E+002
  0
LINE
  8
1
  6
CONTINUOUS
 62
1
 10
-1.0744251E+002
 20
1.6546987E+002
 11
-9.707327E+001
 21
1.6546987E+002
  0
LINE
  8
1
  6
CONTINUOUS
 62
1
 10
-1.0744251E+002
 20
1.6746987E+002
 11
-1.0744251E+002
 21
1.6546987E+002
  0
LINE
  8
1
  6
CONTINUOUS
 62
1
 10
-9.707327E+001
 20
1.6746987E+002
 11
-9.707327E+001
 21
1.6546987E+002
  0
LINE
  8
1
  6
CONTINUOUS
 62
1
 10
-9.707327E+001
 20
1.6396987E+002
 11
-9.707327E+001
 21
1.6196987E+002
  0
LINE
  8
1
  6
CONTINUOUS
 62
1
 10
-1.0744251E+002
 20
1.6396987E+002
 11
-9.707327E+001
 21
1.6396987E+002
  0
LINE
  8
1
  6
CONTINUOUS
 62
1
 10
-1.0744251E+002
 20
1.6396987E+002
 11
-1.0744251E+002
 21
1.6196987E+002
  0
LINE
  8
1
  6
CONTINUOUS
 62
1
 10
-1.0744251E+002
 20
1.6196987E+002
 11
-9.707327E+001
 21
1.6196987E+002
  0
LINE
  8
1
  6
CONTINUOUS
 62
1
 10
-9.707327E+001
 20
1.6046987E+002
 11
-9.707327E+001
 21
1.5846987E+002
  0
LINE
  8
1
  6
CONTINUOUS
 62
1
 10
-1.0744251E+002
 20
1.6046987E+002
 11
-9.707327E+001
 21
1.6046987E+002
  0
LINE
  8
1
  6
CONTINUOUS
 62
1
 10
-1.0744251E+002
 20
1.6046987E+002
 11
-1.0744251E+002
 21
1.5846987E+002
  0
LINE
  8
1
  6
CONTINUOUS
 62
1
 10
-1.0744251E+002
 20
1.5846987E+002
 11
-9.707327E+001
 21
1.5846987E+002
  0
LINE
  8
1
  6
CONTINUOUS
 62
1
 10
-9.4813441E+001
 20
1.5896987E+002
 11
-8.0813441E+001
 21
1.5896987E+002
  0
LINE
  8
1
  6
CONTINUOUS
 62
1
 10
-9.4813441E+001
 20
1.5596987E+002
 11
-8.0813441E+001
 21
1.5596987E+002
  0
LINE
  8
1
  6
CONTINUOUS
 62
1
 10
-9.6813441E+001
 20
1.5196987E+002
 11
-7.1313441E+001
 21
1.5196987E+002
  0
LINE
  8
1
  6
CONTINUOUS
 62
1
 10
-9.6813441E+001
 20
1.4996987E+002
 11
-7.1313441E+001
 21
1.4996987E+002
  0
LINE
  8
1
  6
CONTINUOUS
 62
1
 10
-9.9813441E+001
 20
1.4646987E+002
 11
-7.1813441E+001
 21
1.4646987E+002
  0
LINE
  8
1
  6
CONTINUOUS
 62
1
 10
-9.9813441E+001
 20
1.3446987E+002
 11
-7.1813441E+001
 21
1.3446987E+002
  0
LINE
  8
1
  6
CONTINUOUS
 62
1
 10
-7.1813441E+001
 20
1.4646987E+002
 11
-7.1813441E+001
 21
1.3446987E+002
  0
LINE
  8
1
  6
CONTINUOUS
 62
1
 10
-9.9813441E+001
 20
1.4646987E+002
 11
-9.9813441E+001
 21
1.3446987E+002
  0
LINE
  8
1
  6
CONTINUOUS
 62
1
 10
-7.1313441E+001
 20
1.5196987E+002
 11
-7.1313441E+001
 21
1.4996987E+002
  0
LINE
  8
1
  6
CONTINUOUS
 62
1
 10
-9.6813441E+001
 20
1.5196987E+002
 11
-9.6813441E+001
 21
1.4996987E+002
  0
LINE
  8
1
  6
CONTINUOUS
 62
1
 10
-8.0813441E+001
 20
1.5896987E+002
 11
-8.0813441E+001
 21
1.5596987E+002
  0
LINE
  8
1
  6
CONTINUOUS
 62
1
 10
-7.1313441E+001
 20
1.6796987E+002
 11
-7.1313441E+001
 21
1.5396987E+002
  0
LINE
  8
1
  6
CONTINUOUS
 62
1
 10
-7.3313441E+001
 20
1.6796987E+002
 11
-7.3313441E+001
 21
1.5396987E+002
  0
LINE
  8
1
  6
CONTINUOUS
 62
1
 10
-7.3313441E+001
 20
1.6796987E+002
 11
-7.1313441E+001
 21
1.6796987E+002
  0
LINE
  8
1
  6
CONTINUOUS
 62
1
 10
-7.3313441E+001
 20
1.5396987E+002
 11
-7.1313441E+001
 21
1.5396987E+002
  0
LINE
  8
1
  6
CONTINUOUS
 62
1
 10
-7.1313441E+001
 20
1.5196987E+002
 11
-7.1313441E+001
 21
1.4996987E+002
  0
DIMENSION
  8
1
  6
CONTINUOUS
 62
1
  1
( <> )
  2
*D987
  3
DSTYLE1
 10
-1.1181344E+002
 20
1.8915886E+002
 11
-9.0813441E+001
 21
1.9140971E+002
 70
128
 13
-6.9813441E+001
 23
1.7396987E+002
 14
-1.1181344E+002
 24
1.7396987E+002
 40
2.0001
 50
0.0
1001
ACAD
1000
DSTYLE
1002
{
1070
173
1070
0
1070
5
1000
_AH1
1002
}
  0
LINE
  8
1
  6
CONTINUOUS
 62
1
 10
-1.1327825E+002
 20
6.2066405E+001
 11
-1.0290901E+002
 21
6.2066405E+001
  0
DIMENSION
  8
1
  6
CONTINUOUS
 62
1
  1
( <> )
  2
*D989
  3
DSTYLE1
 10
-5.056348E+001
 20
1.3196987E+002
 11
-5.281433E+001
 21
1.5296987E+002
 70
128
 13
-6.9813441E+001
 23
1.7396987E+002
 14
-6.9813441E+001
 24
1.3196987E+002
 40
2.0001
 50
9.0E+001
1001
ACAD
1000
DSTYLE
1002
{
1070
173
1070
0
1070
5
1000
_AH1
1002
}
  0
TEXT
  8
1
  6
CONTINUOUS
 62
1
 10
-4.5033925E+001
 20
1.9855096E+002
 40
2.5
  1
Type de produit
 41
7.0E-001
 11
-4.5033925E+001
 21
1.9605096E+002
 73
3
  0
LINE
  8
1
  6
CONTINUOUS
 62
1
 10
-1.1327825E+002
 20
6.7566405E+001
 11
-1.1327825E+002
 21
6.5566405E+001
  0
LINE
  8
1
  6
CONTINUOUS
 62
1
 10
-1.1327825E+002
 20
6.7566405E+001
 11
-1.0290901E+002
 21
6.7566405E+001
  0
LINE
  8
1
  6
CONTINUOUS
 62
1
 10
-1.0290901E+002
 20
6.7566405E+001
 11
-1.0290901E+002
 21
6.5566405E+001
  0
LINE
  8
1
  6
CONTINUOUS
 62
1
 10
-1.1327825E+002
 20
6.5566405E+001
 11
-1.0290901E+002
 21
6.5566405E+001
  0
LINE
  8
1
  6
CONTINUOUS
 62
1
 10
-1.1495038E+002
 20
5.0624762E+001
 11
-1.0695038E+002
 21
5.0624762E+001
  0
TEXT
  8
1
  6
CONTINUOUS
 62
1
 10
-4.5033925E+001
 20
1.867834E+002
 40
2.5
  1
Gamme de contacteurs
 41
7.0E-001
 11
-4.5033925E+001
 21
1.842834E+002
 73
3
  0
INSERT
  2
*FC51
  8
1
 10
-1.0793149E+001
 20
1.8064721E+002
  0
TEXT
  8
1
  6
CONTINUOUS
 62
1
 10
-4.5033925E+001
 20
1.7178412E+002
 40
2.5
  1
Symbole commercial
 41
7.0E-001
 11
-4.5033925E+001
 21
1.6928412E+002
 73
3
  0
INSERT
  2
*FC52
  8
1
 10
-1.4883861E+001
 20
1.6549642E+002
  0
TEXT
  8
1
  6
CONTINUOUS
 62
1
 10
-4.5033925E+001
 20
1.47684E+002
 40
2.5
  1
N%%dd'identification
 41
7.0E-001
 11
-4.5033925E+001
 21
1.45184E+002
 73
3
  0
INSERT
  2
*FC53
  8
1
 10
-1.4372009E+001
 20
1.4135128E+002
  0
TEXT
  8
1
  6
CONTINUOUS
 62
1
 10
-4.5033925E+001
 20
1.2726798E+002
 40
2.5
  1
Code barre
 41
7.0E-001
 11
-4.5033925E+001
 21
1.2476798E+002
 73
3
  0
INSERT
  2
*FC54
  8
1
 10
-2.8647873E+001
 20
1.2093526E+002
  0
TEXT
  8
1
  6
CONTINUOUS
 62
1
 10
-1.0425229E+002
 20
1.7773171E+002
 40
2.5
  1
Code client
 41
7.0E-001
 72
2
 11
-1.2350229E+002
 21
1.7773171E+002
  0
LINE
  8
1
  6
CONTINUOUS
 62
1
 10
-9.9950377E+001
 20
5.4899563E+001
 11
-7.1950377E+001
 21
5.4899563E+001
  0
LINE
  8
1
  6
CONTINUOUS
 62
1
 10
-9.9950377E+001
 20
5.2899563E+001
 11
-9.9950377E+001
 21
5.4899563E+001
  0
LINE
  8
1
  6
CONTINUOUS
 62
1
 10
-9.9950377E+001
 20
5.2899563E+001
 11
-7.1950377E+001
 21
5.2899563E+001
  0
LINE
  8
1
  6
CONTINUOUS
 62
1
 10
-7.1950377E+001
 20
5.4899563E+001
 11
-7.1950377E+001
 21
5.2899563E+001
  0
TEXT
  8
1
  6
CONTINUOUS
 62
1
 10
-9.9938322E+001
 20
6.8789054E+001
 40
1.2
  1
MECHANICAL INTERLOCK
 11
-9.9938322E+001
 21
6.7589054E+001
 73
3
  0
LINE
  8
1
  6
CONTINUOUS
 62
1
 10
-1.1476357E+002
 20
1.6621892E+002
 11
-1.1476357E+002
 21
1.5977175E+002
  0
TEXT
  8
1
  6
CONTINUOUS
 62
1
 10
-9.9938322E+001
 20
6.6789054E+001
 40
1.2
  1
MECHANISCHE VERRIELUNG
 11
-9.9938322E+001
 21
6.5589054E+001
 73
3
  0
TEXT
  8
1
  6
CONTINUOUS
 62
1
 10
-9.9938322E+001
 20
6.4789054E+001
 40
1.2
  1
VERROUILLAGE MECANIQUE
 11
-9.9938322E+001
 21
6.3589054E+001
 73
3
  0
TEXT
  8
1
  6
CONTINUOUS
 62
1
 10
-9.9938322E+001
 20
6.2789054E+001
 40
1.2
  1
MEKANISK FORREGLING
 11
-9.9938322E+001
 21
6.1589054E+001
 73
3
  0
TEXT
  8
1
  6
CONTINUOUS
 62
1
 10
-9.9938322E+001
 20
6.0789054E+001
 40
1.2
  1
BLOCCO MECANICO
 11
-9.9938322E+001
 21
5.9589054E+001
 73
3
  0
TEXT
  8
1
  6
CONTINUOUS
 62
1
 10
-9.9938322E+001
 20
5.8789054E+001
 40
1.2
  1
ENCLAVAMIENTO MECANICO
 11
-9.9938322E+001
 21
5.7589054E+001
 73
3
  0
TEXT
  8
1
  6
CONTINUOUS
 62
1
 10
-8.5002288E+001
 20
1.5900423E+002
 40
2.5
  1
Perspective du produit
 41
7.0E-001
 72
2
 11
-1.2350229E+002
 21
1.5900423E+002
  0
LINE
  8
1
  6
CONTINUOUS
 62
1
 10
-9.9950377E+001
 20
3.9546434E+001
 11
-7.3950377E+001
 21
3.9546434E+001
  0
LINE
  8
1
  6
CONTINUOUS
 62
1
 10
-9.9950377E+001
 20
5.1546434E+001
 11
-7.3950377E+001
 21
5.1546434E+001
  0
LINE
  8
1
  6
CONTINUOUS
 62
1
 10
-7.3950377E+001
 20
5.1546434E+001
 11
-7.3950377E+001
 21
3.9546434E+001
  0
LINE
  8
1
  6
CONTINUOUS
 62
1
 10
-9.9950377E+001
 20
5.1546434E+001
 11
-9.9950377E+001
 21
3.9546434E+001
  0
TEXT
  8
1
  6
CONTINUOUS
 62
1
 10
-8.1502288E+001
 20
1.3920222E+002
 40
2.5
  1
Unite de conditionnement
 41
7.0E-001
 72
2
 11
-1.2350229E+002
 21
1.3920222E+002
  0
LINE
  8
1
  6
CONTINUOUS
 62
1
 10
-1.1476488E+002
 20
5.2546434E+001
 11
-1.0395038E+002
 21
5.2546434E+001
  0
LINE
  8
1
  6
CONTINUOUS
 62
1
 10
-1.1495038E+002
 20
5.5546434E+001
 11
-1.0395038E+002
 21
5.5546434E+001
  0
LINE
  8
1
  6
CONTINUOUS
 62
1
 10
-1.1031344E+002
 20
1.3416987E+002
 11
-1.1031344E+002
 21
1.3296987E+002
  0
LINE
  8
1
  6
CONTINUOUS
 62
1
 10
-1.1031344E+002
 20
1.3296987E+002
 11
-1.0231344E+002
 21
1.3296987E+002
  0
LINE
  8
1
  6
CONTINUOUS
 62
1
 10
-1.1031344E+002
 20
1.3416987E+002
 11
-1.0231344E+002
 21
1.3416987E+002
  0
LINE
  8
1
  6
CONTINUOUS
 62
1
 10
-1.0231344E+002
 20
1.3416987E+002
 11
-1.0231344E+002
 21
1.3296987E+002
  0
LINE
  8
1
  6
CONTINUOUS
 62
1
 10
-1.1495038E+002
 20
5.5546434E+001
 11
-1.1495038E+002
 21
5.2546434E+001
  0
LINE
  8
1
  6
CONTINUOUS
 62
1
 10
-1.0395038E+002
 20
5.2546434E+001
 11
-1.0395038E+002
 21
5.5546434E+001
  0
INSERT
  2
*FC56
  8
1
 10
-1.6161937E+002
 20
1.5799987E+002
  0
DIMENSION
  8
1
  6
CONTINUOUS
 62
1
  1
( <> )
  2
*D1031
  3
DSTYLE1
 10
-1.1795038E+002
 20
8.8936455E+001
 11
-8.9950377E+001
 21
9.1187305E+001
 70
128
 13
-6.1950377E+001
 23
6.8546434E+001
 14
-1.1795038E+002
 24
6.8546434E+001
 40
2.0001
 50
0.0
1001
ACAD
1000
DSTYLE
1002
{
1070
173
1070
0
1070
5
1000
_AH1
1002
}
  0
DIMENSION
  8
1
  6
CONTINUOUS
 62
1
  1
( <> )
  2
*D1032
  3
DSTYLE1
 10
-4.0121434E+001
 20
3.8546434E+001
 11
-4.2372284E+001
 21
5.3546434E+001
 70
128
 13
-6.1950377E+001
 23
6.8546434E+001
 14
-6.1950377E+001
 24
3.8546434E+001
 40
2.0001
 50
9.0E+001
1001
ACAD
1000
DSTYLE
1002
{
1070
173
1070
0
1070
5
1000
_AH1
1002
}
  0
INSERT
  2
*FC58
  8
1
 10
-1.6492699E+002
 20
1.3805717E+002
  0
TEXT
  8
1
  6
CONTINUOUS
 62
1
 10
-1.0425229E+002
 20
1.1715462E+002
 40
2.5
  1
Tracabilite
 41
7.0E-001
 72
2
 11
-1.2350229E+002
 21
1.1715462E+002
  0
INSERT
  2
*FC59
  8
1
 10
-1.4202543E+002
 20
1.1575019E+002
  0
POLYLINE
  8
1
  6
CONTINUOUS
 62
1
 66
1
 40
0.0
 41
0.0
 70
2
  0
VERTEX
  8
1
 42
0.0
 10
-1.3663075E+002
 20
1.1716206E+002
 70
0
  0
VERTEX
  8
1
 42
-3.174512E-003
 10
-1.3662983E+002
 20
1.1714969E+002
 70
1
  0
VERTEX
  8
1
 42
-3.2025419E-003
 10
-1.3662907E+002
 20
1.1713737E+002
 70
0
  0
VERTEX
  8
1
 42
-3.2358087E-003
 10
-1.3662848E+002
 20
1.171251E+002
 70
1
  0
VERTEX
  8
1
 42
-3.2706043E-003
 10
-1.3662805E+002
 20
1.1711287E+002
 70
0
  0
VERTEX
  8
1
 42
-3.302513E-003
 10
-1.3662778E+002
 20
1.1710069E+002
 70
1
  0
VERTEX
  8
1
 42
-3.3307679E-003
 10
-1.3662767E+002
 20
1.1708856E+002
 70
0
  0
VERTEX
  8
1
 42
-3.3576316E-003
 10
-1.3662773E+002
 20
1.1707647E+002
 70
1
  0
VERTEX
  8
1
 42
-3.381701E-003
 10
-1.3662795E+002
 20
1.1706442E+002
 70
0
  0
VERTEX
  8
1
 42
-3.4037761E-003
 10
-1.3662833E+002
 20
1.1705241E+002
 70
1
  0
VERTEX
  8
1
 42
-3.422743E-003
 10
-1.3662888E+002
 20
1.1704043E+002
 70
0
  0
VERTEX
  8
1
 42
-3.4395823E-003
 10
-1.3662959E+002
 20
1.1702849E+002
 70
1
  0
VERTEX
  8
1
 42
-3.4532656E-003
 10
-1.3663046E+002
 20
1.1701659E+002
 70
0
  0
VERTEX
  8
1
 42
-3.464627E-003
 10
-1.366315E+002
 20
1.1700471E+002
 70
1
  0
VERTEX
  8
1
 42
-3.4727924E-003
 10
-1.366327E+002
 20
1.1699287E+002
 70
0
  0
VERTEX
  8
1
 42
-3.4784941E-003
 10
-1.3663407E+002
 20
1.1698105E+002
 70
1
  0
VERTEX
  8
1
 42
-3.4810243E-003
 10
-1.3663559E+002
 20
1.1696927E+002
 70
0
  0
VERTEX
  8
1
 42
-3.480961E-003
 10
-1.3663729E+002
 20
1.169575E+002
 70
1
  0
VERTEX
  8
1
 42
-3.4777154E-003
 10
-1.3663915E+002
 20
1.1694576E+002
 70
0
  0
VERTEX
  8
1
 42
-3.4719799E-003
 10
-1.3664117E+002
 20
1.1693405E+002
 70
1
  0
VERTEX
  8
1
 42
-3.4635214E-003
 10
-1.3664336E+002
 20
1.1692235E+002
 70
0
  0
VERTEX
  8
1
 42
-3.4516222E-003
 10
-1.3664572E+002
 20
1.1691067E+002
 70
1
  0
VERTEX
  8
1
 42
-3.435431E-003
 10
-1.3664823E+002
 20
1.1689901E+002
 70
0
  0
VERTEX
  8
1
 42
-3.4230524E-003
 10
-1.3665092E+002
 20
1.1688736E+002
 70
1
  0
VERTEX
  8
1
 42
-3.4186091E-003
 10
-1.3665377E+002
 20
1.1687573E+002
 70
0
  0
VERTEX
  8
1
 42
-3.4178619E-003
 10
-1.3665678E+002
 20
1.1686412E+002
 70
1
  0
VERTEX
  8
1
 42
-3.4264042E-003
 10
-1.3665996E+002
 20
1.1685253E+002
 70
0
  0
VERTEX
  8
1
 42
-3.4340761E-003
 10
-1.3666331E+002
 20
1.1684097E+002
 70
1
  0
VERTEX
  8
1
 42
-3.4457003E-003
 10
-1.3666681E+002
 20
1.1682945E+002
 70
0
  0
VERTEX
  8
1
 42
-3.4574418E-003
 10
-1.3667048E+002
 20
1.1681796E+002
 70
1
  0
VERTEX
  8
1
 42
-3.474784E-003
 10
-1.3667431E+002
 20
1.1680652E+002
 70
0
  0
VERTEX
  8
1
 42
-3.4916401E-003
 10
-1.3667831E+002
 20
1.1679512E+002
 70
1
  0
VERTEX
  8
1
 42
-3.5138547E-003
 10
-1.3668247E+002
 20
1.1678377E+002
 70
0
  0
VERTEX
  8
1
 42
-3.5354481E-003
 10
-1.3668679E+002
 20
1.1677249E+002
 70
1
  0
VERTEX
  8
1
 42
-3.5627044E-003
 10
-1.3669127E+002
 20
1.1676126E+002
 70
0
  0
VERTEX
  8
1
 42
-3.5891067E-003
 10
-1.3669591E+002
 20
1.167501E+002
 70
1
  0
VERTEX
  8
1
 42
-3.6213716E-003
 10
-1.3670071E+002
 20
1.16739E+002
 70
0
  0
VERTEX
  8
1
 42
-3.652433E-003
 10
-1.3670568E+002
 20
1.1672799E+002
 70
1
  0
VERTEX
  8
1
 42
-3.689466E-003
 10
-1.367108E+002
 20
1.1671705E+002
 70
0
  0
VERTEX
  8
1
 42
-3.725472E-003
 10
-1.3671608E+002
 20
1.1670619E+002
 70
1
  0
VERTEX
  8
1
 42
-3.7680496E-003
 10
-1.3672152E+002
 20
1.1669543E+002
 70
0
  0
VERTEX
  8
1
 42
-3.8078258E-003
 10
-1.3672712E+002
 20
1.1668476E+002
 70
1
  0
VERTEX
  8
1
 42
-3.853075E-003
 10
-1.3673288E+002
 20
1.1667418E+002
 70
0
  0
VERTEX
  8
1
 42
-3.9005191E-003
 10
-1.3673879E+002
 20
1.1666371E+002
 70
1
  0
VERTEX
  8
1
 42
-3.9580107E-003
 10
-1.3674487E+002
 20
1.1665334E+002
 70
0
  0
VERTEX
  8
1
 42
-3.9993881E-003
 10
-1.367511E+002
 20
1.1664309E+002
 70
1
  0
VERTEX
  8
1
 42
-4.0372998E-003
 10
-1.3675748E+002
 20
1.1663295E+002
 70
0
  0
VERTEX
  8
1
 42
-4.1169946E-003
 10
-1.3676402E+002
 20
1.1662294E+002
 70
1
  0
VERTEX
  8
1
 42
-4.2314861E-003
 10
-1.3677072E+002
 20
1.1661305E+002
 70
0
  0
VERTEX
  8
1
 42
-4.1161967E-003
 10
-1.3677759E+002
 20
1.1660326E+002
 70
1
  0
VERTEX
  8
1
 42
-3.816178E-003
 10
-1.3678458E+002
 20
1.1659363E+002
 70
0
  0
VERTEX
  8
1
 42
-4.1546309E-003
 10
-1.3679168E+002
 20
1.1658418E+002
 70
1
  0
VERTEX
  8
1
 42
-4.8659633E-003
 10
-1.3679907E+002
 20
1.1657469E+002
 70
0
  0
VERTEX
  8
1
 42
-3.6833647E-003
 10
-1.3680682E+002
 20
1.1656512E+002
 70
1
  0
VERTEX
  8
1
 42
-1.3341284E-003
 10
-1.3681419E+002
 20
1.1655619E+002
 70
0
  0
VERTEX
  8
1
 42
-5.0414112E-003
 10
-1.3682093E+002
 20
1.1654818E+002
 70
1
  0
VERTEX
  8
1
 42
-8.3998992E-003
 10
-1.3682994E+002
 20
1.165381E+002
 70
0
  0
VERTEX
  8
1
 42
-4.0504009E-003
 10
-1.3684428E+002
 20
1.1652286E+002
 70
1
  0
VERTEX
  8
1
 42
-2.1455362E-003
 10
-1.3686334E+002
 20
1.1650306E+002
 70
0
  0
SEQEND
  0
INSERT
  2
*FC60
  8
1
 10
-1.4185866E+002
 20
1.7655271E+002
  0
TEXT
  8
1
  6
CONTINUOUS
 62
1
 10
-9.5502288E+001
 20
1.7269401E+002
 40
2.5
  1
Custormer's code
 41
7.0E-001
 51
2.5E+001
 72
2
 11
-1.2350229E+002
 21
1.7269401E+002
  0
TEXT
  8
1
  6
CONTINUOUS
 62
1
 10
-8.6752288E+001
 20
1.5380403E+002
 40
2.5
  1
Viewpoints of product
 41
7.0E-001
 51
2.5E+001
 72
2
 11
-1.2350229E+002
 21
1.5380403E+002
  0
TEXT
  8
1
  6
CONTINUOUS
 62
1
 10
-9.3752288E+001
 20
1.3383951E+002
 40
2.5
  1
Unit of packaging
 41
7.0E-001
 51
2.5E+001
 72
2
 11
-1.2350229E+002
 21
1.3383951E+002
  0
TEXT
  8
1
  6
CONTINUOUS
 62
1
 10
-1.1125229E+002
 20
1.1195442E+002
 40
2.5
  1
Hystory
 41
7.0E-001
 51
2.5E+001
 72
2
 11
-1.2350229E+002
 21
1.1195442E+002
  0
INSERT
  2
*FC61
  8
1
 10
-1.9328861E+001
 20
1.9247833E+002
  0
TEXT
  8
1
  6
CONTINUOUS
 62
1
 10
-4.5033925E+001
 20
1.9416329E+002
 40
2.5
  1
Type of product
 41
7.0E-001
 51
2.5E+001
 11
-4.5033925E+001
 21
1.9166329E+002
 73
3
  0
TEXT
  8
1
  6
CONTINUOUS
 62
1
 10
-4.5033925E+001
 20
1.817457E+002
 40
2.5
  1
Range of contactors
 41
7.0E-001
 51
2.5E+001
 11
-4.5033925E+001
 21
1.792457E+002
 73
3
  0
TEXT
  8
1
  6
CONTINUOUS
 62
1
 10
-4.5033925E+001
 20
1.662589E+002
 40
2.5
  1
Type
 41
7.0E-001
 51
2.5E+001
 11
-4.5033925E+001
 21
1.637589E+002
 73
3
  0
TEXT
  8
1
  6
CONTINUOUS
 62
1
 10
-4.5033925E+001
 20
1.4215879E+002
 40
2.5
  1
Order code
 41
7.0E-001
 51
2.5E+001
 11
-4.5033925E+001
 21
1.3965879E+002
 73
3
  0
TEXT
  8
1
  6
CONTINUOUS
 62
1
 10
-4.5033925E+001
 20
1.2125525E+002
 40
2.5
  1
Bar code
 41
7.0E-001
 51
2.5E+001
 11
-4.5033925E+001
 21
1.1875525E+002
 73
3
  0
INSERT
  2
*FC67
  8
1
 10
-6.963449
 20
3.5440033E+001
  0
TEXT
  8
1
  6
CONTINUOUS
 62
1
 10
-3.767887E+001
 20
3.6616235E+001
 40
2.5
  1
Order code
 41
7.0E-001
 51
2.5E+001
 11
-3.767887E+001
 21
3.4116235E+001
 73
3
  0
TEXT
  8
1
  6
CONTINUOUS
 62
1
 10
-3.767887E+001
 20
4.2141452E+001
 40
2.5
  1
N%%dd'identification
 41
7.0E-001
 11
-3.767887E+001
 21
3.9641452E+001
 73
3
  0
LINE
  8
1
  6
CONTINUOUS
 62
1
 10
-6.3950377E+001
 20
6.7018449E+001
 11
-6.3950377E+001
 21
5.3018449E+001
  0
LINE
  8
1
  6
CONTINUOUS
 62
1
 10
-6.5950377E+001
 20
6.7018449E+001
 11
-6.3950377E+001
 21
6.7018449E+001
  0
TEXT
  8
1
  6
CONTINUOUS
 62
1
 10
-3.767887E+001
 20
9.7827562E+001
 40
2.5
  1
Type de produit
 41
7.0E-001
 11
-3.767887E+001
 21
9.5327562E+001
 73
3
  0
TEXT
  8
1
  6
CONTINUOUS
 62
1
 10
-3.767887E+001
 20
9.343989E+001
 40
2.5
  1
Type of product
 41
7.0E-001
 51
2.5E+001
 11
-3.767887E+001
 21
9.093989E+001
 73
3
  0
TEXT
  8
1
  6
CONTINUOUS
 62
1
 10
-1.592958E+002
 20
6.7883929E+001
 40
2.5
  1
Symbole commercial
 41
7.0E-001
 11
-1.592958E+002
 21
6.5383929E+001
 73
3
  0
TEXT
  8
1
  6
CONTINUOUS
 62
1
 10
-1.592958E+002
 20
6.2358713E+001
 40
2.5
  1
Type
 41
7.0E-001
 51
2.5E+001
 11
-1.592958E+002
 21
5.9858713E+001
 73
3
  0
TEXT
  8
1
  6
CONTINUOUS
 62
1
 10
-3.767887E+001
 20
1.8372302E+001
 40
2.5
  1
Code barre
 41
7.0E-001
 11
-3.767887E+001
 21
1.5872302E+001
 73
3
  0
TEXT
  8
1
  6
CONTINUOUS
 62
1
 10
-3.767887E+001
 20
1.3204293E+001
 40
2.5
  1
Bar code
 41
7.0E-001
 51
2.5E+001
 11
-3.767887E+001
 21
1.0704293E+001
 73
3
  0
INSERT
  2
*FC55
  8
1
 10
-1.2822681E+001
 20
9.1800227E+001
  0
LINE
  8
1
  6
CONTINUOUS
 62
1
 10
-6.5950377E+001
 20
6.7018449E+001
 11
-6.5950377E+001
 21
5.3018449E+001
  0
LINE
  8
1
  6
CONTINUOUS
 62
1
 10
-6.5950377E+001
 20
5.3018449E+001
 11
-6.3950377E+001
 21
5.3018449E+001
  0
TEXT
  8
1
  6
CONTINUOUS
 62
3
 10
-1.2565064E+002
 20
1.9998146E+002
 40
4.0
  1
FIG.1
 41
7.5E-001
 72
1
 11
-1.3315064E+002
 21
1.9598146E+002
 73
3
  0
TEXT
  8
1
  6
CONTINUOUS
 62
3
 10
-1.2565064E+002
 20
9.5360371E+001
 40
4.0
  1
FIG.2
 41
7.5E-001
 72
1
 11
-1.3315064E+002
 21
9.1360371E+001
 73
3
  0
INSERT
  2
*FC64
  8
1
 10
-2.1181252E+001
 20
1.1842699E+001
  0
TEXT
  8
1
  6
CONTINUOUS
 62
1
 10
-1.195757E+002
 20
7.6144813E+001
 40
2.5
  1
Code client
 41
7.0E-001
 72
2
 11
-1.388257E+002
 21
7.6144813E+001
  0
TEXT
  8
1
  6
CONTINUOUS
 62
1
 10
-8.7898289E+001
 20
4.9744303E+001
 40
2.5
  1
Perspective du produit
 41
7.0E-001
 72
2
 11
-1.2639829E+002
 21
4.9744303E+001
  0
TEXT
  8
1
  6
CONTINUOUS
 62
1
 10
-8.9648289E+001
 20
4.45441E+001
 40
2.5
  1
Viewpoints of product
 41
7.0E-001
 51
2.5E+001
 72
2
 11
-1.2639829E+002
 21
4.45441E+001
  0
LINE
  8
1
  6
CONTINUOUS
 62
1
 10
-1.2012395E+002
 20
6.5948617E+001
 11
-1.2012395E+002
 21
6.0946215E+001
  0
INSERT
  2
*FC65
  8
1
 10
-1.659161E+002
 20
7.4854863E+001
  0
INSERT
  2
*FC66
  8
1
 10
-1.6496014E+002
 20
4.794845E+001
  0
TEXT
  8
1
  6
CONTINUOUS
 62
1
 10
-3.767887E+001
 20
8.1022302E+001
 40
2.5
  1
Range of contactors
 41
7.0E-001
 51
2.5E+001
 11
-3.767887E+001
 21
7.8522302E+001
 73
3
  0
TEXT
  8
1
  6
CONTINUOUS
 62
1
 10
-3.767887E+001
 20
8.6059999E+001
 40
2.5
  1
Gamme de contacteurs
 41
7.0E-001
 11
-3.767887E+001
 21
8.3559999E+001
 73
3
  0
INSERT
  2
*FC63
  8
1
 10
-3.7072
 20
7.9450523E+001
  0
TEXT
  8
1
  6
CONTINUOUS
 62
1
 10
-1.108257E+002
 20
7.1107116E+001
 40
2.5
  1
Custormer's code
 41
7.0E-001
 51
2.5E+001
 72
2
 11
-1.388257E+002
 21
7.1107116E+001
  0
ENDBLK
  0
BLOCK
  2
*FC63
  3
*FC
 10
0.0
 20
0.0
 70
65
  0
LINE
  8
1
  6
CONTINUOUS
 62
1
 10
0.0
 20
0.0
 11
0.0
 21
0.0
  0
LINE
  8
1
  6
CONTINUOUS
 62
1
 10
0.0
 20
0.0
 11
-3.5670726E+001
 21
0.0
  0
LINE
  8
1
  6
CONTINUOUS
 62
1
 10
-3.5670726E+001
 20
0.0
 11
-6.0243177E+001
 21
-1.6725278E+001
  0
INSERT
  2
_AH16
  8
1
 10
-6.0243177E+001
 20
-1.6725278E+001
 41
3.5001001
 43
3.5001001
 42
3.5001001
 50
3.4241224E+001
  0
ENDBLK
  0
BLOCK
  2
*FC64
  3
*FC
 10
0.0
 20
0.0
 70
65
  0
LINE
  8
1
  6
CONTINUOUS
 62
1
 10
0.0
 20
0.0
 11
0.0
 21
0.0
  0
LINE
  8
1
  6
CONTINUOUS
 62
1
 10
0.0
 20
0.0
 11
-1.7457667E+001
 21
0.0
  0
LINE
  8
1
  6
CONTINUOUS
 62
1
 10
-1.7457667E+001
 20
0.0
 11
-6.0769125E+001
 21
2.7703735E+001
  0
INSERT
  2
_AH16
  8
1
 10
-6.0769125E+001
 20
2.7703735E+001
 41
3.5001001
 43
3.5001001
 42
3.5001001
 50
3.273954E+002
  0
ENDBLK
  0
BLOCK
  2
*FC65
  3
*FC
 10
0.0
 20
0.0
 70
65
  0
LINE
  8
1
  6
CONTINUOUS
 62
1
 10
0.0
 20
0.0
 11
0.0
 21
0.0
  0
LINE
  8
1
  6
CONTINUOUS
 62
1
 10
0.0
 20
0.0
 11
2.9907721E+001
 21
0.0
  0
LINE
  8
1
  6
CONTINUOUS
 62
1
 10
2.9907721E+001
 20
0.0
 11
4.5792145E+001
 21
-1.1407447E+001
  0
INSERT
  2
_AH16
  8
1
 10
4.5792145E+001
 20
-1.1407447E+001
 41
3.5001001
 43
3.5001001
 42
3.5001001
 50
1.4431587E+002
  0
ENDBLK
  0
BLOCK
  2
*FC66
  3
*FC
 10
0.0
 20
0.0
 70
65
  0
LINE
  8
1
  6
CONTINUOUS
 62
1
 10
0.0
 20
0.0
 11
0.0
 21
0.0
  0
LINE
  8
1
  6
CONTINUOUS
 62
1
 10
0.0
 20
0.0
 11
3.9740397E+001
 21
0.0
  0
LINE
  8
1
  6
CONTINUOUS
 62
1
 10
3.9740397E+001
 20
0.0
 11
5.0009766E+001
 21
-2.323688
  0
INSERT
  2
_AH16
  8
1
 10
5.0009766E+001
 20
-2.323688
 41
3.5001001
 43
3.5001001
 42
3.5001001
 50
1.6725017E+002
  0
ENDBLK
  0
BLOCK
  2
*FC67
  3
*FC
 10
0.0
 20
0.0
 70
65
  0
LINE
  8
1
  6
CONTINUOUS
 62
1
 10
0.0
 20
0.0
 11
0.0
 21
0.0
  0
LINE
  8
1
  6
CONTINUOUS
 62
1
 10
0.0
 20
0.0
 11
-3.2710499E+001
 21
0.0
  0
LINE
  8
1
  6
CONTINUOUS
 62
1
 10
-3.2710499E+001
 20
0.0
 11
-6.4986928E+001
 21
1.845953E+001
  0
LINE
  8
1
  6
CONTINUOUS
 62
1
 10
-1.0695038E+002
 20
5.0624762E+001
 11
-1.0695038E+002
 21
4.0624762E+001
  0
ENDBLK
  0
BLOCK
  2
SE0
 10
0.0
 20
0.0
 70
0
  0
LINE
  8
2
  6
CENTERLINE
 62
7
 10
1.1554039E+001
 20
1.8851369E+002
 11
8.3790389
 21
1.8851369E+002
  0
LINE
  8
2
  6
CENTERLINE
 62
7
 10
9.9665389
 20
1.9010119E+002
 11
9.9665389
 21
1.8692619E+002
  0
LINE
  8
2
  6
CENTERLINE
 62
7
 10
1.3141539E+001
 20
1.8851369E+002
 11
1.5641539E+001
 21
1.8851369E+002
  0
LINE
  8
2
  6
CENTERLINE
 62
7
 10
9.9665389
 20
1.9168869E+002
 11
9.9665389
 21
1.9418869E+002
  0
LINE
  8
2
  6
CENTERLINE
 62
7
 10
6.7915389
 20
1.8851369E+002
 11
4.2915389
 21
1.8851369E+002
  0
LINE
  8
2
  6
CENTERLINE
 62
7
 10
9.9665389
 20
1.8533869E+002
 11
9.9665389
 21
1.8283869E+002
  0
ENDBLK
  0
BLOCK
  2
SE1
 10
0.0
 20
0.0
 70
0
  0
LINE
  8
2
  6
CENTERLINE
 62
7
 10
1.1554039E+001
 20
1.0851369E+002
 11
8.3790389
 21
1.0851369E+002
  0
LINE
  8
2
  6
CENTERLINE
 62
7
 10
9.9665389
 20
1.1010119E+002
 11
9.9665389
 21
1.0692619E+002
  0
LINE
  8
2
  6
CENTERLINE
 62
7
 10
1.3141539E+001
 20
1.0851369E+002
 11
1.5641539E+001
 21
1.0851369E+002
  0
LINE
  8
2
  6
CENTERLINE
 62
7
 10
9.9665389
 20
1.1168869E+002
 11
9.9665389
 21
1.1418869E+002
  0
LINE
  8
2
  6
CENTERLINE
 62
7
 10
6.7915389
 20
1.0851369E+002
 11
4.2915389
 21
1.0851369E+002
  0
LINE
  8
2
  6
CENTERLINE
 62
7
 10
9.9665389
 20
1.0533869E+002
 11
9.9665389
 21
1.0283869E+002
  0
ENDBLK
  0
BLOCK
  2
SE2
 10
0.0
 20
0.0
 70
0
  0
LINE
  8
2
  6
CENTERLINE
 62
7
 10
1.1554039E+001
 20
2.851369E+001
 11
8.3790389
 21
2.851369E+001
  0
LINE
  8
2
  6
CENTERLINE
 62
7
 10
9.9665389
 20
3.010119E+001
 11
9.9665389
 21
2.692619E+001
  0
LINE
  8
2
  6
CENTERLINE
 62
7
 10
1.3141539E+001
 20
2.851369E+001
 11
1.5641539E+001
 21
2.851369E+001
  0
LINE
  8
2
  6
CENTERLINE
 62
7
 10
9.9665389
 20
3.168869E+001
 11
9.9665389
 21
3.418869E+001
  0
LINE
  8
2
  6
CENTERLINE
 62
7
 10
6.7915389
 20
2.851369E+001
 11
4.2915389
 21
2.851369E+001
  0
LINE
  8
2
  6
CENTERLINE
 62
7
 10
9.9665389
 20
2.533869E+001
 11
9.9665389
 21
2.283869E+001
  0
ENDBLK
  0
BLOCK
  2
SE3
 10
0.0
 20
0.0
 70
0
  0
LINE
  8
2
  6
CENTERLINE
 62
7
 10
1.1554039E+001
 20
2.6851369E+002
 11
8.3790389
 21
2.6851369E+002
  0
LINE
  8
2
  6
CENTERLINE
 62
7
 10
9.9665389
 20
2.7010119E+002
 11
9.9665389
 21
2.6692619E+002
  0
LINE
  8
2
  6
CENTERLINE
 62
7
 10
1.3141539E+001
 20
2.6851369E+002
 11
1.5641539E+001
 21
2.6851369E+002
  0
LINE
  8
2
  6
CENTERLINE
 62
7
 10
9.9665389
 20
2.7168869E+002
 11
9.9665389
 21
2.7418869E+002
  0
LINE
  8
2
  6
CENTERLINE
 62
7
 10
6.7915389
 20
2.6851369E+002
 11
4.2915389
 21
2.6851369E+002
  0
LINE
  8
2
  6
CENTERLINE
 62
7
 10
9.9665389
 20
2.6533869E+002
 11
9.9665389
 21
2.6283869E+002
  0
ENDBLK
  0
BLOCK
  2
A3N
 10
0.0
 20
0.0
 70
0
  0
ATTDEF
  8
1
  6
CONTINUOUS
 62
5
 10
3.6549644E+002
 20
2.7E+001
 40
2.0
  1
FPEM123456P0001
 41
6.5E-001
 11
3.6549644E+002
 21
2.6E+001
  3
ANCIEN_ Plan
  2
ANCIEN_Plan
 70
0
 73
2
 74
2
  0
ATTDEF
  8
1
  6
CONTINUOUS
 62
5
 10
3.6549644E+002
 20
1.1E+001
 40
4.0
  1
FPEM470778P0001
 41
7.5E-001
 72
1
 11
3.5649644E+002
 21
9.0
  3
N°PLAN
  2
N°PLAN
 70
0
 73
2
 74
2
  0
ATTDEF
  8
1
  6
CONTINUOUS
 62
5
 10
3.6549644E+002
 20
2.3005401E+001
 40
2.0
  1
OEM-12345
 41
7.5E-001
 11
3.6549644E+002
 21
2.2005401E+001
  3
N°OEM
  2
N°OEM
 70
0
 73
2
 74
2
  0
ATTDEF
  8
1
  6
CONTINUOUS
 62
5
 10
2.929758E+002
 20
1.38E+001
 40
1.6
  1
PLAN D'ENSEMBLE
 41
9.0E-001
 72
1
 11
2.864958E+002
 21
1.3E+001
  3
TYPE_PLAN
  2
TYPE_PLAN
 70
0
 73
2
 74
2
  0
ATTDEF
  8
1
  6
CONTINUOUS
 62
5
 10
3.014958E+002
 20
1.025E+001
 40
2.5
  1
DWA, DYA9...16-30 sans relais
 41
7.5E-001
 72
1
 11
2.864958E+002
 21
9.0
  3
DESIGNATION_PLAN
  2
DESIGNATION_PLAN
 70
0
 73
2
 74
2
  0
ATTDEF
  8
1
  6
CONTINUOUS
 62
5
 10
3.898708E+002
 20
8.75
 40
2.5
  1
A
 41
7.5E-001
 72
1
 11
3.879958E+002
 21
7.5
  3
ID
  2
ID
 70
0
 73
2
 74
2
  0
ATTDEF
  8
1
  6
CONTINUOUS
 62
5
 10
3.5575484E+002
 20
1.6659209E+001
 40
2.75
  1
A4
 41
7.5E-001
 72
1
 11
3.5369234E+002
 21
1.5284209E+001
  3
A?
  2
A?
 70
0
 73
2
 74
2
  0
ATTDEF
  8
1
  6
CONTINUOUS
 62
5
 10
3.7155166E+002
 20
1.6659209E+001
 40
2.75
  1
1
 41
7.5E-001
 72
1
 11
3.6639541E+002
 21
1.5284209E+001
  3
Folio
  2
Folio
 70
0
 73
2
 74
2
  0
ATTDEF
  8
1
  6
CONTINUOUS
 62
5
 10
3.8530093E+002
 20
1.6659209E+001
 40
2.75
  1
1
 41
7.5E-001
 72
1
 11
3.7911343E+002
 21
1.5284209E+001
  3
Folios
  2
Folios
 70
0
 73
2
 74
2
  0
ATTDEF
  8
1
  6
CONTINUOUS
 62
5
 10
3.4833212E+002
 20
3.925E+001
 40
2.5
  1
 
 11
3.4833212E+002
 21
3.8E+001
  3
N°OE_Origine
  2
N°OE_Origine
 70
0
 73
2
 74
2
  0
ATTDEF
  8
1
  6
CONTINUOUS
 62
5
 10
3.4833212E+002
 20
3.5E+001
 40
2.0
  1
P.BLANCHET le 01.01.04
 41
7.5E-001
 11
3.4833212E+002
 21
3.4E+001
  3
CONTROLEUR_Origine
  2
CONTROLEUR_Origine
 70
0
 73
2
 74
2
  0
ATTDEF
  8
1
  6
CONTINUOUS
 62
5
 10
3.4833212E+002
 20
3.1E+001
 40
2.0
  1
C.ECOCHARD le 01.01.04
 41
7.5E-001
 11
3.4833212E+002
 21
3.0E+001
  3
DESSINATEUR_Origine
  2
DESSINATEUR_Origine
 70
0
 73
2
 74
2
  0
ATTDEF
  8
1
  6
CONTINUOUS
 62
5
 10
2.2580669E+002
 20
2.725E+001
 40
2.5
  1
A
 41
7.5E-001
 72
1
 11
2.2299419E+002
 21
2.6E+001
  3
ID1
  2
ID1
 70
0
 73
2
 74
2
  0
ATTDEF
  8
1
  6
CONTINUOUS
 62
5
 10
2.2580669E+002
 20
3.125E+001
 40
2.5
  1
 
 41
7.5E-001
 72
1
 11
2.2299419E+002
 21
3.0E+001
  3
ID2
  2
ID2
 70
0
 73
2
 74
2
  0
ATTDEF
  8
1
  6
CONTINUOUS
 62
5
 10
2.2580669E+002
 20
3.525E+001
 40
2.5
  1
 
 41
7.5E-001
 72
1
 11
2.2299419E+002
 21
3.4E+001
  3
ID3
  2
ID3
 70
0
 73
2
 74
2
  0
ATTDEF
  8
1
  6
CONTINUOUS
 62
5
 10
2.2580669E+002
 20
3.925E+001
 40
2.5
  1
 
 41
7.5E-001
 72
1
 11
2.2299419E+002
 21
3.8E+001
  3
ID4
  2
ID4
 70
0
 73
2
 74
2
  0
ATTDEF
  8
1
  6
CONTINUOUS
 62
5
 10
3.4424644E+002
 20
2.1551214E+001
 40
6.0
  1
1:4
 41
7.5E-001
 72
1
 11
3.3749644E+002
 21
1.8551214E+001
  3
Ech
  2
Ech
 70
0
 73
2
 74
2
  0
POLYLINE
  8
1
  6
CONTINUOUS
 62
7
 66
1
 40
5.0E-001
 41
5.0E-001
 70
0
  0
VERTEX
  8
1
 42
0.0
 10
1.0E+001
 20
2.72E+002
 70
0
  0
VERTEX
  8
1
 42
0.0
 10
1.0E+001
 20
4.0E+001
 70
0
  0
SEQEND
  0
POLYLINE
  8
1
  6
CONTINUOUS
 62
7
 66
1
 40
5.0E-001
 41
5.0E-001
 70
0
  0
VERTEX
  8
1
 42
0.0
 10
1.0E+001
 20
4.0E+001
 70
0
  0
VERTEX
  8
1
 42
0.0
 10
1.0065101E+001
 20
5.0
 70
0
  0
SEQEND
  0
POLYLINE
  8
1
  6
CONTINUOUS
 62
7
 66
1
 40
5.0E-001
 41
5.0E-001
 70
0
  0
VERTEX
  8
1
 42
0.0
 10
1.0065101E+001
 20
5.0
 70
0
  0
VERTEX
  8
1
 42
0.0
 10
3.9049515E+002
 20
5.0
 70
0
  0
SEQEND
  0
POLYLINE
  8
1
  6
CONTINUOUS
 62
7
 66
1
 40
5.0E-001
 41
5.0E-001
 70
0
  0
VERTEX
  8
1
 42
0.0
 10
3.9049515E+002
 20
1.0E+001
 70
0
  0
VERTEX
  8
1
 42
0.0
 10
3.9049515E+002
 20
5.0
 70
0
  0
SEQEND
  0
TEXT
  8
1
  6
CONTINUOUS
 62
7
 10
3.5670343E+002
 20
1.7697775E+001
 40
1.5
  1
Format
 41
6.5E-001
 72
1
 11
3.5377843E+002
 21
1.7697775E+001
  0
TEXT
  8
1
  6
CONTINUOUS
 62
7
 10
3.7175835E+002
 20
1.7697775E+001
 40
1.5
  1
Feuille n%%d
 41
6.5E-001
 72
1
 11
3.6688335E+002
 21
1.7697775E+001
  0
TEXT
  8
1
  6
CONTINUOUS
 62
7
 10
3.8447593E+002
 20
1.7697775E+001
 40
1.5
  1
Nb Feuilles
 41
6.5E-001
 72
1
 11
3.7911343E+002
 21
1.7697775E+001
  0
LINE
  8
1
  6
CONTINUOUS
 62
1
 10
0.0
 20
4.0E+001
 11
0.0
 21
4.1E+001
  0
TEXT
  8
1
  6
CONTINUOUS
 62
7
 10
3.6049644E+002
 20
2.3005401E+001
 40
2.0
  1
PROJET
 41
7.5E-001
 72
1
 11
3.5599644E+002
 21
2.2005401E+001
 73
2
  0
TEXT
  8
1
  6
CONTINUOUS
 62
7
 10
8.75
 20
6.0087564E+001
 40
1.25
  1
autorisation écrite.
 41
7.5E-001
 50
9.0E+001
 11
8.75
 21
5.9462564E+001
 73
2
  0
TEXT
  8
1
  6
CONTINUOUS
 62
7
 10
3.6399644E+002
 20
2.7E+001
 40
2.0
  1
Issu de/Remplace
 41
5.0E-001
 72
1
 11
3.5599644E+002
 21
2.6E+001
 73
2
  0
TEXT
  8
1
  6
CONTINUOUS
 62
7
 10
3.4668394E+002
 20
3.8875E+001
 40
1.75
  1
ORDRE EXECUTION
 41
7.0E-001
 72
1
 11
3.3749644E+002
 21
3.8E+001
 73
2
  0
TEXT
  8
1
  6
CONTINUOUS
 62
7
 10
3.4484644E+002
 20
3.4875E+001
 40
1.75
  1
CONTROLE PAR
 41
7.0E-001
 72
1
 11
3.3749644E+002
 21
3.4E+001
 73
2
  0
TEXT
  8
1
  6
CONTINUOUS
 62
7
 10
3.4423394E+002
 20
3.0875E+001
 40
1.75
  1
REALISE PAR
 41
7.0E-001
 72
1
 11
3.3749644E+002
 21
3.0E+001
 73
2
  0
LINE
  8
2
  6
CONTINUOUS
 62
7
 10
9.5000647E+001
 20
2.72E+002
 11
9.5000647E+001
 21
2.77E+002
  0
LINE
  8
2
  6
CONTINUOUS
 62
7
 10
4.7500323E+001
 20
2.72E+002
 11
4.7500323E+001
 21
2.77E+002
  0
LINE
  8
2
  6
CONTINUOUS
 62
7
 10
1.4250097E+002
 20
2.72E+002
 11
1.4250097E+002
 21
2.77E+002
  0
TEXT
  8
2
  6
CONTINUOUS
 62
7
 10
7.0162765E+001
 20
2.7829144E+002
 40
2.5
  1
H
 11
7.0162765E+001
 21
2.7579144E+002
 73
3
  0
TEXT
  8
2
  6
CONTINUOUS
 62
7
 10
2.2581586E+001
 20
2.7829144E+002
 40
2.5
  1
I
 11
2.2581586E+001
 21
2.7579144E+002
 73
3
  0
TEXT
  8
2
  6
CONTINUOUS
 62
7
 10
1.1758442E+002
 20
2.7829144E+002
 40
2.5
  1
G
 11
1.1758442E+002
 21
2.7579144E+002
 73
3
  0
TEXT
  8
2
  6
CONTINUOUS
 62
7
 10
1.6500049E+002
 20
2.7575E+002
 40
2.5
  1
F
 72
1
 11
1.6375049E+002
 21
2.745E+002
 73
2
  0
TEXT
  8
2
  6
CONTINUOUS
 62
7
 10
3.8679278E+002
 20
2.4625255E+002
 40
2.5
  1
4
 11
3.8679278E+002
 21
2.4375255E+002
 73
3
  0
LINE
  8
2
  6
CONTINUOUS
 62
7
 10
0.0
 20
2.77E+002
 11
0.0
 21
0.0
  0
LINE
  8
2
  6
CONTINUOUS
 62
7
 10
3.9049515E+002
 20
2.77E+002
 11
0.0
 21
2.77E+002
  0
LINE
  8
2
  6
CONTINUOUS
 62
7
 10
3.7273041E+002
 20
1.3E+001
 11
3.7273041E+002
 21
2.0010803E+001
  0
LINE
  8
2
  6
CONTINUOUS
 62
7
 10
3.6006041E+002
 20
1.3E+001
 11
3.6006041E+002
 21
2.0010803E+001
  0
POLYLINE
  8
1
  6
CONTINUOUS
 62
7
 66
1
 40
5.0E-001
 41
5.0E-001
 70
0
  0
VERTEX
  8
1
 42
0.0
 10
3.9049644E+002
 20
1.0E+001
 70
0
  0
VERTEX
  8
1
 42
0.0
 10
3.8549644E+002
 20
1.0E+001
 70
0
  0
SEQEND
  0
TEXT
  8
2
  6
CONTINUOUS
 62
7
 10
2.2483169E+002
 20
2.2875E+001
 40
1.75
  1
IND
 41
7.0E-001
 72
1
 11
2.2299419E+002
 21
2.2E+001
 73
2
  0
TEXT
  8
2
  6
CONTINUOUS
 62
7
 10
2.2644467E+002
 20
3.1E+001
 40
2.0
  1
Modifications
 41
6.5E-001
 50
9.0E+001
 72
1
 11
2.1799467E+002
 21
3.0E+001
 73
2
  0
LINE
  8
2
  6
CONTINUOUS
 62
7
 10
3.6449644E+002
 20
2.0010803E+001
 11
3.6449644E+002
 21
2.8E+001
  0
LINE
  8
2
  6
CONTINUOUS
 62
7
 10
3.8549644E+002
 20
2.0010803E+001
 11
3.4749644E+002
 21
2.0010803E+001
  0
LINE
  8
2
  6
CONTINUOUS
 62
7
 10
3.4749644E+002
 20
2.4E+001
 11
3.8549644E+002
 21
2.4E+001
  0
LINE
  8
2
  6
CONTINUOUS
 62
7
 10
3.4749644E+002
 20
1.3E+001
 11
3.4749644E+002
 21
4.0E+001
  0
POLYLINE
  8
1
  6
CONTINUOUS
 62
7
 66
1
 40
5.0E-001
 41
5.0E-001
 70
0
  0
VERTEX
  8
1
 42
0.0
 10
3.2749644E+002
 20
1.3E+001
 70
0
  0
VERTEX
  8
1
 42
0.0
 10
3.8549644E+002
 20
1.3E+001
 70
0
  0
SEQEND
  0
LINE
  8
2
  6
CONTINUOUS
 62
7
 10
2.4549515E+002
 20
1.6000915E+001
 11
3.2749644E+002
 21
1.6000915E+001
  0
LINE
  8
2
  6
CONTINUOUS
 62
7
 10
2.2549419E+002
 20
4.0E+001
 11
2.2549419E+002
 21
2.0E+001
  0
LINE
  8
2
  6
CONTINUOUS
 62
7
 10
2.2049419E+002
 20
4.0E+001
 11
2.2049419E+002
 21
2.0E+001
  0
LINE
  8
2
  6
CONTINUOUS
 62
7
 10
2.8749644E+002
 20
4.0E+001
 11
2.8749644E+002
 21
2.0E+001
  0
LINE
  8
2
  6
CONTINUOUS
 62
7
 10
3.8549644E+002
 20
3.2E+001
 11
2.2049419E+002
 21
3.2E+001
  0
LINE
  8
2
  6
CONTINUOUS
 62
7
 10
3.8549644E+002
 20
3.6E+001
 11
2.2049419E+002
 21
3.6E+001
  0
LINE
  8
2
  6
CONTINUOUS
 62
7
 10
2.2049419E+002
 20
2.8E+001
 11
3.8549644E+002
 21
2.8E+001
  0
LINE
  8
2
  6
CONTINUOUS
 62
7
 10
3.2749644E+002
 20
2.4E+001
 11
2.2049419E+002
 21
2.4E+001
  0
POLYLINE
  8
1
  6
CONTINUOUS
 62
7
 66
1
 40
5.0E-001
 41
5.0E-001
 70
0
  0
VERTEX
  8
1
 42
0.0
 10
3.2749644E+002
 20
5.0
 70
0
  0
VERTEX
  8
1
 42
0.0
 10
3.2749644E+002
 20
4.0E+001
 70
0
  0
SEQEND
  0
LINE
  8
2
  6
CONTINUOUS
 62
7
 10
3.2749644E+002
 20
2.0E+001
 11
2.1549515E+002
 21
2.0E+001
  0
LINE
  8
2
  6
CONTINUOUS
 62
7
 10
2.4549515E+002
 20
5.0
 11
2.4549515E+002
 21
2.0E+001
  0
POLYLINE
  8
1
  6
CONTINUOUS
 62
7
 66
1
 40
5.0E-001
 41
5.0E-001
 70
0
  0
VERTEX
  8
1
 42
0.0
 10
3.8549644E+002
 20
4.0E+001
 70
0
  0
VERTEX
  8
1
 42
0.0
 10
2.1549515E+002
 20
4.0E+001
 70
0
  0
SEQEND
  0
CIRCLE
  8
2
  6
CONTINUOUS
 62
7
 10
-6.124541
 20
1.8151881E+002
 40
2.5
  0
INSERT
  2
SE0
  8
2
 10
-1.609108E+001
 20
-6.9948784
  0
CIRCLE
  8
2
  6
CONTINUOUS
 62
7
 10
-6.124541
 20
1.0151881E+002
 40
2.5
  0
INSERT
  2
SE1
  8
2
 10
-1.609108E+001
 20
-6.9948784
  0
CIRCLE
  8
2
  6
CONTINUOUS
 62
7
 10
-6.124541
 20
2.1518811E+001
 40
2.5
  0
INSERT
  2
SE2
  8
2
 10
-1.609108E+001
 20
-6.9948784
  0
CIRCLE
  8
2
  6
CONTINUOUS
 62
7
 10
-6.124541
 20
2.6151881E+002
 40
2.5
  0
INSERT
  2
SE3
  8
2
 10
-1.609108E+001
 20
-6.9948784
  0
LINE
  8
2
  6
CONTINUOUS
 62
7
 10
0.0
 20
0.0
 11
3.9049515E+002
 21
0.0
  0
LINE
  8
2
  6
CONTINUOUS
 62
7
 10
-8.9879611
 20
1.3551881E+002
 11
-2.8976631
 21
1.3551881E+002
  0
LINE
  8
2
  6
CONTINUOUS
 62
7
 10
1.0E+001
 20
2.72E+002
 11
1.0E+001
 21
5.0
  0
POLYLINE
  8
1
  6
CONTINUOUS
 62
7
 66
1
 40
5.0E-001
 41
5.0E-001
 70
0
  0
VERTEX
  8
1
 42
0.0
 10
1.0E+001
 20
2.72E+002
 70
0
  0
VERTEX
  8
1
 42
0.0
 10
3.8549644E+002
 20
2.72E+002
 70
0
  0
SEQEND
  0
TEXT
  8
2
  6
CONTINUOUS
 62
7
 10
1.25
 20
6.7
 40
1.4
  1
We reserve all rights in this document and in the
 41
7.5E-001
 50
9.0E+001
 11
1.25
 21
6.0
 73
2
  0
TEXT
  8
2
  6
CONTINUOUS
 62
7
 10
3.75
 20
6.7
 40
1.4
  1
information contained therein. Reproduction, use
 41
7.5E-001
 50
9.0E+001
 11
3.75
 21
6.0
 73
2
  0
TEXT
  8
2
  6
CONTINUOUS
 62
7
 10
6.25
 20
6.7
 40
1.4
  1
or disclosure to third parties without express
 41
7.5E-001
 50
9.0E+001
 11
6.25
 21
6.0
 73
2
  0
TEXT
  8
2
  6
CONTINUOUS
 62
7
 10
8.75
 20
6.7
 40
1.4
  1
autority is strictly forbidden
 41
7.5E-001
 50
9.0E+001
 11
8.75
 21
6.0
 73
2
  0
TEXT
  8
2
  6
CONTINUOUS
 62
7
 10
1.25
 20
6.0162564E+001
 40
1.4
  1
Ce document, propriété exclusive de notre
 41
7.5E-001
 50
9.0E+001
 11
1.25
 21
5.9462564E+001
 73
2
  0
TEXT
  8
2
  6
CONTINUOUS
 62
7
 10
3.75
 20
6.0162564E+001
 40
1.4
  1
société, est strictement confidentiel. Il ne peut
 41
7.5E-001
 50
9.0E+001
 11
3.75
 21
5.9462564E+001
 73
2
  0
TEXT
  8
2
  6
CONTINUOUS
 62
7
 10
6.25
 20
6.0162564E+001
 40
1.4
  1
être communiqué, copié ou reproduit sans son
 41
7.5E-001
 50
9.0E+001
 11
6.25
 21
5.9462564E+001
 73
2
  0
LINE
  8
2
  6
CONTINUOUS
 62
7
 10
1.0E+001
 20
5.0
 11
0.0
 21
5.0
  0
LINE
  8
2
  6
CONTINUOUS
 62
7
 10
3.0749644E+002
 20
2.0E+001
 11
3.0749644E+002
 21
4.0E+001
  0
LINE
  8
2
  6
CONTINUOUS
 62
7
 10
2.9749644E+002
 20
1.6000915E+001
 11
2.9749644E+002
 21
4.0E+001
  0
LINE
  8
2
  6
CONTINUOUS
 62
7
 10
3.1449644E+002
 20
2.0E+001
 11
3.1449644E+002
 21
4.0E+001
  0
TEXT
  8
1
  6
CONTINUOUS
 62
7
 10
2.2649419E+002
 20
2.2875E+001
 40
1.75
  1
DESCRIPTION
 41
7.0E-001
 11
2.2649419E+002
 21
2.2E+001
 73
2
  0
TEXT
  8
1
  6
CONTINUOUS
 62
7
 10
2.9494644E+002
 20
2.2875E+001
 40
1.75
  1
DATE
 41
7.0E-001
 72
1
 11
2.9249644E+002
 21
2.2E+001
 73
2
  0
TEXT
  8
1
  6
CONTINUOUS
 62
7
 10
3.0494644E+002
 20
2.2875E+001
 40
1.75
  1
N°OE
 41
7.0E-001
 72
1
 11
3.0249644E+002
 21
2.2E+001
 73
2
  0
TEXT
  8
1
  6
CONTINUOUS
 62
7
 10
3.1362144E+002
 20
2.2875E+001
 40
1.75
  1
Auteur
 41
5.0E-001
 72
1
 11
3.1099644E+002
 21
2.2E+001
 73
2
  0
TEXT
  8
1
  6
CONTINUOUS
 62
7
 10
3.2554644E+002
 20
2.2875E+001
 40
1.75
  1
Controlé
 41
6.5E-001
 72
1
 11
3.2099644E+002
 21
2.2E+001
 73
2
  0
TEXT
  8
1
  6
CONTINUOUS
 62
7
 10
3.2689644E+002
 20
1.9000457E+001
 40
2.0
  1
Service responsable: OEM
 41
6.0E-001
 72
1
 11
3.1249644E+002
 21
1.8000457E+001
 73
2
  0
TEXT
  8
1
  6
CONTINUOUS
 62
7
 10
2.4649515E+002
 20
1.9250457E+001
 40
2.5
  1
ABB Entrelec
 41
7.5E-001
 11
2.4649515E+002
 21
1.8000457E+001
 73
2
  0
TEXT
  8
1
  6
CONTINUOUS
 62
7
 10
2.4649515E+002
 20
1.4686428E+001
 40
1.5
  1
Titre
 11
2.4649515E+002
 21
1.3936428E+001
 73
2
  0
TEXT
  8
1
  6
CONTINUOUS
 62
7
 10
3.4143394E+002
 20
2.675E+001
 40
1.5
  1
ECHELLE
 41
7.5E-001
 72
1
 11
3.3749644E+002
 21
2.6E+001
 73
2
  0
TEXT
  8
2
  6
CONTINUOUS
 62
7
 10
3.8710271E+002
 20
3.8454406E+001
 40
2.5
  1
1
 41
6.65E-001
 11
3.8710271E+002
 21
3.5954406E+001
 73
3
  0
TEXT
  8
2
  6
CONTINUOUS
 62
7
 10
3.8676438E+002
 20
1.0780311E+002
 40
2.5
  1
2
 11
3.8676438E+002
 21
1.0530311E+002
 73
3
  0
TEXT
  8
2
  6
CONTINUOUS
 62
7
 10
3.8687801E+002
 20
1.7698651E+002
 40
2.5
  1
3
 11
3.8687801E+002
 21
1.7448651E+002
 73
3
  0
LINE
  8
2
  6
CONTINUOUS
 62
7
 10
3.8549644E+002
 20
6.925E+001
 11
3.9049515E+002
 21
6.925E+001
  0
LINE
  8
2
  6
CONTINUOUS
 62
7
 10
3.8549644E+002
 20
2.0775E+002
 11
3.9049515E+002
 21
2.0775E+002
  0
LINE
  8
2
  6
CONTINUOUS
 62
7
 10
3.9049515E+002
 20
1.385E+002
 11
3.8549644E+002
 21
1.385E+002
  0
POLYLINE
  8
1
  6
CONTINUOUS
 62
7
 66
1
 40
5.0E-001
 41
5.0E-001
 70
0
  0
VERTEX
  8
1
 42
0.0
 10
3.8549644E+002
 20
5.0
 70
0
  0
VERTEX
  8
1
 42
0.0
 10
3.8549644E+002
 20
2.72E+002
 70
0
  0
SEQEND
  0
LINE
  8
1
  6
CONTINUOUS
 62
7
 10
2.2205175E+002
 20
1.25E+001
 11
2.2405715E+002
 21
1.25E+001
  0
LINE
  8
1
  6
CONTINUOUS
 62
7
 10
2.2205175E+002
 20
1.25E+001
 11
2.2324315E+002
 21
1.5904E+001
  0
LINE
  8
1
  6
CONTINUOUS
 62
7
 10
2.2324315E+002
 20
1.5904E+001
 11
2.2405715E+002
 21
1.5904E+001
  0
LINE
  8
1
  6
CONTINUOUS
 62
7
 10
2.2405715E+002
 20
1.25E+001
 11
2.2405715E+002
 21
1.5904E+001
  0
LINE
  8
1
  6
CONTINUOUS
 62
7
 10
2.2464915E+002
 20
1.25E+001
 11
2.2665455E+002
 21
1.25E+001
  0
LINE
  8
1
  6
CONTINUOUS
 62
7
 10
2.2546315E+002
 20
1.5904E+001
 11
2.2665455E+002
 21
1.25E+001
  0
LINE
  8
1
  6
CONTINUOUS
 62
7
 10
2.2464915E+002
 20
1.5904E+001
 11
2.2546315E+002
 21
1.5904E+001
  0
LINE
  8
1
  6
CONTINUOUS
 62
7
 10
2.2464915E+002
 20
1.25E+001
 11
2.2464915E+002
 21
1.5904E+001
  0
LINE
  8
1
  6
CONTINUOUS
 62
7
 10
2.2405715E+002
 20
9.984
 11
2.2405715E+002
 21
1.1908E+001
  0
LINE
  8
1
  6
CONTINUOUS
 62
7
 10
2.2302115E+002
 20
9.984
 11
2.2405715E+002
 21
9.984
  0
LINE
  8
1
  6
CONTINUOUS
 62
7
 10
2.2250315E+002
 20
8.504
 11
2.2302115E+002
 21
9.984
  0
LINE
  8
1
  6
CONTINUOUS
 62
7
 10
2.2065315E+002
 20
8.504
 11
2.2250315E+002
 21
8.504
  0
LINE
  8
1
  6
CONTINUOUS
 62
7
 10
2.2065315E+002
 20
8.504
 11
2.2184455E+002
 21
1.1908E+001
  0
LINE
  8
1
  6
CONTINUOUS
 62
7
 10
2.2184455E+002
 20
1.1908E+001
 11
2.2405715E+002
 21
1.1908E+001
  0
LINE
  8
1
  6
CONTINUOUS
 62
7
 10
2.2464915E+002
 20
1.1908E+001
 11
2.2686175E+002
 21
1.1908E+001
  0
LINE
  8
1
  6
CONTINUOUS
 62
7
 10
2.2686175E+002
 20
1.1908E+001
 11
2.2805315E+002
 21
8.504
  0
LINE
  8
1
  6
CONTINUOUS
 62
7
 10
2.2620315E+002
 20
8.504
 11
2.2805315E+002
 21
8.504
  0
LINE
  8
1
  6
CONTINUOUS
 62
7
 10
2.2620315E+002
 20
8.504
 11
2.2568515E+002
 21
9.984
  0
LINE
  8
1
  6
CONTINUOUS
 62
7
 10
2.2464915E+002
 20
9.984
 11
2.2568515E+002
 21
9.984
  0
LINE
  8
1
  6
CONTINUOUS
 62
7
 10
2.2464915E+002
 20
9.984
 11
2.2464915E+002
 21
1.1908E+001
  0
LINE
  8
1
  6
CONTINUOUS
 62
7
 10
2.2857115E+002
 20
1.25E+001
 11
2.3049515E+002
 21
1.25E+001
  0
LINE
  8
1
  6
CONTINUOUS
 62
7
 10
2.2857115E+002
 20
1.5904E+001
 11
2.2857115E+002
 21
1.25E+001
  0
LINE
  8
1
  6
CONTINUOUS
 62
7
 10
2.2857115E+002
 20
1.5904E+001
 11
2.3049515E+002
 21
1.5904E+001
  0
LINE
  8
1
  6
CONTINUOUS
 62
7
 10
2.3049515E+002
 20
1.5904E+001
 11
2.3049515E+002
 21
1.25E+001
  0
LINE
  8
1
  6
CONTINUOUS
 62
7
 10
2.3108715E+002
 20
1.25E+001
 11
2.3286315E+002
 21
1.25E+001
  0
ARC
  8
1
  6
CONTINUOUS
 62
7
 10
2.3153115E+002
 20
1.0724E+001
 40
2.22
 50
5.3130102E+001
 51
6.8407484E+001
  0
ARC
  8
1
  6
CONTINUOUS
 62
7
 10
2.3153115E+002
 20
1.4239E+001
 40
1.665
 50
2.9938468E+002
 51
4.5E+002
  0
LINE
  8
1
  6
CONTINUOUS
 62
7
 10
2.3108715E+002
 20
1.5904E+001
 11
2.3153115E+002
 21
1.5904E+001
  0
LINE
  8
1
  6
CONTINUOUS
 62
7
 10
2.3108715E+002
 20
1.5904E+001
 11
2.3108715E+002
 21
1.25E+001
  0
LINE
  8
1
  6
CONTINUOUS
 62
7
 10
2.3049515E+002
 20
1.1908E+001
 11
2.3049515E+002
 21
8.504
  0
LINE
  8
1
  6
CONTINUOUS
 62
7
 10
2.2857115E+002
 20
8.504
 11
2.3049515E+002
 21
8.504
  0
LINE
  8
1
  6
CONTINUOUS
 62
7
 10
2.2857115E+002
 20
1.1908E+001
 11
2.2857115E+002
 21
8.504
  0
LINE
  8
1
  6
CONTINUOUS
 62
7
 10
2.2857115E+002
 20
1.1908E+001
 11
2.3049515E+002
 21
1.1908E+001
  0
LINE
  8
1
  6
CONTINUOUS
 62
7
 10
2.3108715E+002
 20
1.1908E+001
 11
2.3340906E+002
 21
1.1908E+001
  0
ARC
  8
1
  6
CONTINUOUS
 62
7
 10
2.3153115E+002
 20
1.0724E+001
 40
2.22
 50
2.7E+002
 51
3.9223095E+002
  0
LINE
  8
1
  6
CONTINUOUS
 62
7
 10
2.3108715E+002
 20
8.504
 11
2.3153115E+002
 21
8.504
  0
LINE
  8
1
  6
CONTINUOUS
 62
7
 10
2.3108715E+002
 20
1.1908E+001
 11
2.3108715E+002
 21
8.504
  0
LINE
  8
1
  6
CONTINUOUS
 62
7
 10
2.3434315E+002
 20
1.25E+001
 11
2.3626715E+002
 21
1.25E+001
  0
LINE
  8
1
  6
CONTINUOUS
 62
7
 10
2.3434315E+002
 20
1.5904E+001
 11
2.3434315E+002
 21
1.25E+001
  0
LINE
  8
1
  6
CONTINUOUS
 62
7
 10
2.3434315E+002
 20
1.5904E+001
 11
2.3626715E+002
 21
1.5904E+001
  0
LINE
  8
1
  6
CONTINUOUS
 62
7
 10
2.3626715E+002
 20
1.5904E+001
 11
2.3626715E+002
 21
1.25E+001
  0
LINE
  8
1
  6
CONTINUOUS
 62
7
 10
2.3685915E+002
 20
1.5904E+001
 11
2.3685915E+002
 21
1.25E+001
  0
LINE
  8
1
  6
CONTINUOUS
 62
7
 10
2.3685915E+002
 20
1.5904E+001
 11
2.3730315E+002
 21
1.5904E+001
  0
ARC
  8
1
  6
CONTINUOUS
 62
7
 10
2.3730315E+002
 20
1.4239E+001
 40
1.665
 50
2.9938468E+002
 51
4.5E+002
  0
ARC
  8
1
  6
CONTINUOUS
 62
7
 10
2.3730315E+002
 20
1.0724E+001
 40
2.22
 50
5.3130102E+001
 51
6.8407484E+001
  0
LINE
  8
1
  6
CONTINUOUS
 62
7
 10
2.3685915E+002
 20
1.25E+001
 11
2.3863515E+002
 21
1.25E+001
  0
LINE
  8
1
  6
CONTINUOUS
 62
7
 10
2.3626715E+002
 20
1.1908E+001
 11
2.3626715E+002
 21
8.504
  0
LINE
  8
1
  6
CONTINUOUS
 62
7
 10
2.3434315E+002
 20
8.504
 11
2.3626715E+002
 21
8.504
  0
LINE
  8
1
  6
CONTINUOUS
 62
7
 10
2.3434315E+002
 20
1.1908E+001
 11
2.3434315E+002
 21
8.504
  0
LINE
  8
1
  6
CONTINUOUS
 62
7
 10
2.3434315E+002
 20
1.1908E+001
 11
2.3626715E+002
 21
1.1908E+001
  0
LINE
  8
1
  6
CONTINUOUS
 62
7
 10
2.3685915E+002
 20
1.1908E+001
 11
2.3918106E+002
 21
1.1908E+001
  0
ARC
  8
1
  6
CONTINUOUS
 62
7
 10
2.3730315E+002
 20
1.0724E+001
 40
2.22
 50
2.7E+002
 51
3.9223095E+002
  0
LINE
  8
1
  6
CONTINUOUS
 62
7
 10
2.3685915E+002
 20
8.504
 11
2.3730315E+002
 21
8.504
  0
LINE
  8
1
  6
CONTINUOUS
 62
7
 10
2.3685915E+002
 20
1.1908E+001
 11
2.3685915E+002
 21
8.504
  0
LINE
  8
1
  6
CONTINUOUS
 62
7
 10
1.0E+001
 20
5.8462564E+001
 11
0.0
 21
5.8462564E+001
  0
LINE
  8
1
  6
CONTINUOUS
 62
7
 10
0.0
 20
1.1192513E+002
 11
1.0E+001
 21
1.1192513E+002
  0
ATTDEF
  8
1
  6
CONTINUOUS
 62
5
 10
2.2649419E+002
 20
2.6875E+001
 40
1.75
  1
 
 41
7.5E-001
 11
2.2649419E+002
 21
2.6E+001
  3
DESC-1
  2
DESC-1
 70
0
 73
2
 74
2
  0
ATTDEF
  8
1
  6
CONTINUOUS
 62
5
 10
2.2649419E+002
 20
3.0875E+001
 40
1.75
  1
 
 41
7.5E-001
 11
2.2649419E+002
 21
3.0E+001
  3
DESC-2
  2
DESC-2
 70
0
 73
2
 74
2
  0
ATTDEF
  8
1
  6
CONTINUOUS
 62
5
 10
2.2649419E+002
 20
3.4875E+001
 40
1.75
  1
 
 41
7.5E-001
 11
2.2649419E+002
 21
3.4E+001
  3
DESC-3
  2
DESC-3
 70
0
 73
2
 74
2
  0
ATTDEF
  8
1
  6
CONTINUOUS
 62
5
 10
2.2649419E+002
 20
3.8875E+001
 40
1.75
  1
 
 41
7.5E-001
 11
2.2649419E+002
 21
3.8E+001
  3
DESC-4
  2
DESC-4
 70
0
 73
2
 74
2
  0
ATTDEF
  8
1
  6
CONTINUOUS
 62
5
 10
2.9519644E+002
 20
2.69E+001
 40
1.8
  1
01.01.04
 41
6.0E-001
 72
1
 11
2.9249644E+002
 21
2.6E+001
  3
DATE1
  2
DATE1
 70
0
 73
2
 74
2
  0
ATTDEF
  8
1
  6
CONTINUOUS
 62
5
 10
2.9519644E+002
 20
3.09E+001
 40
1.8
  1
 
 41
6.0E-001
 72
1
 11
2.9249644E+002
 21
3.0E+001
  3
DATE2
  2
DATE2
 70
0
 73
2
 74
2
  0
ATTDEF
  8
1
  6
CONTINUOUS
 62
5
 10
2.9519644E+002
 20
3.49E+001
 40
1.8
  1
 
 41
6.0E-001
 72
1
 11
2.9249644E+002
 21
3.4E+001
  3
DATE3
  2
DATE3
 70
0
 73
2
 74
2
  0
ATTDEF
  8
1
  6
CONTINUOUS
 62
5
 10
2.9519644E+002
 20
3.89E+001
 40
1.8
  1
 
 41
6.0E-001
 72
1
 11
2.9249644E+002
 21
3.8E+001
  3
DATE4
  2
DATE4
 70
0
 73
2
 74
2
  0
ATTDEF
  8
1
  6
CONTINUOUS
 62
5
 10
3.0452144E+002
 20
2.69E+001
 40
1.8
  1
12345
 41
7.5E-001
 72
1
 11
3.0249644E+002
 21
2.6E+001
  3
OE1
  2
OE1
 70
0
 73
2
 74
2
  0
ATTDEF
  8
1
  6
CONTINUOUS
 62
5
 10
3.0452144E+002
 20
3.09E+001
 40
1.8
  1
 
 41
7.5E-001
 72
1
 11
3.0249644E+002
 21
3.0E+001
  3
OE2
  2
OE2
 70
0
 73
2
 74
2
  0
ATTDEF
  8
1
  6
CONTINUOUS
 62
5
 10
3.0452144E+002
 20
3.49E+001
 40
1.8
  1
 
 41
7.5E-001
 72
1
 11
3.0249644E+002
 21
3.4E+001
  3
OE3
  2
OE3
 70
0
 73
2
 74
2
  0
ATTDEF
  8
1
  6
CONTINUOUS
 62
5
 10
3.0452144E+002
 20
3.89E+001
 40
1.8
  1
 
 41
7.5E-001
 72
1
 11
3.0249644E+002
 21
3.8E+001
  3
OE4
  2
OE4
 70
0
 73
2
 74
2
  0
ATTDEF
  8
1
  6
CONTINUOUS
 62
5
 10
3.1369644E+002
 20
2.69E+001
 40
1.8
  1
 
 41
7.5E-001
 72
1
 11
3.1099644E+002
 21
2.6E+001
  3
AUT1
  2
AUT1
 70
0
 73
2
 74
2
  0
ATTDEF
  8
1
  6
CONTINUOUS
 62
5
 10
3.1369644E+002
 20
3.09E+001
 40
1.8
  1
 
 41
7.5E-001
 72
1
 11
3.1099644E+002
 21
3.0E+001
  3
AUT2
  2
AUT2
 70
0
 73
2
 74
2
  0
ATTDEF
  8
1
  6
CONTINUOUS
 62
5
 10
3.1369644E+002
 20
3.49E+001
 40
1.8
  1
 
 41
7.5E-001
 72
1
 11
3.1099644E+002
 21
3.4E+001
  3
AUT3
  2
AUT3
 70
0
 73
2
 74
2
  0
ATTDEF
  8
1
  6
CONTINUOUS
 62
5
 10
3.1369644E+002
 20
3.89E+001
 40
1.8
  1
 
 41
7.5E-001
 72
1
 11
3.1099644E+002
 21
3.8E+001
  3
AUT4
  2
AUT4
 70
0
 73
2
 74
2
  0
ATTDEF
  8
1
  6
CONTINUOUS
 62
5
 10
3.1540529E+002
 20
2.69E+001
 40
1.8
  1
 
 41
7.5E-001
 11
3.1540529E+002
 21
2.6E+001
  3
CONT1
  2
CONT1
 70
0
 73
2
 74
2
  0
ATTDEF
  8
1
  6
CONTINUOUS
 62
5
 10
3.1540529E+002
 20
3.09E+001
 40
1.8
  1
 
 41
7.5E-001
 11
3.1540529E+002
 21
3.0E+001
  3
CONT2
  2
CONT2
 70
0
 73
2
 74
2
  0
ATTDEF
  8
1
  6
CONTINUOUS
 62
5
 10
3.1540529E+002
 20
3.49E+001
 40
1.8
  1
 
 41
7.5E-001
 11
3.1540529E+002
 21
3.4E+001
  3
CONT3
  2
CONT3
 70
0
 73
2
 74
2
  0
ATTDEF
  8
1
  6
CONTINUOUS
 62
5
 10
3.1540529E+002
 20
3.89E+001
 40
1.8
  1
 
 41
7.5E-001
 11
3.1540529E+002
 21
3.8E+001
  3
CONT4
  2
CONT4
 70
0
 73
2
 74
2
  0
LINE
  8
2
  6
CONTINUOUS
 62
7
 10
2.2749903E+002
 20
2.72E+002
 11
2.2749903E+002
 21
2.77E+002
  0
LINE
  8
1
  6
CONTINUOUS
 62
7
 10
1.85E+002
 20
2.77E+002
 11
1.85E+002
 21
2.72E+002
  0
LINE
  8
1
  6
CONTINUOUS
 62
7
 10
2.6999806E+002
 20
2.77E+002
 11
2.6999806E+002
 21
2.72E+002
  0
LINE
  8
1
  6
CONTINUOUS
 62
7
 10
3.5499612E+002
 20
2.77E+002
 11
3.5499612E+002
 21
2.72E+002
  0
LINE
  8
2
  6
CONTINUOUS
 62
7
 10
3.1249709E+002
 20
2.72E+002
 11
3.1249709E+002
 21
2.77E+002
  0
LINE
  8
2
  6
CONTINUOUS
 62
7
 10
3.9049515E+002
 20
0.0
 11
3.9049515E+002
 21
2.77E+002
  0
POLYLINE
  8
1
  6
CONTINUOUS
 62
7
 66
1
 40
5.0E-001
 41
5.0E-001
 70
0
  0
VERTEX
  8
1
 42
0.0
 10
2.1549515E+002
 20
4.0E+001
 70
0
  0
VERTEX
  8
1
 42
0.0
 10
2.1549515E+002
 20
5.0
 70
0
  0
SEQEND
  0
TEXT
  8
2
  6
CONTINUOUS
 62
7
 10
2.0983526E+002
 20
2.760248E+002
 40
2.5
  1
E
 72
1
 11
2.0858526E+002
 21
2.747748E+002
 73
2
  0
TEXT
  8
2
  6
CONTINUOUS
 62
7
 10
2.4999854E+002
 20
2.7575E+002
 40
2.5
  1
D
 72
1
 11
2.4874854E+002
 21
2.745E+002
 73
2
  0
TEXT
  8
2
  6
CONTINUOUS
 62
7
 10
2.9249757E+002
 20
2.7575E+002
 40
2.5
  1
C
 72
1
 11
2.9124757E+002
 21
2.745E+002
 73
2
  0
TEXT
  8
2
  6
CONTINUOUS
 62
7
 10
3.349966E+002
 20
2.7575E+002
 40
2.5
  1
B
 72
1
 11
3.337466E+002
 21
2.745E+002
 73
2
  0
TEXT
  8
2
  6
CONTINUOUS
 62
7
 10
3.7749563E+002
 20
2.7575E+002
 40
2.5
  1
A
 72
1
 11
3.7624563E+002
 21
2.745E+002
 73
2
  0
POINT
  8
Drafting_Hidden_Entities
  6
CONTINUOUS
 62
1
 10
0.0
 20
0.0
  0
ENDBLK
  0
BLOCK
  2
*TX192
  3
*TX
 10
0.0
 20
0.0
 70
65
  0
TEXT
  8
1
  6
CONTINUOUS
 62
7
 10
0.0
 20
0.0
 40
2.25
  1
Magnetic coil for remote reset
 41
7.5E-001
  0
TEXT
  8
1
  6
CONTINUOUS
 62
7
 10
0.0
 20
-3.375
 40
2.25
  1
Fernrückstellspule
 41
7.5E-001
  0
TEXT
  8
1
  6
CONTINUOUS
 62
7
 10
0.0
 20
-6.75
 40
2.25
  1
Bobine pour réarmement à distance
 41
7.5E-001
  0
ENDBLK
  0
BLOCK
  2
*TX193
  3
*TX
 10
0.0
 20
0.0
 70
65
  0
TEXT
  8
1
  6
CONTINUOUS
 62
7
 10
0.0
 20
0.0
 40
2.25
  1
Magnetic coil for remote tripping
 41
7.5E-001
  0
TEXT
  8
1
  6
CONTINUOUS
 62
7
 10
0.0
 20
-3.375
 40
2.25
  1
Fernauslösespule
 41
7.5E-001
  0
TEXT
  8
1
  6
CONTINUOUS
 62
7
 10
0.0
 20
-6.75
 40
2.25
  1
Bobine pour déclenchement à distance
 41
7.5E-001
  0
ENDBLK
  0
BLOCK
  2
*TX194
  3
*TX
 10
0.0
 20
0.0
 70
65
  0
TEXT
  8
1
  6
CONTINUOUS
 62
7
 10
0.0
 20
0.0
 40
2.0
  1
KM1:5/L3
 41
7.5E-001
  0
TEXT
  8
1
  6
CONTINUOUS
 62
7
 10
0.0
 20
-3.0
 40
2.0
  1
Us
 41
7.5E-001
  0
ENDBLK
  0
BLOCK
  2
*TX195
  3
*TX
 10
0.0
 20
0.0
 70
65
  0
TEXT
  8
1
  6
CONTINUOUS
 62
7
 10
0.0
 20
0.0
 40
2.0
  1
Us
 41
7.5E-001
  0
TEXT
  8
1
  6
CONTINUOUS
 62
7
 10
0.0
 20
-3.0
 40
2.0
  1
N
 41
7.5E-001
  0
TEXT
  8
1
  6
CONTINUOUS
 62
7
 10
0.0
 20
-6.0
 40
2.0
  1
KM1:3/L2
 41
7.5E-001
  0
ENDBLK
  0
BLOCK
  2
*TX196
  3
*TX
 10
0.0
 20
0.0
 70
65
  0
TEXT
  8
1
  6
CONTINUOUS
 62
7
 10
0.0
 20
0.0
 40
2.0
  1
Us
 41
7.5E-001
  0
TEXT
  8
1
  6
CONTINUOUS
 62
7
 10
0.0
 20
-3.0
 40
2.0
  1
N
 41
7.5E-001
  0
TEXT
  8
1
  6
CONTINUOUS
 62
7
 10
0.0
 20
-6.0
 40
2.0
  1
KM1:3/L2
 41
7.5E-001
  0
ENDBLK
  0
BLOCK
  2
*TX197
  3
*TX
 10
0.0
 20
0.0
 70
65
  0
TEXT
  8
1
  6
CONTINUOUS
 62
7
 10
0.0
 20
0.0
 40
2.0
  1
KM1:5/L3
 41
7.5E-001
  0
TEXT
  8
1
  6
CONTINUOUS
 62
7
 10
0.0
 20
-3.0
 40
2.0
  1
Us
 41
7.5E-001
  0
ENDBLK
  0
BLOCK
  2
*TX198
  3
*TX
 10
0.0
 20
0.0
 70
65
  0
TEXT
  8
1
  6
CONTINUOUS
 62
7
 10
0.0
 20
0.0
 40
2.25
  1
Only for starters A9...30
 41
7.5E-001
  0
TEXT
  8
1
  6
CONTINUOUS
 62
7
 10
0.0
 20
-3.375
 40
2.25
  1
Nur für A9...30 Starters
 41
7.5E-001
  0
TEXT
  8
1
  6
CONTINUOUS
 62
7
 10
0.0
 20
-6.75
 40
2.25
  1
Uniquement pour démarreurs A9...30
 41
7.5E-001
  0
ENDBLK
  0
BLOCK
  2
*TX199
  3
*TX
 10
0.0
 20
0.0
 70
65
  0
TEXT
  8
1
  6
CONTINUOUS
 62
7
 10
0.0
 20
0.0
 40
2.0
  1
KM1:5/L3
 41
7.5E-001
  0
TEXT
  8
1
  6
CONTINUOUS
 62
7
 10
0.0
 20
-3.0
 40
2.0
  1
Us
 41
7.5E-001
  0
ENDBLK
  0
BLOCK
  2
_AH1
 70
0
 10
0.0
 20
0.0
  3
_AH1
  0
LINE
  8
0
  6
CONTINUOUS
 62
0
 10
-1.0
 20
1.66667E-001
 11
0.0
 21
0.0
  0
LINE
  8
0
  6
CONTINUOUS
 62
0
 10
0.0
 20
0.0
 11
-1.0
 21
-1.66667E-001
  0
LINE
  8
0
  6
CONTINUOUS
 62
0
 10
-1.0
 20
1.66667E-001
 11
-1.0
 21
-1.66667E-001
  0
LINE
  8
0
  6
CONTINUOUS
 62
0
 10
0.0
 20
0.0
 11
-1.0
 21
0.0
  0
ENDBLK
  0
BLOCK
  2
_AH2
 70
0
 10
0.0
 20
0.0
  3
_AH2
  0
LINE
  8
0
  6
CONTINUOUS
 62
0
 10
-1.0
 20
1.66667E-001
 11
0.0
 21
0.0
  0
LINE
  8
0
  6
CONTINUOUS
 62
0
 10
0.0
 20
0.0
 11
-1.0
 21
-1.66667E-001
  0
LINE
  8
0
  6
CONTINUOUS
 62
0
 10
0.0
 20
0.0
 11
-1.0
 21
0.0
  0
ENDBLK
  0
BLOCK
  2
*D987
  3
*D
 10
0.0
 20
0.0
 70
65
  0
LINE
  8
1
  6
CONTINUOUS
 62
1
 10
-6.9813441E+001
 20
1.7496977E+002
 11
-6.9813441E+001
 21
1.9015876E+002
  0
LINE
  8
1
  6
CONTINUOUS
 62
1
 10
-1.1181344E+002
 20
1.7496977E+002
 11
-1.1181344E+002
 21
1.9015876E+002
  0
LINE
  8
1
  6
CONTINUOUS
 62
1
 10
-6.9813441E+001
 20
1.8915886E+002
 11
-9.0813441E+001
 21
1.8915886E+002
  0
LINE
  8
1
  6
CONTINUOUS
 62
1
 10
-1.1181344E+002
 20
1.8915886E+002
 11
-9.0813441E+001
 21
1.8915886E+002
  0
INSERT
  2
_AH1
  8
1
 62
1
 10
-6.9813441E+001
 20
1.8915886E+002
 41
3.5001001
 42
3.5001001
 43
3.5001001
 50
0.0
  0
INSERT
  2
_AH1
  8
1
 62
1
 10
-1.1181344E+002
 20
1.8915886E+002
 41
3.5001001
 42
3.5001001
 43
3.5001001
 50
1.8E+002
  0
TEXT
  8
1
  6
CONTINUOUS
 62
1
 10
-9.6438216E+001
 20
1.9015976E+002
 40
2.4999
  1
( 
 41
7.5E-001
 50
3.6E+002
  0
INSERT
  2
_AH1
  8
1
 62
1
 10
-6.9813441E+001
 20
1.8915886E+002
 41
3.5001001
 42
3.5001001
 43
3.5001001
 50
0.0
  0
INSERT
  2
_AH1
  8
1
 62
1
 10
-1.1181344E+002
 20
1.8915886E+002
 41
3.5001001
 42
3.5001001
 43
3.5001001
 50
1.8E+002
  0
TEXT
  8
1
  6
CONTINUOUS
 62
1
 10
-9.2688366E+001
 20
1.9015976E+002
 40
2.4999
  1
42
 41
7.5E-001
 50
3.6E+002
  0
INSERT
  2
_AH1
  8
1
 62
1
 10
-6.9813441E+001
 20
1.8915886E+002
 41
3.5001001
 42
3.5001001
 43
3.5001001
 50
0.0
  0
INSERT
  2
_AH1
  8
1
 62
1
 10
-1.1181344E+002
 20
1.8915886E+002
 41
3.5001001
 42
3.5001001
 43
3.5001001
 50
1.8E+002
  0
TEXT
  8
1
  6
CONTINUOUS
 62
1
 10
-8.8938516E+001
 20
1.9015976E+002
 40
2.4999
  1
 )
 41
7.5E-001
 50
3.6E+002
  0
ENDBLK
  0
BLOCK
  2
*D989
  3
*D
 10
0.0
 20
0.0
 70
65
  0
LINE
  8
1
  6
CONTINUOUS
 62
1
 10
-6.8813541E+001
 20
1.7396987E+002
 11
-4.956358E+001
 21
1.7396987E+002
  0
LINE
  8
1
  6
CONTINUOUS
 62
1
 10
-6.8813541E+001
 20
1.3196987E+002
 11
-4.956358E+001
 21
1.3196987E+002
  0
LINE
  8
1
  6
CONTINUOUS
 62
1
 10
-5.056348E+001
 20
1.7396987E+002
 11
-5.056348E+001
 21
1.5296987E+002
  0
LINE
  8
1
  6
CONTINUOUS
 62
1
 10
-5.056348E+001
 20
1.3196987E+002
 11
-5.056348E+001
 21
1.5296987E+002
  0
INSERT
  2
_AH1
  8
1
 62
1
 10
-5.056348E+001
 20
1.7396987E+002
 41
3.5001001
 42
3.5001001
 43
3.5001001
 50
9.0E+001
  0
INSERT
  2
_AH1
  8
1
 62
1
 10
-5.056348E+001
 20
1.3196987E+002
 41
3.5001001
 42
3.5001001
 43
3.5001001
 50
2.7E+002
  0
TEXT
  8
1
  6
CONTINUOUS
 62
1
 10
-5.156438E+001
 20
1.473451E+002
 40
2.4999
  1
( 
 41
7.5E-001
 50
9.0E+001
  0
INSERT
  2
_AH1
  8
1
 62
1
 10
-5.056348E+001
 20
1.7396987E+002
 41
3.5001001
 42
3.5001001
 43
3.5001001
 50
9.0E+001
  0
INSERT
  2
_AH1
  8
1
 62
1
 10
-5.056348E+001
 20
1.3196987E+002
 41
3.5001001
 42
3.5001001
 43
3.5001001
 50
2.7E+002
  0
TEXT
  8
1
  6
CONTINUOUS
 62
1
 10
-5.156438E+001
 20
1.5109495E+002
 40
2.4999
  1
42
 41
7.5E-001
 50
9.0E+001
  0
INSERT
  2
_AH1
  8
1
 62
1
 10
-5.056348E+001
 20
1.7396987E+002
 41
3.5001001
 42
3.5001001
 43
3.5001001
 50
9.0E+001
  0
INSERT
  2
_AH1
  8
1
 62
1
 10
-5.056348E+001
 20
1.3196987E+002
 41
3.5001001
 42
3.5001001
 43
3.5001001
 50
2.7E+002
  0
TEXT
  8
1
  6
CONTINUOUS
 62
1
 10
-5.156438E+001
 20
1.548448E+002
 40
2.4999
  1
 )
 41
7.5E-001
 50
9.0E+001
  0
ENDBLK
  0
BLOCK
  2
*D1031
  3
*D
 10
0.0
 20
0.0
 70
65
  0
LINE
  8
1
  6
CONTINUOUS
 62
1
 10
-6.1950377E+001
 20
6.9546334E+001
 11
-6.1950377E+001
 21
8.9936355E+001
  0
LINE
  8
1
  6
CONTINUOUS
 62
1
 10
-1.1795038E+002
 20
6.9546334E+001
 11
-1.1795038E+002
 21
8.9936355E+001
  0
LINE
  8
1
  6
CONTINUOUS
 62
1
 10
-6.1950377E+001
 20
8.8936455E+001
 11
-8.9950377E+001
 21
8.8936455E+001
  0
LINE
  8
1
  6
CONTINUOUS
 62
1
 10
-1.1795038E+002
 20
8.8936455E+001
 11
-8.9950377E+001
 21
8.8936455E+001
  0
INSERT
  2
_AH1
  8
1
 62
1
 10
-6.1950377E+001
 20
8.8936455E+001
 41
3.5001001
 42
3.5001001
 43
3.5001001
 50
0.0
  0
INSERT
  2
_AH1
  8
1
 62
1
 10
-1.1795038E+002
 20
8.8936455E+001
 41
3.5001001
 42
3.5001001
 43
3.5001001
 50
1.8E+002
  0
TEXT
  8
1
  6
CONTINUOUS
 62
1
 10
-9.5575152E+001
 20
8.9937355E+001
 40
2.4999
  1
( 
 41
7.5E-001
 50
3.6E+002
  0
INSERT
  2
_AH1
  8
1
 62
1
 10
-6.1950377E+001
 20
8.8936455E+001
 41
3.5001001
 42
3.5001001
 43
3.5001001
 50
0.0
  0
INSERT
  2
_AH1
  8
1
 62
1
 10
-1.1795038E+002
 20
8.8936455E+001
 41
3.5001001
 42
3.5001001
 43
3.5001001
 50
1.8E+002
  0
TEXT
  8
1
  6
CONTINUOUS
 62
1
 10
-9.1825302E+001
 20
8.9937355E+001
 40
2.4999
  1
56
 41
7.5E-001
 50
3.6E+002
  0
INSERT
  2
_AH1
  8
1
 62
1
 10
-6.1950377E+001
 20
8.8936455E+001
 41
3.5001001
 42
3.5001001
 43
3.5001001
 50
0.0
  0
INSERT
  2
_AH1
  8
1
 62
1
 10
-1.1795038E+002
 20
8.8936455E+001
 41
3.5001001
 42
3.5001001
 43
3.5001001
 50
1.8E+002
  0
TEXT
  8
1
  6
CONTINUOUS
 62
1
 10
-8.8075452E+001
 20
8.9937355E+001
 40
2.4999
  1
 )
 41
7.5E-001
 50
3.6E+002
  0
ENDBLK
  0
BLOCK
  2
*D1032
  3
*D
 10
0.0
 20
0.0
 70
65
  0
LINE
  8
1
  6
CONTINUOUS
 62
1
 10
-6.0950477E+001
 20
6.8546434E+001
 11
-3.9121534E+001
 21
6.8546434E+001
  0
LINE
  8
1
  6
CONTINUOUS
 62
1
 10
-6.0950477E+001
 20
3.8546434E+001
 11
-3.9121534E+001
 21
3.8546434E+001
  0
LINE
  8
1
  6
CONTINUOUS
 62
1
 10
-4.0121434E+001
 20
6.8546434E+001
 11
-4.0121434E+001
 21
5.3546434E+001
  0
LINE
  8
1
  6
CONTINUOUS
 62
1
 10
-4.0121434E+001
 20
3.8546434E+001
 11
-4.0121434E+001
 21
5.3546434E+001
  0
INSERT
  2
_AH1
  8
1
 62
1
 10
-4.0121434E+001
 20
6.8546434E+001
 41
3.5001001
 42
3.5001001
 43
3.5001001
 50
9.0E+001
  0
INSERT
  2
_AH1
  8
1
 62
1
 10
-4.0121434E+001
 20
3.8546434E+001
 41
3.5001001
 42
3.5001001
 43
3.5001001
 50
2.7E+002
  0
TEXT
  8
1
  6
CONTINUOUS
 62
1
 10
-4.1122334E+001
 20
4.7921659E+001
 40
2.4999
  1
( 
 41
7.5E-001
 50
9.0E+001
  0
INSERT
  2
_AH1
  8
1
 62
1
 10
-4.0121434E+001
 20
6.8546434E+001
 41
3.5001001
 42
3.5001001
 43
3.5001001
 50
9.0E+001
  0
INSERT
  2
_AH1
  8
1
 62
1
 10
-4.0121434E+001
 20
3.8546434E+001
 41
3.5001001
 42
3.5001001
 43
3.5001001
 50
2.7E+002
  0
TEXT
  8
1
  6
CONTINUOUS
 62
1
 10
-4.1122334E+001
 20
5.1671509E+001
 40
2.4999
  1
30
 41
7.5E-001
 50
9.0E+001
  0
INSERT
  2
_AH1
  8
1
 62
1
 10
-4.0121434E+001
 20
6.8546434E+001
 41
3.5001001
 42
3.5001001
 43
3.5001001
 50
9.0E+001
  0
INSERT
  2
_AH1
  8
1
 62
1
 10
-4.0121434E+001
 20
3.8546434E+001
 41
3.5001001
 42
3.5001001
 43
3.5001001
 50
2.7E+002
  0
TEXT
  8
1
  6
CONTINUOUS
 62
1
 10
-4.1122334E+001
 20
5.5421359E+001
 40
2.4999
  1
 )
 41
7.5E-001
 50
9.0E+001
  0
ENDBLK
  0
ENDSEC
  0
SECTION
  2
ENTITIES
  0
LINE
  8
1
  6
CONTINUOUS
 62
7
 10
1.57E+002
 20
2.305E+002
 11
1.57E+002
 21
2.35E+002
  0
TEXT
  8
1
  6
CONTINUOUS
 62
7
 10
1.5625E+002
 20
2.32E+002
 40
2.0
  1
13
 41
7.5E-001
 50
9.0E+001
  0
TEXT
  8
1
  6
CONTINUOUS
 62
7
 10
1.5625E+002
 20
2.215E+002
 40
2.0
  1
14
 41
7.5E-001
 50
9.0E+001
  0
LINE
  8
1
  6
CONTINUOUS
 62
7
 10
1.57E+002
 20
2.255E+002
 11
1.57E+002
 21
2.21E+002
  0
LINE
  8
1
  6
CONTINUOUS
 62
7
 10
1.57E+002
 20
2.255E+002
 11
1.55E+002
 21
2.305E+002
  0
LINE
  8
1
  6
CONTINUOUS
 62
7
 10
2.12E+002
 20
2.305E+002
 11
2.12E+002
 21
2.35E+002
  0
TEXT
  8
1
  6
CONTINUOUS
 62
7
 10
2.1125E+002
 20
2.32E+002
 40
2.0
  1
13
 41
7.5E-001
 50
9.0E+001
  0
TEXT
  8
1
  6
CONTINUOUS
 62
7
 10
2.1125E+002
 20
2.215E+002
 40
2.0
  1
14
 41
7.5E-001
 50
9.0E+001
  0
LINE
  8
1
  6
CONTINUOUS
 62
7
 10
2.12E+002
 20
2.255E+002
 11
2.12E+002
 21
2.21E+002
  0
LINE
  8
1
  6
CONTINUOUS
 62
7
 10
2.12E+002
 20
2.255E+002
 11
2.1E+002
 21
2.305E+002
  0
LINE
  8
1
  6
HIDDEN
 62
7
 10
1.3009297E+002
 20
1.5548785E+002
 11
1.41E+002
 21
1.5548785E+002
  0
ARC
  8
1
  6
CONTINUOUS
 62
7
 10
1.47E+002
 20
2.3173785E+002
 40
1.25
 50
9.0E+001
 51
2.7E+002
  0
ARC
  8
1
  6
CONTINUOUS
 62
7
 10
1.42E+002
 20
2.3175E+002
 40
1.25
 50
9.0E+001
 51
2.7E+002
  0
ARC
  8
1
  6
CONTINUOUS
 62
7
 10
1.37E+002
 20
2.3175E+002
 40
1.25
 50
9.0E+001
 51
2.7E+002
  0
ARC
  8
1
  6
CONTINUOUS
 62
7
 10
1.92E+002
 20
2.3175E+002
 40
1.25
 50
9.0E+001
 51
2.7E+002
  0
ARC
  8
1
  6
CONTINUOUS
 62
7
 10
1.97E+002
 20
2.3175E+002
 40
1.25
 50
9.0E+001
 51
2.7E+002
  0
ARC
  8
1
  6
CONTINUOUS
 62
7
 10
2.02E+002
 20
2.3175E+002
 40
1.25
 50
9.0E+001
 51
2.7E+002
  0
LINE
  8
1
  6
CONTINUOUS
 62
7
 10
1.665E+002
 20
2.12E+002
 11
1.72E+002
 21
2.12E+002
  0
LINE
  8
1
  6
CONTINUOUS
 62
7
 10
2.34E+002
 20
7.2E+001
 11
2.03E+002
 21
7.2E+001
  0
TEXT
  8
1
  6
CONTINUOUS
 62
7
 10
2.48E+002
 20
2.435E+002
 40
2.25
  1
(1)
 41
7.5E-001
  0
LINE
  8
1
  6
CONTINUOUS
 62
7
 10
1.52E+002
 20
2.255E+002
 11
1.53E+002
 21
2.315E+002
  0
LINE
  8
1
  6
CONTINUOUS
 62
7
 10
1.52E+002
 20
2.305E+002
 11
1.54E+002
 21
2.305E+002
  0
LINE
  8
1
  6
CONTINUOUS
 62
7
 10
2.07E+002
 20
2.255E+002
 11
2.08E+002
 21
2.315E+002
  0
LINE
  8
1
  6
CONTINUOUS
 62
7
 10
2.07E+002
 20
2.305E+002
 11
2.09E+002
 21
2.305E+002
  0
TEXT
  8
1
  6
CONTINUOUS
 62
7
 10
1.965E+002
 20
9.1675963E+001
 40
2.0
  1
KM2
 41
7.5E-001
  0
TEXT
  8
1
  6
CONTINUOUS
 62
7
 10
2.275E+002
 20
9.1675963E+001
 40
2.0
  1
KM1
 41
7.5E-001
  0
TEXT
  8
1
  6
CONTINUOUS
 62
7
 10
1.055E+002
 20
9.1675963E+001
 40
2.0
  1
KM2
 41
7.5E-001
  0
TEXT
  8
1
  6
CONTINUOUS
 62
7
 10
1.315E+002
 20
9.1675963E+001
 40
2.0
  1
KM1
 41
7.5E-001
  0
LINE
  8
1
  6
CONTINUOUS
 62
7
 10
1.12E+002
 20
9.5044578E+001
 11
1.14E+002
 21
9.5044578E+001
  0
LINE
  8
1
  6
CONTINUOUS
 62
7
 10
1.12E+002
 20
9.0044578E+001
 11
1.13E+002
 21
9.6044578E+001
  0
LINE
  8
1
  6
CONTINUOUS
 62
7
 10
1.38E+002
 20
9.5044578E+001
 11
1.4E+002
 21
9.5044578E+001
  0
LINE
  8
1
  6
CONTINUOUS
 62
7
 10
1.38E+002
 20
9.0044578E+001
 11
1.39E+002
 21
9.6044578E+001
  0
LINE
  8
1
  6
CONTINUOUS
 62
7
 10
1.38E+002
 20
9.0044578E+001
 11
1.38E+002
 21
8.1E+001
  0
LINE
  8
1
  6
CONTINUOUS
 62
7
 10
1.12E+002
 20
9.0044578E+001
 11
1.12E+002
 21
8.1E+001
  0
TEXT
  8
1
  6
CONTINUOUS
 62
7
 10
1.3725E+002
 20
9.6044578E+001
 40
2.0
  1
21
 41
7.5E-001
 50
9.0E+001
  0
TEXT
  8
1
  6
CONTINUOUS
 62
7
 10
1.3725E+002
 20
8.7044578E+001
 40
2.0
  1
22
 41
7.5E-001
 50
9.0E+001
  0
TEXT
  8
1
  6
CONTINUOUS
 62
7
 10
1.1125E+002
 20
9.6044578E+001
 40
2.0
  1
21
 41
7.5E-001
 50
9.0E+001
  0
LINE
  8
1
  6
CONTINUOUS
 62
7
 10
8.524E+001
 20
1.0797783E+002
 11
8.324E+001
 21
1.1297783E+002
  0
LINE
  8
1
  6
CONTINUOUS
 62
7
 10
8.524E+001
 20
9.999785E+001
 11
8.524E+001
 21
1.0797783E+002
  0
LINE
  8
1
  6
HIDDEN
 62
7
 10
8.424E+001
 20
1.1047783E+002
 11
7.924E+001
 21
1.1047783E+002
  0
LINE
  8
1
  6
CONTINUOUS
 62
7
 10
8.074E+001
 20
1.1247783E+002
 11
7.924E+001
 21
1.1247783E+002
  0
TEXT
  8
1
  6
CONTINUOUS
 62
7
 10
7.694E+001
 20
1.0947783E+002
 40
2.0
  1
I
 41
7.5E-001
  0
LINE
  8
1
  6
CONTINUOUS
 62
7
 10
7.924E+001
 20
1.1247783E+002
 11
7.924E+001
 21
1.0847783E+002
  0
LINE
  8
1
  6
CONTINUOUS
 62
7
 10
8.074E+001
 20
1.0847783E+002
 11
7.924E+001
 21
1.0847783E+002
  0
TEXT
  8
1
  6
CONTINUOUS
 62
7
 10
1.1125E+002
 20
8.7044578E+001
 40
2.0
  1
22
 41
7.5E-001
 50
9.0E+001
  0
LINE
  8
1
  6
CONTINUOUS
 62
7
 10
8.074E+001
 20
1.3047783E+002
 11
7.924E+001
 21
1.3047783E+002
  0
LINE
  8
1
  6
CONTINUOUS
 62
7
 10
7.924E+001
 20
1.3047783E+002
 11
7.924E+001
 21
1.2647783E+002
  0
LINE
  8
1
  6
CONTINUOUS
 62
7
 10
8.074E+001
 20
1.2647783E+002
 11
7.924E+001
 21
1.2647783E+002
  0
LINE
  8
1
  6
HIDDEN
 62
7
 10
8.424E+001
 20
1.2847783E+002
 11
7.924E+001
 21
1.2847783E+002
  0
TEXT
  8
1
  6
CONTINUOUS
 62
7
 10
8.019E+001
 20
1.2747783E+002
 40
2.0
  1
II 
 41
7.5E-001
 72
1
 11
7.794E+001
 21
1.2747783E+002
  0
LINE
  8
1
  6
CONTINUOUS
 62
7
 10
8.524E+001
 20
1.2597783E+002
 11
8.524E+001
 21
1.1297783E+002
  0
LINE
  8
1
  6
CONTINUOUS
 62
7
 10
8.524E+001
 20
1.3397783E+002
 11
8.524E+001
 21
1.3097783E+002
  0
LINE
  8
1
  6
CONTINUOUS
 62
7
 10
8.524E+001
 20
1.3097783E+002
 11
8.724E+001
 21
1.3097783E+002
  0
LINE
  8
1
  6
CONTINUOUS
 62
7
 10
8.524E+001
 20
1.2597783E+002
 11
8.624E+001
 21
1.3197783E+002
  0
LINE
  8
1
  6
CONTINUOUS
 62
7
 10
1.2299989E+002
 20
8.073E+001
 11
1.2499989E+002
 21
7.7265898E+001
  0
LINE
  8
1
  6
HIDDEN
 62
7
 10
1.2653532E+002
 20
7.9059308E+001
 11
1.34E+002
 21
7.9059308E+001
  0
LINE
  8
1
  6
CONTINUOUS
 62
7
 10
1.2299989E+002
 20
8.073E+001
 11
1.2699989E+002
 21
8.073E+001
  0
LINE
  8
1
  6
HIDDEN
 62
7
 10
1.16E+002
 20
7.9E+001
 11
1.2399989E+002
 21
7.9E+001
  0
LINE
  8
1
  6
HIDDEN
 62
7
 10
8.424E+001
 20
1.2847783E+002
 11
8.824E+001
 21
1.2847783E+002
  0
TEXT
  8
1
  6
CONTINUOUS
 62
1
 10
7.6009024E+001
 20
2.6408263E+002
 40
3.0
  1
Protection by Thermal Overload Relay
 41
7.5E-001
 51
1.5E+001
  0
LINE
  8
1
  6
HIDDEN
 62
7
 10
8.424E+001
 20
1.1047783E+002
 11
8.824E+001
 21
1.1047783E+002
  0
LINE
  8
1
  6
HIDDEN
 62
7
 10
9.324E+001
 20
1.2847783E+002
 11
9.6656667E+001
 21
1.2847783E+002
  0
LINE
  8
1
  6
HIDDEN
 62
7
 10
9.524E+001
 20
1.1047783E+002
 11
9.324E+001
 21
1.1047783E+002
  0
LINE
  8
1
  6
HIDDEN
 62
7
 10
9.324E+001
 20
1.2847783E+002
 11
8.824E+001
 21
1.1047783E+002
  0
LINE
  8
1
  6
HIDDEN
 62
7
 10
8.824E+001
 20
1.2847783E+002
 11
9.324E+001
 21
1.1047783E+002
  0
LINE
  8
1
  6
CONTINUOUS
 62
7
 10
9.624E+001
 20
1.4799785E+002
 11
1.0324E+002
 21
1.4799785E+002
  0
LINE
  8
1
  6
CONTINUOUS
 62
7
 10
9.624E+001
 20
1.4297783E+002
 11
9.624E+001
 21
1.4799785E+002
  0
LINE
  8
1
  6
CONTINUOUS
 62
7
 10
1.0124E+002
 20
1.4099785E+002
 11
1.0124E+002
 21
1.4199785E+002
  0
LINE
  8
1
  6
CONTINUOUS
 62
7
 10
1.0124E+002
 20
1.4299785E+002
 11
1.0124E+002
 21
1.4599785E+002
  0
LINE
  8
1
  6
CONTINUOUS
 62
7
 10
7.524E+001
 20
1.3899785E+002
 11
7.524E+001
 21
1.3999785E+002
  0
LINE
  8
1
  6
CONTINUOUS
 62
7
 10
7.524E+001
 20
1.4099785E+002
 11
7.524E+001
 21
1.4599785E+002
  0
LINE
  8
1
  6
CONTINUOUS
 62
7
 10
8.8909881E+001
 20
1.4597783E+002
 11
8.8845509E+001
 21
1.4597783E+002
  0
LINE
  8
1
  6
CONTINUOUS
 62
7
 10
8.774E+001
 20
1.4599785E+002
 11
8.674E+001
 21
1.4599785E+002
  0
LINE
  8
1
  6
CONTINUOUS
 62
7
 10
8.574E+001
 20
1.4599785E+002
 11
8.074E+001
 21
1.4599785E+002
  0
LINE
  8
1
  6
CONTINUOUS
 62
7
 10
7.974E+001
 20
1.4599785E+002
 11
7.874E+001
 21
1.4599785E+002
  0
LINE
  8
1
  6
CONTINUOUS
 62
7
 10
7.774E+001
 20
1.4599785E+002
 11
7.524E+001
 21
1.4599785E+002
  0
LINE
  8
1
  6
CONTINUOUS
 62
7
 10
8.724E+001
 20
1.0599785E+002
 11
8.624E+001
 21
1.0599785E+002
  0
LINE
  8
1
  6
CONTINUOUS
 62
7
 10
8.474E+001
 20
1.0599785E+002
 11
7.974E+001
 21
1.0599785E+002
  0
LINE
  8
1
  6
CONTINUOUS
 62
7
 10
1.2699989E+002
 20
8.073E+001
 11
1.2499989E+002
 21
7.7265898E+001
  0
LINE
  8
1
  6
CONTINUOUS
 62
7
 10
1.34E+002
 20
7.7E+001
 11
1.42E+002
 21
7.7E+001
  0
LINE
  8
1
  6
CONTINUOUS
 62
7
 10
1.6093989E+002
 20
2.2973E+002
 11
1.6493989E+002
 21
2.2973E+002
  0
LINE
  8
1
  6
CONTINUOUS
 62
7
 10
7.874E+001
 20
1.0599785E+002
 11
7.774E+001
 21
1.0599785E+002
  0
LINE
  8
1
  6
CONTINUOUS
 62
7
 10
7.674E+001
 20
1.0599785E+002
 11
7.52402E+001
 21
1.0596783E+002
  0
LINE
  8
1
  6
CONTINUOUS
 62
7
 10
9.624E+001
 20
1.0399785E+002
 11
1.0324E+002
 21
1.0399785E+002
  0
LINE
  8
1
  6
CONTINUOUS
 62
7
 10
8.524E+001
 20
9.999785E+001
 11
1.0324E+002
 21
9.999785E+001
  0
LINE
  8
1
  6
CONTINUOUS
 62
7
 10
9.624E+001
 20
1.2597783E+002
 11
9.724E+001
 21
1.3197783E+002
  0
LINE
  8
1
  6
CONTINUOUS
 62
7
 10
9.624E+001
 20
1.3097783E+002
 11
9.824E+001
 21
1.3097783E+002
  0
LINE
  8
1
  6
CONTINUOUS
 62
7
 10
8.524E+001
 20
1.3397783E+002
 11
9.624E+001
 21
1.3397783E+002
  0
LINE
  8
1
  6
CONTINUOUS
 62
7
 10
1.08E+002
 20
7.7E+001
 11
1.16E+002
 21
7.7E+001
  0
LINE
  8
1
  6
CONTINUOUS
 62
7
 10
1.08E+002
 20
8.1E+001
 11
1.16E+002
 21
8.1E+001
  0
LINE
  8
1
  6
CONTINUOUS
 62
7
 10
1.34E+002
 20
8.1E+001
 11
1.42E+002
 21
8.1E+001
  0
LINE
  8
1
  6
CONTINUOUS
 62
7
 10
9.174E+001
 20
1.4247783E+002
 11
9.024E+001
 21
1.4247783E+002
  0
TEXT
  8
1
  6
CONTINUOUS
 62
7
 10
8.794E+001
 20
1.3947783E+002
 40
2.0
  1
O
 41
7.5E-001
  0
LINE
  8
1
  6
CONTINUOUS
 62
7
 10
9.024E+001
 20
1.4247783E+002
 11
9.024E+001
 21
1.3847783E+002
  0
LINE
  8
1
  6
HIDDEN
 62
7
 10
9.674E+001
 20
1.4047783E+002
 11
9.024E+001
 21
1.4047783E+002
  0
LINE
  8
1
  6
CONTINUOUS
 62
7
 10
9.174E+001
 20
1.3847783E+002
 11
9.024E+001
 21
1.3847783E+002
  0
LINE
  8
1
  6
SHORT_DASH
 62
7
 10
1.0493944E+002
 20
1.0E+002
 11
1.12E+002
 21
1.0E+002
  0
LINE
  8
1
  6
CONTINUOUS
 62
7
 10
1.6093989E+002
 20
2.2973E+002
 11
1.6293989E+002
 21
2.262659E+002
  0
LINE
  8
1
  6
CONTINUOUS
 62
7
 10
1.6493989E+002
 20
2.2973E+002
 11
1.6293989E+002
 21
2.262659E+002
  0
LINE
  8
1
  6
CONTINUOUS
 62
7
 10
9.624E+001
 20
1.3797783E+002
 11
9.724E+001
 21
1.4397783E+002
  0
LINE
  8
1
  6
CONTINUOUS
 62
7
 10
9.624E+001
 20
1.4297783E+002
 11
9.824E+001
 21
1.4297783E+002
  0
LINE
  8
1
  6
CONTINUOUS
 62
7
 10
9.624E+001
 20
1.0797783E+002
 11
9.424E+001
 21
1.1297783E+002
  0
LINE
  8
1
  6
CONTINUOUS
 62
7
 10
9.624E+001
 20
1.3797783E+002
 11
9.624E+001
 21
1.3097783E+002
  0
LINE
  8
1
  6
CONTINUOUS
 62
7
 10
9.624E+001
 20
1.2597783E+002
 11
9.624E+001
 21
1.1297783E+002
  0
LINE
  8
1
  6
CONTINUOUS
 62
7
 10
9.624E+001
 20
1.0399785E+002
 11
9.624E+001
 21
1.0797783E+002
  0
LINE
  8
1
  6
SHORT_DASH
 62
7
 10
1.0310618E+002
 20
1.04E+002
 11
1.38E+002
 21
1.04E+002
  0
LINE
  8
1
  6
CENTERLINE
 62
7
 10
1.15E+002
 20
2.55E+002
 11
1.15E+002
 21
1.82E+002
  0
LINE
  8
1
  6
CONTINUOUS
 62
7
 10
1.08E+002
 20
8.1E+001
 11
1.08E+002
 21
7.7E+001
  0
TEXT
  8
1
  6
CONTINUOUS
 62
7
 10
7.6009024E+001
 20
2.7090396E+002
 40
4.0
  1
REVERSING STARTER / WENDESTARTER / DEMARREUR INVERSEUR   
 41
7.5E-001
  0
LINE
  8
1
  6
CONTINUOUS
 62
7
 10
1.16E+002
 20
8.1E+001
 11
1.16E+002
 21
7.7E+001
  0
LINE
  8
1
  6
CONTINUOUS
 62
7
 10
1.34E+002
 20
8.1E+001
 11
1.34E+002
 21
7.7E+001
  0
LINE
  8
1
  6
CENTERLINE
 62
7
 10
1.15E+002
 20
2.55E+002
 11
2.25E+002
 21
2.55E+002
  0
LINE
  8
1
  6
CENTERLINE
 62
7
 10
1.15E+002
 20
1.82E+002
 11
2.25E+002
 21
1.82E+002
  0
LINE
  8
1
  6
CONTINUOUS
 62
7
 10
1.42E+002
 20
8.1E+001
 11
1.42E+002
 21
7.7E+001
  0
TEXT
  8
1
  6
CONTINUOUS
 62
7
 10
2.55E+002
 20
2.525E+002
 40
2.25
  1
Adjunction/Zusatz/Adjonction
 41
7.5E-001
  0
TEXT
  8
1
  6
CONTINUOUS
 62
7
 10
1.3725E+002
 20
8.2E+001
 40
2.0
  1
A1
 41
7.5E-001
 50
9.0E+001
  0
LINE
  8
1
  6
HIDDEN
 62
7
 10
9.524E+001
 20
1.1047783E+002
 11
9.324E+001
 21
1.1047783E+002
  0
LINE
  8
1
  6
HIDDEN
 62
7
 10
1.120344E+002
 20
1.5548785E+002
 11
1.2609297E+002
 21
1.5548785E+002
  0
INSERT
  2
*TX192
  8
1
 10
2.61E+002
 20
2.475E+002
  0
TEXT
  8
1
  6
CONTINUOUS
 62
7
 10
2.55E+002
 20
2.435E+002
 40
2.25
  1
DR
 41
7.5E-001
  0
TEXT
  8
1
  6
CONTINUOUS
 62
7
 10
1.3725E+002
 20
7.3E+001
 40
2.0
  1
A2
 41
7.5E-001
 50
9.0E+001
  0
TEXT
  8
1
  6
CONTINUOUS
 62
7
 10
1.1125E+002
 20
8.2E+001
 40
2.0
  1
A1
 41
7.5E-001
 50
9.0E+001
  0
INSERT
  2
*TX193
  8
1
 10
2.61E+002
 20
2.345E+002
  0
TEXT
  8
1
  6
CONTINUOUS
 62
7
 10
2.55E+002
 20
2.305E+002
 40
2.25
  1
DS
 41
7.5E-001
  0
TEXT
  8
1
  6
CONTINUOUS
 62
7
 10
2.61E+002
 20
2.215E+002
 40
2.25
  1
On KM1/Ein KM1/Marche KM1
 41
7.5E-001
  0
TEXT
  8
1
  6
CONTINUOUS
 62
7
 10
2.61E+002
 20
2.106E+002
 40
2.25
  1
Off/Aus/Arrêt
 41
7.5E-001
  0
TEXT
  8
1
  6
CONTINUOUS
 62
7
 10
2.55E+002
 20
2.156E+002
 40
2.25
  1
H2
 41
7.5E-001
  0
TEXT
  8
1
  6
CONTINUOUS
 62
7
 10
1.1125E+002
 20
7.3E+001
 40
2.0
  1
A2
 41
7.5E-001
 50
9.0E+001
  0
LINE
  8
1
  6
CONTINUOUS
 62
7
 10
1.38E+002
 20
1.5298785E+002
 11
1.39E+002
 21
1.5898785E+002
  0
TEXT
  8
1
  6
CONTINUOUS
 62
7
 10
1.03E+002
 20
7.8131385E+001
 40
2.0
  1
KM1
 41
7.5E-001
  0
LINE
  8
1
  6
CONTINUOUS
 62
7
 10
1.38E+002
 20
1.5798785E+002
 11
1.4E+002
 21
1.5798785E+002
  0
LINE
  8
1
  6
CONTINUOUS
 62
7
 10
1.38E+002
 20
1.5798785E+002
 11
1.38E+002
 21
1.68E+002
  0
TEXT
  8
1
  6
CONTINUOUS
 62
7
 10
1.4275E+002
 20
7.8131385E+001
 40
2.0
  1
KM2
 41
7.5E-001
  0
TEXT
  8
1
  6
CONTINUOUS
 62
7
 10
2.55E+002
 20
2.215E+002
 40
2.25
  1
H1
 41
7.5E-001
  0
TEXT
  8
1
  6
CONTINUOUS
 62
7
 10
2.55E+002
 20
2.106E+002
 40
2.25
  1
H3
 41
7.5E-001
  0
TEXT
  8
1
  6
CONTINUOUS
 62
7
 10
2.55E+002
 20
2.056E+002
 40
2.25
  1
H4
 41
7.5E-001
  0
TEXT
  8
1
  6
CONTINUOUS
 62
7
 10
2.55E+002
 20
1.995E+002
 40
2.25
  1
H9
 41
7.5E-001
  0
LINE
  8
1
  6
CONTINUOUS
 62
7
 10
1.38E+002
 20
1.5298785E+002
 11
1.38E+002
 21
1.4799785E+002
  0
TEXT
  8
1
  6
CONTINUOUS
 62
7
 10
2.61E+002
 20
2.156E+002
 40
2.25
  1
On KM2/Ein KM2/Marche KM2
 41
7.5E-001
  0
LINE
  8
1
  6
CONTINUOUS
 62
7
 10
1.2609297E+002
 20
1.5748785E+002
 11
1.3009297E+002
 21
1.5548785E+002
  0
LINE
  8
1
  6
CONTINUOUS
 62
7
 10
1.2609297E+002
 20
1.5748785E+002
 11
1.2609297E+002
 21
1.5548785E+002
  0
LINE
  8
1
  6
CONTINUOUS
 62
7
 10
1.2609297E+002
 20
1.5548785E+002
 11
1.3009297E+002
 21
1.5548785E+002
  0
LINE
  8
1
  6
CONTINUOUS
 62
7
 10
1.1309297E+002
 20
1.5748785E+002
 11
1.1709297E+002
 21
1.5548785E+002
  0
LINE
  8
1
  6
CONTINUOUS
 62
7
 10
1.1309297E+002
 20
1.5748785E+002
 11
1.1309297E+002
 21
1.5548785E+002
  0
LINE
  8
1
  6
CONTINUOUS
 62
7
 10
1.1309297E+002
 20
1.5548785E+002
 11
1.1709297E+002
 21
1.5548785E+002
  0
LINE
  8
1
  6
HIDDEN
 62
7
 10
1.3009297E+002
 20
1.5648785E+002
 11
1.3009297E+002
 21
1.6098785E+002
  0
LINE
  8
1
  6
HIDDEN
 62
7
 10
1.3009297E+002
 20
1.6098785E+002
 11
1.2209297E+002
 21
1.6098785E+002
  0
LINE
  8
1
  6
HIDDEN
 62
7
 10
1.3109297E+002
 20
1.5648785E+002
 11
1.3858333E+002
 21
1.5648785E+002
  0
LINE
  8
1
  6
HIDDEN
 62
7
 10
1.3109297E+002
 20
1.6198785E+002
 11
1.3109297E+002
 21
1.5648785E+002
  0
LINE
  8
1
  6
HIDDEN
 62
7
 10
1.2209297E+002
 20
1.6198785E+002
 11
1.3109297E+002
 21
1.6198785E+002
  0
LINE
  8
1
  6
CONTINUOUS
 62
7
 10
1.2209297E+002
 20
1.6348785E+002
 11
1.2209297E+002
 21
1.5948785E+002
  0
LINE
  8
1
  6
CONTINUOUS
 62
7
 10
1.2359297E+002
 20
1.5948785E+002
 11
1.2209297E+002
 21
1.5948785E+002
  0
LINE
  8
1
  6
CONTINUOUS
 62
7
 10
1.2359297E+002
 20
1.6348785E+002
 11
1.2209297E+002
 21
1.6348785E+002
  0
TEXT
  8
1
  6
CONTINUOUS
 62
7
 10
1.1809297E+002
 20
1.6148785E+002
 40
2.0
  1
O
 41
7.5E-001
  0
TEXT
  8
1
  6
CONTINUOUS
 62
7
 10
1.1979297E+002
 20
1.5948785E+002
 40
2.0
  1
R
 41
7.5E-001
  0
LINE
  8
1
  6
CONTINUOUS
 62
7
 10
1.2029297E+002
 20
1.6288785E+002
 11
1.1869297E+002
 21
1.5968785E+002
  0
LINE
  8
1
  6
HIDDEN
 62
7
 10
1.1709297E+002
 20
1.5648785E+002
 11
1.1709297E+002
 21
1.6098785E+002
  0
LINE
  8
1
  6
HIDDEN
 62
7
 10
1.1709297E+002
 20
1.6098785E+002
 11
1.0909297E+002
 21
1.6098785E+002
  0
LINE
  8
1
  6
CONTINUOUS
 62
7
 10
1.1059297E+002
 20
1.5948785E+002
 11
1.0909297E+002
 21
1.5948785E+002
  0
LINE
  8
1
  6
CONTINUOUS
 62
7
 10
1.0909297E+002
 20
1.6348785E+002
 11
1.0909297E+002
 21
1.5948785E+002
  0
LINE
  8
1
  6
CONTINUOUS
 62
7
 10
1.1059297E+002
 20
1.6348785E+002
 11
1.0909297E+002
 21
1.6348785E+002
  0
TEXT
  8
1
  6
CONTINUOUS
 62
7
 10
1.0679297E+002
 20
1.5948785E+002
 40
2.0
  1
R
 41
7.5E-001
  0
LINE
  8
1
  6
HIDDEN
 62
7
 10
2.2609297E+002
 20
1.5548785E+002
 11
2.37E+002
 21
1.5548785E+002
  0
LINE
  8
1
  6
CONTINUOUS
 62
7
 10
1.41E+002
 20
1.56E+002
 11
1.41E+002
 21
1.55E+002
  0
LINE
  8
1
  6
CONTINUOUS
 62
7
 10
1.41E+002
 20
1.56E+002
 11
1.43E+002
 21
1.56E+002
  0
LINE
  8
1
  6
CONTINUOUS
 62
7
 10
1.41E+002
 20
1.55E+002
 11
1.43E+002
 21
1.55E+002
  0
LINE
  8
1
  6
CONTINUOUS
 62
7
 10
1.43E+002
 20
1.55E+002
 11
1.43E+002
 21
1.54E+002
  0
LINE
  8
1
  6
CONTINUOUS
 62
7
 10
1.43E+002
 20
1.56E+002
 11
1.43E+002
 21
1.57E+002
  0
TEXT
  8
1
  6
CONTINUOUS
 62
7
 10
1.435E+002
 20
1.5463138E+002
 40
2.0
  1
FR1
 41
7.5E-001
  0
LINE
  8
1
  6
CONTINUOUS
 62
7
 10
9.624E+001
 20
1.3599785E+002
 11
1.0324E+002
 21
1.3599785E+002
  0
TEXT
  8
1
  6
CONTINUOUS
 62
7
 10
7.5244761E+001
 20
1.71E+002
 40
2.25
  1
Remote control/Fernbetätigung/Commande à distance
 41
7.5E-001
  0
LINE
  8
1
  6
SHORT_DASH
 62
7
 10
1.0324E+002
 20
1.4799785E+002
 11
1.38E+002
 21
1.4799785E+002
  0
LINE
  8
1
  6
SHORT_DASH
 62
7
 10
1.12E+002
 20
1.3599785E+002
 11
1.04E+002
 21
1.3599785E+002
  0
LINE
  8
1
  6
CONTINUOUS
 62
7
 10
2.03E+002
 20
9.5044578E+001
 11
2.05E+002
 21
9.5044578E+001
  0
LINE
  8
1
  6
CONTINUOUS
 62
7
 10
2.03E+002
 20
9.0044578E+001
 11
2.04E+002
 21
9.6044578E+001
  0
LINE
  8
1
  6
CONTINUOUS
 62
7
 10
1.0124E+002
 20
1.3299785E+002
 11
1.0124E+002
 21
1.3899785E+002
  0
LINE
  8
1
  6
CONTINUOUS
 62
7
 10
2.34E+002
 20
9.5044578E+001
 11
2.36E+002
 21
9.5044578E+001
  0
LINE
  8
1
  6
CONTINUOUS
 62
7
 10
1.0124E+002
 20
1.3199785E+002
 11
1.0124E+002
 21
1.3099785E+002
  0
LINE
  8
1
  6
CONTINUOUS
 62
7
 10
1.0124E+002
 20
1.2999785E+002
 11
1.0124E+002
 21
1.2499785E+002
  0
LINE
  8
1
  6
CONTINUOUS
 62
7
 10
1.0124E+002
 20
1.2399785E+002
 11
1.0124E+002
 21
1.2299785E+002
  0
LINE
  8
1
  6
CONTINUOUS
 62
7
 10
2.34E+002
 20
9.0044578E+001
 11
2.35E+002
 21
9.6044578E+001
  0
LINE
  8
1
  6
CONTINUOUS
 62
7
 10
1.0124E+002
 20
1.2199785E+002
 11
1.0124E+002
 21
1.1699785E+002
  0
LINE
  8
1
  6
CONTINUOUS
 62
7
 10
1.0124E+002
 20
1.1399785E+002
 11
1.0124E+002
 21
1.0899785E+002
  0
LINE
  8
1
  6
CONTINUOUS
 62
7
 10
2.34E+002
 20
9.0044578E+001
 11
2.34E+002
 21
8.1E+001
  0
LINE
  8
1
  6
CONTINUOUS
 62
7
 10
2.03E+002
 20
9.0044578E+001
 11
2.03E+002
 21
8.1E+001
  0
TEXT
  8
1
  6
CONTINUOUS
 62
7
 10
2.3875E+002
 20
7.8131385E+001
 40
2.0
  1
KM2
 41
7.5E-001
  0
LINE
  8
1
  6
HIDDEN
 62
7
 10
1.31E+002
 20
2.28E+002
 11
1.6193989E+002
 21
2.28E+002
  0
LINE
  8
1
  6
CONTINUOUS
 62
7
 10
1.23E+002
 20
2.3E+002
 11
1.23E+002
 21
2.2611862E+002
  0
LINE
  8
1
  6
CONTINUOUS
 62
7
 10
1.31E+002
 20
2.3E+002
 11
1.31E+002
 21
2.2611862E+002
  0
LINE
  8
1
  6
CONTINUOUS
 62
7
 10
1.31E+002
 20
2.3E+002
 11
1.23E+002
 21
2.3E+002
  0
LINE
  8
1
  6
CONTINUOUS
 62
7
 10
1.31E+002
 20
2.2611862E+002
 11
1.23E+002
 21
2.2611862E+002
  0
LINE
  8
1
  6
CONTINUOUS
 62
7
 10
1.27E+002
 20
2.3E+002
 11
1.27E+002
 21
2.35E+002
  0
LINE
  8
1
  6
CONTINUOUS
 62
7
 10
1.27E+002
 20
2.2611862E+002
 11
1.27E+002
 21
2.21E+002
  0
TEXT
  8
1
  6
CONTINUOUS
 62
7
 10
1.18E+002
 20
2.2875E+002
 40
2.0
  1
KM1
 41
7.5E-001
  0
TEXT
  8
1
  6
CONTINUOUS
 62
7
 10
1.2625E+002
 20
2.31E+002
 40
2.0
  1
A1
 41
7.5E-001
 50
9.0E+001
  0
TEXT
  8
1
  6
CONTINUOUS
 62
7
 10
1.2625E+002
 20
2.22E+002
 40
2.0
  1
A2
 41
7.5E-001
 50
9.0E+001
  0
LINE
  8
1
  6
CONTINUOUS
 62
7
 10
1.37E+002
 20
2.305E+002
 11
1.37E+002
 21
2.49E+002
  0
LINE
  8
1
  6
CONTINUOUS
 62
7
 10
1.37E+002
 20
2.255E+002
 11
1.37E+002
 21
2.08E+002
  0
TEXT
  8
1
  6
CONTINUOUS
 62
7
 10
2.3325E+002
 20
9.6044578E+001
 40
2.0
  1
21
 41
7.5E-001
 50
9.0E+001
  0
LINE
  8
1
  6
CONTINUOUS
 62
7
 10
1.0124E+002
 20
1.0799785E+002
 11
1.0124E+002
 21
1.0599785E+002
  0
LINE
  8
1
  6
CONTINUOUS
 62
7
 10
1.0124E+002
 20
1.1599785E+002
 11
1.0124E+002
 21
1.1499785E+002
  0
LINE
  8
1
  6
CONTINUOUS
 62
7
 10
1.42E+002
 20
2.305E+002
 11
1.42E+002
 21
2.51E+002
  0
LINE
  8
1
  6
CONTINUOUS
 62
7
 10
1.42E+002
 20
2.255E+002
 11
1.42E+002
 21
2.1E+002
  0
LINE
  8
1
  6
HIDDEN
 62
7
 10
1.6397532E+002
 20
2.2805931E+002
 11
1.78E+002
 21
2.2805931E+002
  0
LINE
  8
1
  6
CONTINUOUS
 62
7
 10
9.674E+001
 20
1.0599785E+002
 11
1.0124E+002
 21
1.0599785E+002
  0
LINE
  8
1
  6
CONTINUOUS
 62
7
 10
1.47E+002
 20
2.3048785E+002
 11
1.47E+002
 21
2.53E+002
  0
LINE
  8
1
  6
CONTINUOUS
 62
7
 10
1.47E+002
 20
2.255E+002
 11
1.47E+002
 21
2.12E+002
  0
TEXT
  8
1
  6
CONTINUOUS
 62
7
 10
2.3325E+002
 20
8.7044578E+001
 40
2.0
  1
22
 41
7.5E-001
 50
9.0E+001
  0
LINE
  8
1
  6
CONTINUOUS
 62
7
 10
9.574E+001
 20
1.0599785E+002
 11
9.474E+001
 21
1.0599785E+002
  0
LINE
  8
1
  6
CONTINUOUS
 62
7
 10
1.37E+002
 20
2.49E+002
 11
1.908453E+002
 21
2.49E+002
  0
LINE
  8
1
  6
CONTINUOUS
 62
7
 10
1.52E+002
 20
2.305E+002
 11
1.52E+002
 21
2.4691322E+002
  0
LINE
  8
1
  6
CONTINUOUS
 62
7
 10
1.52E+002
 20
2.255E+002
 11
1.52E+002
 21
2.14E+002
  0
TEXT
  8
1
  6
CONTINUOUS
 62
7
 10
2.0225E+002
 20
9.6044578E+001
 40
2.0
  1
21
 41
7.5E-001
 50
9.0E+001
  0
TEXT
  8
1
  6
CONTINUOUS
 62
7
 10
2.0225E+002
 20
8.7044578E+001
 40
2.0
  1
22
 41
7.5E-001
 50
9.0E+001
  0
LINE
  8
1
  6
CONTINUOUS
 62
7
 10
2.165E+002
 20
8.073E+001
 11
2.185E+002
 21
7.7265898E+001
  0
LINE
  8
1
  6
HIDDEN
 62
7
 10
2.195E+002
 20
7.9059308E+001
 11
2.3E+002
 21
7.9059308E+001
  0
LINE
  8
1
  6
CONTINUOUS
 62
7
 10
2.165E+002
 20
8.073E+001
 11
2.205E+002
 21
8.073E+001
  0
LINE
  8
1
  6
CONTINUOUS
 62
7
 10
8.824E+001
 20
1.0597783E+002
 11
9.374E+001
 21
1.0597783E+002
  0
LINE
  8
1
  6
HIDDEN
 62
7
 10
2.07E+002
 20
7.9E+001
 11
2.1749882E+002
 21
7.9E+001
  0
LINE
  8
1
  6
CONTINUOUS
 62
7
 10
1.47E+002
 20
2.255E+002
 11
1.45E+002
 21
2.305E+002
  0
LINE
  8
1
  6
CONTINUOUS
 62
7
 10
1.42E+002
 20
2.255E+002
 11
1.4E+002
 21
2.305E+002
  0
LINE
  8
1
  6
CONTINUOUS
 62
7
 10
1.37E+002
 20
2.255E+002
 11
1.35E+002
 21
2.305E+002
  0
TEXT
  8
1
  6
CONTINUOUS
 62
7
 10
1.3625E+002
 20
2.41E+002
 40
2.0
  1
1/L1
 41
7.5E-001
 50
9.0E+001
  0
TEXT
  8
1
  6
CONTINUOUS
 62
7
 10
1.4125E+002
 20
2.41E+002
 40
2.0
  1
3/L2
 41
7.5E-001
 50
9.0E+001
  0
TEXT
  8
1
  6
CONTINUOUS
 62
7
 10
1.4625E+002
 20
2.41E+002
 40
2.0
  1
5/L3
 41
7.5E-001
 50
9.0E+001
  0
TEXT
  8
1
  6
CONTINUOUS
 62
7
 10
1.5125E+002
 20
2.41E+002
 40
2.0
  1
21
 41
7.5E-001
 50
9.0E+001
  0
TEXT
  8
1
  6
CONTINUOUS
 62
7
 10
1.3625E+002
 20
2.17E+002
 40
2.0
  1
2/T1
 41
7.5E-001
 50
9.0E+001
  0
TEXT
  8
1
  6
CONTINUOUS
 62
7
 10
1.4125E+002
 20
2.17E+002
 40
2.0
  1
4/T2
 41
7.5E-001
 50
9.0E+001
  0
TEXT
  8
1
  6
CONTINUOUS
 62
7
 10
1.4625E+002
 20
2.17E+002
 40
2.0
  1
6/T3
 41
7.5E-001
 50
9.0E+001
  0
TEXT
  8
1
  6
CONTINUOUS
 62
7
 10
1.5125E+002
 20
2.17E+002
 40
2.0
  1
22
 41
7.5E-001
 50
9.0E+001
  0
LINE
  8
1
  6
CONTINUOUS
 62
7
 10
1.47E+002
 20
2.12E+002
 11
1.9090829E+002
 21
2.12E+002
  0
LINE
  8
1
  6
CONTINUOUS
 62
7
 10
1.42E+002
 20
2.1E+002
 11
1.9478873E+002
 21
2.1E+002
  0
LINE
  8
1
  6
CONTINUOUS
 62
7
 10
1.37E+002
 20
2.08E+002
 11
1.9866918E+002
 21
2.08E+002
  0
LINE
  8
1
  6
CONTINUOUS
 62
7
 10
2.205E+002
 20
8.073E+001
 11
2.185E+002
 21
7.7265898E+001
  0
LINE
  8
1
  6
CONTINUOUS
 62
7
 10
2.03E+002
 20
1.17E+002
 11
2.03E+002
 21
1.36E+002
  0
LINE
  8
1
  6
CONTINUOUS
 62
7
 10
1.78E+002
 20
2.3E+002
 11
1.78E+002
 21
2.2611862E+002
  0
LINE
  8
1
  6
CONTINUOUS
 62
7
 10
1.86E+002
 20
2.3E+002
 11
1.86E+002
 21
2.2611862E+002
  0
LINE
  8
1
  6
CONTINUOUS
 62
7
 10
1.86E+002
 20
2.3E+002
 11
1.78E+002
 21
2.3E+002
  0
LINE
  8
1
  6
CONTINUOUS
 62
7
 10
1.86E+002
 20
2.2611862E+002
 11
1.78E+002
 21
2.2611862E+002
  0
LINE
  8
1
  6
CONTINUOUS
 62
7
 10
1.82E+002
 20
2.3E+002
 11
1.82E+002
 21
2.35E+002
  0
LINE
  8
1
  6
CONTINUOUS
 62
7
 10
1.82E+002
 20
2.2611862E+002
 11
1.82E+002
 21
2.21E+002
  0
TEXT
  8
1
  6
CONTINUOUS
 62
7
 10
1.73E+002
 20
2.2875E+002
 40
2.0
  1
KM2
 41
7.5E-001
  0
TEXT
  8
1
  6
CONTINUOUS
 62
7
 10
1.8125E+002
 20
2.31E+002
 40
2.0
  1
A1
 41
7.5E-001
 50
9.0E+001
  0
TEXT
  8
1
  6
CONTINUOUS
 62
7
 10
1.8125E+002
 20
2.22E+002
 40
2.0
  1
A2
 41
7.5E-001
 50
9.0E+001
  0
LINE
  8
1
  6
CONTINUOUS
 62
7
 10
1.92E+002
 20
2.305E+002
 11
1.92E+002
 21
2.47E+002
  0
LINE
  8
1
  6
CONTINUOUS
 62
7
 10
1.92E+002
 20
2.255E+002
 11
1.92E+002
 21
1.9625E+002
  0
LINE
  8
1
  6
CONTINUOUS
 62
7
 10
1.92E+002
 20
2.47E+002
 11
1.908453E+002
 21
2.49E+002
  0
LINE
  8
1
  6
CONTINUOUS
 62
7
 10
1.97E+002
 20
2.305E+002
 11
1.97E+002
 21
2.4676228E+002
  0
LINE
  8
1
  6
CONTINUOUS
 62
7
 10
1.97E+002
 20
2.255E+002
 11
1.97E+002
 21
1.9625E+002
  0
LINE
  8
1
  6
CONTINUOUS
 62
7
 10
1.97E+002
 20
2.47E+002
 11
1.97E+002
 21
2.4676228E+002
  0
LINE
  8
1
  6
CONTINUOUS
 62
7
 10
2.02E+002
 20
2.305E+002
 11
2.02E+002
 21
2.47E+002
  0
LINE
  8
1
  6
CONTINUOUS
 62
7
 10
2.02E+002
 20
2.255E+002
 11
2.02E+002
 21
1.9625E+002
  0
LINE
  8
1
  6
CONTINUOUS
 62
7
 10
1.97E+002
 20
2.47E+002
 11
1.946906E+002
 21
2.51E+002
  0
LINE
  8
1
  6
CONTINUOUS
 62
7
 10
7.524E+001
 20
1.1399785E+002
 11
7.524E+001
 21
1.0889682E+002
  0
LINE
  8
1
  6
CONTINUOUS
 62
7
 10
2.07E+002
 20
2.305E+002
 11
2.07E+002
 21
2.4691322E+002
  0
LINE
  8
1
  6
CONTINUOUS
 62
7
 10
2.07E+002
 20
2.255E+002
 11
2.07E+002
 21
2.14E+002
  0
TEXT
  8
1
  6
CONTINUOUS
 62
7
 10
2.0225E+002
 20
1.18E+002
 40
2.0
  1
13
 41
7.5E-001
 50
9.0E+001
  0
TEXT
  8
1
  6
CONTINUOUS
 62
7
 10
2.68233E+002
 20
1.71E+002
 40
2.25
  1
Adjunction/Zusatz/Adjonction
 41
7.5E-001
  0
TEXT
  8
1
  6
CONTINUOUS
 62
7
 10
1.965E+002
 20
1.1363138E+002
 40
2.0
  1
KM1
 41
7.5E-001
  0
LINE
  8
1
  6
CONTINUOUS
 62
7
 10
2.03E+002
 20
1.12E+002
 11
2.01E+002
 21
1.17E+002
  0
TEXT
  8
1
  6
CONTINUOUS
 62
7
 10
2.0225E+002
 20
1.09E+002
 40
2.0
  1
14
 41
7.5E-001
 50
9.0E+001
  0
LINE
  8
1
  6
CONTINUOUS
 62
7
 10
2.02E+002
 20
2.255E+002
 11
2.0E+002
 21
2.305E+002
  0
LINE
  8
1
  6
CONTINUOUS
 62
7
 10
1.97E+002
 20
2.255E+002
 11
1.95E+002
 21
2.305E+002
  0
LINE
  8
1
  6
CONTINUOUS
 62
7
 10
1.92E+002
 20
2.255E+002
 11
1.9E+002
 21
2.305E+002
  0
TEXT
  8
1
  6
CONTINUOUS
 62
7
 10
1.9125E+002
 20
2.41E+002
 40
2.0
  1
1/L1
 41
7.5E-001
 50
9.0E+001
  0
TEXT
  8
1
  6
CONTINUOUS
 62
7
 10
1.9625E+002
 20
2.41E+002
 40
2.0
  1
3/L2
 41
7.5E-001
 50
9.0E+001
  0
TEXT
  8
1
  6
CONTINUOUS
 62
7
 10
2.0125E+002
 20
2.41E+002
 40
2.0
  1
5/L3
 41
7.5E-001
 50
9.0E+001
  0
TEXT
  8
1
  6
CONTINUOUS
 62
7
 10
2.0625E+002
 20
2.41E+002
 40
2.0
  1
21
 41
7.5E-001
 50
9.0E+001
  0
TEXT
  8
1
  6
CONTINUOUS
 62
7
 10
1.7067831E+002
 20
1.7104E+002
 40
2.25
  1
Local control/Betätigung innerhalb/Commande locale
 41
7.5E-001
  0
TEXT
  8
1
  6
CONTINUOUS
 62
7
 10
1.9125E+002
 20
2.17E+002
 40
2.0
  1
2/T1
 41
7.5E-001
 50
9.0E+001
  0
TEXT
  8
1
  6
CONTINUOUS
 62
7
 10
1.9625E+002
 20
2.17E+002
 40
2.0
  1
4/T2
 41
7.5E-001
 50
9.0E+001
  0
TEXT
  8
1
  6
CONTINUOUS
 62
7
 10
2.0125E+002
 20
2.17E+002
 40
2.0
  1
6/T3
 41
7.5E-001
 50
9.0E+001
  0
TEXT
  8
1
  6
CONTINUOUS
 62
7
 10
2.0625E+002
 20
2.17E+002
 40
2.0
  1
22
 41
7.5E-001
 50
9.0E+001
  0
TEXT
  8
1
  6
CONTINUOUS
 62
7
 10
2.3325E+002
 20
1.18E+002
 40
2.0
  1
13
 41
7.5E-001
 50
9.0E+001
  0
LINE
  8
1
  6
CONTINUOUS
 62
7
 10
7.524E+001
 20
1.0597783E+002
 11
7.524E+001
 21
1.0799785E+002
  0
LINE
  8
1
  6
CONTINUOUS
 62
7
 10
8.8129238E+001
 20
1.68E+002
 11
1.4819434E+002
 21
1.68E+002
  0
LINE
  8
1
  6
CONTINUOUS
 62
7
 10
7.524E+001
 20
1.1599785E+002
 11
7.524E+001
 21
1.1499785E+002
  0
LINE
  8
1
  6
CONTINUOUS
 62
7
 10
1.9090829E+002
 20
2.12E+002
 11
1.92E+002
 21
2.1395026E+002
  0
LINE
  8
1
  6
CONTINUOUS
 62
7
 10
7.524E+001
 20
1.1699785E+002
 11
7.524E+001
 21
1.2199785E+002
  0
LINE
  8
1
  6
CONTINUOUS
 62
7
 10
1.9478873E+002
 20
2.1E+002
 11
1.97E+002
 21
2.1395026E+002
  0
LINE
  8
1
  6
CONTINUOUS
 62
7
 10
1.9866918E+002
 20
2.08E+002
 11
2.02E+002
 21
2.1395026E+002
  0
LINE
  8
1
  6
HIDDEN
 62
7
 10
1.86E+002
 20
2.28E+002
 11
2.11E+002
 21
2.28E+002
  0
TEXT
  8
1
  6
CONTINUOUS
 62
7
 10
2.275E+002
 20
1.1363138E+002
 40
2.0
  1
KM2
 41
7.5E-001
  0
LINE
  8
1
  6
CONTINUOUS
 62
7
 10
2.34E+002
 20
1.12E+002
 11
2.32E+002
 21
1.17E+002
  0
TEXT
  8
1
  6
CONTINUOUS
 62
7
 10
2.3325E+002
 20
1.09E+002
 40
2.0
  1
14
 41
7.5E-001
 50
9.0E+001
  0
LINE
  8
1
  6
CONTINUOUS
 62
7
 10
2.3E+002
 20
7.7E+001
 11
2.38E+002
 21
7.7E+001
  0
LINE
  8
1
  6
CONTINUOUS
 62
7
 10
1.99E+002
 20
7.7E+001
 11
2.07E+002
 21
7.7E+001
  0
LINE
  8
1
  6
CONTINUOUS
 62
7
 10
1.99E+002
 20
8.1E+001
 11
2.07E+002
 21
8.1E+001
  0
LINE
  8
1
  6
CONTINUOUS
 62
7
 10
2.3E+002
 20
8.1E+001
 11
2.38E+002
 21
8.1E+001
  0
LINE
  8
1
  6
CONTINUOUS
 62
7
 10
1.99E+002
 20
8.1E+001
 11
1.99E+002
 21
7.7E+001
  0
LINE
  8
1
  6
CONTINUOUS
 62
7
 10
2.07E+002
 20
8.1E+001
 11
2.07E+002
 21
7.7E+001
  0
LINE
  8
1
  6
CONTINUOUS
 62
7
 10
2.3E+002
 20
8.1E+001
 11
2.3E+002
 21
7.7E+001
  0
LINE
  8
1
  6
CONTINUOUS
 62
7
 10
2.38E+002
 20
8.1E+001
 11
2.38E+002
 21
7.7E+001
  0
LINE
  8
1
  6
CONTINUOUS
 62
7
 10
2.02E+002
 20
2.47E+002
 11
1.985359E+002
 21
2.53E+002
  0
LINE
  8
1
  6
CONTINUOUS
 62
7
 10
2.34E+002
 20
7.7E+001
 11
2.34E+002
 21
7.2E+001
  0
LINE
  8
1
  6
CONTINUOUS
 62
7
 10
2.03E+002
 20
7.7E+001
 11
2.03E+002
 21
7.2E+001
  0
LINE
  8
1
  6
CONTINUOUS
 62
7
 10
1.47E+002
 20
2.53E+002
 11
1.985359E+002
 21
2.53E+002
  0
LINE
  8
1
  6
CONTINUOUS
 62
7
 10
2.03E+002
 20
1.12E+002
 11
2.03E+002
 21
9.5044578E+001
  0
LINE
  8
1
  6
CONTINUOUS
 62
7
 10
2.34E+002
 20
1.12E+002
 11
2.34E+002
 21
9.5323048E+001
  0
LINE
  8
1
  6
CENTERLINE
 62
7
 10
2.25E+002
 20
2.55E+002
 11
2.25E+002
 21
1.82E+002
  0
LINE
  8
1
  6
CONTINUOUS
 62
7
 10
7.524E+001
 20
1.2399785E+002
 11
7.524E+001
 21
1.2299785E+002
  0
TEXT
  8
1
  6
CONTINUOUS
 62
7
 10
2.3325E+002
 20
8.2E+001
 40
2.0
  1
A1
 41
7.5E-001
 50
9.0E+001
  0
TEXT
  8
1
  6
CONTINUOUS
 62
7
 10
2.3325E+002
 20
7.3E+001
 40
2.0
  1
A2
 41
7.5E-001
 50
9.0E+001
  0
LINE
  8
1
  6
CONTINUOUS
 62
7
 10
7.524E+001
 20
1.2999785E+002
 11
7.524E+001
 21
1.2499785E+002
  0
INSERT
  2
*TX194
  8
1
 10
7.566E+001
 20
1.6697596E+002
  0
LINE
  8
1
  6
SHORT_DASH
 62
7
 10
7.916E+001
 20
1.65E+002
 11
9.1246443E+001
 21
1.65E+002
  0
LINE
  8
1
  6
CONTINUOUS
 62
7
 10
9.1246443E+001
 20
1.65E+002
 11
9.1246443E+001
 21
1.68E+002
  0
TEXT
  8
1
  6
CONTINUOUS
 62
7
 10
2.0225E+002
 20
8.2E+001
 40
2.0
  1
A1
 41
7.5E-001
 50
9.0E+001
  0
TEXT
  8
1
  6
CONTINUOUS
 62
7
 10
2.0225E+002
 20
7.3E+001
 40
2.0
  1
A2
 41
7.5E-001
 50
9.0E+001
  0
TEXT
  8
1
  6
CONTINUOUS
 62
7
 10
1.94E+002
 20
7.8131385E+001
 40
2.0
  1
KM1
 41
7.5E-001
  0
LINE
  8
1
  6
CONTINUOUS
 62
7
 10
1.8658644E+002
 20
7.8E+001
 11
1.8658644E+002
 21
7.2E+001
  0
LINE
  8
1
  6
CONTINUOUS
 62
7
 10
1.835E+002
 20
7.2E+001
 11
2.03E+002
 21
7.2E+001
  0
LINE
  8
1
  6
SHORT_DASH
 62
7
 10
1.745E+002
 20
7.8E+001
 11
1.8658644E+002
 21
7.8E+001
  0
LINE
  8
1
  6
SHORT_DASH
 62
7
 10
1.745E+002
 20
7.5E+001
 11
1.8658644E+002
 21
7.5E+001
  0
LINE
  8
1
  6
CONTINUOUS
 62
7
 10
7.524E+001
 20
1.3199785E+002
 11
7.524E+001
 21
1.3099785E+002
  0
INSERT
  2
*TX195
  8
1
 10
1.71E+002
 20
7.6975963E+001
  0
LINE
  8
1
  6
CONTINUOUS
 62
7
 10
8.8974253E+001
 20
1.4597783E+002
 11
9.374E+001
 21
1.4597783E+002
  0
INSERT
  2
*TX196
  8
1
 10
7.566E+001
 20
7.6975963E+001
  0
INSERT
  2
*TX197
  8
1
 10
1.705E+002
 20
1.6697596E+002
  0
LINE
  8
1
  6
CONTINUOUS
 62
7
 10
1.42E+002
 20
2.51E+002
 11
1.946906E+002
 21
2.51E+002
  0
LINE
  8
1
  6
SHORT_DASH
 62
7
 10
1.74E+002
 20
1.65E+002
 11
1.8608644E+002
 21
1.65E+002
  0
LINE
  8
1
  6
CONTINUOUS
 62
7
 10
1.8608644E+002
 20
1.65E+002
 11
1.8608644E+002
 21
1.68E+002
  0
LINE
  8
1
  6
HIDDEN
 62
7
 10
2.02E+002
 20
2.4724641E+002
 11
2.02E+002
 21
2.57E+002
  0
LINE
  8
1
  6
HIDDEN
 62
7
 10
1.97E+002
 20
2.4724641E+002
 11
1.97E+002
 21
2.57E+002
  0
LINE
  8
1
  6
HIDDEN
 62
7
 10
1.92E+002
 20
2.4724641E+002
 11
1.92E+002
 21
2.57E+002
  0
LINE
  8
1
  6
CONTINUOUS
 62
7
 10
2.34E+002
 20
1.5298785E+002
 11
2.35E+002
 21
1.5898785E+002
  0
LINE
  8
1
  6
CONTINUOUS
 62
7
 10
2.34E+002
 20
1.5798785E+002
 11
2.36E+002
 21
1.5798785E+002
  0
LINE
  8
1
  6
SHORT_DASH
 62
7
 10
7.916E+001
 20
7.5E+001
 11
9.1246443E+001
 21
7.5E+001
  0
LINE
  8
1
  6
CONTINUOUS
 62
7
 10
2.2209297E+002
 20
1.5748785E+002
 11
2.2609297E+002
 21
1.5548785E+002
  0
LINE
  8
1
  6
CONTINUOUS
 62
7
 10
2.2209297E+002
 20
1.5748785E+002
 11
2.2209297E+002
 21
1.5548785E+002
  0
LINE
  8
1
  6
CONTINUOUS
 62
7
 10
2.2109297E+002
 20
1.5548785E+002
 11
2.2609297E+002
 21
1.5548785E+002
  0
LINE
  8
1
  6
HIDDEN
 62
7
 10
1.97E+002
 20
1.75E+002
 11
1.97E+002
 21
1.825E+002
  0
LINE
  8
1
  6
SHORT_DASH
 62
7
 10
7.916E+001
 20
7.8E+001
 11
9.1246443E+001
 21
7.8E+001
  0
LINE
  8
1
  6
CONTINUOUS
 62
7
 10
9.1246443E+001
 20
7.8E+001
 11
9.1246443E+001
 21
7.2E+001
  0
LINE
  8
1
  6
HIDDEN
 62
7
 10
2.2609297E+002
 20
1.5648785E+002
 11
2.2609297E+002
 21
1.6098785E+002
  0
LINE
  8
1
  6
HIDDEN
 62
7
 10
2.2609297E+002
 20
1.6098785E+002
 11
2.1809297E+002
 21
1.6098785E+002
  0
LINE
  8
1
  6
HIDDEN
 62
7
 10
2.2709297E+002
 20
1.5648785E+002
 11
2.3458333E+002
 21
1.5648785E+002
  0
LINE
  8
1
  6
HIDDEN
 62
7
 10
2.2709297E+002
 20
1.6198785E+002
 11
2.2709297E+002
 21
1.5648785E+002
  0
LINE
  8
1
  6
HIDDEN
 62
7
 10
2.1809297E+002
 20
1.6198785E+002
 11
2.2709297E+002
 21
1.6198785E+002
  0
LINE
  8
1
  6
CONTINUOUS
 62
7
 10
2.1809297E+002
 20
1.6348785E+002
 11
2.1809297E+002
 21
1.5948785E+002
  0
LINE
  8
1
  6
CONTINUOUS
 62
7
 10
2.1959297E+002
 20
1.5948785E+002
 11
2.1809297E+002
 21
1.5948785E+002
  0
LINE
  8
1
  6
CONTINUOUS
 62
7
 10
2.1959297E+002
 20
1.6348785E+002
 11
2.1809297E+002
 21
1.6348785E+002
  0
TEXT
  8
1
  6
CONTINUOUS
 62
7
 10
2.1409297E+002
 20
1.6148785E+002
 40
2.0
  1
O
 41
7.5E-001
  0
TEXT
  8
1
  6
CONTINUOUS
 62
7
 10
2.1579297E+002
 20
1.5948785E+002
 40
2.0
  1
R
 41
7.5E-001
  0
LINE
  8
1
  6
CONTINUOUS
 62
7
 10
7.524E+001
 20
1.3799785E+002
 11
7.524E+001
 21
1.3307506E+002
  0
LINE
  8
1
  6
CONTINUOUS
 62
7
 10
9.474E+001
 20
1.4599785E+002
 11
9.574E+001
 21
1.4599785E+002
  0
LINE
  8
1
  6
CONTINUOUS
 62
7
 10
9.674E+001
 20
1.4599785E+002
 11
1.0124E+002
 21
1.4599785E+002
  0
LINE
  8
1
  6
CONTINUOUS
 62
7
 10
2.1629297E+002
 20
1.6288785E+002
 11
2.1469297E+002
 21
1.5968785E+002
  0
LINE
  8
1
  6
CONTINUOUS
 62
7
 10
2.37E+002
 20
1.56E+002
 11
2.37E+002
 21
1.55E+002
  0
LINE
  8
1
  6
CONTINUOUS
 62
7
 10
2.37E+002
 20
1.56E+002
 11
2.39E+002
 21
1.56E+002
  0
LINE
  8
1
  6
CONTINUOUS
 62
7
 10
2.37E+002
 20
1.55E+002
 11
2.39E+002
 21
1.55E+002
  0
LINE
  8
1
  6
CONTINUOUS
 62
7
 10
2.39E+002
 20
1.55E+002
 11
2.39E+002
 21
1.54E+002
  0
LINE
  8
1
  6
CONTINUOUS
 62
7
 10
2.39E+002
 20
1.56E+002
 11
2.39E+002
 21
1.57E+002
  0
TEXT
  8
1
  6
CONTINUOUS
 62
7
 10
2.395E+002
 20
1.5463138E+002
 40
2.0
  1
FR1
 41
7.5E-001
  0
TEXT
  8
1
  6
CONTINUOUS
 62
7
 10
2.3325E+002
 20
1.5898785E+002
 40
2.0
  1
95
 41
7.5E-001
 50
9.0E+001
  0
TEXT
  8
1
  6
CONTINUOUS
 62
7
 10
2.3325E+002
 20
1.4998785E+002
 40
2.0
  1
96
 41
7.5E-001
 50
9.0E+001
  0
LINE
  8
1
  6
CONTINUOUS
 62
7
 10
2.34E+002
 20
1.5298785E+002
 11
2.34E+002
 21
1.36E+002
  0
LINE
  8
1
  6
CONTINUOUS
 62
7
 10
2.34E+002
 20
1.5798785E+002
 11
2.34E+002
 21
1.68E+002
  0
LINE
  8
1
  6
CONTINUOUS
 62
7
 10
1.8296924E+002
 20
1.68E+002
 11
2.475E+002
 21
1.68E+002
  0
LINE
  8
1
  6
CONTINUOUS
 62
7
 10
2.03E+002
 20
1.36E+002
 11
2.34E+002
 21
1.36E+002
  0
LINE
  8
1
  6
CONTINUOUS
 62
7
 10
2.34E+002
 20
1.17E+002
 11
2.34E+002
 21
1.36E+002
  0
LINE
  8
1
  6
CONTINUOUS
 62
7
 10
1.96E+002
 20
1.2146783E+002
 11
1.96E+002
 21
1.1646783E+002
  0
LINE
  8
1
  6
CONTINUOUS
 62
7
 10
1.96E+002
 20
1.1146783E+002
 11
1.94E+002
 21
1.1646783E+002
  0
LINE
  8
1
  6
CONTINUOUS
 62
7
 10
1.96E+002
 20
1.0646783E+002
 11
1.96E+002
 21
1.1146783E+002
  0
LINE
  8
1
  6
HIDDEN
 62
7
 10
1.95E+002
 20
1.1396783E+002
 11
1.9E+002
 21
1.1396783E+002
  0
LINE
  8
1
  6
CONTINUOUS
 62
7
 10
1.915E+002
 20
1.1596783E+002
 11
1.9E+002
 21
1.1596783E+002
  0
LINE
  8
1
  6
CONTINUOUS
 62
7
 10
1.9E+002
 20
1.1596783E+002
 11
1.9E+002
 21
1.1196783E+002
  0
LINE
  8
1
  6
CONTINUOUS
 62
7
 10
1.915E+002
 20
1.1196783E+002
 11
1.9E+002
 21
1.1196783E+002
  0
TEXT
  8
1
  6
CONTINUOUS
 62
7
 10
1.877E+002
 20
1.1296783E+002
 40
2.0
  1
I
 41
7.5E-001
  0
LINE
  8
1
  6
SHORT_DASH
 62
7
 10
2.34E+002
 20
1.2146783E+002
 11
2.27E+002
 21
1.2146783E+002
  0
LINE
  8
1
  6
SHORT_DASH
 62
7
 10
2.34E+002
 20
1.0646783E+002
 11
2.27E+002
 21
1.0646783E+002
  0
LINE
  8
1
  6
SHORT_DASH
 62
7
 10
2.03E+002
 20
1.2146783E+002
 11
1.96E+002
 21
1.2146783E+002
  0
LINE
  8
1
  6
SHORT_DASH
 62
7
 10
2.03E+002
 20
1.0646783E+002
 11
1.96E+002
 21
1.0646783E+002
  0
TEXT
  8
1
  6
CONTINUOUS
 62
7
 10
2.2195E+002
 20
1.1296783E+002
 40
2.0
  1
II 
 41
7.5E-001
 72
1
 11
2.197E+002
 21
1.1296783E+002
  0
LINE
  8
1
  6
HIDDEN
 62
7
 10
1.5394143E+002
 20
1.95E+002
 11
1.65E+002
 21
1.95E+002
  0
LINE
  8
1
  6
CONTINUOUS
 62
7
 10
1.885E+002
 20
1.975E+002
 11
2.035E+002
 21
1.975E+002
  0
LINE
  8
1
  6
CONTINUOUS
 62
7
 10
1.885E+002
 20
1.925E+002
 11
2.035E+002
 21
1.925E+002
  0
LINE
  8
1
  6
CONTINUOUS
 62
7
 10
1.885E+002
 20
1.975E+002
 11
1.885E+002
 21
1.925E+002
  0
LINE
  8
1
  6
CONTINUOUS
 62
7
 10
2.035E+002
 20
1.975E+002
 11
2.035E+002
 21
1.925E+002
  0
LINE
  8
1
  6
CONTINUOUS
 62
7
 10
1.895E+002
 20
1.9625E+002
 11
1.92E+002
 21
1.9625E+002
  0
LINE
  8
1
  6
CONTINUOUS
 62
7
 10
1.895E+002
 20
1.9375E+002
 11
1.92E+002
 21
1.9375E+002
  0
LINE
  8
1
  6
CONTINUOUS
 62
7
 10
1.945E+002
 20
1.9625E+002
 11
1.97E+002
 21
1.9625E+002
  0
LINE
  8
1
  6
CONTINUOUS
 62
7
 10
1.945E+002
 20
1.9375E+002
 11
1.97E+002
 21
1.9375E+002
  0
LINE
  8
1
  6
CONTINUOUS
 62
7
 10
1.895E+002
 20
1.9625E+002
 11
1.895E+002
 21
1.9375E+002
  0
LINE
  8
1
  6
CONTINUOUS
 62
7
 10
1.945E+002
 20
1.9375E+002
 11
1.945E+002
 21
1.9625E+002
  0
LINE
  8
1
  6
CONTINUOUS
 62
7
 10
1.995E+002
 20
1.9625E+002
 11
1.995E+002
 21
1.9375E+002
  0
LINE
  8
1
  6
CONTINUOUS
 62
7
 10
1.995E+002
 20
1.9625E+002
 11
2.02E+002
 21
1.9625E+002
  0
LINE
  8
1
  6
CONTINUOUS
 62
7
 10
1.995E+002
 20
1.9375E+002
 11
2.02E+002
 21
1.9375E+002
  0
LINE
  8
1
  6
CONTINUOUS
 62
7
 10
1.92E+002
 20
1.9375E+002
 11
1.92E+002
 21
1.825E+002
  0
LINE
  8
1
  6
CONTINUOUS
 62
7
 10
2.02E+002
 20
1.9375E+002
 11
2.02E+002
 21
1.825E+002
  0
LINE
  8
1
  6
HIDDEN
 62
7
 10
1.92E+002
 20
1.825E+002
 11
1.92E+002
 21
1.75E+002
  0
LINE
  8
1
  6
CONTINUOUS
 62
7
 10
1.97E+002
 20
1.825E+002
 11
1.97E+002
 21
1.9375E+002
  0
LINE
  8
1
  6
HIDDEN
 62
7
 10
2.02E+002
 20
1.825E+002
 11
2.02E+002
 21
1.75E+002
  0
LINE
  8
1
  6
CONTINUOUS
 62
7
 10
1.8490703E+002
 20
1.975E+002
 11
1.8490703E+002
 21
2.025E+002
  0
LINE
  8
1
  6
CONTINUOUS
 62
7
 10
1.8490703E+002
 20
1.925E+002
 11
1.8290703E+002
 21
1.975E+002
  0
LINE
  8
1
  6
CONTINUOUS
 62
7
 10
1.8490703E+002
 20
1.925E+002
 11
1.8490703E+002
 21
1.875E+002
  0
LINE
  8
1
  6
CONTINUOUS
 62
7
 10
1.7990703E+002
 20
1.925E+002
 11
1.8090703E+002
 21
1.985E+002
  0
LINE
  8
1
  6
CONTINUOUS
 62
7
 10
1.7990703E+002
 20
1.975E+002
 11
1.8190703E+002
 21
1.975E+002
  0
LINE
  8
1
  6
CONTINUOUS
 62
7
 10
1.7990703E+002
 20
1.975E+002
 11
1.7990703E+002
 21
2.025E+002
  0
LINE
  8
1
  6
CONTINUOUS
 62
7
 10
1.7990703E+002
 20
1.925E+002
 11
1.7990703E+002
 21
1.875E+002
  0
LINE
  8
1
  6
CONTINUOUS
 62
7
 10
1.68E+002
 20
1.97E+002
 11
1.72E+002
 21
1.95E+002
  0
LINE
  8
1
  6
CONTINUOUS
 62
7
 10
1.68E+002
 20
1.97E+002
 11
1.68E+002
 21
1.95E+002
  0
LINE
  8
1
  6
CONTINUOUS
 62
7
 10
1.68E+002
 20
1.95E+002
 11
1.72E+002
 21
1.95E+002
  0
LINE
  8
1
  6
CONTINUOUS
 62
7
 10
1.55E+002
 20
1.97E+002
 11
1.59E+002
 21
1.95E+002
  0
LINE
  8
1
  6
CONTINUOUS
 62
7
 10
1.55E+002
 20
1.97E+002
 11
1.55E+002
 21
1.95E+002
  0
LINE
  8
1
  6
CONTINUOUS
 62
7
 10
1.55E+002
 20
1.95E+002
 11
1.59E+002
 21
1.95E+002
  0
LINE
  8
1
  6
HIDDEN
 62
7
 10
1.72E+002
 20
1.96E+002
 11
1.72E+002
 21
2.005E+002
  0
LINE
  8
1
  6
HIDDEN
 62
7
 10
1.72E+002
 20
2.005E+002
 11
1.64E+002
 21
2.005E+002
  0
LINE
  8
1
  6
HIDDEN
 62
7
 10
1.73E+002
 20
1.96E+002
 11
1.8049036E+002
 21
1.96E+002
  0
LINE
  8
1
  6
HIDDEN
 62
7
 10
1.73E+002
 20
2.015E+002
 11
1.73E+002
 21
1.96E+002
  0
LINE
  8
1
  6
HIDDEN
 62
7
 10
1.64E+002
 20
2.015E+002
 11
1.73E+002
 21
2.015E+002
  0
LINE
  8
1
  6
CONTINUOUS
 62
7
 10
1.64E+002
 20
2.03E+002
 11
1.64E+002
 21
1.99E+002
  0
LINE
  8
1
  6
CONTINUOUS
 62
7
 10
1.655E+002
 20
1.99E+002
 11
1.64E+002
 21
1.99E+002
  0
LINE
  8
1
  6
CONTINUOUS
 62
7
 10
1.655E+002
 20
2.03E+002
 11
1.64E+002
 21
2.03E+002
  0
TEXT
  8
1
  6
CONTINUOUS
 62
7
 10
1.6E+002
 20
2.01E+002
 40
2.0
  1
O
 41
7.5E-001
  0
LINE
  8
1
  6
CONTINUOUS
 62
7
 10
1.12E+002
 20
1.36E+002
 11
1.38E+002
 21
1.36E+002
  0
TEXT
  8
1
  6
CONTINUOUS
 62
7
 10
1.617E+002
 20
1.99E+002
 40
2.0
  1
R
 41
7.5E-001
  0
LINE
  8
1
  6
CONTINUOUS
 62
7
 10
1.622E+002
 20
2.024E+002
 11
1.606E+002
 21
1.992E+002
  0
LINE
  8
1
  6
HIDDEN
 62
7
 10
1.59E+002
 20
1.96E+002
 11
1.59E+002
 21
2.005E+002
  0
LINE
  8
1
  6
HIDDEN
 62
7
 10
1.59E+002
 20
2.005E+002
 11
1.51E+002
 21
2.005E+002
  0
LINE
  8
1
  6
CONTINUOUS
 62
7
 10
1.525E+002
 20
1.99E+002
 11
1.51E+002
 21
1.99E+002
  0
LINE
  8
1
  6
CONTINUOUS
 62
7
 10
1.51E+002
 20
2.03E+002
 11
1.51E+002
 21
1.99E+002
  0
LINE
  8
1
  6
CONTINUOUS
 62
7
 10
1.525E+002
 20
2.03E+002
 11
1.51E+002
 21
2.03E+002
  0
TEXT
  8
1
  6
CONTINUOUS
 62
7
 10
1.487E+002
 20
1.99E+002
 40
2.0
  1
R
 41
7.5E-001
  0
LINE
  8
1
  6
CONTINUOUS
 62
7
 10
1.12E+002
 20
1.22E+002
 11
1.12E+002
 21
1.36E+002
  0
LINE
  8
1
  6
HIDDEN
 62
7
 10
1.6740034E+002
 20
1.95E+002
 11
1.895E+002
 21
1.95E+002
  0
TEXT
  8
1
  6
CONTINUOUS
 62
7
 10
2.04E+002
 20
1.935E+002
 40
2.0
  1
FR1
 41
7.5E-001
  0
TEXT
  8
1
  6
CONTINUOUS
 62
7
 10
1.1125E+002
 20
1.23E+002
 40
2.0
  1
13
 41
7.5E-001
 50
9.0E+001
  0
TEXT
  8
1
  6
CONTINUOUS
 62
7
 10
1.055E+002
 20
1.1863138E+002
 40
2.0
  1
KM1
 41
7.5E-001
  0
LINE
  8
1
  6
CONTINUOUS
 62
7
 10
1.12E+002
 20
1.17E+002
 11
1.1E+002
 21
1.22E+002
  0
TEXT
  8
1
  6
CONTINUOUS
 62
7
 10
1.1125E+002
 20
1.14E+002
 40
2.0
  1
14
 41
7.5E-001
 50
9.0E+001
  0
TEXT
  8
1
  6
CONTINUOUS
 62
7
 10
2.48E+002
 20
2.305E+002
 40
2.25
  1
(1)
 41
7.5E-001
  0
TEXT
  8
1
  6
CONTINUOUS
 62
7
 10
2.48E+002
 20
1.8636512E+002
 40
2.25
  1
(1)
 41
7.5E-001
  0
LINE
  8
1
  6
CONTINUOUS
 62
7
 10
1.38E+002
 20
1.22E+002
 11
1.38E+002
 21
1.36E+002
  0
TEXT
  8
1
  6
CONTINUOUS
 62
7
 10
1.3725E+002
 20
1.23E+002
 40
2.0
  1
13
 41
7.5E-001
 50
9.0E+001
  0
TEXT
  8
1
  6
CONTINUOUS
 62
7
 10
1.315E+002
 20
1.1863138E+002
 40
2.0
  1
KM2
 41
7.5E-001
  0
LINE
  8
1
  6
CONTINUOUS
 62
7
 10
1.38E+002
 20
1.17E+002
 11
1.36E+002
 21
1.22E+002
  0
INSERT
  2
*TX198
  8
1
 10
2.55E+002
 20
1.895E+002
  0
TEXT
  8
1
  6
CONTINUOUS
 62
7
 10
1.3725E+002
 20
1.14E+002
 40
2.0
  1
14
 41
7.5E-001
 50
9.0E+001
  0
LINE
  8
1
  6
CONTINUOUS
 62
7
 10
2.27E+002
 20
1.1146783E+002
 11
2.25E+002
 21
1.1646783E+002
  0
LINE
  8
1
  6
CONTINUOUS
 62
7
 10
2.27E+002
 20
1.2146783E+002
 11
2.27E+002
 21
1.1646783E+002
  0
LINE
  8
1
  6
CONTINUOUS
 62
7
 10
2.27E+002
 20
1.0646783E+002
 11
2.27E+002
 21
1.1146783E+002
  0
LINE
  8
1
  6
CONTINUOUS
 62
7
 10
2.225E+002
 20
1.1596783E+002
 11
2.21E+002
 21
1.1596783E+002
  0
LINE
  8
1
  6
CONTINUOUS
 62
7
 10
2.21E+002
 20
1.1596783E+002
 11
2.21E+002
 21
1.1196783E+002
  0
LINE
  8
1
  6
CONTINUOUS
 62
7
 10
2.225E+002
 20
1.1196783E+002
 11
2.21E+002
 21
1.1196783E+002
  0
LINE
  8
1
  6
HIDDEN
 62
7
 10
2.26E+002
 20
1.1396783E+002
 11
2.21E+002
 21
1.1396783E+002
  0
TEXT
  8
1
  6
CONTINUOUS
 62
7
 10
2.61E+002
 20
2.056E+002
 40
2.25
  1
Under voltage/Unter Spannung/Mise sous tension
 41
7.5E-001
  0
TEXT
  8
1
  6
CONTINUOUS
 62
7
 10
2.61E+002
 20
1.985E+002
 40
2.25
  1
Tripping of relay/Relais ausgelöst/Déclenchement relais
 41
7.5E-001
  0
TEXT
  8
1
  6
CONTINUOUS
 62
7
 10
1.9125E+002
 20
1.8445275E+002
 40
2.0
  1
2/T1
 41
7.5E-001
 50
9.0E+001
  0
TEXT
  8
1
  6
CONTINUOUS
 62
7
 10
1.9625E+002
 20
1.8445275E+002
 40
2.0
  1
4/T2
 41
7.5E-001
 50
9.0E+001
  0
TEXT
  8
1
  6
CONTINUOUS
 62
7
 10
2.0125E+002
 20
1.8445275E+002
 40
2.0
  1
6/T3
 41
7.5E-001
 50
9.0E+001
  0
LINE
  8
1
  6
CONTINUOUS
 62
7
 10
8.816E+001
 20
7.2E+001
 11
1.38E+002
 21
7.2E+001
  0
LINE
  8
1
  6
CONTINUOUS
 62
7
 10
1.38E+002
 20
7.7E+001
 11
1.38E+002
 21
7.2E+001
  0
LINE
  8
1
  6
CONTINUOUS
 62
7
 10
1.12E+002
 20
7.7E+001
 11
1.12E+002
 21
7.2E+001
  0
LINE
  8
1
  6
CONTINUOUS
 62
7
 10
1.12E+002
 20
1.17E+002
 11
1.12E+002
 21
9.5044578E+001
  0
LINE
  8
1
  6
CONTINUOUS
 62
7
 10
1.38E+002
 20
1.17E+002
 11
1.38E+002
 21
9.5044578E+001
  0
LINE
  8
1
  6
CONTINUOUS
 62
7
 10
2.71E+002
 20
7.2E+001
 11
2.8E+002
 21
7.2E+001
  0
TEXT
  8
1
  6
CONTINUOUS
 62
7
 10
2.748E+002
 20
7.7631385E+001
 40
2.0
  1
H1
 41
7.5E-001
  0
LINE
  8
1
  6
CONTINUOUS
 62
7
 10
2.8141421E+002
 20
7.9914214E+001
 11
2.7858579E+002
 21
7.7085786E+001
  0
LINE
  8
1
  6
CONTINUOUS
 62
7
 10
2.7858579E+002
 20
7.9914214E+001
 11
2.8141421E+002
 21
7.7085786E+001
  0
LINE
  8
1
  6
CONTINUOUS
 62
7
 10
2.8E+002
 20
8.05E+001
 11
2.8E+002
 21
1.0E+002
  0
LINE
  8
1
  6
CONTINUOUS
 62
7
 10
2.8E+002
 20
7.65E+001
 11
2.8E+002
 21
7.2E+001
  0
TEXT
  8
1
  6
CONTINUOUS
 62
7
 10
2.675E+002
 20
7.1E+001
 40
2.0
  1
A2
 41
7.5E-001
  0
LINE
  8
1
  6
CONTINUOUS
 62
7
 10
2.7704492E+002
 20
1.0E+002
 11
2.8E+002
 21
1.0E+002
  0
TEXT
  8
1
  6
CONTINUOUS
 62
7
 10
2.675E+002
 20
9.9E+001
 40
2.0
  1
KM2:21
 41
7.5E-001
  0
TEXT
  8
1
  6
CONTINUOUS
 62
7
 10
2.7925E+002
 20
8.1E+001
 40
2.0
  1
X1
 41
7.5E-001
 50
9.0E+001
  0
TEXT
  8
1
  6
CONTINUOUS
 62
7
 10
2.7925E+002
 20
7.3E+001
 40
2.0
  1
X2
 41
7.5E-001
 50
9.0E+001
  0
CIRCLE
  8
1
  6
CONTINUOUS
 62
7
 10
2.8E+002
 20
7.85E+001
 40
2.0
  0
LINE
  8
1
  6
CONTINUOUS
 62
7
 10
3.2E+002
 20
1.5E+002
 11
3.18E+002
 21
1.55E+002
  0
LINE
  8
1
  6
CONTINUOUS
 62
7
 10
3.2E+002
 20
1.55E+002
 11
3.2E+002
 21
1.68E+002
  0
TEXT
  8
1
  6
CONTINUOUS
 62
7
 10
1.3725E+002
 20
1.5898785E+002
 40
2.0
  1
95
 41
7.5E-001
 50
9.0E+001
  0
TEXT
  8
1
  6
CONTINUOUS
 62
7
 10
1.3725E+002
 20
1.4998785E+002
 40
2.0
  1
96
 41
7.5E-001
 50
9.0E+001
  0
TEXT
  8
1
  6
CONTINUOUS
 62
7
 10
1.7915703E+002
 20
1.985E+002
 40
2.0
  1
95
 41
7.5E-001
 50
9.0E+001
  0
TEXT
  8
1
  6
CONTINUOUS
 62
7
 10
1.7915703E+002
 20
1.895E+002
 40
2.0
  1
96
 41
7.5E-001
 50
9.0E+001
  0
TEXT
  8
1
  6
CONTINUOUS
 62
7
 10
1.8415703E+002
 20
1.985E+002
 40
2.0
  1
97
 41
7.5E-001
 50
9.0E+001
  0
TEXT
  8
1
  6
CONTINUOUS
 62
7
 10
1.8415703E+002
 20
1.895E+002
 40
2.0
  1
98
 41
7.5E-001
 50
9.0E+001
  0
TEXT
  8
1
  6
CONTINUOUS
 62
7
 10
3.1925E+002
 20
1.465E+002
 40
2.0
  1
98
 41
7.5E-001
 50
9.0E+001
  0
TEXT
  8
1
  6
CONTINUOUS
 62
7
 10
3.1925E+002
 20
1.56E+002
 40
2.0
  1
97
 41
7.5E-001
 50
9.0E+001
  0
LINE
  8
1
  6
CONTINUOUS
 62
7
 10
3.54E+002
 20
1.68E+002
 11
3.54E+002
 21
8.05E+001
  0
LINE
  8
1
  6
CONTINUOUS
 62
7
 10
2.83E+002
 20
7.2E+001
 11
2.92E+002
 21
7.2E+001
  0
LINE
  8
1
  6
CONTINUOUS
 62
7
 10
3.23E+002
 20
1.68E+002
 11
3.44E+002
 21
1.68E+002
  0
CIRCLE
  8
1
  6
CONTINUOUS
 62
7
 10
3.54E+002
 20
7.85E+001
 40
2.0
  0
LINE
  8
1
  6
CONTINUOUS
 62
7
 10
3.5258579E+002
 20
7.9914214E+001
 11
3.5541421E+002
 21
7.7085786E+001
  0
LINE
  8
1
  6
CONTINUOUS
 62
7
 10
3.5541421E+002
 20
7.9914214E+001
 11
3.5258579E+002
 21
7.7085786E+001
  0
LINE
  8
1
  6
CONTINUOUS
 62
7
 10
3.54E+002
 20
7.65E+001
 11
3.54E+002
 21
7.2E+001
  0
CIRCLE
  8
1
  6
CONTINUOUS
 62
7
 10
3.44E+002
 20
7.85E+001
 40
2.0
  0
LINE
  8
1
  6
CONTINUOUS
 62
7
 10
3.4258579E+002
 20
7.9914214E+001
 11
3.4541421E+002
 21
7.7085786E+001
  0
LINE
  8
1
  6
CONTINUOUS
 62
7
 10
3.4541421E+002
 20
7.9914214E+001
 11
3.4258579E+002
 21
7.7085786E+001
  0
CIRCLE
  8
1
  6
CONTINUOUS
 62
7
 10
3.32E+002
 20
7.85E+001
 40
2.0
  0
LINE
  8
1
  6
CONTINUOUS
 62
7
 10
3.3058579E+002
 20
7.9914214E+001
 11
3.3341421E+002
 21
7.7085786E+001
  0
LINE
  8
1
  6
CONTINUOUS
 62
7
 10
3.3341421E+002
 20
7.9914214E+001
 11
3.3058579E+002
 21
7.7085786E+001
  0
LINE
  8
1
  6
CONTINUOUS
 62
7
 10
3.44E+002
 20
7.65E+001
 11
3.44E+002
 21
7.2E+001
  0
LINE
  8
1
  6
CONTINUOUS
 62
7
 10
3.32E+002
 20
7.65E+001
 11
3.32E+002
 21
7.2E+001
  0
LINE
  8
1
  6
CONTINUOUS
 62
7
 10
3.47E+002
 20
7.2E+001
 11
3.54E+002
 21
7.2E+001
  0
LINE
  8
1
  6
CONTINUOUS
 62
7
 10
3.35E+002
 20
7.2E+001
 11
3.44E+002
 21
7.2E+001
  0
LINE
  8
1
  6
CONTINUOUS
 62
7
 10
3.44E+002
 20
8.05E+001
 11
3.44E+002
 21
1.030317E+002
  0
LINE
  8
1
  6
CONTINUOUS
 62
7
 10
3.32E+002
 20
8.05E+001
 11
3.32E+002
 21
1.48E+002
  0
LINE
  8
1
  6
CONTINUOUS
 62
7
 10
3.2E+002
 20
8.0E+001
 11
3.2E+002
 21
8.9044578E+001
  0
LINE
  8
1
  6
CONTINUOUS
 62
7
 10
3.16E+002
 20
8.0E+001
 11
3.16E+002
 21
7.7E+001
  0
TEXT
  8
1
  6
CONTINUOUS
 62
7
 10
3.128E+002
 20
7.7631385E+001
 40
2.0
  1
DR
 41
7.5E-001
  0
LINE
  8
1
  6
CONTINUOUS
 62
7
 10
3.16E+002
 20
8.0E+001
 11
3.24E+002
 21
8.0E+001
  0
LINE
  8
1
  6
CONTINUOUS
 62
7
 10
3.16E+002
 20
7.7E+001
 11
3.24E+002
 21
7.7E+001
  0
LINE
  8
1
  6
CONTINUOUS
 62
7
 10
3.24E+002
 20
8.0E+001
 11
3.24E+002
 21
7.7E+001
  0
LINE
  8
1
  6
CONTINUOUS
 62
7
 10
3.2E+002
 20
7.7E+001
 11
3.2E+002
 21
7.2E+001
  0
TEXT
  8
1
  6
CONTINUOUS
 62
7
 10
3.268E+002
 20
7.7631385E+001
 40
2.0
  1
H9
 41
7.5E-001
  0
TEXT
  8
1
  6
CONTINUOUS
 62
7
 10
3.3885956E+002
 20
7.7631385E+001
 40
2.0
  1
H3
 41
7.5E-001
  0
TEXT
  8
1
  6
CONTINUOUS
 62
7
 10
3.4885956E+002
 20
7.7631385E+001
 40
2.0
  1
H4
 41
7.5E-001
  0
LINE
  8
1
  6
CONTINUOUS
 62
7
 10
3.01E+002
 20
8.0E+001
 11
3.01E+002
 21
7.7E+001
  0
TEXT
  8
1
  6
CONTINUOUS
 62
7
 10
2.978E+002
 20
7.7631385E+001
 40
2.0
  1
DS
 41
7.5E-001
  0
LINE
  8
1
  6
CONTINUOUS
 62
7
 10
3.01E+002
 20
8.0E+001
 11
3.09E+002
 21
8.0E+001
  0
LINE
  8
1
  6
CONTINUOUS
 62
7
 10
3.01E+002
 20
7.7E+001
 11
3.09E+002
 21
7.7E+001
  0
LINE
  8
1
  6
CONTINUOUS
 62
7
 10
3.09E+002
 20
8.0E+001
 11
3.09E+002
 21
7.7E+001
  0
LINE
  8
1
  6
CONTINUOUS
 62
7
 10
3.05E+002
 20
7.7E+001
 11
3.05E+002
 21
7.2E+001
  0
LINE
  8
1
  6
CONTINUOUS
 62
7
 10
3.05E+002
 20
8.0E+001
 11
3.05E+002
 21
8.9044578E+001
  0
TEXT
  8
1
  6
CONTINUOUS
 62
7
 10
2.868E+002
 20
7.7631385E+001
 40
2.0
  1
H2
 41
7.5E-001
  0
LINE
  8
1
  6
CONTINUOUS
 62
7
 10
2.9341421E+002
 20
7.9914214E+001
 11
2.9058579E+002
 21
7.7085786E+001
  0
LINE
  8
1
  6
CONTINUOUS
 62
7
 10
2.9058579E+002
 20
7.9914214E+001
 11
2.9341421E+002
 21
7.7085786E+001
  0
CIRCLE
  8
1
  6
CONTINUOUS
 62
7
 10
2.92E+002
 20
7.85E+001
 40
2.0
  0
LINE
  8
1
  6
CONTINUOUS
 62
7
 10
2.92E+002
 20
8.05E+001
 11
2.92E+002
 21
1.04E+002
  0
LINE
  8
1
  6
CONTINUOUS
 62
7
 10
2.92E+002
 20
7.65E+001
 11
2.92E+002
 21
7.2E+001
  0
LINE
  8
1
  6
CONTINUOUS
 62
7
 10
3.47E+002
 20
1.68E+002
 11
3.54E+002
 21
1.68E+002
  0
LINE
  8
1
  6
CONTINUOUS
 62
7
 10
3.44E+002
 20
1.080317E+002
 11
3.46E+002
 21
1.080317E+002
  0
LINE
  8
1
  6
CONTINUOUS
 62
7
 10
3.44E+002
 20
1.030317E+002
 11
3.45E+002
 21
1.090317E+002
  0
TEXT
  8
1
  6
CONTINUOUS
 62
7
 10
3.375E+002
 20
1.0466309E+002
 40
2.0
  1
KM2
 41
7.5E-001
  0
TEXT
  8
1
  6
CONTINUOUS
 62
7
 10
3.4325E+002
 20
1.090317E+002
 40
2.0
  1
31
 41
7.5E-001
 50
9.0E+001
  0
TEXT
  8
1
  6
CONTINUOUS
 62
7
 10
3.4325E+002
 20
1.000317E+002
 40
2.0
  1
32
 41
7.5E-001
 50
9.0E+001
  0
LINE
  8
1
  6
CONTINUOUS
 62
7
 10
3.44E+002
 20
1.220317E+002
 11
3.46E+002
 21
1.220317E+002
  0
LINE
  8
1
  6
CONTINUOUS
 62
7
 10
3.44E+002
 20
1.170317E+002
 11
3.45E+002
 21
1.230317E+002
  0
TEXT
  8
1
  6
CONTINUOUS
 62
7
 10
3.4325E+002
 20
1.230317E+002
 40
2.0
  1
31
 41
7.5E-001
 50
9.0E+001
  0
TEXT
  8
1
  6
CONTINUOUS
 62
7
 10
3.4325E+002
 20
1.140317E+002
 40
2.0
  1
32
 41
7.5E-001
 50
9.0E+001
  0
TEXT
  8
1
  6
CONTINUOUS
 62
7
 10
3.375E+002
 20
1.1866309E+002
 40
2.0
  1
KM1
 41
7.5E-001
  0
LINE
  8
1
  6
HIDDEN
 62
7
 10
3.19E+002
 20
1.525E+002
 11
3.23E+002
 21
1.525E+002
  0
LINE
  8
1
  6
CONTINUOUS
 62
7
 10
3.23E+002
 20
1.5301215E+002
 11
3.25E+002
 21
1.5301215E+002
  0
LINE
  8
1
  6
CONTINUOUS
 62
7
 10
3.23E+002
 20
1.5201215E+002
 11
3.25E+002
 21
1.5201215E+002
  0
LINE
  8
1
  6
CONTINUOUS
 62
7
 10
3.25E+002
 20
1.5201215E+002
 11
3.25E+002
 21
1.5101215E+002
  0
LINE
  8
1
  6
CONTINUOUS
 62
7
 10
3.23E+002
 20
1.5301215E+002
 11
3.23E+002
 21
1.5201215E+002
  0
TEXT
  8
1
  6
CONTINUOUS
 62
7
 10
3.255E+002
 20
1.5164353E+002
 40
2.0
  1
FR1
 41
7.5E-001
  0
LINE
  8
1
  6
CONTINUOUS
 62
7
 10
3.25E+002
 20
1.5301215E+002
 11
3.25E+002
 21
1.5401215E+002
  0
LINE
  8
1
  6
CONTINUOUS
 62
7
 10
3.295E+002
 20
1.48E+002
 11
3.32E+002
 21
1.48E+002
  0
TEXT
  8
1
  6
CONTINUOUS
 62
7
 10
3.26E+002
 20
1.47E+002
 40
2.0
  1
98
 41
7.5E-001
  0
LINE
  8
1
  6
CONTINUOUS
 62
7
 10
3.44E+002
 20
1.220317E+002
 11
3.44E+002
 21
1.68E+002
  0
LINE
  8
1
  6
CONTINUOUS
 62
7
 10
3.44E+002
 20
1.080317E+002
 11
3.44E+002
 21
1.170317E+002
  0
LINE
  8
1
  6
CONTINUOUS
 62
7
 10
3.2E+002
 20
1.68E+002
 11
2.805E+002
 21
1.68E+002
  0
LINE
  8
1
  6
CONTINUOUS
 62
7
 10
2.71E+002
 20
1.4848785E+002
 11
3.05E+002
 21
1.4848785E+002
  0
LINE
  8
1
  6
CONTINUOUS
 62
7
 10
3.05E+002
 20
8.9044578E+001
 11
3.03E+002
 21
9.4044578E+001
  0
LINE
  8
1
  6
CONTINUOUS
 62
7
 10
3.005E+002
 20
9.3544578E+001
 11
2.99E+002
 21
9.3544578E+001
  0
TEXT
  8
1
  6
CONTINUOUS
 62
7
 10
2.957E+002
 20
9.0544578E+001
 40
2.0
  1
S1
 41
7.5E-001
  0
LINE
  8
1
  6
CONTINUOUS
 62
7
 10
2.99E+002
 20
9.3544578E+001
 11
2.99E+002
 21
8.9544578E+001
  0
LINE
  8
1
  6
CONTINUOUS
 62
7
 10
3.005E+002
 20
8.9544578E+001
 11
2.99E+002
 21
8.9544578E+001
  0
LINE
  8
1
  6
HIDDEN
 62
7
 10
3.04E+002
 20
9.1544578E+001
 11
2.99E+002
 21
9.1544578E+001
  0
LINE
  8
1
  6
CONTINUOUS
 62
7
 10
3.2E+002
 20
8.9044578E+001
 11
3.18E+002
 21
9.4044578E+001
  0
LINE
  8
1
  6
CONTINUOUS
 62
7
 10
3.155E+002
 20
9.3544578E+001
 11
3.14E+002
 21
9.3544578E+001
  0
TEXT
  8
1
  6
CONTINUOUS
 62
7
 10
3.107E+002
 20
9.0544578E+001
 40
2.0
  1
S2
 41
7.5E-001
  0
LINE
  8
1
  6
CONTINUOUS
 62
7
 10
3.14E+002
 20
9.3544578E+001
 11
3.14E+002
 21
8.9544578E+001
  0
LINE
  8
1
  6
CONTINUOUS
 62
7
 10
3.155E+002
 20
8.9544578E+001
 11
3.14E+002
 21
8.9544578E+001
  0
LINE
  8
1
  6
HIDDEN
 62
7
 10
3.19E+002
 20
9.1544578E+001
 11
3.14E+002
 21
9.1544578E+001
  0
TEXT
  8
1
  6
CONTINUOUS
 62
7
 10
2.675E+002
 20
1.4748785E+002
 40
2.0
  1
96
 41
7.5E-001
  0
LINE
  8
1
  6
SHORT_DASH
 62
7
 10
2.7145462E+002
 20
1.65E+002
 11
2.8354107E+002
 21
1.65E+002
  0
LINE
  8
1
  6
CONTINUOUS
 62
7
 10
2.8354107E+002
 20
1.65E+002
 11
2.8354107E+002
 21
1.68E+002
  0
INSERT
  2
*TX199
  8
1
 10
2.6795462E+002
 20
1.6697596E+002
  0
LINE
  8
1
  6
CONTINUOUS
 62
7
 10
2.95E+002
 20
7.2E+001
 11
3.05E+002
 21
7.2E+001
  0
LINE
  8
1
  6
CONTINUOUS
 62
7
 10
3.08E+002
 20
7.2E+001
 11
3.2E+002
 21
7.2E+001
  0
LINE
  8
1
  6
CONTINUOUS
 62
7
 10
3.23E+002
 20
7.2E+001
 11
3.32E+002
 21
7.2E+001
  0
LINE
  8
1
  6
CONTINUOUS
 62
7
 10
2.8904492E+002
 20
1.04E+002
 11
2.92E+002
 21
1.04E+002
  0
TEXT
  8
1
  6
CONTINUOUS
 62
7
 10
2.795E+002
 20
1.03E+002
 40
2.0
  1
KM1:21
 41
7.5E-001
  0
LINE
  8
1
  6
CONTINUOUS
 62
7
 10
2.95E+002
 20
8.7044578E+001
 11
2.95E+002
 21
8.8046949E+001
  0
LINE
  8
1
  6
CONTINUOUS
 62
7
 10
3.2E+002
 20
9.3997426E+001
 11
3.2E+002
 21
1.5E+002
  0
LINE
  8
1
  6
CONTINUOUS
 62
7
 10
3.05E+002
 20
9.4E+001
 11
3.05E+002
 21
1.4848785E+002
  0
TEXT
  8
1
  6
CONTINUOUS
 62
7
 10
3.0425E+002
 20
8.1E+001
 40
2.0
  1
E1
 41
7.5E-001
 50
9.0E+001
  0
TEXT
  8
1
  6
CONTINUOUS
 62
7
 10
3.0425E+002
 20
7.3E+001
 40
2.0
  1
E2
 41
7.5E-001
 50
9.0E+001
  0
TEXT
  8
1
  6
CONTINUOUS
 62
7
 10
3.1925E+002
 20
8.1E+001
 40
2.0
  1
E1
 41
7.5E-001
 50
9.0E+001
  0
TEXT
  8
1
  6
CONTINUOUS
 62
7
 10
3.1925E+002
 20
7.3E+001
 40
2.0
  1
E2
 41
7.5E-001
 50
9.0E+001
  0
TEXT
  8
1
  6
CONTINUOUS
 62
7
 10
2.9125E+002
 20
8.1E+001
 40
2.0
  1
X1
 41
7.5E-001
 50
9.0E+001
  0
TEXT
  8
1
  6
CONTINUOUS
 62
7
 10
2.9125E+002
 20
7.3E+001
 40
2.0
  1
X2
 41
7.5E-001
 50
9.0E+001
  0
TEXT
  8
1
  6
CONTINUOUS
 62
7
 10
3.3125E+002
 20
8.1E+001
 40
2.0
  1
X1
 41
7.5E-001
 50
9.0E+001
  0
TEXT
  8
1
  6
CONTINUOUS
 62
7
 10
3.3125E+002
 20
7.3E+001
 40
2.0
  1
X2
 41
7.5E-001
 50
9.0E+001
  0
TEXT
  8
1
  6
CONTINUOUS
 62
7
 10
3.4325E+002
 20
8.1E+001
 40
2.0
  1
X1
 41
7.5E-001
 50
9.0E+001
  0
TEXT
  8
1
  6
CONTINUOUS
 62
7
 10
3.4325E+002
 20
7.3E+001
 40
2.0
  1
X2
 41
7.5E-001
 50
9.0E+001
  0
TEXT
  8
1
  6
CONTINUOUS
 62
7
 10
3.5325E+002
 20
8.1E+001
 40
2.0
  1
X1
 41
7.5E-001
 50
9.0E+001
  0
TEXT
  8
1
  6
CONTINUOUS
 62
7
 10
3.5325E+002
 20
7.3E+001
 40
2.0
  1
X2
 41
7.5E-001
 50
9.0E+001
  0
LINE
  8
1
  6
CONTINUOUS
 62
7
 10
2.95E+002
 20
9.6044578E+001
 11
2.9995408E+002
 21
9.6044578E+001
  0
LINE
  8
1
  6
CONTINUOUS
 62
7
 10
3.01E+002
 20
9.6044578E+001
 11
3.020923E+002
 21
9.6044578E+001
  0
LINE
  8
1
  6
CONTINUOUS
 62
7
 10
3.03E+002
 20
9.6044578E+001
 11
3.07E+002
 21
9.6044578E+001
  0
LINE
  8
1
  6
CONTINUOUS
 62
7
 10
2.95E+002
 20
8.9044578E+001
 11
2.95E+002
 21
9.4044578E+001
  0
LINE
  8
1
  6
CONTINUOUS
 62
7
 10
3.07E+002
 20
9.6044578E+001
 11
3.07E+002
 21
9.5044578E+001
  0
LINE
  8
1
  6
CONTINUOUS
 62
7
 10
3.07E+002
 20
9.4044578E+001
 11
3.07E+002
 21
8.9184979E+001
  0
LINE
  8
1
  6
CONTINUOUS
 62
7
 10
3.07E+002
 20
8.7044578E+001
 11
3.02E+002
 21
8.7044578E+001
  0
LINE
  8
1
  6
CONTINUOUS
 62
7
 10
3.07E+002
 20
8.8044578E+001
 11
3.07E+002
 21
8.7044578E+001
  0
LINE
  8
1
  6
CONTINUOUS
 62
7
 10
3.01E+002
 20
8.7044578E+001
 11
3.0E+002
 21
8.7044578E+001
  0
LINE
  8
1
  6
CONTINUOUS
 62
7
 10
2.99E+002
 20
8.7044578E+001
 11
2.95E+002
 21
8.7044578E+001
  0
LINE
  8
1
  6
CONTINUOUS
 62
7
 10
2.95E+002
 20
9.5044578E+001
 11
2.95E+002
 21
9.6044578E+001
  0
LINE
  8
1
  6
CONTINUOUS
 62
7
 10
3.22E+002
 20
8.8044578E+001
 11
3.22E+002
 21
8.7044578E+001
  0
LINE
  8
1
  6
CONTINUOUS
 62
7
 10
3.22E+002
 20
8.7044578E+001
 11
3.17E+002
 21
8.7044578E+001
  0
LINE
  8
1
  6
CONTINUOUS
 62
7
 10
3.22E+002
 20
9.4044578E+001
 11
3.22E+002
 21
8.9184979E+001
  0
LINE
  8
1
  6
CONTINUOUS
 62
7
 10
3.22E+002
 20
9.6044578E+001
 11
3.22E+002
 21
9.5044578E+001
  0
LINE
  8
1
  6
CONTINUOUS
 62
7
 10
3.18E+002
 20
9.6044578E+001
 11
3.22E+002
 21
9.6044578E+001
  0
LINE
  8
1
  6
CONTINUOUS
 62
7
 10
3.1E+002
 20
9.6044578E+001
 11
3.1495408E+002
 21
9.6044578E+001
  0
LINE
  8
1
  6
CONTINUOUS
 62
7
 10
3.1E+002
 20
9.5044578E+001
 11
3.1E+002
 21
9.6044578E+001
  0
LINE
  8
1
  6
CONTINUOUS
 62
7
 10
3.1E+002
 20
8.9044578E+001
 11
3.1E+002
 21
9.4044578E+001
  0
LINE
  8
1
  6
CONTINUOUS
 62
7
 10
3.1E+002
 20
8.7044578E+001
 11
3.1E+002
 21
8.8046949E+001
  0
LINE
  8
1
  6
CONTINUOUS
 62
7
 10
3.14E+002
 20
8.7044578E+001
 11
3.1E+002
 21
8.7044578E+001
  0
LINE
  8
1
  6
CONTINUOUS
 62
7
 10
3.16E+002
 20
8.7044578E+001
 11
3.15E+002
 21
8.7044578E+001
  0
LINE
  8
1
  6
CONTINUOUS
 62
7
 10
3.16E+002
 20
9.6044578E+001
 11
3.170923E+002
 21
9.6044578E+001
  0
INSERT
  2
A3N
  8
1
 10
1.9E+001
 20
1.1E+001
 66
1
  0
ATTRIB
  8
1
  6
CONTINUOUS
 62
5
 10
3.8449644E+002
 20
3.8E+001
 40
2.0
  1
 
 41
6.5E-001
 11
3.8449644E+002
 21
3.7E+001
  2
ANCIEN_ Plan
 70
0
 73
2
 74
2
  0
ATTRIB
  8
1
  6
CONTINUOUS
 62
5
 10
3.9049644E+002
 20
2.2E+001
 40
4.0
  1
FPTS307901
 41
7.5E-001
 72
1
 11
3.7549644E+002
 21
2.0E+001
  2
N°PLAN
 70
0
 73
2
 74
2
  0
ATTRIB
  8
1
  6
CONTINUOUS
 62
5
 10
3.8449644E+002
 20
3.4005401E+001
 40
2.0
  1
 
 41
7.5E-001
 11
3.8449644E+002
 21
3.3005401E+001
  2
N°OEM
 70
0
 73
2
 74
2
  0
ATTRIB
  8
1
  6
CONTINUOUS
 62
5
 10
3.364558E+002
 20
2.48E+001
 40
1.6
  1
DEMARREUR INVERSEUR A9...40 + VM (avec RTH)
 41
9.0E-001
 72
1
 11
3.054958E+002
 21
2.4E+001
  2
TYPE_PLAN
 70
0
 73
2
 74
2
  0
ATTRIB
  8
1
  6
CONTINUOUS
 62
5
 10
3.439333E+002
 20
2.125E+001
 40
2.5
  1
A9...40 REVERSING STARTER + VM (with TOR)
 41
7.5E-001
 72
1
 11
3.054958E+002
 21
2.0E+001
  2
DESIGNATION_PLAN
 70
0
 73
2
 74
2
  0
ATTRIB
  8
1
  6
CONTINUOUS
 62
5
 10
4.079333E+002
 20
1.975E+001
 40
2.5
  1
A
 41
7.5E-001
 72
1
 11
4.069958E+002
 21
1.85E+001
  2
ID
 70
0
 73
2
 74
2
  0
ATTRIB
  8
1
  6
CONTINUOUS
 62
5
 10
3.7475484E+002
 20
2.7659209E+001
 40
2.75
  1
A3
 41
7.5E-001
 72
1
 11
3.7269234E+002
 21
2.6284209E+001
  2
A?
 70
0
 73
2
 74
2
  0
ATTRIB
  8
1
  6
CONTINUOUS
 62
5
 10
3.8642666E+002
 20
2.7659209E+001
 40
2.75
  1
1
 41
7.5E-001
 72
1
 11
3.8539541E+002
 21
2.6284209E+001
  2
Folio
 70
0
 73
2
 74
2
  0
ATTRIB
  8
1
  6
CONTINUOUS
 62
5
 10
3.9914468E+002
 20
2.7659209E+001
 40
2.75
  1
1
 41
7.5E-001
 72
1
 11
3.9811343E+002
 21
2.6284209E+001
  2
Folios
 70
0
 73
2
 74
2
  0
ATTRIB
  8
1
  6
CONTINUOUS
 62
5
 10
3.6733212E+002
 20
5.025E+001
 40
2.5
  1
EO-18636
 11
3.6733212E+002
 21
4.9E+001
  2
N°OE_Origine
 70
0
 73
2
 74
2
  0
ATTRIB
  8
1
  6
CONTINUOUS
 62
5
 10
3.6733212E+002
 20
4.6E+001
 40
2.0
  1
P.BLANCHET le 07/09/05
 41
7.5E-001
 11
3.6733212E+002
 21
4.5E+001
  2
CONTROLEUR_Origine
 70
0
 73
2
 74
2
  0
ATTRIB
  8
1
  6
CONTINUOUS
 62
5
 10
3.6733212E+002
 20
4.2E+001
 40
2.0
  1
C.ECOCHARD le 07/09/05
 41
7.5E-001
 11
3.6733212E+002
 21
4.1E+001
  2
DESSINATEUR_Origine
 70
0
 73
2
 74
2
  0
ATTRIB
  8
1
  6
CONTINUOUS
 62
5
 10
2.4293169E+002
 20
3.825E+001
 40
2.5
  1
A
 41
7.5E-001
 72
1
 11
2.4199419E+002
 21
3.7E+001
  2
ID1
 70
0
 73
2
 74
2
  0
ATTRIB
  8
1
  6
CONTINUOUS
 62
5
 10
2.4293169E+002
 20
4.225E+001
 40
2.5
  1
 
 41
7.5E-001
 72
1
 11
2.4199419E+002
 21
4.1E+001
  2
ID2
 70
0
 73
2
 74
2
  0
ATTRIB
  8
1
  6
CONTINUOUS
 62
5
 10
2.4293169E+002
 20
4.625E+001
 40
2.5
  1
 
 41
7.5E-001
 72
1
 11
2.4199419E+002
 21
4.5E+001
  2
ID3
 70
0
 73
2
 74
2
  0
ATTRIB
  8
1
  6
CONTINUOUS
 62
5
 10
2.4293169E+002
 20
5.025E+001
 40
2.5
  1
 
 41
7.5E-001
 72
1
 11
2.4199419E+002
 21
4.9E+001
  2
ID4
 70
0
 73
2
 74
2
  0
ATTRIB
  8
1
  6
CONTINUOUS
 62
5
 10
3.5874644E+002
 20
3.2551214E+001
 40
6.0
  1
/
 41
7.5E-001
 72
1
 11
3.5649644E+002
 21
2.9551214E+001
  2
Ech
 70
0
 73
2
 74
2
  0
ATTRIB
  8
1
  6
CONTINUOUS
 62
5
 10
2.4549419E+002
 20
3.7875E+001
 40
1.75
  1
Edition originale
 41
7.5E-001
 11
2.4549419E+002
 21
3.7E+001
  2
DESC-1
 70
0
 73
2
 74
2
  0
ATTRIB
  8
1
  6
CONTINUOUS
 62
5
 10
2.4549419E+002
 20
4.1875E+001
 40
1.75
  1
 
 41
7.5E-001
 11
2.4549419E+002
 21
4.1E+001
  2
DESC-2
 70
0
 73
2
 74
2
  0
ATTRIB
  8
1
  6
CONTINUOUS
 62
5
 10
2.4549419E+002
 20
4.5875E+001
 40
1.75
  1
 
 41
7.5E-001
 11
2.4549419E+002
 21
4.5E+001
  2
DESC-3
 70
0
 73
2
 74
2
  0
ATTRIB
  8
1
  6
CONTINUOUS
 62
5
 10
2.4549419E+002
 20
4.9875E+001
 40
1.75
  1
 
 41
7.5E-001
 11
2.4549419E+002
 21
4.9E+001
  2
DESC-4
 70
0
 73
2
 74
2
  0
ATTRIB
  8
1
  6
CONTINUOUS
 62
5
 10
3.1581644E+002
 20
3.79E+001
 40
1.8
  1
07/09/05
 41
6.0E-001
 72
1
 11
3.1149644E+002
 21
3.7E+001
  2
DATE1
 70
0
 73
2
 74
2
  0
ATTRIB
  8
1
  6
CONTINUOUS
 62
5
 10
3.1203644E+002
 20
4.19E+001
 40
1.8
  1
 
 41
6.0E-001
 72
1
 11
3.1149644E+002
 21
4.1E+001
  2
DATE2
 70
0
 73
2
 74
2
  0
ATTRIB
  8
1
  6
CONTINUOUS
 62
5
 10
3.1203644E+002
 20
4.59E+001
 40
1.8
  1
 
 41
6.0E-001
 72
1
 11
3.1149644E+002
 21
4.5E+001
  2
DATE3
 70
0
 73
2
 74
2
  0
ATTRIB
  8
1
  6
CONTINUOUS
 62
5
 10
3.1203644E+002
 20
4.99E+001
 40
1.8
  1
 
 41
6.0E-001
 72
1
 11
3.1149644E+002
 21
4.9E+001
  2
DATE4
 70
0
 73
2
 74
2
  0
ATTRIB
  8
1
  6
CONTINUOUS
 62
5
 10
3.2487144E+002
 20
3.79E+001
 40
1.8
  1
18636
 41
7.5E-001
 72
1
 11
3.2149644E+002
 21
3.7E+001
  2
OE1
 70
0
 73
2
 74
2
  0
ATTRIB
  8
1
  6
CONTINUOUS
 62
5
 10
3.2217144E+002
 20
4.19E+001
 40
1.8
  1
 
 41
7.5E-001
 72
1
 11
3.2149644E+002
 21
4.1E+001
  2
OE2
 70
0
 73
2
 74
2
  0
ATTRIB
  8
1
  6
CONTINUOUS
 62
5
 10
3.2217144E+002
 20
4.59E+001
 40
1.8
  1
 
 41
7.5E-001
 72
1
 11
3.2149644E+002
 21
4.5E+001
  2
OE3
 70
0
 73
2
 74
2
  0
ATTRIB
  8
1
  6
CONTINUOUS
 62
5
 10
3.2217144E+002
 20
4.99E+001
 40
1.8
  1
 
 41
7.5E-001
 72
1
 11
3.2149644E+002
 21
4.9E+001
  2
OE4
 70
0
 73
2
 74
2
  0
ATTRIB
  8
1
  6
CONTINUOUS
 62
5
 10
3.3134644E+002
 20
3.79E+001
 40
1.8
  1
CE
 41
7.5E-001
 72
1
 11
3.2999644E+002
 21
3.7E+001
  2
AUT1
 70
0
 73
2
 74
2
  0
ATTRIB
  8
1
  6
CONTINUOUS
 62
5
 10
3.3067144E+002
 20
4.19E+001
 40
1.8
  1
 
 41
7.5E-001
 72
1
 11
3.2999644E+002
 21
4.1E+001
  2
AUT2
 70
0
 73
2
 74
2
  0
ATTRIB
  8
1
  6
CONTINUOUS
 62
5
 10
3.3067144E+002
 20
4.59E+001
 40
1.8
  1
 
 41
7.5E-001
 72
1
 11
3.2999644E+002
 21
4.5E+001
  2
AUT3
 70
0
 73
2
 74
2
  0
ATTRIB
  8
1
  6
CONTINUOUS
 62
5
 10
3.3067144E+002
 20
4.99E+001
 40
1.8
  1
 
 41
7.5E-001
 72
1
 11
3.2999644E+002
 21
4.9E+001
  2
AUT4
 70
0
 73
2
 74
2
  0
ATTRIB
  8
1
  6
CONTINUOUS
 62
5
 10
3.3440529E+002
 20
3.79E+001
 40
1.8
  1
PB
 41
7.5E-001
 11
3.3440529E+002
 21
3.7E+001
  2
CONT1
 70
0
 73
2
 74
2
  0
ATTRIB
  8
1
  6
CONTINUOUS
 62
5
 10
3.3440529E+002
 20
4.19E+001
 40
1.8
  1
 
 41
7.5E-001
 11
3.3440529E+002
 21
4.1E+001
  2
CONT2
 70
0
 73
2
 74
2
  0
ATTRIB
  8
1
  6
CONTINUOUS
 62
5
 10
3.3440529E+002
 20
4.59E+001
 40
1.8
  1
 
 41
7.5E-001
 11
3.3440529E+002
 21
4.5E+001
  2
CONT3
 70
0
 73
2
 74
2
  0
ATTRIB
  8
1
  6
CONTINUOUS
 62
5
 10
3.3440529E+002
 20
4.99E+001
 40
1.8
  1
 
 41
7.5E-001
 11
3.3440529E+002
 21
4.9E+001
  2
CONT4
 70
0
 73
2
 74
2
  0
SEQEND
  0
ENDSEC
  0
EOF
