  0
SECTION
  2
HEADER
  9
$ACADVER
  1
AC1009
999
I-DEAS 8 Not Encoded
  9
$EXTMIN
 10
0.0
 20
0.0
  9
$EXTMAX
 10
2.1E+002
 20
2.97E+002
  9
$TEXTSIZE
 40
1.25E-001
  9
$LTSCALE
 40
1.0
  9
$CLAYER
  8
1
  9
$CECOLOR
 62
1
  9
$DIMASZ
 40
1.25E-001
  9
$DIMEXO
 40
6.25E-002
  9
$DIMDLI
 40
2.5E-001
  9
$DIMEXE
 40
1.25E-001
  9
$DIMTP
 40
5.0E-003
  9
$DIMTM
 40
-5.0E-003
  9
$DIMTXT
 40
3.0
  9
$DIMLIM
 70
0
  9
$DIMTIH
 70
1
  9
$DIMTOH
 70
1
  9
$DIMSE1
 70
0
  9
$DIMSE2
 70
0
  9
$DIMTAD
 70
0
  9
$DIMASO
 70
1
  9
$DIMALT
 70
0
  9
$DIMALTD
 70
0
  9
$DIMTOFL
 70
1
  9
$DIMTIX
 70
0
  9
$DIMSAH
 70
0
  9
$DIMTFAC
 40
1.0
  9
$DIMGAP
 40
6.25E-002
  9
$LUNITS
 70
2
  9
$LUPREC
 70
3
  9
$FILLETRAD
 40
1.0E+001
  9
$AUNITS
 70
0
  9
$AUPREC
 70
1
  9
$CHAMFERA
 40
6.0
  9
$CHAMFERB
 40
6.0
  9
$ANGBASE
 50
0.0
  9
$ANGDIR
 70
0
  9
$PEXTMIN
 10
0.0
 20
0.0
 30
0.0
  9
$PEXTMAX
 10
2.1E+002
 20
2.97E+002
 30
0.0
  9
$PLIMMIN
 10
0.0
 20
0.0
  9
$PLIMMAX
 10
2.1E+002
 20
2.97E+002
  9
$PDMODE
 70
2
  9
$PDSIZE
 40
-1.0E-002
  9
$SPLINETYPE
 70
6
  9
$TILEMODE
 70
0
  0
ENDSEC
  0
SECTION
  2
TABLES
  0
TABLE
  2
VPORT
 70
2
  0
VPORT
  2
*Active
 70
0
 10
0.0
 20
0.0
 11
2.1E+002
 21
2.97E+002
 12
1.05E+002
 22
1.485E+002
 13
0.0
 23
0.0
 14
1.0
 24
1.0
 15
0.0
 25
0.0
 16
0.0
 26
0.0
 36
1.0
 17
0.0
 27
0.0
 37
0.0
 40
2.97E+002
 41
7.0707071E-001
 42
5.0E+001
 43
0.0
 44
0.0
 50
0.0
 51
0.0
 71
0
 72
100
 73
1
 74
3
 75
0
 76
0
 77
0
 78
0
  0
ENDTAB
  0
TABLE
  2
LTYPE
 70
7
  0
LTYPE
  2
HIDDENNEW00
  3
_ 
 70
64
 72
65
 73
3
 40
4.5
 49
1.5
 49
-1.5
 49
1.5
  0
LTYPE
  2
HIDDENNEW01
  3
_ 
 70
64
 72
65
 73
3
 40
4.5
 49
1.5
 49
-1.5
 49
1.5
  0
LTYPE
  2
HIDDEN
  3
_ 
 70
64
 72
65
 73
3
 40
4.5
 49
1.5
 49
-1.5
 49
1.5
  0
LTYPE
  2
CENTERLINE
  3
_ 
 70
64
 72
65
 73
5
 40
3.0E+001
 49
1.2E+001
 49
-1.5
 49
3.0
 49
-1.5
 49
1.2E+001
  0
LTYPE
  2
PHANTOM
  3
_ 
 70
64
 72
65
 73
7
 40
2.95E+001
 49
9.5
 49
-1.5
 49
3.0
 49
-1.5
 49
3.0
 49
-1.5
 49
9.5
  0
LTYPE
  2
SHORT_DASH
  3
_ 
 70
64
 72
65
 73
3
 40
3.0
 49
7.5E-001
 49
-1.5
 49
7.5E-001
  0
LTYPE
  2
LONG_DASH
  3
_ 
 70
64
 72
65
 73
3
 40
9.0
 49
2.25
 49
-4.5
 49
2.25
  0
ENDTAB
  0
TABLE
  2
LAYER
 70
258
  0
LAYER
  2
1
 70
0
 62
7
  6
CONTINUOUS
  0
LAYER
  2
Drafting_Hidden_Entities
 70
1
 62
7
  6
CONTINUOUS
  0
ENDTAB
  0
TABLE
  2
STYLE
 70
1
  0
STYLE
  2
STANDARD
 70
64
 40
0.0
 41
1.0
 50
0.0
 71
0
 42
1.0
  3
monotxt.shx
  4

  0
ENDTAB
  0
TABLE
  2
VIEW
 70
0
  0
ENDTAB
  0
TABLE
  2
DIMSTYLE
 70
1
  0
DIMSTYLE
  2
DSTYLE1
 70
0
  3

  4

  5

  6

  7

 40
1.0
 41
3.0
 42
0.0
 43
3.8E-001
 44
1.5
 45
1.0E-001
 46
0.0
 47
0.0
 48
0.0
 71
0
 72
0
 73
0
 74
0
 75
0
 76
0
 77
1
 78
11
140
3.0
141
9.0E-002
142
0.0
143
2.54E+001
144
1.0
145
0.0
146
1.0
147
1.5
170
0
171
2
172
0
173
0
174
0
175
0
176
0
177
0
178
0
  0
ENDTAB
  0
ENDSEC
  0
SECTION
  2
BLOCKS
  0
BLOCK
  2
*AH13
  3
*AH
 10
0.0
 20
0.0
 70
65
  0
LINE
  8
1
  6
CONTINUOUS
 62
0
 10
0.0
 20
0.0
 11
1.0
 21
-1.666679E-001
  0
LINE
  8
1
  6
CONTINUOUS
 62
0
 10
1.0
 20
-1.666679E-001
 11
1.0
 21
1.66668E-001
  0
LINE
  8
1
  6
CONTINUOUS
 62
0
 10
1.0
 20
1.66668E-001
 11
0.0
 21
0.0
  0
ENDBLK
  0
BLOCK
  2
XHXH1NEW02NEW00NEW00
 10
0.0
 20
0.0
 70
0
  0
POLYLINE
  8
254
  6
CONTINUOUS
 62
6
 66
1
 40
1.0E-003
 41
1.0E-003
 70
0
  0
VERTEX
  8
254
 42
0.0
 10
-2.2647095E-001
 20
-2.2647285E-001
 70
0
  0
VERTEX
  8
254
 42
0.0
 10
2.2647095E-001
 20
2.2647285E-001
 70
0
  0
SEQEND
  0
POLYLINE
  8
254
  6
CONTINUOUS
 62
6
 66
1
 40
1.0E-003
 41
1.0E-003
 70
0
  0
VERTEX
  8
254
 42
0.0
 10
-3.9656067E-001
 20
-6.7941666E-001
 70
0
  0
VERTEX
  8
254
 42
0.0
 10
4.2364502E-001
 20
1.4080048E-001
 70
0
  0
SEQEND
  0
POLYLINE
  8
254
  6
CONTINUOUS
 62
6
 66
1
 40
1.0E-003
 41
1.0E-003
 70
0
  0
VERTEX
  8
254
 42
0.0
 10
-5.6666565E-001
 20
-1.1323624
 70
0
  0
VERTEX
  8
254
 42
0.0
 10
4.2364502E-001
 20
-1.4204407E-001
 70
0
  0
SEQEND
  0
POLYLINE
  8
254
  6
CONTINUOUS
 62
6
 66
1
 40
1.0E-003
 41
1.0E-003
 70
0
  0
VERTEX
  8
254
 42
0.0
 10
-7.3677063E-001
 20
-1.5853081
 70
0
  0
VERTEX
  8
254
 42
0.0
 10
4.2364502E-001
 20
-4.248867E-001
 70
0
  0
SEQEND
  0
POLYLINE
  8
254
  6
CONTINUOUS
 62
6
 66
1
 40
1.0E-003
 41
1.0E-003
 70
0
  0
VERTEX
  8
254
 42
0.0
 10
8.1364441E-001
 20
-3.4885406E-002
 70
0
  0
VERTEX
  8
254
 42
0.0
 10
1.0749969
 20
2.2647285E-001
 70
0
  0
SEQEND
  0
POLYLINE
  8
254
  6
CONTINUOUS
 62
6
 66
1
 40
1.0E-003
 41
1.0E-003
 70
0
  0
VERTEX
  8
254
 42
0.0
 10
-6.9714355E-001
 20
-1.8285255
 70
0
  0
VERTEX
  8
254
 42
0.0
 10
4.2364502E-001
 20
-7.0773125E-001
 70
0
  0
SEQEND
  0
POLYLINE
  8
254
  6
CONTINUOUS
 62
6
 66
1
 40
1.0E-003
 41
1.0E-003
 70
0
  0
VERTEX
  8
254
 42
0.0
 10
8.1364441E-001
 20
-3.1772995E-001
 70
0
  0
VERTEX
  8
254
 42
0.0
 10
1.3111725
 20
1.7979813E-001
 70
0
  0
SEQEND
  0
POLYLINE
  8
254
  6
CONTINUOUS
 62
6
 66
1
 40
1.0E-003
 41
1.0E-003
 70
0
  0
VERTEX
  8
254
 42
0.0
 10
-8.928833E-001
 20
-2.3071117
 70
0
  0
VERTEX
  8
254
 42
0.0
 10
-8.0430603E-001
 20
-2.2185249
 70
0
  0
SEQEND
  0
POLYLINE
  8
254
  6
CONTINUOUS
 62
6
 66
1
 40
1.0E-003
 41
1.0E-003
 70
0
  0
VERTEX
  8
254
 42
0.0
 10
-4.1430664E-001
 20
-1.8285255
 70
0
  0
VERTEX
  8
254
 42
0.0
 10
4.2364502E-001
 20
-9.9057388E-001
 70
0
  0
SEQEND
  0
POLYLINE
  8
254
  6
CONTINUOUS
 62
6
 66
1
 40
1.0E-003
 41
1.0E-003
 70
0
  0
VERTEX
  8
254
 42
0.0
 10
8.1364441E-001
 20
-6.0057259E-001
 70
0
  0
VERTEX
  8
254
 42
0.0
 10
1.3883972
 20
-2.58255E-002
 70
0
  0
SEQEND
  0
POLYLINE
  8
254
  6
CONTINUOUS
 62
6
 66
1
 40
1.0E-003
 41
1.0E-003
 70
0
  0
VERTEX
  8
254
 42
0.0
 10
-1.0629883
 20
-2.7600574
 70
0
  0
VERTEX
  8
254
 42
0.0
 10
-5.2145386E-001
 20
-2.2185249
 70
0
  0
SEQEND
  0
POLYLINE
  8
254
  6
CONTINUOUS
 62
6
 66
1
 40
1.0E-003
 41
1.0E-003
 70
0
  0
VERTEX
  8
254
 42
0.0
 10
-1.3145447E-001
 20
-1.8285255
 70
0
  0
VERTEX
  8
254
 42
0.0
 10
4.2364502E-001
 20
-1.2734165
 70
0
  0
SEQEND
  0
POLYLINE
  8
254
  6
CONTINUOUS
 62
6
 66
1
 40
1.0E-003
 41
1.0E-003
 70
0
  0
VERTEX
  8
254
 42
0.0
 10
8.1364441E-001
 20
-8.8341522E-001
 70
0
  0
VERTEX
  8
254
 42
0.0
 10
1.4656067
 20
-2.3144722E-001
 70
0
  0
SEQEND
  0
POLYLINE
  8
254
  6
CONTINUOUS
 62
6
 66
1
 40
1.0E-003
 41
1.0E-003
 70
0
  0
VERTEX
  8
254
 42
0.0
 10
-1.2330933
 20
-3.2130032
 70
0
  0
VERTEX
  8
254
 42
0.0
 10
-2.3861694E-001
 20
-2.2185249
 70
0
  0
SEQEND
  0
POLYLINE
  8
254
  6
CONTINUOUS
 62
6
 66
1
 40
1.0E-003
 41
1.0E-003
 70
0
  0
VERTEX
  8
254
 42
0.0
 10
1.5138245E-001
 20
-1.8285255
 70
0
  0
VERTEX
  8
254
 42
0.0
 10
4.2364502E-001
 20
-1.5562611
 70
0
  0
SEQEND
  0
POLYLINE
  8
254
  6
CONTINUOUS
 62
6
 66
1
 40
1.0E-003
 41
1.0E-003
 70
0
  0
VERTEX
  8
254
 42
0.0
 10
8.1364441E-001
 20
-1.1662598
 70
0
  0
VERTEX
  8
254
 42
0.0
 10
1.5428314
 20
-4.3707085E-001
 70
0
  0
SEQEND
  0
POLYLINE
  8
254
  6
CONTINUOUS
 62
6
 66
1
 40
1.0E-003
 41
1.0E-003
 70
0
  0
VERTEX
  8
254
 42
0.0
 10
-1.4031982
 20
-3.665947
 70
0
  0
VERTEX
  8
254
 42
0.0
 10
4.4219971E-002
 20
-2.2185249
 70
0
  0
SEQEND
  0
POLYLINE
  8
254
  6
CONTINUOUS
 62
6
 66
1
 40
1.0E-003
 41
1.0E-003
 70
0
  0
VERTEX
  8
254
 42
0.0
 10
8.1364441E-001
 20
-1.4491024
 70
0
  0
VERTEX
  8
254
 42
0.0
 10
1.6200562
 20
-6.4269257E-001
 70
0
  0
SEQEND
  0
POLYLINE
  8
254
  6
CONTINUOUS
 62
6
 66
1
 40
1.0E-003
 41
1.0E-003
 70
0
  0
VERTEX
  8
254
 42
0.0
 10
-1.573288
 20
-4.1188927
 70
0
  0
VERTEX
  8
254
 42
0.0
 10
3.2707214E-001
 20
-2.2185249
 70
0
  0
SEQEND
  0
POLYLINE
  8
254
  6
CONTINUOUS
 62
6
 66
1
 40
1.0E-003
 41
1.0E-003
 70
0
  0
VERTEX
  8
254
 42
0.0
 10
8.1364441E-001
 20
-1.731945
 70
0
  0
VERTEX
  8
254
 42
0.0
 10
1.6972656
 20
-8.4831619E-001
 70
0
  0
SEQEND
  0
POLYLINE
  8
254
  6
CONTINUOUS
 62
6
 66
1
 40
1.0E-003
 41
1.0E-003
 70
0
  0
VERTEX
  8
254
 42
0.0
 10
-1.4450836
 20
-4.2735233
 70
0
  0
VERTEX
  8
254
 42
0.0
 10
4.2364502E-001
 20
-2.4047909
 70
0
  0
SEQEND
  0
POLYLINE
  8
254
  6
CONTINUOUS
 62
6
 66
1
 40
1.0E-003
 41
1.0E-003
 70
0
  0
VERTEX
  8
254
 42
0.0
 10
9.9990845E-001
 20
-1.8285255
 70
0
  0
VERTEX
  8
254
 42
0.0
 10
1.7744904
 20
-1.0539379
 70
0
  0
SEQEND
  0
POLYLINE
  8
254
  6
CONTINUOUS
 62
6
 66
1
 40
1.0E-003
 41
1.0E-003
 70
0
  0
VERTEX
  8
254
 42
0.0
 10
-1.1622314
 20
-4.2735233
 70
0
  0
VERTEX
  8
254
 42
0.0
 10
4.2364502E-001
 20
-2.6876335
 70
0
  0
SEQEND
  0
POLYLINE
  8
254
  6
CONTINUOUS
 62
6
 66
1
 40
1.0E-003
 41
1.0E-003
 70
0
  0
VERTEX
  8
254
 42
0.0
 10
8.1364441E-001
 20
-2.2976322
 70
0
  0
VERTEX
  8
254
 42
0.0
 10
8.9274597E-001
 20
-2.2185249
 70
0
  0
SEQEND
  0
POLYLINE
  8
254
  6
CONTINUOUS
 62
6
 66
1
 40
1.0E-003
 41
1.0E-003
 70
0
  0
VERTEX
  8
254
 42
0.0
 10
1.2827454
 20
-1.8285255
 70
0
  0
VERTEX
  8
254
 42
0.0
 10
1.8517151
 20
-1.2595596
 70
0
  0
SEQEND
  0
POLYLINE
  8
254
  6
CONTINUOUS
 62
6
 66
1
 40
1.0E-003
 41
1.0E-003
 70
0
  0
VERTEX
  8
254
 42
0.0
 10
3.1836395
 20
7.2372437E-002
 70
0
  0
VERTEX
  8
254
 42
0.0
 10
3.337738
 20
2.2647285E-001
 70
0
  0
SEQEND
  0
POLYLINE
  8
254
  6
CONTINUOUS
 62
6
 66
1
 40
1.0E-003
 41
1.0E-003
 70
0
  0
VERTEX
  8
254
 42
0.0
 10
-8.7939453E-001
 20
-4.2735233
 70
0
  0
VERTEX
  8
254
 42
0.0
 10
-3.0549622E-001
 20
-3.6996193
 70
0
  0
SEQEND
  0
POLYLINE
  8
254
  6
CONTINUOUS
 62
6
 66
1
 40
1.0E-003
 41
1.0E-003
 70
0
  0
VERTEX
  8
254
 42
0.0
 10
2.0599365E-002
 20
-3.3735256
 70
0
  0
VERTEX
  8
254
 42
0.0
 10
4.2364502E-001
 20
-2.9704762
 70
0
  0
SEQEND
  0
POLYLINE
  8
254
  6
CONTINUOUS
 62
6
 66
1
 40
1.0E-003
 41
1.0E-003
 70
0
  0
VERTEX
  8
254
 42
0.0
 10
8.1364441E-001
 20
-2.5804749
 70
0
  0
VERTEX
  8
254
 42
0.0
 10
1.1755981
 20
-2.2185249
 70
0
  0
SEQEND
  0
POLYLINE
  8
254
  6
CONTINUOUS
 62
6
 66
1
 40
1.0E-003
 41
1.0E-003
 70
0
  0
VERTEX
  8
254
 42
0.0
 10
1.5655975
 20
-1.8285255
 70
0
  0
VERTEX
  8
254
 42
0.0
 10
1.9289398
 20
-1.4651833
 70
0
  0
SEQEND
  0
POLYLINE
  8
254
  6
CONTINUOUS
 62
6
 66
1
 40
1.0E-003
 41
1.0E-003
 70
0
  0
VERTEX
  8
254
 42
0.0
 10
3.1836395
 20
-2.104702E-001
 70
0
  0
VERTEX
  8
254
 42
0.0
 10
3.620575
 20
2.2647285E-001
 70
0
  0
SEQEND
  0
POLYLINE
  8
254
  6
CONTINUOUS
 62
6
 66
1
 40
1.0E-003
 41
1.0E-003
 70
0
  0
VERTEX
  8
254
 42
0.0
 10
-5.9655762E-001
 20
-4.2735233
 70
0
  0
VERTEX
  8
254
 42
0.0
 10
-4.5779419E-001
 20
-4.1347656
 70
0
  0
SEQEND
  0
POLYLINE
  8
254
  6
CONTINUOUS
 62
6
 66
1
 40
1.0E-003
 41
1.0E-003
 70
0
  0
VERTEX
  8
254
 42
0.0
 10
3.0343628E-001
 20
-3.3735256
 70
0
  0
VERTEX
  8
254
 42
0.0
 10
4.2364502E-001
 20
-3.2533207
 70
0
  0
SEQEND
  0
POLYLINE
  8
254
  6
CONTINUOUS
 62
6
 66
1
 40
1.0E-003
 41
1.0E-003
 70
0
  0
VERTEX
  8
254
 42
0.0
 10
8.1364441E-001
 20
-2.8633194
 70
0
  0
VERTEX
  8
254
 42
0.0
 10
1.4584351
 20
-2.2185249
 70
0
  0
SEQEND
  0
POLYLINE
  8
254
  6
CONTINUOUS
 62
6
 66
1
 40
1.0E-003
 41
1.0E-003
 70
0
  0
VERTEX
  8
254
 42
0.0
 10
1.8484344
 20
-1.8285255
 70
0
  0
VERTEX
  8
254
 42
0.0
 10
2.0061493
 20
-1.670805
 70
0
  0
SEQEND
  0
POLYLINE
  8
254
  6
CONTINUOUS
 62
6
 66
1
 40
1.0E-003
 41
1.0E-003
 70
0
  0
VERTEX
  8
254
 42
0.0
 10
3.1836395
 20
-4.9331474E-001
 70
0
  0
VERTEX
  8
254
 42
0.0
 10
3.9034271
 20
2.2647285E-001
 70
0
  0
SEQEND
  0
POLYLINE
  8
254
  6
CONTINUOUS
 62
6
 66
1
 40
1.0E-003
 41
1.0E-003
 70
0
  0
VERTEX
  8
254
 42
0.0
 10
8.1364441E-001
 20
-3.146162
 70
0
  0
VERTEX
  8
254
 42
0.0
 10
1.741272
 20
-2.2185249
 70
0
  0
SEQEND
  0
POLYLINE
  8
254
  6
CONTINUOUS
 62
6
 66
1
 40
1.0E-003
 41
1.0E-003
 70
0
  0
VERTEX
  8
254
 42
0.0
 10
3.1836395
 20
-7.7615738E-001
 70
0
  0
VERTEX
  8
254
 42
0.0
 10
4.186264
 20
2.2647285E-001
 70
0
  0
SEQEND
  0
POLYLINE
  8
254
  6
CONTINUOUS
 62
6
 66
1
 40
1.0E-003
 41
1.0E-003
 70
0
  0
VERTEX
  8
254
 42
0.0
 10
8.6912537E-001
 20
-3.3735256
 70
0
  0
VERTEX
  8
254
 42
0.0
 10
2.0241241
 20
-2.2185249
 70
0
  0
SEQEND
  0
POLYLINE
  8
254
  6
CONTINUOUS
 62
6
 66
1
 40
1.0E-003
 41
1.0E-003
 70
0
  0
VERTEX
  8
254
 42
0.0
 10
3.1836395
 20
-1.059
 70
0
  0
VERTEX
  8
254
 42
0.0
 10
4.3386536
 20
9.6017838E-002
 70
0
  0
SEQEND
  0
POLYLINE
  8
254
  6
CONTINUOUS
 62
6
 66
1
 40
1.0E-003
 41
1.0E-003
 70
0
  0
VERTEX
  8
254
 42
0.0
 10
1.1519623
 20
-3.3735256
 70
0
  0
VERTEX
  8
254
 42
0.0
 10
2.1542511
 20
-2.3712425
 70
0
  0
SEQEND
  0
POLYLINE
  8
254
  6
CONTINUOUS
 62
6
 66
1
 40
1.0E-003
 41
1.0E-003
 70
0
  0
VERTEX
  8
254
 42
0.0
 10
3.1836395
 20
-1.3418446
 70
0
  0
VERTEX
  8
254
 42
0.0
 10
4.3386536
 20
-1.868248E-001
 70
0
  0
SEQEND
  0
POLYLINE
  8
254
  6
CONTINUOUS
 62
6
 66
1
 40
1.0E-003
 41
1.0E-003
 70
0
  0
VERTEX
  8
254
 42
0.0
 10
4.7286377
 20
2.0316124E-001
 70
0
  0
VERTEX
  8
254
 42
0.0
 10
4.7519531
 20
2.2647285E-001
 70
0
  0
SEQEND
  0
POLYLINE
  8
254
  6
CONTINUOUS
 62
6
 66
1
 40
1.0E-003
 41
1.0E-003
 70
0
  0
VERTEX
  8
254
 42
0.0
 10
1.4302368
 20
-3.3780994
 70
0
  0
VERTEX
  8
254
 42
0.0
 10
2.2314606
 20
-2.5768642
 70
0
  0
SEQEND
  0
POLYLINE
  8
254
  6
CONTINUOUS
 62
6
 66
1
 40
1.0E-003
 41
1.0E-003
 70
0
  0
VERTEX
  8
254
 42
0.0
 10
3.1836395
 20
-1.6246872
 70
0
  0
VERTEX
  8
254
 42
0.0
 10
4.3386536
 20
-4.6966743E-001
 70
0
  0
SEQEND
  0
POLYLINE
  8
254
  6
CONTINUOUS
 62
6
 66
1
 40
1.0E-003
 41
1.0E-003
 70
0
  0
VERTEX
  8
254
 42
0.0
 10
4.7286377
 20
-7.9683304E-002
 70
0
  0
VERTEX
  8
254
 42
0.0
 10
5.0330811
 20
2.2476578E-001
 70
0
  0
SEQEND
  0
POLYLINE
  8
254
  6
CONTINUOUS
 62
6
 66
1
 40
1.0E-003
 41
1.0E-003
 70
0
  0
VERTEX
  8
254
 42
0.0
 10
1.5035706
 20
-3.5876122
 70
0
  0
VERTEX
  8
254
 42
0.0
 10
2.3086853
 20
-2.7824879
 70
0
  0
SEQEND
  0
POLYLINE
  8
254
  6
CONTINUOUS
 62
6
 66
1
 40
1.0E-003
 41
1.0E-003
 70
0
  0
VERTEX
  8
254
 42
0.0
 10
3.2626495
 20
-1.8285255
 70
0
  0
VERTEX
  8
254
 42
0.0
 10
4.3386536
 20
-7.5251198E-001
 70
0
  0
SEQEND
  0
POLYLINE
  8
254
  6
CONTINUOUS
 62
6
 66
1
 40
1.0E-003
 41
1.0E-003
 70
0
  0
VERTEX
  8
254
 42
0.0
 10
4.7286377
 20
-3.6252594E-001
 70
0
  0
VERTEX
  8
254
 42
0.0
 10
5.2719421
 20
1.8078232E-001
 70
0
  0
SEQEND
  0
POLYLINE
  8
254
  6
CONTINUOUS
 62
6
 66
1
 40
1.0E-003
 41
1.0E-003
 70
0
  0
VERTEX
  8
254
 42
0.0
 10
1.576889
 20
-3.7971249
 70
0
  0
VERTEX
  8
254
 42
0.0
 10
2.38591
 20
-2.9881096
 70
0
  0
SEQEND
  0
POLYLINE
  8
254
  6
CONTINUOUS
 62
6
 66
1
 40
1.0E-003
 41
1.0E-003
 70
0
  0
VERTEX
  8
254
 42
0.0
 10
3.5454865
 20
-1.8285255
 70
0
  0
VERTEX
  8
254
 42
0.0
 10
4.3386536
 20
-1.0353546
 70
0
  0
SEQEND
  0
POLYLINE
  8
254
  6
CONTINUOUS
 62
6
 66
1
 40
1.0E-003
 41
1.0E-003
 70
0
  0
VERTEX
  8
254
 42
0.0
 10
4.7286377
 20
-6.4536858E-001
 70
0
  0
VERTEX
  8
254
 42
0.0
 10
5.4707031
 20
9.6696854E-002
 70
0
  0
SEQEND
  0
POLYLINE
  8
254
  6
CONTINUOUS
 62
6
 66
1
 40
1.0E-003
 41
1.0E-003
 70
0
  0
VERTEX
  8
254
 42
0.0
 10
1.6502228
 20
-4.0066376
 70
0
  0
VERTEX
  8
254
 42
0.0
 10
2.4631348
 20
-3.1937332
 70
0
  0
SEQEND
  0
POLYLINE
  8
254
  6
CONTINUOUS
 62
6
 66
1
 40
1.0E-003
 41
1.0E-003
 70
0
  0
VERTEX
  8
254
 42
0.0
 10
3.1836395
 20
-2.473217
 70
0
  0
VERTEX
  8
254
 42
0.0
 10
3.438324
 20
-2.2185249
 70
0
  0
SEQEND
  0
POLYLINE
  8
254
  6
CONTINUOUS
 62
6
 66
1
 40
1.0E-003
 41
1.0E-003
 70
0
  0
VERTEX
  8
254
 42
0.0
 10
3.8283234
 20
-1.8285255
 70
0
  0
VERTEX
  8
254
 42
0.0
 10
4.3386536
 20
-1.3181992
 70
0
  0
SEQEND
  0
POLYLINE
  8
254
  6
CONTINUOUS
 62
6
 66
1
 40
1.0E-003
 41
1.0E-003
 70
0
  0
VERTEX
  8
254
 42
0.0
 10
4.7286377
 20
-9.2821312E-001
 70
0
  0
VERTEX
  8
254
 42
0.0
 10
5.6378021
 20
-1.9039154E-002
 70
0
  0
SEQEND
  0
POLYLINE
  8
254
  6
CONTINUOUS
 62
6
 66
1
 40
1.0E-003
 41
1.0E-003
 70
0
  0
VERTEX
  8
254
 42
0.0
 10
1.7235565
 20
-4.2161503
 70
0
  0
VERTEX
  8
254
 42
0.0
 10
2.5403442
 20
-3.3993549
 70
0
  0
SEQEND
  0
POLYLINE
  8
254
  6
CONTINUOUS
 62
6
 66
1
 40
1.0E-003
 41
1.0E-003
 70
0
  0
VERTEX
  8
254
 42
0.0
 10
3.1836395
 20
-2.7560596
 70
0
  0
VERTEX
  8
254
 42
0.0
 10
3.7211761
 20
-2.2185249
 70
0
  0
SEQEND
  0
POLYLINE
  8
254
  6
CONTINUOUS
 62
6
 66
1
 40
1.0E-003
 41
1.0E-003
 70
0
  0
VERTEX
  8
254
 42
0.0
 10
4.1111755
 20
-1.8285255
 70
0
  0
VERTEX
  8
254
 42
0.0
 10
4.3386536
 20
-1.6010418
 70
0
  0
SEQEND
  0
POLYLINE
  8
254
  6
CONTINUOUS
 62
6
 66
1
 40
1.0E-003
 41
1.0E-003
 70
0
  0
VERTEX
  8
254
 42
0.0
 10
4.7286377
 20
-1.2110558
 70
0
  0
VERTEX
  8
254
 42
0.0
 10
5.7763824
 20
-1.633091E-001
 70
0
  0
SEQEND
  0
POLYLINE
  8
254
  6
CONTINUOUS
 62
6
 66
1
 40
1.0E-003
 41
1.0E-003
 70
0
  0
VERTEX
  8
254
 42
0.0
 10
1.9490204
 20
-4.2735233
 70
0
  0
VERTEX
  8
254
 42
0.0
 10
2.617569
 20
-3.6049767
 70
0
  0
SEQEND
  0
POLYLINE
  8
254
  6
CONTINUOUS
 62
6
 66
1
 40
1.0E-003
 41
1.0E-003
 70
0
  0
VERTEX
  8
254
 42
0.0
 10
3.1836395
 20
-3.0389042
 70
0
  0
VERTEX
  8
254
 42
0.0
 10
4.0040131
 20
-2.2185249
 70
0
  0
SEQEND
  0
POLYLINE
  8
254
  6
CONTINUOUS
 62
6
 66
1
 40
1.0E-003
 41
1.0E-003
 70
0
  0
VERTEX
  8
254
 42
0.0
 10
4.7286377
 20
-1.4938984
 70
0
  0
VERTEX
  8
254
 42
0.0
 10
5.885849
 20
-3.3667946E-001
 70
0
  0
SEQEND
  0
POLYLINE
  8
254
  6
CONTINUOUS
 62
6
 66
1
 40
1.0E-003
 41
1.0E-003
 70
0
  0
VERTEX
  8
254
 42
0.0
 10
2.2318726
 20
-4.2735233
 70
0
  0
VERTEX
  8
254
 42
0.0
 10
2.6947937
 20
-3.8106003
 70
0
  0
SEQEND
  0
POLYLINE
  8
254
  6
CONTINUOUS
 62
6
 66
1
 40
1.0E-003
 41
1.0E-003
 70
0
  0
VERTEX
  8
254
 42
0.0
 10
3.1836395
 20
-3.3217468
 70
0
  0
VERTEX
  8
254
 42
0.0
 10
4.2868652
 20
-2.2185249
 70
0
  0
SEQEND
  0
POLYLINE
  8
254
  6
CONTINUOUS
 62
6
 66
1
 40
1.0E-003
 41
1.0E-003
 70
0
  0
VERTEX
  8
254
 42
0.0
 10
4.7286377
 20
-1.7767429
 70
0
  0
VERTEX
  8
254
 42
0.0
 10
5.9616241
 20
-5.4375839E-001
 70
0
  0
SEQEND
  0
POLYLINE
  8
254
  6
CONTINUOUS
 62
6
 66
1
 40
1.0E-003
 41
1.0E-003
 70
0
  0
VERTEX
  8
254
 42
0.0
 10
6.693634
 20
1.8826294E-001
 70
0
  0
VERTEX
  8
254
 42
0.0
 10
6.731842
 20
2.2647285E-001
 70
0
  0
SEQEND
  0
POLYLINE
  8
254
  6
CONTINUOUS
 62
6
 66
1
 40
1.0E-003
 41
1.0E-003
 70
0
  0
VERTEX
  8
254
 42
0.0
 10
2.5147095
 20
-4.2735233
 70
0
  0
VERTEX
  8
254
 42
0.0
 10
2.7720032
 20
-4.016222
 70
0
  0
SEQEND
  0
POLYLINE
  8
254
  6
CONTINUOUS
 62
6
 66
1
 40
1.0E-003
 41
1.0E-003
 70
0
  0
VERTEX
  8
254
 42
0.0
 10
3.1836395
 20
-3.6045914
 70
0
  0
VERTEX
  8
254
 42
0.0
 10
4.3386536
 20
-2.4495716
 70
0
  0
SEQEND
  0
POLYLINE
  8
254
  6
CONTINUOUS
 62
6
 66
1
 40
1.0E-003
 41
1.0E-003
 70
0
  0
VERTEX
  8
254
 42
0.0
 10
4.9597015
 20
-1.8285255
 70
0
  0
VERTEX
  8
254
 42
0.0
 10
5.9921417
 20
-7.9607391E-001
 70
0
  0
SEQEND
  0
POLYLINE
  8
254
  6
CONTINUOUS
 62
6
 66
1
 40
1.0E-003
 41
1.0E-003
 70
0
  0
VERTEX
  8
254
 42
0.0
 10
6.693634
 20
-9.4581604E-002
 70
0
  0
VERTEX
  8
254
 42
0.0
 10
7.0146942
 20
2.2647285E-001
 70
0
  0
SEQEND
  0
POLYLINE
  8
254
  6
CONTINUOUS
 62
6
 66
1
 40
1.0E-003
 41
1.0E-003
 70
0
  0
VERTEX
  8
254
 42
0.0
 10
2.7975464
 20
-4.2735233
 70
0
  0
VERTEX
  8
254
 42
0.0
 10
2.8492279
 20
-4.2218456
 70
0
  0
SEQEND
  0
POLYLINE
  8
254
  6
CONTINUOUS
 62
6
 66
1
 40
1.0E-003
 41
1.0E-003
 70
0
  0
VERTEX
  8
254
 42
0.0
 10
3.1836395
 20
-3.887434
 70
0
  0
VERTEX
  8
254
 42
0.0
 10
4.3386536
 20
-2.7324142
 70
0
  0
SEQEND
  0
POLYLINE
  8
254
  6
CONTINUOUS
 62
6
 66
1
 40
1.0E-003
 41
1.0E-003
 70
0
  0
VERTEX
  8
254
 42
0.0
 10
4.7286377
 20
-2.3424282
 70
0
  0
VERTEX
  8
254
 42
0.0
 10
4.8525391
 20
-2.2185249
 70
0
  0
SEQEND
  0
POLYLINE
  8
254
  6
CONTINUOUS
 62
6
 66
1
 40
1.0E-003
 41
1.0E-003
 70
0
  0
VERTEX
  8
254
 42
0.0
 10
5.2425385
 20
-1.8285255
 70
0
  0
VERTEX
  8
254
 42
0.0
 10
5.9243927
 20
-1.1466713
 70
0
  0
SEQEND
  0
POLYLINE
  8
254
  6
CONTINUOUS
 62
6
 66
1
 40
1.0E-003
 41
1.0E-003
 70
0
  0
VERTEX
  8
254
 42
0.0
 10
6.693634
 20
-3.7742424E-001
 70
0
  0
VERTEX
  8
254
 42
0.0
 10
7.2975311
 20
2.2647285E-001
 70
0
  0
SEQEND
  0
POLYLINE
  8
254
  6
CONTINUOUS
 62
6
 66
1
 40
1.0E-003
 41
1.0E-003
 70
0
  0
VERTEX
  8
254
 42
0.0
 10
3.1836395
 20
-4.1702766
 70
0
  0
VERTEX
  8
254
 42
0.0
 10
4.3386536
 20
-3.0152588
 70
0
  0
SEQEND
  0
POLYLINE
  8
254
  6
CONTINUOUS
 62
6
 66
1
 40
1.0E-003
 41
1.0E-003
 70
0
  0
VERTEX
  8
254
 42
0.0
 10
4.7286377
 20
-2.6252728
 70
0
  0
VERTEX
  8
254
 42
0.0
 10
5.1353912
 20
-2.2185249
 70
0
  0
SEQEND
  0
POLYLINE
  8
254
  6
CONTINUOUS
 62
6
 66
1
 40
1.0E-003
 41
1.0E-003
 70
0
  0
VERTEX
  8
254
 42
0.0
 10
5.5253754
 20
-1.8285255
 70
0
  0
VERTEX
  8
254
 42
0.0
 10
5.618103
 20
-1.7358074
 70
0
  0
SEQEND
  0
POLYLINE
  8
254
  6
CONTINUOUS
 62
6
 66
1
 40
1.0E-003
 41
1.0E-003
 70
0
  0
VERTEX
  8
254
 42
0.0
 10
6.693634
 20
-6.6026688E-001
 70
0
  0
VERTEX
  8
254
 42
0.0
 10
7.580368
 20
2.2647285E-001
 70
0
  0
SEQEND
  0
POLYLINE
  8
254
  6
CONTINUOUS
 62
6
 66
1
 40
1.0E-003
 41
1.0E-003
 70
0
  0
VERTEX
  8
254
 42
0.0
 10
3.3632355
 20
-4.2735233
 70
0
  0
VERTEX
  8
254
 42
0.0
 10
4.3386536
 20
-3.2981014
 70
0
  0
SEQEND
  0
POLYLINE
  8
254
  6
CONTINUOUS
 62
6
 66
1
 40
1.0E-003
 41
1.0E-003
 70
0
  0
VERTEX
  8
254
 42
0.0
 10
4.7286377
 20
-2.9081154
 70
0
  0
VERTEX
  8
254
 42
0.0
 10
5.4182281
 20
-2.2185249
 70
0
  0
SEQEND
  0
POLYLINE
  8
254
  6
CONTINUOUS
 62
6
 66
1
 40
1.0E-003
 41
1.0E-003
 70
0
  0
VERTEX
  8
254
 42
0.0
 10
6.693634
 20
-9.4311142E-001
 70
0
  0
VERTEX
  8
254
 42
0.0
 10
7.8486481
 20
2.1190834E-001
 70
0
  0
SEQEND
  0
POLYLINE
  8
254
  6
CONTINUOUS
 62
6
 66
1
 40
1.0E-003
 41
1.0E-003
 70
0
  0
VERTEX
  8
254
 42
0.0
 10
3.6460724
 20
-4.2735233
 70
0
  0
VERTEX
  8
254
 42
0.0
 10
4.3386536
 20
-3.5809441
 70
0
  0
SEQEND
  0
POLYLINE
  8
254
  6
CONTINUOUS
 62
6
 66
1
 40
1.0E-003
 41
1.0E-003
 70
0
  0
VERTEX
  8
254
 42
0.0
 10
4.7286377
 20
-3.1909599
 70
0
  0
VERTEX
  8
254
 42
0.0
 10
5.7010651
 20
-2.2185249
 70
0
  0
SEQEND
  0
POLYLINE
  8
254
  6
CONTINUOUS
 62
6
 66
1
 40
1.0E-003
 41
1.0E-003
 70
0
  0
VERTEX
  8
254
 42
0.0
 10
6.693634
 20
-1.2259541
 70
0
  0
VERTEX
  8
254
 42
0.0
 10
7.8486481
 20
-7.0936203E-002
 70
0
  0
SEQEND
  0
POLYLINE
  8
254
  6
CONTINUOUS
 62
6
 66
1
 40
1.0E-003
 41
1.0E-003
 70
0
  0
VERTEX
  8
254
 42
0.0
 10
3.9289246
 20
-4.2735233
 70
0
  0
VERTEX
  8
254
 42
0.0
 10
4.3386536
 20
-3.8637886
 70
0
  0
SEQEND
  0
POLYLINE
  8
254
  6
CONTINUOUS
 62
6
 66
1
 40
1.0E-003
 41
1.0E-003
 70
0
  0
VERTEX
  8
254
 42
0.0
 10
4.7286377
 20
-3.4738026
 70
0
  0
VERTEX
  8
254
 42
0.0
 10
5.9839172
 20
-2.2185249
 70
0
  0
SEQEND
  0
POLYLINE
  8
254
  6
CONTINUOUS
 62
6
 66
1
 40
1.0E-003
 41
1.0E-003
 70
0
  0
VERTEX
  8
254
 42
0.0
 10
6.693634
 20
-1.5087986
 70
0
  0
VERTEX
  8
254
 42
0.0
 10
7.8486481
 20
-3.5377884E-001
 70
0
  0
SEQEND
  0
POLYLINE
  8
254
  6
CONTINUOUS
 62
6
 66
1
 40
1.0E-003
 41
1.0E-003
 70
0
  0
VERTEX
  8
254
 42
0.0
 10
8.2386322
 20
3.6207199E-002
 70
0
  0
VERTEX
  8
254
 42
0.0
 10
8.428894
 20
2.2647285E-001
 70
0
  0
SEQEND
  0
POLYLINE
  8
254
  6
CONTINUOUS
 62
6
 66
1
 40
1.0E-003
 41
1.0E-003
 70
0
  0
VERTEX
  8
254
 42
0.0
 10
4.2117615
 20
-4.2735233
 70
0
  0
VERTEX
  8
254
 42
0.0
 10
4.3386536
 20
-4.1466312
 70
0
  0
SEQEND
  0
POLYLINE
  8
254
  6
CONTINUOUS
 62
6
 66
1
 40
1.0E-003
 41
1.0E-003
 70
0
  0
VERTEX
  8
254
 42
0.0
 10
4.7286377
 20
-3.7566452
 70
0
  0
VERTEX
  8
254
 42
0.0
 10
6.181076
 20
-2.3042011
 70
0
  0
SEQEND
  0
POLYLINE
  8
254
  6
CONTINUOUS
 62
6
 66
1
 40
1.0E-003
 41
1.0E-003
 70
0
  0
VERTEX
  8
254
 42
0.0
 10
6.693634
 20
-1.7916412
 70
0
  0
VERTEX
  8
254
 42
0.0
 10
7.8486481
 20
-6.3662148E-001
 70
0
  0
SEQEND
  0
POLYLINE
  8
254
  6
CONTINUOUS
 62
6
 66
1
 40
1.0E-003
 41
1.0E-003
 70
0
  0
VERTEX
  8
254
 42
0.0
 10
8.2386322
 20
-2.4663544E-001
 70
0
  0
VERTEX
  8
254
 42
0.0
 10
8.6889954
 20
2.0372772E-001
 70
0
  0
SEQEND
  0
POLYLINE
  8
254
  6
CONTINUOUS
 62
6
 66
1
 40
1.0E-003
 41
1.0E-003
 70
0
  0
VERTEX
  8
254
 42
0.0
 10
4.7286377
 20
-4.0394897
 70
0
  0
VERTEX
  8
254
 42
0.0
 10
6.2656097
 20
-2.5025082
 70
0
  0
SEQEND
  0
POLYLINE
  8
254
  6
CONTINUOUS
 62
6
 66
1
 40
1.0E-003
 41
1.0E-003
 70
0
  0
VERTEX
  8
254
 42
0.0
 10
6.9395905
 20
-1.8285255
 70
0
  0
VERTEX
  8
254
 42
0.0
 10
7.8486481
 20
-9.1946602E-001
 70
0
  0
SEQEND
  0
POLYLINE
  8
254
  6
CONTINUOUS
 62
6
 66
1
 40
1.0E-003
 41
1.0E-003
 70
0
  0
VERTEX
  8
254
 42
0.0
 10
8.2386322
 20
-5.2947998E-001
 70
0
  0
VERTEX
  8
254
 42
0.0
 10
8.9050598
 20
1.3694763E-001
 70
0
  0
SEQEND
  0
POLYLINE
  8
254
  6
CONTINUOUS
 62
6
 66
1
 40
1.0E-003
 41
1.0E-003
 70
0
  0
VERTEX
  8
254
 42
0.0
 10
4.7774506
 20
-4.2735233
 70
0
  0
VERTEX
  8
254
 42
0.0
 10
6.3190155
 20
-2.7319412
 70
0
  0
SEQEND
  0
POLYLINE
  8
254
  6
CONTINUOUS
 62
6
 66
1
 40
1.0E-003
 41
1.0E-003
 70
0
  0
VERTEX
  8
254
 42
0.0
 10
6.693634
 20
-2.3573284
 70
0
  0
VERTEX
  8
254
 42
0.0
 10
6.8324432
 20
-2.2185249
 70
0
  0
SEQEND
  0
POLYLINE
  8
254
  6
CONTINUOUS
 62
6
 66
1
 40
1.0E-003
 41
1.0E-003
 70
0
  0
VERTEX
  8
254
 42
0.0
 10
7.2224274
 20
-1.8285255
 70
0
  0
VERTEX
  8
254
 42
0.0
 10
7.8486481
 20
-1.2023087
 70
0
  0
SEQEND
  0
POLYLINE
  8
254
  6
CONTINUOUS
 62
6
 66
1
 40
1.0E-003
 41
1.0E-003
 70
0
  0
VERTEX
  8
254
 42
0.0
 10
8.2386322
 20
-8.1232262E-001
 70
0
  0
VERTEX
  8
254
 42
0.0
 10
9.0850067
 20
3.4049988E-002
 70
0
  0
SEQEND
  0
POLYLINE
  8
254
  6
CONTINUOUS
 62
6
 66
1
 40
1.0E-003
 41
1.0E-003
 70
0
  0
VERTEX
  8
254
 42
0.0
 10
5.0675201
 20
-4.2662849
 70
0
  0
VERTEX
  8
254
 42
0.0
 10
6.3274994
 20
-3.0063057
 70
0
  0
SEQEND
  0
POLYLINE
  8
254
  6
CONTINUOUS
 62
6
 66
1
 40
1.0E-003
 41
1.0E-003
 70
0
  0
VERTEX
  8
254
 42
0.0
 10
6.693634
 20
-2.6401711
 70
0
  0
VERTEX
  8
254
 42
0.0
 10
7.1152802
 20
-2.2185249
 70
0
  0
SEQEND
  0
POLYLINE
  8
254
  6
CONTINUOUS
 62
6
 66
1
 40
1.0E-003
 41
1.0E-003
 70
0
  0
VERTEX
  8
254
 42
0.0
 10
7.5052795
 20
-1.8285255
 70
0
  0
VERTEX
  8
254
 42
0.0
 10
7.8486481
 20
-1.4851513
 70
0
  0
SEQEND
  0
POLYLINE
  8
254
  6
CONTINUOUS
 62
6
 66
1
 40
1.0E-003
 41
1.0E-003
 70
0
  0
VERTEX
  8
254
 42
0.0
 10
8.2386322
 20
-1.0951672
 70
0
  0
VERTEX
  8
254
 42
0.0
 10
9.2350922
 20
-9.869957E-002
 70
0
  0
SEQEND
  0
POLYLINE
  8
254
  6
CONTINUOUS
 62
6
 66
1
 40
1.0E-003
 41
1.0E-003
 70
0
  0
VERTEX
  8
254
 42
0.0
 10
5.416275
 20
-4.2003727
 70
0
  0
VERTEX
  8
254
 42
0.0
 10
6.2580872
 20
-3.3585587
 70
0
  0
SEQEND
  0
POLYLINE
  8
254
  6
CONTINUOUS
 62
6
 66
1
 40
1.0E-003
 41
1.0E-003
 70
0
  0
VERTEX
  8
254
 42
0.0
 10
6.693634
 20
-2.9230137
 70
0
  0
VERTEX
  8
254
 42
0.0
 10
7.3981171
 20
-2.2185249
 70
0
  0
SEQEND
  0
POLYLINE
  8
254
  6
CONTINUOUS
 62
6
 66
1
 40
1.0E-003
 41
1.0E-003
 70
0
  0
VERTEX
  8
254
 42
0.0
 10
7.7881165
 20
-1.8285255
 70
0
  0
VERTEX
  8
254
 42
0.0
 10
7.8486481
 20
-1.7679958
 70
0
  0
SEQEND
  0
POLYLINE
  8
254
  6
CONTINUOUS
 62
6
 66
1
 40
1.0E-003
 41
1.0E-003
 70
0
  0
VERTEX
  8
254
 42
0.0
 10
8.2386322
 20
-1.3780098
 70
0
  0
VERTEX
  8
254
 42
0.0
 10
9.3569641
 20
-2.5967217E-001
 70
0
  0
SEQEND
  0
POLYLINE
  8
254
  6
CONTINUOUS
 62
6
 66
1
 40
1.0E-003
 41
1.0E-003
 70
0
  0
VERTEX
  8
254
 42
0.0
 10
6.693634
 20
-3.2058582
 70
0
  0
VERTEX
  8
254
 42
0.0
 10
7.6809692
 20
-2.2185249
 70
0
  0
SEQEND
  0
POLYLINE
  8
254
  6
CONTINUOUS
 62
6
 66
1
 40
1.0E-003
 41
1.0E-003
 70
0
  0
VERTEX
  8
254
 42
0.0
 10
8.2386322
 20
-1.6608524
 70
0
  0
VERTEX
  8
254
 42
0.0
 10
9.4486694
 20
-4.5081711E-001
 70
0
  0
SEQEND
  0
POLYLINE
  8
254
  6
CONTINUOUS
 62
6
 66
1
 40
1.0E-003
 41
1.0E-003
 70
0
  0
VERTEX
  8
254
 42
0.0
 10
6.693634
 20
-3.4887009
 70
0
  0
VERTEX
  8
254
 42
0.0
 10
7.8486481
 20
-2.3336811
 70
0
  0
SEQEND
  0
POLYLINE
  8
254
  6
CONTINUOUS
 62
6
 66
1
 40
1.0E-003
 41
1.0E-003
 70
0
  0
VERTEX
  8
254
 42
0.0
 10
8.3538055
 20
-1.8285255
 70
0
  0
VERTEX
  8
254
 42
0.0
 10
9.4981384
 20
-6.8418121E-001
 70
0
  0
SEQEND
  0
POLYLINE
  8
254
  6
CONTINUOUS
 62
6
 66
1
 40
1.0E-003
 41
1.0E-003
 70
0
  0
VERTEX
  8
254
 42
0.0
 10
6.693634
 20
-3.7715435
 70
0
  0
VERTEX
  8
254
 42
0.0
 10
7.8486481
 20
-2.6165256
 70
0
  0
SEQEND
  0
POLYLINE
  8
254
  6
CONTINUOUS
 62
6
 66
1
 40
1.0E-003
 41
1.0E-003
 70
0
  0
VERTEX
  8
254
 42
0.0
 10
8.2386322
 20
-2.2265396
 70
0
  0
VERTEX
  8
254
 42
0.0
 10
8.2466431
 20
-2.2185249
 70
0
  0
SEQEND
  0
POLYLINE
  8
254
  6
CONTINUOUS
 62
6
 66
1
 40
1.0E-003
 41
1.0E-003
 70
0
  0
VERTEX
  8
254
 42
0.0
 10
8.6366425
 20
-1.8285255
 70
0
  0
VERTEX
  8
254
 42
0.0
 10
9.4822998
 20
-9.8287392E-001
 70
0
  0
SEQEND
  0
POLYLINE
  8
254
  6
CONTINUOUS
 62
6
 66
1
 40
1.0E-003
 41
1.0E-003
 70
0
  0
VERTEX
  8
254
 42
0.0
 10
6.693634
 20
-4.054388
 70
0
  0
VERTEX
  8
254
 42
0.0
 10
7.8486481
 20
-2.8993683
 70
0
  0
SEQEND
  0
POLYLINE
  8
254
  6
CONTINUOUS
 62
6
 66
1
 40
1.0E-003
 41
1.0E-003
 70
0
  0
VERTEX
  8
254
 42
0.0
 10
8.2386322
 20
-2.5093822
 70
0
  0
VERTEX
  8
254
 42
0.0
 10
8.5294952
 20
-2.2185249
 70
0
  0
SEQEND
  0
POLYLINE
  8
254
  6
CONTINUOUS
 62
6
 66
1
 40
1.0E-003
 41
1.0E-003
 70
0
  0
VERTEX
  8
254
 42
0.0
 10
8.9194946
 20
-1.8285255
 70
0
  0
VERTEX
  8
254
 42
0.0
 10
9.0524445
 20
-1.6955605
 70
0
  0
SEQEND
  0
POLYLINE
  8
254
  6
CONTINUOUS
 62
6
 66
1
 40
1.0E-003
 41
1.0E-003
 70
0
  0
VERTEX
  8
254
 42
0.0
 10
6.7573395
 20
-4.2735233
 70
0
  0
VERTEX
  8
254
 42
0.0
 10
7.8486481
 20
-3.1822128
 70
0
  0
SEQEND
  0
POLYLINE
  8
254
  6
CONTINUOUS
 62
6
 66
1
 40
1.0E-003
 41
1.0E-003
 70
0
  0
VERTEX
  8
254
 42
0.0
 10
8.2386322
 20
-2.7922268
 70
0
  0
VERTEX
  8
254
 42
0.0
 10
8.8123322
 20
-2.2185249
 70
0
  0
SEQEND
  0
POLYLINE
  8
254
  6
CONTINUOUS
 62
6
 66
1
 40
1.0E-003
 41
1.0E-003
 70
0
  0
VERTEX
  8
254
 42
0.0
 10
9.2023315
 20
-1.8285255
 70
0
  0
VERTEX
  8
254
 42
0.0
 10
9.2325897
 20
-1.7982578
 70
0
  0
SEQEND
  0
POLYLINE
  8
254
  6
CONTINUOUS
 62
6
 66
1
 40
1.0E-003
 41
1.0E-003
 70
0
  0
VERTEX
  8
254
 42
0.0
 10
7.0401917
 20
-4.2735233
 70
0
  0
VERTEX
  8
254
 42
0.0
 10
7.8486481
 20
-3.4650555
 70
0
  0
SEQEND
  0
POLYLINE
  8
254
  6
CONTINUOUS
 62
6
 66
1
 40
1.0E-003
 41
1.0E-003
 70
0
  0
VERTEX
  8
254
 42
0.0
 10
8.2386322
 20
-3.0750694
 70
0
  0
VERTEX
  8
254
 42
0.0
 10
9.0951691
 20
-2.2185249
 70
0
  0
SEQEND
  0
POLYLINE
  8
254
  6
CONTINUOUS
 62
6
 66
1
 40
1.0E-003
 41
1.0E-003
 70
0
  0
VERTEX
  8
254
 42
0.0
 10
7.3230286
 20
-4.2735233
 70
0
  0
VERTEX
  8
254
 42
0.0
 10
7.8486481
 20
-3.7478981
 70
0
  0
SEQEND
  0
POLYLINE
  8
254
  6
CONTINUOUS
 62
6
 66
1
 40
1.0E-003
 41
1.0E-003
 70
0
  0
VERTEX
  8
254
 42
0.0
 10
8.2386322
 20
-3.3579121
 70
0
  0
VERTEX
  8
254
 42
0.0
 10
9.3780212
 20
-2.2185249
 70
0
  0
SEQEND
  0
POLYLINE
  8
254
  6
CONTINUOUS
 62
6
 66
1
 40
1.0E-003
 41
1.0E-003
 70
0
  0
VERTEX
  8
254
 42
0.0
 10
7.6058655
 20
-4.2735233
 70
0
  0
VERTEX
  8
254
 42
0.0
 10
7.8486481
 20
-4.0307426
 70
0
  0
SEQEND
  0
POLYLINE
  8
254
  6
CONTINUOUS
 62
6
 66
1
 40
1.0E-003
 41
1.0E-003
 70
0
  0
VERTEX
  8
254
 42
0.0
 10
8.2386322
 20
-3.6407566
 70
0
  0
VERTEX
  8
254
 42
0.0
 10
9.6507568
 20
-2.228632
 70
0
  0
SEQEND
  0
POLYLINE
  8
254
  6
CONTINUOUS
 62
6
 66
1
 40
1.0E-003
 41
1.0E-003
 70
0
  0
VERTEX
  8
254
 42
0.0
 10
8.2386322
 20
-3.9235992
 70
0
  0
VERTEX
  8
254
 42
0.0
 10
9.7415924
 20
-2.4206371
 70
0
  0
SEQEND
  0
POLYLINE
  8
254
  6
CONTINUOUS
 62
6
 66
1
 40
1.0E-003
 41
1.0E-003
 70
0
  0
VERTEX
  8
254
 42
0.0
 10
8.2386322
 20
-4.2064419
 70
0
  0
VERTEX
  8
254
 42
0.0
 10
9.8081055
 20
-2.6369629
 70
0
  0
SEQEND
  0
POLYLINE
  8
254
  6
CONTINUOUS
 62
6
 66
1
 40
1.0E-003
 41
1.0E-003
 70
0
  0
VERTEX
  8
254
 42
0.0
 10
8.4543915
 20
-4.2735233
 70
0
  0
VERTEX
  8
254
 42
0.0
 10
9.8392181
 20
-2.8886967
 70
0
  0
SEQEND
  0
POLYLINE
  8
254
  6
CONTINUOUS
 62
6
 66
1
 40
1.0E-003
 41
1.0E-003
 70
0
  0
VERTEX
  8
254
 42
0.0
 10
8.7687836
 20
-4.2419796
 70
0
  0
VERTEX
  8
254
 42
0.0
 10
9.8147125
 20
-3.196043
 70
0
  0
SEQEND
  0
POLYLINE
  8
254
  6
CONTINUOUS
 62
6
 66
1
 40
1.0E-003
 41
1.0E-003
 70
0
  0
VERTEX
  8
254
 42
0.0
 10
9.275238
 20
-4.0183601
 70
0
  0
VERTEX
  8
254
 42
0.0
 10
9.5876312
 20
-3.7059689
 70
0
  0
SEQEND
  0
ENDBLK
  0
BLOCK
  2
RAHMENA4
 10
0.0
 20
0.0
 70
0
  0
POLYLINE
  8
1
  6
CONTINUOUS
 62
6
 66
1
 40
7.0E-001
 41
7.0E-001
 70
0
  0
VERTEX
  8
1
 42
0.0
 10
1.9000008E+001
 20
2.9150003E+002
 70
0
  0
VERTEX
  8
1
 42
0.0
 10
1.9000008E+001
 20
5.5
 70
0
  0
SEQEND
  0
POLYLINE
  8
1
  6
CONTINUOUS
 62
6
 66
1
 40
7.0E-001
 41
7.0E-001
 70
0
  0
VERTEX
  8
1
 42
0.0
 10
2.05E+002
 20
5.5
 70
0
  0
VERTEX
  8
1
 42
0.0
 10
1.9000008E+001
 20
5.5
 70
0
  0
SEQEND
  0
POLYLINE
  8
1
  6
CONTINUOUS
 62
6
 66
1
 40
7.0E-001
 41
7.0E-001
 70
0
  0
VERTEX
  8
1
 42
0.0
 10
5.0
 20
5.5
 70
0
  0
VERTEX
  8
1
 42
0.0
 10
5.0
 20
1.045E+002
 70
0
  0
SEQEND
  0
POLYLINE
  8
1
  6
CONTINUOUS
 62
6
 66
1
 40
7.0E-001
 41
7.0E-001
 70
0
  0
VERTEX
  8
1
 42
0.0
 10
5.0
 20
1.045E+002
 70
0
  0
VERTEX
  8
1
 42
0.0
 10
1.9000008E+001
 20
1.045E+002
 70
0
  0
SEQEND
  0
POLYLINE
  8
1
  6
CONTINUOUS
 62
6
 66
1
 40
1.0E-003
 41
1.0E-003
 70
0
  0
VERTEX
  8
1
 42
0.0
 10
1.9000008E+001
 20
1.335E+002
 70
0
  0
VERTEX
  8
1
 42
0.0
 10
1.4500008E+001
 20
1.335E+002
 70
0
  0
SEQEND
  0
POLYLINE
  8
1
  6
CONTINUOUS
 62
6
 66
1
 40
1.0E-003
 41
1.0E-003
 70
0
  0
VERTEX
  8
1
 42
0.0
 10
1.9000008E+001
 20
1.435E+002
 70
0
  0
VERTEX
  8
1
 42
0.0
 10
1.4500008E+001
 20
1.435E+002
 70
0
  0
SEQEND
  0
POLYLINE
  8
1
  6
CONTINUOUS
 62
6
 66
1
 40
1.0E-003
 41
1.0E-003
 70
0
  0
VERTEX
  8
1
 42
0.0
 10
1.9000008E+001
 20
1.5350002E+002
 70
0
  0
VERTEX
  8
1
 42
0.0
 10
1.4500008E+001
 20
1.5350002E+002
 70
0
  0
SEQEND
  0
POLYLINE
  8
1
  6
CONTINUOUS
 62
6
 66
1
 40
1.0E-003
 41
1.0E-003
 70
0
  0
VERTEX
  8
1
 42
0.0
 10
1.9000008E+001
 20
1.6350002E+002
 70
0
  0
VERTEX
  8
1
 42
0.0
 10
1.4500008E+001
 20
1.6350002E+002
 70
0
  0
SEQEND
  0
POLYLINE
  8
1
  6
CONTINUOUS
 62
6
 66
1
 40
1.0E-003
 41
1.0E-003
 70
0
  0
VERTEX
  8
1
 42
0.0
 10
1.9000008E+001
 20
1.7350002E+002
 70
0
  0
VERTEX
  8
1
 42
0.0
 10
1.4500008E+001
 20
1.7350002E+002
 70
0
  0
SEQEND
  0
POLYLINE
  8
1
  6
CONTINUOUS
 62
6
 66
1
 40
1.0E-003
 41
1.0E-003
 70
0
  0
VERTEX
  8
1
 42
0.0
 10
1.9000008E+001
 20
1.285E+002
 70
0
  0
VERTEX
  8
1
 42
0.0
 10
1.7000008E+001
 20
1.285E+002
 70
0
  0
SEQEND
  0
POLYLINE
  8
1
  6
CONTINUOUS
 62
6
 66
1
 40
1.0E-003
 41
1.0E-003
 70
0
  0
VERTEX
  8
1
 42
0.0
 10
1.9000008E+001
 20
1.385E+002
 70
0
  0
VERTEX
  8
1
 42
0.0
 10
1.7000008E+001
 20
1.385E+002
 70
0
  0
SEQEND
  0
POLYLINE
  8
1
  6
CONTINUOUS
 62
6
 66
1
 40
1.0E-003
 41
1.0E-003
 70
0
  0
VERTEX
  8
1
 42
0.0
 10
1.9000008E+001
 20
1.4850002E+002
 70
0
  0
VERTEX
  8
1
 42
0.0
 10
1.2345772E+001
 20
1.4850002E+002
 70
0
  0
SEQEND
  0
POLYLINE
  8
1
  6
CONTINUOUS
 62
6
 66
1
 40
1.0E-003
 41
1.0E-003
 70
0
  0
VERTEX
  8
1
 42
0.0
 10
1.9000008E+001
 20
1.5850002E+002
 70
0
  0
VERTEX
  8
1
 42
0.0
 10
1.7000008E+001
 20
1.5850002E+002
 70
0
  0
SEQEND
  0
POLYLINE
  8
1
  6
CONTINUOUS
 62
6
 66
1
 40
1.0E-003
 41
1.0E-003
 70
0
  0
VERTEX
  8
1
 42
0.0
 10
1.9000008E+001
 20
1.6850002E+002
 70
0
  0
VERTEX
  8
1
 42
0.0
 10
1.7000008E+001
 20
1.6850002E+002
 70
0
  0
SEQEND
  0
POLYLINE
  8
1
  6
CONTINUOUS
 62
6
 66
1
 40
1.0E-003
 41
1.0E-003
 70
0
  0
VERTEX
  8
1
 42
0.0
 10
1.7568611E+001
 20
1.235E+002
 70
0
  0
VERTEX
  8
1
 42
0.0
 10
1.9000008E+001
 20
1.235E+002
 70
0
  0
SEQEND
  0
POLYLINE
  8
1
  6
CONTINUOUS
 62
6
 66
1
 40
1.0E-003
 41
1.0E-003
 70
0
  0
VERTEX
  8
1
 42
0.0
 10
1.9000008E+001
 20
1.235E+002
 70
0
  0
VERTEX
  8
1
 42
0.0
 10
1.5000008E+001
 20
1.235E+002
 70
0
  0
SEQEND
  0
POLYLINE
  8
1
  6
CONTINUOUS
 62
6
 66
1
 40
1.0E-003
 41
1.0E-003
 70
0
  0
VERTEX
  8
1
 42
0.0
 10
1.9000008E+001
 20
1.235E+002
 70
0
  0
VERTEX
  8
1
 42
0.0
 10
1.4500008E+001
 20
1.235E+002
 70
0
  0
SEQEND
  0
POLYLINE
  8
1
  6
CONTINUOUS
 62
3
 66
1
 40
1.0E-003
 41
1.0E-003
 70
0
  0
VERTEX
  8
1
 42
0.0
 10
1.6487923E+001
 20
2.0867195E+002
 70
0
  0
VERTEX
  8
1
 42
0.0
 10
1.3487923E+001
 20
2.0867195E+002
 70
0
  0
SEQEND
  0
POLYLINE
  8
1
  6
CONTINUOUS
 62
3
 66
1
 40
1.0E-003
 41
1.0E-003
 70
0
  0
VERTEX
  8
1
 42
0.0
 10
1.3487923E+001
 20
2.2806367E+002
 70
0
  0
VERTEX
  8
1
 42
0.0
 10
1.6487923E+001
 20
2.2806367E+002
 70
0
  0
SEQEND
  0
POLYLINE
  8
1
  6
CONTINUOUS
 62
3
 66
1
 40
1.0E-003
 41
1.0E-003
 70
0
  0
VERTEX
  8
1
 42
0.0
 10
1.3487923E+001
 20
2.3106367E+002
 70
0
  0
VERTEX
  8
1
 42
0.0
 10
1.6487923E+001
 20
2.3106367E+002
 70
0
  0
SEQEND
  0
POLYLINE
  8
1
  6
CONTINUOUS
 62
3
 66
1
 40
1.0E-003
 41
1.0E-003
 70
0
  0
VERTEX
  8
1
 42
0.0
 10
1.6487923E+001
 20
2.1167192E+002
 70
0
  0
VERTEX
  8
1
 42
0.0
 10
1.3487923E+001
 20
2.1167192E+002
 70
0
  0
SEQEND
  0
POLYLINE
  8
1
  6
CONTINUOUS
 62
3
 66
1
 40
1.0E-003
 41
1.0E-003
 70
0
  0
VERTEX
  8
1
 42
0.0
 10
1.3487923E+001
 20
2.2806367E+002
 70
0
  0
VERTEX
  8
1
 42
0.0
 10
1.3487923E+001
 20
2.3106367E+002
 70
0
  0
SEQEND
  0
POLYLINE
  8
1
  6
CONTINUOUS
 62
3
 66
1
 40
1.0E-003
 41
1.0E-003
 70
0
  0
VERTEX
  8
1
 42
0.0
 10
1.3487923E+001
 20
2.0867195E+002
 70
0
  0
VERTEX
  8
1
 42
0.0
 10
1.3487923E+001
 20
2.1167192E+002
 70
0
  0
SEQEND
  0
POLYLINE
  8
1
  6
CONTINUOUS
 62
3
 66
1
 40
1.0E-003
 41
1.0E-003
 70
0
  0
VERTEX
  8
1
 42
0.0
 10
1.6487923E+001
 20
2.2806367E+002
 70
0
  0
VERTEX
  8
1
 42
0.0
 10
1.6487923E+001
 20
2.3106367E+002
 70
0
  0
SEQEND
  0
POLYLINE
  8
1
  6
CONTINUOUS
 62
4
 66
1
 40
1.0E-003
 41
1.0E-003
 70
0
  0
VERTEX
  8
1
 42
0.0
 10
2.1E+002
 20
0.0
 70
0
  0
VERTEX
  8
1
 42
0.0
 10
2.1E+002
 20
2.9700003E+002
 70
0
  0
SEQEND
  0
POLYLINE
  8
1
  6
CONTINUOUS
 62
6
 66
1
 40
7.0E-001
 41
7.0E-001
 70
0
  0
VERTEX
  8
1
 42
0.0
 10
2.05E+002
 20
2.9150003E+002
 70
0
  0
VERTEX
  8
1
 42
0.0
 10
2.05E+002
 20
5.5
 70
0
  0
SEQEND
  0
POLYLINE
  8
1
  6
CONTINUOUS
 62
6
 66
1
 40
7.0E-001
 41
7.0E-001
 70
0
  0
VERTEX
  8
1
 42
0.0
 10
1.9000008E+001
 20
2.9150003E+002
 70
0
  0
VERTEX
  8
1
 42
0.0
 10
2.05E+002
 20
2.9150003E+002
 70
0
  0
SEQEND
  0
LINE
  8
1
  6
CONTINUOUS
 62
6
 10
3.0000008E+001
 20
2.6550003E+002
 11
2.05E+002
 21
2.6550003E+002
  0
POLYLINE
  8
1
  6
CONTINUOUS
 62
6
 66
1
 40
7.0E-001
 41
7.0E-001
 70
0
  0
VERTEX
  8
1
 42
0.0
 10
2.05E+002
 20
2.7800003E+002
 70
0
  0
VERTEX
  8
1
 42
0.0
 10
3.0000008E+001
 20
2.7800003E+002
 70
0
  0
SEQEND
  0
POLYLINE
  8
1
  6
CONTINUOUS
 62
6
 66
1
 40
7.0E-001
 41
7.0E-001
 70
0
  0
VERTEX
  8
1
 42
0.0
 10
3.0000008E+001
 20
2.9150003E+002
 70
0
  0
VERTEX
  8
1
 42
0.0
 10
3.0000008E+001
 20
2.6550003E+002
 70
0
  0
SEQEND
  0
POLYLINE
  8
1
  6
CONTINUOUS
 62
6
 66
1
 40
5.0E-001
 41
5.0E-001
 70
0
  0
VERTEX
  8
1
 42
0.0
 10
3.7000008E+001
 20
2.9150003E+002
 70
0
  0
VERTEX
  8
1
 42
0.0
 10
3.7000008E+001
 20
2.6550003E+002
 70
0
  0
SEQEND
  0
LINE
  8
1
  6
CONTINUOUS
 62
6
 10
4.2000008E+001
 20
2.9150003E+002
 11
4.2000008E+001
 21
2.6550003E+002
  0
POLYLINE
  8
1
  6
CONTINUOUS
 62
6
 66
1
 40
7.0E-001
 41
7.0E-001
 70
0
  0
VERTEX
  8
1
 42
0.0
 10
5.4000008E+001
 20
2.9150003E+002
 70
0
  0
VERTEX
  8
1
 42
0.0
 10
5.4000008E+001
 20
2.6550003E+002
 70
0
  0
SEQEND
  0
POLYLINE
  8
1
  6
CONTINUOUS
 62
6
 66
1
 40
5.0E-001
 41
5.0E-001
 70
0
  0
VERTEX
  8
1
 42
0.0
 10
1.2000001E+002
 20
2.9150003E+002
 70
0
  0
VERTEX
  8
1
 42
0.0
 10
1.2000001E+002
 20
2.6550003E+002
 70
0
  0
SEQEND
  0
POLYLINE
  8
1
  6
CONTINUOUS
 62
6
 66
1
 40
5.0E-001
 41
5.0E-001
 70
0
  0
VERTEX
  8
1
 42
0.0
 10
1.61E+002
 20
2.9150003E+002
 70
0
  0
VERTEX
  8
1
 42
0.0
 10
1.61E+002
 20
2.6550003E+002
 70
0
  0
SEQEND
  0
POLYLINE
  8
1
  6
CONTINUOUS
 62
6
 66
1
 40
5.0E-001
 41
5.0E-001
 70
0
  0
VERTEX
  8
1
 42
0.0
 10
1.66E+002
 20
2.9150003E+002
 70
0
  0
VERTEX
  8
1
 42
0.0
 10
1.66E+002
 20
2.6550003E+002
 70
0
  0
SEQEND
  0
POLYLINE
  8
1
  6
CONTINUOUS
 62
6
 66
1
 40
5.0E-001
 41
5.0E-001
 70
0
  0
VERTEX
  8
1
 42
0.0
 10
1.76E+002
 20
2.9150003E+002
 70
0
  0
VERTEX
  8
1
 42
0.0
 10
1.76E+002
 20
2.6550003E+002
 70
0
  0
SEQEND
  0
POLYLINE
  8
1
  6
CONTINUOUS
 62
6
 66
1
 40
5.0E-001
 41
5.0E-001
 70
0
  0
VERTEX
  8
1
 42
0.0
 10
1.92E+002
 20
2.9150003E+002
 70
0
  0
VERTEX
  8
1
 42
0.0
 10
1.92E+002
 20
2.6550003E+002
 70
0
  0
SEQEND
  0
LINE
  8
1
  6
CONTINUOUS
 62
6
 10
3.0000008E+001
 20
2.7175003E+002
 11
2.05E+002
 21
2.7175003E+002
  0
POLYLINE
  8
1
  6
CONTINUOUS
 62
6
 66
1
 40
5.0E-001
 41
5.0E-001
 70
0
  0
VERTEX
  8
1
 42
0.0
 10
1.66E+002
 20
2.8475003E+002
 70
0
  0
VERTEX
  8
1
 42
0.0
 10
1.92E+002
 20
2.8475003E+002
 70
0
  0
SEQEND
  0
POLYLINE
  8
1
  6
CONTINUOUS
 62
4
 66
1
 40
1.0E-003
 41
1.0E-003
 70
0
  0
VERTEX
  8
1
 42
0.0
 10
0.0
 20
2.9700003E+002
 70
0
  0
VERTEX
  8
1
 42
0.0
 10
2.1E+002
 20
2.9700003E+002
 70
0
  0
SEQEND
  0
POLYLINE
  8
1
  6
CONTINUOUS
 62
6
 66
1
 40
1.0E-003
 41
1.0E-003
 70
0
  0
VERTEX
  8
1
 42
0.0
 10
2.05E+002
 20
2.5925003E+002
 70
0
  0
VERTEX
  8
1
 42
0.0
 10
2.0E+002
 20
2.5925003E+002
 70
0
  0
SEQEND
  0
POLYLINE
  8
1
  6
CONTINUOUS
 62
6
 66
1
 40
1.0E-003
 41
1.0E-003
 70
0
  0
VERTEX
  8
1
 42
0.0
 10
2.05E+002
 20
2.53E+002
 70
0
  0
VERTEX
  8
1
 42
0.0
 10
2.0E+002
 20
2.53E+002
 70
0
  0
SEQEND
  0
POLYLINE
  8
1
  6
CONTINUOUS
 62
6
 66
1
 40
1.0E-003
 41
1.0E-003
 70
0
  0
VERTEX
  8
1
 42
0.0
 10
2.05E+002
 20
2.4674998E+002
 70
0
  0
VERTEX
  8
1
 42
0.0
 10
2.0E+002
 20
2.4674998E+002
 70
0
  0
SEQEND
  0
POLYLINE
  8
1
  6
CONTINUOUS
 62
6
 66
1
 40
1.0E-003
 41
1.0E-003
 70
0
  0
VERTEX
  8
1
 42
0.0
 10
2.05E+002
 20
2.4049998E+002
 70
0
  0
VERTEX
  8
1
 42
0.0
 10
2.0E+002
 20
2.4049998E+002
 70
0
  0
SEQEND
  0
POLYLINE
  8
1
  6
CONTINUOUS
 62
6
 66
1
 40
1.0E-003
 41
1.0E-003
 70
0
  0
VERTEX
  8
1
 42
0.0
 10
2.05E+002
 20
2.3424998E+002
 70
0
  0
VERTEX
  8
1
 42
0.0
 10
2.0E+002
 20
2.3424998E+002
 70
0
  0
SEQEND
  0
POLYLINE
  8
1
  6
CONTINUOUS
 62
6
 66
1
 40
1.0E-003
 41
1.0E-003
 70
0
  0
VERTEX
  8
1
 42
0.0
 10
2.05E+002
 20
2.2800002E+002
 70
0
  0
VERTEX
  8
1
 42
0.0
 10
2.0E+002
 20
2.2800002E+002
 70
0
  0
SEQEND
  0
POLYLINE
  8
1
  6
CONTINUOUS
 62
6
 66
1
 40
1.0E-003
 41
1.0E-003
 70
0
  0
VERTEX
  8
1
 42
0.0
 10
2.05E+002
 20
2.2175002E+002
 70
0
  0
VERTEX
  8
1
 42
0.0
 10
2.0E+002
 20
2.2175002E+002
 70
0
  0
SEQEND
  0
POLYLINE
  8
1
  6
CONTINUOUS
 62
6
 66
1
 40
1.0E-003
 41
1.0E-003
 70
0
  0
VERTEX
  8
1
 42
0.0
 10
2.05E+002
 20
2.1550002E+002
 70
0
  0
VERTEX
  8
1
 42
0.0
 10
2.0E+002
 20
2.1550002E+002
 70
0
  0
SEQEND
  0
POLYLINE
  8
1
  6
CONTINUOUS
 62
6
 66
1
 40
1.0E-003
 41
1.0E-003
 70
0
  0
VERTEX
  8
1
 42
0.0
 10
2.05E+002
 20
2.9150003E+002
 70
0
  0
VERTEX
  8
1
 42
0.0
 10
2.075E+002
 20
2.9150003E+002
 70
0
  0
SEQEND
  0
POLYLINE
  8
1
  6
CONTINUOUS
 62
6
 66
1
 40
1.0E-003
 41
1.0E-003
 70
0
  0
VERTEX
  8
1
 42
0.0
 10
2.05E+002
 20
2.3175002E+002
 70
0
  0
VERTEX
  8
1
 42
0.0
 10
2.075E+002
 20
2.3175002E+002
 70
0
  0
SEQEND
  0
POLYLINE
  8
1
  6
CONTINUOUS
 62
6
 66
1
 40
1.0E-003
 41
1.0E-003
 70
0
  0
VERTEX
  8
1
 42
0.0
 10
2.05E+002
 20
1.7200002E+002
 70
0
  0
VERTEX
  8
1
 42
0.0
 10
2.075E+002
 20
1.7200002E+002
 70
0
  0
SEQEND
  0
POLYLINE
  8
1
  6
CONTINUOUS
 62
6
 66
1
 40
1.0E-003
 41
1.0E-003
 70
0
  0
VERTEX
  8
1
 42
0.0
 10
2.05E+002
 20
1.1225E+002
 70
0
  0
VERTEX
  8
1
 42
0.0
 10
2.075E+002
 20
1.1225E+002
 70
0
  0
SEQEND
  0
POLYLINE
  8
1
  6
CONTINUOUS
 62
6
 66
1
 40
1.0E-003
 41
1.0E-003
 70
0
  0
VERTEX
  8
1
 42
0.0
 10
2.05E+002
 20
2.9150003E+002
 70
0
  0
VERTEX
  8
1
 42
0.0
 10
2.05E+002
 20
2.9400003E+002
 70
0
  0
SEQEND
  0
POLYLINE
  8
1
  6
CONTINUOUS
 62
6
 66
1
 40
1.0E-003
 41
1.0E-003
 70
0
  0
VERTEX
  8
1
 42
0.0
 10
1.585E+002
 20
2.9150003E+002
 70
0
  0
VERTEX
  8
1
 42
0.0
 10
1.585E+002
 20
2.9400003E+002
 70
0
  0
SEQEND
  0
POLYLINE
  8
1
  6
CONTINUOUS
 62
6
 66
1
 40
1.0E-003
 41
1.0E-003
 70
0
  0
VERTEX
  8
1
 42
0.0
 10
1.1200001E+002
 20
2.9150003E+002
 70
0
  0
VERTEX
  8
1
 42
0.0
 10
1.1200001E+002
 20
2.9400003E+002
 70
0
  0
SEQEND
  0
POLYLINE
  8
1
  6
CONTINUOUS
 62
6
 66
1
 40
1.0E-003
 41
1.0E-003
 70
0
  0
VERTEX
  8
1
 42
0.0
 10
1.9000008E+001
 20
2.9150003E+002
 70
0
  0
VERTEX
  8
1
 42
0.0
 10
1.9000008E+001
 20
2.9400003E+002
 70
0
  0
SEQEND
  0
POLYLINE
  8
1
  6
CONTINUOUS
 62
6
 66
1
 40
1.0E-003
 41
1.0E-003
 70
0
  0
VERTEX
  8
1
 42
0.0
 10
6.5500008E+001
 20
2.9150003E+002
 70
0
  0
VERTEX
  8
1
 42
0.0
 10
6.5500008E+001
 20
2.9400003E+002
 70
0
  0
SEQEND
  0
POLYLINE
  8
1
  6
CONTINUOUS
 62
6
 66
1
 40
7.0E-001
 41
7.0E-001
 70
0
  0
VERTEX
  8
1
 42
0.0
 10
1.0650001E+002
 20
5.5
 70
0
  0
VERTEX
  8
1
 42
0.0
 10
1.0650001E+002
 20
1.5
 70
0
  0
SEQEND
  0
POLYLINE
  8
1
  6
CONTINUOUS
 62
6
 66
1
 40
7.0E-001
 41
7.0E-001
 70
0
  0
VERTEX
  8
1
 42
0.0
 10
1.0350001E+002
 20
5.5
 70
0
  0
VERTEX
  8
1
 42
0.0
 10
1.0350001E+002
 20
1.5
 70
0
  0
SEQEND
  0
POLYLINE
  8
1
  6
CONTINUOUS
 62
6
 66
1
 40
7.0E-001
 41
7.0E-001
 70
0
  0
VERTEX
  8
1
 42
0.0
 10
1.0650001E+002
 20
2.9150003E+002
 70
0
  0
VERTEX
  8
1
 42
0.0
 10
1.0650001E+002
 20
2.9550003E+002
 70
0
  0
SEQEND
  0
POLYLINE
  8
1
  6
CONTINUOUS
 62
6
 66
1
 40
7.0E-001
 41
7.0E-001
 70
0
  0
VERTEX
  8
1
 42
0.0
 10
1.0350001E+002
 20
2.9150003E+002
 70
0
  0
VERTEX
  8
1
 42
0.0
 10
1.0350001E+002
 20
2.9550003E+002
 70
0
  0
SEQEND
  0
POLYLINE
  8
1
  6
CONTINUOUS
 62
6
 66
1
 40
1.0E-003
 41
1.0E-003
 70
0
  0
VERTEX
  8
1
 42
0.0
 10
2.05E+002
 20
5.25E+001
 70
0
  0
VERTEX
  8
1
 42
0.0
 10
2.075E+002
 20
5.25E+001
 70
0
  0
SEQEND
  0
POLYLINE
  8
1
  6
CONTINUOUS
 62
6
 66
1
 40
7.0E-001
 41
7.0E-001
 70
0
  0
VERTEX
  8
1
 42
0.0
 10
1.9000008E+001
 20
5.5
 70
0
  0
VERTEX
  8
1
 42
0.0
 10
5.0
 20
5.5
 70
0
  0
SEQEND
  0
POLYLINE
  8
1
  6
CONTINUOUS
 62
4
 66
1
 40
1.0E-003
 41
1.0E-003
 70
0
  0
VERTEX
  8
1
 42
0.0
 10
0.0
 20
0.0
 70
0
  0
VERTEX
  8
1
 42
0.0
 10
2.1E+002
 20
0.0
 70
0
  0
SEQEND
  0
POLYLINE
  8
1
  6
CONTINUOUS
 62
3
 66
1
 40
1.0E-003
 41
1.0E-003
 70
0
  0
VERTEX
  8
1
 42
0.0
 10
1.6487923E+001
 20
2.1167192E+002
 70
0
  0
VERTEX
  8
1
 42
0.0
 10
1.6487923E+001
 20
2.0867195E+002
 70
0
  0
SEQEND
  0
POLYLINE
  8
1
  6
CONTINUOUS
 62
3
 66
1
 40
1.0E-003
 41
1.0E-003
 70
0
  0
VERTEX
  8
1
 42
0.0
 10
1.6487923E+001
 20
2.1167192E+002
 70
0
  0
VERTEX
  8
1
 42
0.0
 10
1.6487923E+001
 20
2.0867195E+002
 70
0
  0
SEQEND
  0
TEXT
  8
1
  6
CONTINUOUS
 62
3
 10
2.065E+002
 20
2.6162503E+002
 40
2.0
  1
A
  0
TEXT
  8
1
  6
CONTINUOUS
 62
3
 10
2.065E+002
 20
2.0187502E+002
 40
2.0
  1
B
  0
TEXT
  8
1
  6
CONTINUOUS
 62
3
 10
2.065E+002
 20
1.42125E+002
 40
2.0
  1
C
  0
TEXT
  8
1
  6
CONTINUOUS
 62
3
 10
2.065E+002
 20
8.2375E+001
 40
2.0
  1
D
  0
TEXT
  8
1
  6
CONTINUOUS
 62
3
 10
1.6509621E+001
 20
2.1872429E+002
 40
2.0
  1
"grob"
 41
6.5E-001
 50
9.0000003E+001
  0
TEXT
  8
1
  6
CONTINUOUS
 62
3
 10
1.6487923E+001
 20
1.9736339E+002
 40
2.0
  1
"mittel"
 41
6.5E-001
 50
9.0000003E+001
  0
TEXT
  8
1
  6
CONTINUOUS
 62
3
 10
5.8622437
 20
1.9528923E+002
 40
2.0
  1
Allgemeintoleranzen nach
 41
8.0E-001
 50
9.0000003E+001
  0
TEXT
  8
1
  6
CONTINUOUS
 62
3
 10
5.8622437
 20
1.2295421E+002
 40
2.0
  1
Rauheits-Symbole nach GZN 020007
 41
8.0E-001
 50
9.0000003E+001
  0
TEXT
  8
1
  6
CONTINUOUS
 62
3
 10
9.8622437
 20
1.2295421E+002
 40
2.0
  1
    entsprechend DIN ISO 1302
 41
8.0E-001
 50
9.0000003E+001
  0
TEXT
  8
1
  6
CONTINUOUS
 62
6
 10
1.306617E+001
 20
1.2349451E+002
 40
2.0
  1
0
 41
5.25E-001
 50
9.0000003E+001
  0
TEXT
  8
1
  6
CONTINUOUS
 62
6
 10
1.306617E+001
 20
1.7212105E+002
 40
2.0
  1
50
 41
6.75E-001
 50
9.0000003E+001
  0
POLYLINE
  8
1
  6
CONTINUOUS
 62
4
 66
1
 40
1.0E-003
 41
1.0E-003
 70
0
  0
VERTEX
  8
1
 42
0.0
 10
0.0
 20
2.9700003E+002
 70
0
  0
VERTEX
  8
1
 42
0.0
 10
0.0
 20
0.0
 70
0
  0
SEQEND
  0
POLYLINE
  8
1
  6
CONTINUOUS
 62
4
 66
1
 40
1.0E-003
 41
1.0E-003
 70
0
  0
VERTEX
  8
1
 42
0.0
 10
0.0
 20
0.0
 70
0
  0
VERTEX
  8
1
 42
0.0
 10
0.0
 20
2.9700003E+002
 70
0
  0
SEQEND
  0
TEXT
  8
1
  6
CONTINUOUS
 62
3
 10
1.7001917E+002
 20
2.8040002E+002
 40
2.0
  1
I
 41
3.17E-001
  0
TEXT
  8
1
  6
CONTINUOUS
 62
3
 10
4.2250008E+001
 20
2.9300003E+002
 40
2.0
  1
1
  0
TEXT
  8
1
  6
CONTINUOUS
 62
3
 10
8.8750008E+001
 20
2.9300003E+002
 40
2.0
  1
2
  0
TEXT
  8
1
  6
CONTINUOUS
 62
3
 10
1.3525E+002
 20
2.9300003E+002
 40
2.0
  1
3
  0
TEXT
  8
1
  6
CONTINUOUS
 62
3
 10
1.8175E+002
 20
2.9300003E+002
 40
2.0
  1
4
  0
TEXT
  8
1
  6
CONTINUOUS
 62
3
 10
3.0841621E+001
 20
2.8556284E+002
 40
2.0
  1
Ein-
 41
7.925E-001
  0
TEXT
  8
1
  6
CONTINUOUS
 62
3
 10
3.0841621E+001
 20
2.8256284E+002
 40
2.0
  1
heit
 41
7.925E-001
  0
TEXT
  8
1
  6
CONTINUOUS
 62
3
 10
3.8324684E+001
 20
2.8350003E+002
 40
2.0
  1
ZC
 41
7.925E-001
  0
TEXT
  8
1
  6
CONTINUOUS
 62
3
 10
1.6235593E+002
 20
2.8350003E+002
 40
2.0
  1
EC
 41
7.925E-001
  0
TEXT
  8
1
  6
CONTINUOUS
 62
3
 10
1.6759302E+002
 20
2.8716838E+002
 40
2.0
  1
Aend.
 41
8.0E-001
  0
TEXT
  8
1
  6
CONTINUOUS
 62
3
 10
1.7796625E+002
 20
2.8715002E+002
 40
2.0
  1
Masse/E
 41
7.925E-001
  0
TEXT
  8
1
  6
CONTINUOUS
 62
3
 10
1.2262052E+002
 20
2.8350003E+002
 40
2.0
  1
Ident-Nummer
 41
7.925E-001
  0
TEXT
  8
1
  6
CONTINUOUS
 62
3
 10
5.6489449E+001
 20
2.8350003E+002
 40
2.0
  1
Text
 41
7.925E-001
  0
TEXT
  8
1
  6
CONTINUOUS
 62
3
 10
4.343354E+001
 20
2.8350003E+002
 40
2.0
  1
Pos.-Nr.
 41
6.0E-001
  0
TEXT
  8
1
  6
CONTINUOUS
 62
3
 10
1.8364273E+002
 20
2.8040002E+002
 40
2.0
  1
II
 41
7.5E-001
  0
TEXT
  8
1
  6
CONTINUOUS
 62
3
 10
1.9726633E+002
 20
2.8350003E+002
 40
2.0
  1
III
 41
7.5E-001
  0
TEXT
  8
1
  6
CONTINUOUS
 62
3
 10
8.58746
 20
8.773347
 40
1.7
  1
Fuer diese Unterlage behalten wir uns alle Rechte, auch fuer den Fall der Patent-
 41
6.8E-001
 50
9.0000003E+001
  0
TEXT
  8
1
  6
CONTINUOUS
 62
3
 10
1.1408791E+001
 20
8.3925096
 40
1.7
  1
erteilung und der Eintragung eines anderen gewerblichen Schutzrechtes, vor.
 41
6.8E-001
 50
9.0000003E+001
  0
TEXT
  8
1
  6
CONTINUOUS
 62
3
 10
1.4298791E+001
 20
8.3925096
 40
1.7
  1
Missbraeuchliche Verwendung, wie insbesondere Vervielfaeltigung und Weitergabe an
 41
6.8E-001
 50
9.0000003E+001
  0
TEXT
  8
1
  6
CONTINUOUS
 62
3
 10
1.7188792E+001
 20
8.3925096
 40
1.7
  1
Dritte ist nicht gestattet: sie kann zivil- und strafrechtlich geahndet werden.
 41
6.8E-001
 50
9.0000003E+001
  0
TEXT
  8
1
  6
CONTINUOUS
 62
3
 10
1.0199852E+001
 20
2.0239064E+002
 40
2.0
  1
ISO 2768
 41
8.0E-001
 50
9.0000003E+001
  0
POLYLINE
  8
1
  6
CONTINUOUS
 62
6
 66
1
 40
7.0E-001
 41
7.0E-001
 70
0
  0
VERTEX
  8
1
 42
0.0
 10
1.8999985E+001
 20
3.1E+001
 70
0
  0
VERTEX
  8
1
 42
0.0
 10
2.05E+002
 20
3.1E+001
 70
0
  0
SEQEND
  0
POLYLINE
  8
1
  6
CONTINUOUS
 62
6
 66
1
 40
7.0E-001
 41
7.0E-001
 70
0
  0
VERTEX
  8
1
 42
0.0
 10
1.8999985E+001
 20
1.4E+001
 70
0
  0
VERTEX
  8
1
 42
0.0
 10
5.85E+001
 20
1.4E+001
 70
0
  0
SEQEND
  0
LINE
  8
1
  6
CONTINUOUS
 62
6
 10
2.4499985E+001
 20
3.1E+001
 11
2.4499985E+001
 21
1.4E+001
  0
TEXT
  8
1
  6
CONTINUOUS
 62
3
 10
2.2718704E+001
 20
1.9207314E+001
 40
2.0
  1
Aend.
 41
5.0E-001
 50
9.0000003E+001
  0
LINE
  8
1
  6
CONTINUOUS
 62
6
 10
2.4499985E+001
 20
2.675E+001
 11
5.85E+001
 21
2.675E+001
  0
POLYLINE
  8
1
  6
CONTINUOUS
 62
6
 66
1
 40
5.0E-001
 41
5.0E-001
 70
0
  0
VERTEX
  8
1
 42
0.0
 10
1.465E+002
 20
2.675E+001
 70
0
  0
VERTEX
  8
1
 42
0.0
 10
2.05E+002
 20
2.675E+001
 70
0
  0
SEQEND
  0
POLYLINE
  8
1
  6
CONTINUOUS
 62
1
 66
1
 40
1.0E-003
 41
1.0E-003
 70
0
  0
VERTEX
  8
1
 42
0.0
 10
1.75E+002
 20
3.1E+001
 70
0
  0
VERTEX
  8
1
 42
0.0
 10
1.75E+002
 20
2.25E+001
 70
0
  0
SEQEND
  0
POLYLINE
  8
1
  6
CONTINUOUS
 62
6
 66
1
 40
7.0E-001
 41
7.0E-001
 70
0
  0
VERTEX
  8
1
 42
0.0
 10
1.465E+002
 20
3.1E+001
 70
0
  0
VERTEX
  8
1
 42
0.0
 10
1.465E+002
 20
5.5
 70
0
  0
SEQEND
  0
POLYLINE
  8
1
  6
CONTINUOUS
 62
6
 66
1
 40
7.0E-001
 41
7.0E-001
 70
0
  0
VERTEX
  8
1
 42
0.0
 10
1.35E+002
 20
3.0795013E+001
 70
0
  0
VERTEX
  8
1
 42
0.0
 10
1.35E+002
 20
1.4E+001
 70
0
  0
SEQEND
  0
POLYLINE
  8
1
  6
CONTINUOUS
 62
6
 66
1
 40
7.0E-001
 41
7.0E-001
 70
0
  0
VERTEX
  8
1
 42
0.0
 10
9.75E+001
 20
3.1E+001
 70
0
  0
VERTEX
  8
1
 42
0.0
 10
9.75E+001
 20
1.4E+001
 70
0
  0
SEQEND
  0
POLYLINE
  8
1
  6
CONTINUOUS
 62
6
 66
1
 40
7.0E-001
 41
7.0E-001
 70
0
  0
VERTEX
  8
1
 42
0.0
 10
5.85E+001
 20
3.1E+001
 70
0
  0
VERTEX
  8
1
 42
0.0
 10
5.85E+001
 20
1.4E+001
 70
0
  0
SEQEND
  0
POLYLINE
  8
1
  6
CONTINUOUS
 62
6
 66
1
 40
5.0E-001
 41
5.0E-001
 70
0
  0
VERTEX
  8
1
 42
0.0
 10
5.85E+001
 20
2.25E+001
 70
0
  0
VERTEX
  8
1
 42
0.0
 10
1.35E+002
 20
2.25E+001
 70
0
  0
SEQEND
  0
POLYLINE
  8
1
  6
CONTINUOUS
 62
6
 66
1
 40
5.0E-001
 41
5.0E-001
 70
0
  0
VERTEX
  8
1
 42
0.0
 10
5.85E+001
 20
1.825E+001
 70
0
  0
VERTEX
  8
1
 42
0.0
 10
1.35E+002
 20
1.825E+001
 70
0
  0
SEQEND
  0
POLYLINE
  8
1
  6
CONTINUOUS
 62
6
 66
1
 40
7.0E-001
 41
7.0E-001
 70
0
  0
VERTEX
  8
1
 42
0.0
 10
5.85E+001
 20
1.4E+001
 70
0
  0
VERTEX
  8
1
 42
0.0
 10
2.05E+002
 20
1.4E+001
 70
0
  0
SEQEND
  0
POLYLINE
  8
1
  6
CONTINUOUS
 62
6
 66
1
 40
7.0E-001
 41
7.0E-001
 70
0
  0
VERTEX
  8
1
 42
0.0
 10
1.35E+002
 20
2.25E+001
 70
0
  0
VERTEX
  8
1
 42
0.0
 10
2.05E+002
 20
2.25E+001
 70
0
  0
SEQEND
  0
POLYLINE
  8
1
  6
CONTINUOUS
 62
6
 66
1
 40
7.0E-001
 41
7.0E-001
 70
0
  0
VERTEX
  8
1
 42
0.0
 10
1.58E+002
 20
2.25E+001
 70
0
  0
VERTEX
  8
1
 42
0.0
 10
1.58E+002
 20
1.4E+001
 70
0
  0
SEQEND
  0
POLYLINE
  8
1
  6
CONTINUOUS
 62
110
 66
1
 40
7.0E-001
 41
7.0E-001
 70
0
  0
VERTEX
  8
1
 42
0.0
 10
1.68E+002
 20
2.25E+001
 70
0
  0
VERTEX
  8
1
 42
0.0
 10
1.68E+002
 20
1.4E+001
 70
0
  0
SEQEND
  0
POLYLINE
  8
1
  6
CONTINUOUS
 62
110
 66
1
 40
7.0E-001
 41
7.0E-001
 70
0
  0
VERTEX
  8
1
 42
0.0
 10
1.795E+002
 20
2.25E+001
 70
0
  0
VERTEX
  8
1
 42
0.0
 10
1.795E+002
 20
1.4E+001
 70
0
  0
SEQEND
  0
POLYLINE
  8
1
  6
CONTINUOUS
 62
110
 66
1
 40
7.0E-001
 41
7.0E-001
 70
0
  0
VERTEX
  8
1
 42
0.0
 10
1.915E+002
 20
2.25E+001
 70
0
  0
VERTEX
  8
1
 42
0.0
 10
1.915E+002
 20
1.4E+001
 70
0
  0
SEQEND
  0
LINE
  8
1
  6
HIDDEN
 62
6
 10
1.465E+002
 20
7.0
 11
2.05E+002
 21
7.0
  0
LINE
  8
1
  6
CONTINUOUS
 62
6
 10
2.4499985E+001
 20
2.25E+001
 11
5.85E+001
 21
2.25E+001
  0
LINE
  8
1
  6
CONTINUOUS
 62
6
 10
2.4499985E+001
 20
1.825E+001
 11
5.85E+001
 21
1.825E+001
  0
POLYLINE
  8
1
  6
CONTINUOUS
 62
6
 66
1
 40
5.0E-001
 41
5.0E-001
 70
0
  0
VERTEX
  8
1
 42
0.0
 10
5.85E+001
 20
2.675E+001
 70
0
  0
VERTEX
  8
1
 42
0.0
 10
1.35E+002
 20
2.675E+001
 70
0
  0
SEQEND
  0
POLYLINE
  8
1
  6
CONTINUOUS
 62
6
 66
1
 40
7.0E-001
 41
7.0E-001
 70
0
  0
VERTEX
  8
1
 42
0.0
 10
3.3999985E+001
 20
1.4E+001
 70
0
  0
VERTEX
  8
1
 42
0.0
 10
3.3999985E+001
 20
5.5
 70
0
  0
SEQEND
  0
POLYLINE
  8
1
  6
HIDDEN
 62
3
 66
1
 40
1.0E-003
 41
1.0E-003
 70
0
  0
VERTEX
  8
1
 42
0.0
 10
1.5225E+002
 20
1.825E+001
 70
0
  0
VERTEX
  8
1
 42
0.0
 10
1.5225E+002
 20
1.4E+001
 70
0
  0
SEQEND
  0
POLYLINE
  8
1
  6
HIDDEN
 62
3
 66
1
 40
1.0E-003
 41
1.0E-003
 70
0
  0
VERTEX
  8
1
 42
0.0
 10
1.63E+002
 20
1.825E+001
 70
0
  0
VERTEX
  8
1
 42
0.0
 10
1.63E+002
 20
1.4E+001
 70
0
  0
SEQEND
  0
POLYLINE
  8
1
  6
CONTINUOUS
 62
3
 66
1
 40
1.0E-003
 41
1.0E-003
 70
0
  0
VERTEX
  8
1
 42
0.0
 10
1.7079001E+002
 20
2.7410446E+001
 70
0
  0
VERTEX
  8
1
 42
0.0
 10
1.7079001E+002
 20
3.0034676E+001
 70
0
  0
SEQEND
  0
POLYLINE
  8
1
  6
CONTINUOUS
 62
3
 66
1
 40
1.0E-003
 41
1.0E-003
 70
0
  0
VERTEX
  8
1
 42
0.0
 10
1.7079001E+002
 20
3.0034676E+001
 70
0
  0
VERTEX
  8
1
 42
0.0
 10
1.7397659E+002
 20
3.0034676E+001
 70
0
  0
SEQEND
  0
POLYLINE
  8
1
  6
CONTINUOUS
 62
3
 66
1
 40
1.0E-003
 41
1.0E-003
 70
0
  0
VERTEX
  8
1
 42
0.0
 10
1.7397659E+002
 20
3.0034676E+001
 70
0
  0
VERTEX
  8
1
 42
0.0
 10
1.7397659E+002
 20
2.7410446E+001
 70
0
  0
SEQEND
  0
POLYLINE
  8
1
  6
CONTINUOUS
 62
3
 66
1
 40
1.0E-003
 41
1.0E-003
 70
0
  0
VERTEX
  8
1
 42
0.0
 10
1.7397659E+002
 20
2.7410446E+001
 70
0
  0
VERTEX
  8
1
 42
0.0
 10
1.7079001E+002
 20
2.7410446E+001
 70
0
  0
SEQEND
  0
POLYLINE
  8
1
  6
CONTINUOUS
 62
3
 66
1
 40
1.0E-003
 41
1.0E-003
 70
0
  0
VERTEX
  8
1
 42
0.0
 10
2.0079001E+002
 20
2.7410446E+001
 70
0
  0
VERTEX
  8
1
 42
0.0
 10
2.0079001E+002
 20
3.0034676E+001
 70
0
  0
SEQEND
  0
POLYLINE
  8
1
  6
CONTINUOUS
 62
3
 66
1
 40
1.0E-003
 41
1.0E-003
 70
0
  0
VERTEX
  8
1
 42
0.0
 10
2.0079001E+002
 20
3.0034676E+001
 70
0
  0
VERTEX
  8
1
 42
0.0
 10
2.0397659E+002
 20
3.0034676E+001
 70
0
  0
SEQEND
  0
POLYLINE
  8
1
  6
CONTINUOUS
 62
3
 66
1
 40
1.0E-003
 41
1.0E-003
 70
0
  0
VERTEX
  8
1
 42
0.0
 10
2.0397659E+002
 20
3.0034676E+001
 70
0
  0
VERTEX
  8
1
 42
0.0
 10
2.0397659E+002
 20
2.7410446E+001
 70
0
  0
SEQEND
  0
POLYLINE
  8
1
  6
CONTINUOUS
 62
3
 66
1
 40
1.0E-003
 41
1.0E-003
 70
0
  0
VERTEX
  8
1
 42
0.0
 10
2.0397659E+002
 20
2.7410446E+001
 70
0
  0
VERTEX
  8
1
 42
0.0
 10
2.0079001E+002
 20
2.7410446E+001
 70
0
  0
SEQEND
  0
POLYLINE
  8
1
  6
CONTINUOUS
 62
3
 66
1
 40
1.0E-003
 41
1.0E-003
 70
0
  0
VERTEX
  8
1
 42
0.0
 10
1.7079001E+002
 20
2.3160446E+001
 70
0
  0
VERTEX
  8
1
 42
0.0
 10
1.7079001E+002
 20
2.5784676E+001
 70
0
  0
SEQEND
  0
POLYLINE
  8
1
  6
CONTINUOUS
 62
3
 66
1
 40
1.0E-003
 41
1.0E-003
 70
0
  0
VERTEX
  8
1
 42
0.0
 10
1.7079001E+002
 20
2.5784676E+001
 70
0
  0
VERTEX
  8
1
 42
0.0
 10
1.7397659E+002
 20
2.5784676E+001
 70
0
  0
SEQEND
  0
POLYLINE
  8
1
  6
CONTINUOUS
 62
3
 66
1
 40
1.0E-003
 41
1.0E-003
 70
0
  0
VERTEX
  8
1
 42
0.0
 10
1.7397659E+002
 20
2.5784676E+001
 70
0
  0
VERTEX
  8
1
 42
0.0
 10
1.7397659E+002
 20
2.3160446E+001
 70
0
  0
SEQEND
  0
POLYLINE
  8
1
  6
CONTINUOUS
 62
3
 66
1
 40
1.0E-003
 41
1.0E-003
 70
0
  0
VERTEX
  8
1
 42
0.0
 10
1.7397659E+002
 20
2.3160446E+001
 70
0
  0
VERTEX
  8
1
 42
0.0
 10
1.7079001E+002
 20
2.3160446E+001
 70
0
  0
SEQEND
  0
LINE
  8
1
  6
CONTINUOUS
 62
6
 10
3.1499985E+001
 20
3.1E+001
 11
3.1499985E+001
 21
1.4E+001
  0
POLYLINE
  8
1
  6
CONTINUOUS
 62
3
 66
1
 40
1.0E-003
 41
1.0E-003
 70
0
  0
VERTEX
  8
1
 42
0.0
 10
1.3877496E+002
 20
2.025E+001
 70
0
  0
VERTEX
  8
1
 42
0.0
 10
1.3877496E+002
 20
1.625E+001
 70
0
  0
SEQEND
  0
POLYLINE
  8
1
  6
CONTINUOUS
 62
3
 66
1
 40
1.0E-003
 41
1.0E-003
 70
0
  0
VERTEX
  8
1
 42
0.0
 10
1.3601489E+002
 20
1.925E+001
 70
0
  0
VERTEX
  8
1
 42
0.0
 10
1.3601489E+002
 20
1.725E+001
 70
0
  0
SEQEND
  0
POLYLINE
  8
1
  6
CONTINUOUS
 62
3
 66
1
 40
1.0E-003
 41
1.0E-003
 70
0
  0
VERTEX
  8
1
 42
0.0
 10
1.3601489E+002
 20
1.925E+001
 70
0
  0
VERTEX
  8
1
 42
0.0
 10
1.3877496E+002
 20
2.025E+001
 70
0
  0
SEQEND
  0
POLYLINE
  8
1
  6
CONTINUOUS
 62
3
 66
1
 40
1.0E-003
 41
1.0E-003
 70
0
  0
VERTEX
  8
1
 42
0.0
 10
1.3601489E+002
 20
1.725E+001
 70
0
  0
VERTEX
  8
1
 42
0.0
 10
1.3877496E+002
 20
1.625E+001
 70
0
  0
SEQEND
  0
POLYLINE
  8
1
  6
HIDDEN
 62
3
 66
1
 40
1.0E-003
 41
1.0E-003
 70
0
  0
VERTEX
  8
1
 42
0.0
 10
1.4252081E+002
 20
2.0649994E+001
 70
0
  0
VERTEX
  8
1
 42
0.0
 10
1.4252081E+002
 20
1.5849998E+001
 70
0
  0
SEQEND
  0
POLYLINE
  8
1
  6
HIDDEN
 62
3
 66
1
 40
1.0E-003
 41
1.0E-003
 70
0
  0
VERTEX
  8
1
 42
0.0
 10
1.4492081E+002
 20
1.825E+001
 70
0
  0
VERTEX
  8
1
 42
0.0
 10
1.3581775E+002
 20
1.825E+001
 70
0
  0
SEQEND
  0
TEXT
  8
1
  6
CONTINUOUS
 62
3
 10
5.9224213E+001
 20
2.3520981E+001
 40
2.0
  1
Ersatz fuer:
 41
6.0E-001
  0
TEXT
  8
1
  6
CONTINUOUS
 62
3
 10
5.9224213E+001
 20
1.9296745E+001
 40
2.0
  1
Ers. durch:
 41
6.5308091E-001
  0
TEXT
  8
1
  6
CONTINUOUS
 62
3
 10
5.9096191E+001
 20
1.4944511E+001
 40
2.0
  1
Zust. Stelle:
 41
6.3073385E-001
  0
TEXT
  8
1
  6
CONTINUOUS
 62
3
 10
9.8266327E+001
 20
2.7745209E+001
 40
2.0
  1
Ausgest.:
 41
6.0E-001
  0
TEXT
  8
1
  6
CONTINUOUS
 62
3
 10
9.8138336E+001
 20
2.3648987E+001
 40
2.0
  1
Geprueft:
 41
6.0E-001
  0
TEXT
  8
1
  6
CONTINUOUS
 62
3
 10
9.8138336E+001
 20
1.9424751E+001
 40
2.0
  1
Normgepr.:
 41
6.0E-001
  0
TEXT
  8
1
  6
CONTINUOUS
 62
3
 10
9.8138336E+001
 20
1.5072517E+001
 40
2.0
  1
Freigeg.:
 41
6.0E-001
  0
TEXT
  8
1
  6
CONTINUOUS
 62
3
 10
3.4718704E+001
 20
1.0957314E+001
 40
2.0
  1
Titel:
 41
5.9703E-001
  0
TEXT
  8
1
  6
CONTINUOUS
 62
3
 10
1.3619501E+002
 20
2.7965616E+001
 40
2.0
  1
Massstab
 41
6.0E-001
  0
TEXT
  8
1
  6
CONTINUOUS
 62
3
 10
1.7571872E+002
 20
2.7957314E+001
 40
2.0
  1
Sep.SL anderer Nr.
 41
6.0E-001
  0
TEXT
  8
1
  6
CONTINUOUS
 62
3
 10
1.4721872E+002
 20
1.9457314E+001
 40
2.0
  1
Dok.-Art
 41
6.0E-001
  0
TEXT
  8
1
  6
CONTINUOUS
 62
3
 10
1.5971872E+002
 20
1.9457314E+001
 40
2.0
  1
Format
 41
6.0E-001
  0
TEXT
  8
1
  6
CONTINUOUS
 62
3
 10
1.6971872E+002
 20
1.9457314E+001
 40
2.0
  1
Sprache
 41
6.0E-001
  0
TEXT
  8
1
  6
CONTINUOUS
 62
3
 10
1.8171872E+002
 20
1.9457314E+001
 40
2.0
  1
Bl. Nr.
 41
6.0E-001
  0
TEXT
  8
1
  6
CONTINUOUS
 62
3
 10
1.9221872E+002
 20
1.9457314E+001
 40
2.0
  1
Anz. Bl.
 41
6.0E-001
  0
TEXT
  8
1
  6
CONTINUOUS
 62
3
 10
1.4721872E+002
 20
2.7957314E+001
 40
2.0
  1
Sep.SL gleicher Nr.
 41
6.0E-001
  0
TEXT
  8
1
  6
CONTINUOUS
 62
3
 10
1.472323E+002
 20
2.3457428E+001
 40
2.0
  1
O
 41
6.3E-001
  0
TEXT
  8
1
  6
CONTINUOUS
 62
3
 10
1.486723E+002
 20
2.3457428E+001
 40
2.0
  1
hne sep. Stckl.:
 41
6.3727875E-001
  0
TEXT
  8
1
  6
CONTINUOUS
 62
6
 10
1.7570981E+002
 20
2.3817909E+001
 40
2.0
  1
 
 41
8.1E-001
  0
TEXT
  8
1
  6
CONTINUOUS
 62
3
 10
1.7603071E+002
 20
2.3683216E+001
 40
2.0
  1
Uebern. Stelle:
 41
6.0127615E-001
  0
TEXT
  8
1
  6
CONTINUOUS
 62
3
 10
1.595E+002
 20
1.5E+001
 40
2.5
  1
A
  0
TEXT
  8
1
  6
CONTINUOUS
 62
3
 10
1.645E+002
 20
1.5E+001
 40
2.5
  1
4
  0
TEXT
  8
1
  6
CONTINUOUS
 62
3
 10
1.7312595E+002
 20
1.5027565E+001
 40
2.5
  1
D
  0
TEXT
  8
1
  6
CONTINUOUS
 62
3
 10
1.8441553E+002
 20
1.5027565E+001
 40
2.5
  1
1
  0
TEXT
  8
1
  6
CONTINUOUS
 62
3
 10
1.9647238E+002
 20
1.5027565E+001
 40
2.5
  1
1
  0
TEXT
  8
1
  6
CONTINUOUS
 62
3
 10
5.9352203E+001
 20
2.7617203E+001
 40
2.0
  1
E
 41
6.3E-001
  0
TEXT
  8
1
  6
CONTINUOUS
 62
3
 10
6.0612213E+001
 20
2.7617203E+001
 40
2.0
  1
ntst. aus:
 41
6.09444E-001
  0
POLYLINE
  8
1
  6
CONTINUOUS
 62
3
 66
1
 40
1.0E-003
 41
1.0E-003
 70
0
  0
VERTEX
  8
1
 42
0.0
 10
2.0301865E+001
 20
7.3082472
 70
0
  0
VERTEX
  8
1
 42
0.0
 10
2.1426865E+001
 20
7.3082472
 70
0
  0
SEQEND
  0
POLYLINE
  8
1
  6
CONTINUOUS
 62
3
 66
1
 40
1.0E-003
 41
1.0E-003
 70
0
  0
VERTEX
  8
1
 42
0.0
 10
2.1426865E+001
 20
7.3082472
 70
0
  0
VERTEX
  8
1
 42
0.0
 10
2.1741867E+001
 20
8.2082449
 70
0
  0
SEQEND
  0
POLYLINE
  8
1
  6
CONTINUOUS
 62
3
 66
1
 40
1.0E-003
 41
1.0E-003
 70
0
  0
VERTEX
  8
1
 42
0.0
 10
2.1741867E+001
 20
8.2082449
 70
0
  0
VERTEX
  8
1
 42
0.0
 10
2.2356873E+001
 20
8.2082449
 70
0
  0
SEQEND
  0
POLYLINE
  8
1
  6
CONTINUOUS
 62
3
 66
1
 40
1.0E-003
 41
1.0E-003
 70
0
  0
VERTEX
  8
1
 42
0.0
 10
2.2356873E+001
 20
8.2082449
 70
0
  0
VERTEX
  8
1
 42
0.0
 10
2.2356873E+001
 20
9.3632456
 70
0
  0
SEQEND
  0
POLYLINE
  8
1
  6
CONTINUOUS
 62
3
 66
1
 40
1.0E-003
 41
1.0E-003
 70
0
  0
VERTEX
  8
1
 42
0.0
 10
2.2356873E+001
 20
9.3632456
 70
0
  0
VERTEX
  8
1
 42
0.0
 10
2.1073608E+001
 20
9.3632456
 70
0
  0
SEQEND
  0
POLYLINE
  8
1
  6
CONTINUOUS
 62
3
 66
1
 40
1.0E-003
 41
1.0E-003
 70
0
  0
VERTEX
  8
1
 42
0.0
 10
2.1073608E+001
 20
9.3632456
 70
0
  0
VERTEX
  8
1
 42
0.0
 10
2.0301865E+001
 20
7.3082472
 70
0
  0
SEQEND
  0
POLYLINE
  8
1
  6
CONTINUOUS
 62
3
 66
1
 40
1.0E-003
 41
1.0E-003
 70
0
  0
VERTEX
  8
1
 42
0.0
 10
2.4801865E+001
 20
7.3082472
 70
0
  0
VERTEX
  8
1
 42
0.0
 10
2.3676865E+001
 20
7.3082472
 70
0
  0
SEQEND
  0
POLYLINE
  8
1
  6
CONTINUOUS
 62
3
 66
1
 40
1.0E-003
 41
1.0E-003
 70
0
  0
VERTEX
  8
1
 42
0.0
 10
2.3676865E+001
 20
7.3082472
 70
0
  0
VERTEX
  8
1
 42
0.0
 10
2.3361862E+001
 20
8.2082449
 70
0
  0
SEQEND
  0
POLYLINE
  8
1
  6
CONTINUOUS
 62
3
 66
1
 40
1.0E-003
 41
1.0E-003
 70
0
  0
VERTEX
  8
1
 42
0.0
 10
2.3361862E+001
 20
8.2082449
 70
0
  0
VERTEX
  8
1
 42
0.0
 10
2.2746872E+001
 20
8.2082449
 70
0
  0
SEQEND
  0
POLYLINE
  8
1
  6
CONTINUOUS
 62
3
 66
1
 40
1.0E-003
 41
1.0E-003
 70
0
  0
VERTEX
  8
1
 42
0.0
 10
2.2746872E+001
 20
8.2082449
 70
0
  0
VERTEX
  8
1
 42
0.0
 10
2.2746872E+001
 20
9.3632456
 70
0
  0
SEQEND
  0
POLYLINE
  8
1
  6
CONTINUOUS
 62
3
 66
1
 40
1.0E-003
 41
1.0E-003
 70
0
  0
VERTEX
  8
1
 42
0.0
 10
2.2746872E+001
 20
9.3632456
 70
0
  0
VERTEX
  8
1
 42
0.0
 10
2.4030121E+001
 20
9.3632456
 70
0
  0
SEQEND
  0
POLYLINE
  8
1
  6
CONTINUOUS
 62
3
 66
1
 40
1.0E-003
 41
1.0E-003
 70
0
  0
VERTEX
  8
1
 42
0.0
 10
2.4030121E+001
 20
9.3632456
 70
0
  0
VERTEX
  8
1
 42
0.0
 10
2.4801865E+001
 20
7.3082472
 70
0
  0
SEQEND
  0
POLYLINE
  8
1
  6
CONTINUOUS
 62
3
 66
1
 40
1.0E-003
 41
1.0E-003
 70
0
  0
VERTEX
  8
1
 42
0.0
 10
2.2356873E+001
 20
9.753245
 70
0
  0
VERTEX
  8
1
 42
0.0
 10
2.1105118E+001
 20
9.753245
 70
0
  0
SEQEND
  0
POLYLINE
  8
1
  6
CONTINUOUS
 62
3
 66
1
 40
1.0E-003
 41
1.0E-003
 70
0
  0
VERTEX
  8
1
 42
0.0
 10
2.2356873E+001
 20
1.1808243E+001
 70
0
  0
VERTEX
  8
1
 42
0.0
 10
2.2356873E+001
 20
9.753245
 70
0
  0
SEQEND
  0
POLYLINE
  8
1
  6
CONTINUOUS
 62
3
 66
1
 40
1.0E-003
 41
1.0E-003
 70
0
  0
VERTEX
  8
1
 42
0.0
 10
2.2356873E+001
 20
1.1808243E+001
 70
0
  0
VERTEX
  8
1
 42
0.0
 10
2.1876862E+001
 20
1.1808243E+001
 70
0
  0
SEQEND
  0
POLYLINE
  8
1
  6
CONTINUOUS
 62
3
 66
1
 40
1.0E-003
 41
1.0E-003
 70
0
  0
VERTEX
  8
1
 42
0.0
 10
2.1876862E+001
 20
1.1808243E+001
 70
0
  0
VERTEX
  8
1
 42
0.0
 10
2.1105118E+001
 20
9.753245
 70
0
  0
SEQEND
  0
POLYLINE
  8
1
  6
CONTINUOUS
 62
3
 66
1
 40
1.0E-003
 41
1.0E-003
 70
0
  0
VERTEX
  8
1
 42
0.0
 10
2.2746872E+001
 20
9.753245
 70
0
  0
VERTEX
  8
1
 42
0.0
 10
2.3998611E+001
 20
9.753245
 70
0
  0
SEQEND
  0
POLYLINE
  8
1
  6
CONTINUOUS
 62
3
 66
1
 40
1.0E-003
 41
1.0E-003
 70
0
  0
VERTEX
  8
1
 42
0.0
 10
2.2746872E+001
 20
1.1808243E+001
 70
0
  0
VERTEX
  8
1
 42
0.0
 10
2.2746872E+001
 20
9.753245
 70
0
  0
SEQEND
  0
POLYLINE
  8
1
  6
CONTINUOUS
 62
3
 66
1
 40
1.0E-003
 41
1.0E-003
 70
0
  0
VERTEX
  8
1
 42
0.0
 10
2.2746872E+001
 20
1.1808243E+001
 70
0
  0
VERTEX
  8
1
 42
0.0
 10
2.3226868E+001
 20
1.1808243E+001
 70
0
  0
SEQEND
  0
POLYLINE
  8
1
  6
CONTINUOUS
 62
3
 66
1
 40
1.0E-003
 41
1.0E-003
 70
0
  0
VERTEX
  8
1
 42
0.0
 10
2.3226868E+001
 20
1.1808243E+001
 70
0
  0
VERTEX
  8
1
 42
0.0
 10
2.3998611E+001
 20
9.753245
 70
0
  0
SEQEND
  0
POLYLINE
  8
1
  6
CONTINUOUS
 62
3
 66
1
 40
1.0E-003
 41
1.0E-003
 70
0
  0
VERTEX
  8
1
 42
0.0
 10
2.5116867E+001
 20
9.3632456
 70
0
  0
VERTEX
  8
1
 42
0.0
 10
2.5116867E+001
 20
7.3082472
 70
0
  0
SEQEND
  0
POLYLINE
  8
1
  6
CONTINUOUS
 62
3
 66
1
 40
1.0E-003
 41
1.0E-003
 70
0
  0
VERTEX
  8
1
 42
0.0
 10
2.5116867E+001
 20
7.3082472
 70
0
  0
VERTEX
  8
1
 42
0.0
 10
2.6271881E+001
 20
7.3082472
 70
0
  0
SEQEND
  0
POLYLINE
  8
1
  6
CONTINUOUS
 62
3
 66
1
 40
1.0E-003
 41
1.0E-003
 70
0
  0
VERTEX
  8
1
 42
0.0
 10
2.6271881E+001
 20
9.3632456
 70
0
  0
VERTEX
  8
1
 42
0.0
 10
2.6271881E+001
 20
7.3082472
 70
0
  0
SEQEND
  0
POLYLINE
  8
1
  6
CONTINUOUS
 62
3
 66
1
 40
1.0E-003
 41
1.0E-003
 70
0
  0
VERTEX
  8
1
 42
0.0
 10
2.5116867E+001
 20
9.3632456
 70
0
  0
VERTEX
  8
1
 42
0.0
 10
2.6271881E+001
 20
9.3632456
 70
0
  0
SEQEND
  0
POLYLINE
  8
1
  6
CONTINUOUS
 62
3
 66
1
 40
1.0E-003
 41
1.0E-003
 70
0
  0
VERTEX
  8
1
 42
0.0
 10
2.5116867E+001
 20
9.753245
 70
0
  0
VERTEX
  8
1
 42
0.0
 10
2.6271881E+001
 20
9.753245
 70
0
  0
SEQEND
  0
POLYLINE
  8
1
  6
CONTINUOUS
 62
3
 66
1
 40
1.0E-003
 41
1.0E-003
 70
0
  0
VERTEX
  8
1
 42
0.0
 10
2.5116867E+001
 20
1.1808243E+001
 70
0
  0
VERTEX
  8
1
 42
0.0
 10
2.5116867E+001
 20
9.753245
 70
0
  0
SEQEND
  0
POLYLINE
  8
1
  6
CONTINUOUS
 62
3
 66
1
 40
1.0E-003
 41
1.0E-003
 70
0
  0
VERTEX
  8
1
 42
0.0
 10
2.5116867E+001
 20
1.1808243E+001
 70
0
  0
VERTEX
  8
1
 42
0.0
 10
2.6271881E+001
 20
1.1808243E+001
 70
0
  0
SEQEND
  0
POLYLINE
  8
1
  6
CONTINUOUS
 62
3
 66
1
 40
1.0E-003
 41
1.0E-003
 70
0
  0
VERTEX
  8
1
 42
0.0
 10
2.6271881E+001
 20
1.1808243E+001
 70
0
  0
VERTEX
  8
1
 42
0.0
 10
2.6271881E+001
 20
9.753245
 70
0
  0
SEQEND
  0
POLYLINE
  8
1
  6
CONTINUOUS
 62
3
 66
1
 40
1.0E-003
 41
1.0E-003
 70
0
  0
VERTEX
  8
1
 42
0.0
 10
2.6661865E+001
 20
9.3632456
 70
0
  0
VERTEX
  8
1
 42
0.0
 10
2.6661865E+001
 20
7.3082472
 70
0
  0
SEQEND
  0
POLYLINE
  8
1
  6
CONTINUOUS
 62
3
 66
1
 40
1.0E-003
 41
1.0E-003
 70
0
  0
VERTEX
  8
1
 42
0.0
 10
2.6661865E+001
 20
7.3082472
 70
0
  0
VERTEX
  8
1
 42
0.0
 10
2.691687E+001
 20
7.3082472
 70
0
  0
SEQEND
  0
POLYLINE
  8
1
  6
CONTINUOUS
 62
3
 66
1
 40
1.0E-003
 41
1.0E-003
 70
0
  0
VERTEX
  8
1
 42
0.0
 10
2.6661865E+001
 20
9.3632456
 70
0
  0
VERTEX
  8
1
 42
0.0
 10
2.8068161E+001
 20
9.3632456
 70
0
  0
SEQEND
  0
POLYLINE
  8
1
  6
CONTINUOUS
 62
3
 66
1
 40
1.0E-003
 41
1.0E-003
 70
0
  0
VERTEX
  8
1
 42
0.0
 10
2.6661865E+001
 20
1.1808243E+001
 70
0
  0
VERTEX
  8
1
 42
0.0
 10
2.6661865E+001
 20
9.753245
 70
0
  0
SEQEND
  0
POLYLINE
  8
1
  6
CONTINUOUS
 62
3
 66
1
 40
1.0E-003
 41
1.0E-003
 70
0
  0
VERTEX
  8
1
 42
0.0
 10
2.6661865E+001
 20
9.753245
 70
0
  0
VERTEX
  8
1
 42
0.0
 10
2.7706482E+001
 20
9.753245
 70
0
  0
SEQEND
  0
POLYLINE
  8
1
  6
CONTINUOUS
 62
3
 66
1
 40
1.0E-003
 41
1.0E-003
 70
0
  0
VERTEX
  8
1
 42
0.0
 10
2.6661865E+001
 20
1.1808243E+001
 70
0
  0
VERTEX
  8
1
 42
0.0
 10
2.691687E+001
 20
1.1808243E+001
 70
0
  0
SEQEND
  0
POLYLINE
  8
1
  6
CONTINUOUS
 62
3
 66
1
 40
1.0E-003
 41
1.0E-003
 70
0
  0
VERTEX
  8
1
 42
0.0
 10
2.8626862E+001
 20
9.3632456
 70
0
  0
VERTEX
  8
1
 42
0.0
 10
2.8626862E+001
 20
7.3082472
 70
0
  0
SEQEND
  0
POLYLINE
  8
1
  6
CONTINUOUS
 62
3
 66
1
 40
1.0E-003
 41
1.0E-003
 70
0
  0
VERTEX
  8
1
 42
0.0
 10
2.8626862E+001
 20
7.3082472
 70
0
  0
VERTEX
  8
1
 42
0.0
 10
2.9781876E+001
 20
7.3082472
 70
0
  0
SEQEND
  0
POLYLINE
  8
1
  6
CONTINUOUS
 62
3
 66
1
 40
1.0E-003
 41
1.0E-003
 70
0
  0
VERTEX
  8
1
 42
0.0
 10
2.9781876E+001
 20
9.3632456
 70
0
  0
VERTEX
  8
1
 42
0.0
 10
2.9781876E+001
 20
7.3082472
 70
0
  0
SEQEND
  0
POLYLINE
  8
1
  6
CONTINUOUS
 62
3
 66
1
 40
1.0E-003
 41
1.0E-003
 70
0
  0
VERTEX
  8
1
 42
0.0
 10
2.8626862E+001
 20
9.3632456
 70
0
  0
VERTEX
  8
1
 42
0.0
 10
2.9781876E+001
 20
9.3632456
 70
0
  0
SEQEND
  0
POLYLINE
  8
1
  6
CONTINUOUS
 62
3
 66
1
 40
1.0E-003
 41
1.0E-003
 70
0
  0
VERTEX
  8
1
 42
0.0
 10
2.8626862E+001
 20
1.1808243E+001
 70
0
  0
VERTEX
  8
1
 42
0.0
 10
2.8626862E+001
 20
9.753245
 70
0
  0
SEQEND
  0
POLYLINE
  8
1
  6
CONTINUOUS
 62
3
 66
1
 40
1.0E-003
 41
1.0E-003
 70
0
  0
VERTEX
  8
1
 42
0.0
 10
2.8626862E+001
 20
9.753245
 70
0
  0
VERTEX
  8
1
 42
0.0
 10
2.9781876E+001
 20
9.753245
 70
0
  0
SEQEND
  0
POLYLINE
  8
1
  6
CONTINUOUS
 62
3
 66
1
 40
1.0E-003
 41
1.0E-003
 70
0
  0
VERTEX
  8
1
 42
0.0
 10
2.9781876E+001
 20
1.1808243E+001
 70
0
  0
VERTEX
  8
1
 42
0.0
 10
2.9781876E+001
 20
9.753245
 70
0
  0
SEQEND
  0
POLYLINE
  8
1
  6
CONTINUOUS
 62
3
 66
1
 40
1.0E-003
 41
1.0E-003
 70
0
  0
VERTEX
  8
1
 42
0.0
 10
2.8626862E+001
 20
1.1808243E+001
 70
0
  0
VERTEX
  8
1
 42
0.0
 10
2.9781876E+001
 20
1.1808243E+001
 70
0
  0
SEQEND
  0
POLYLINE
  8
1
  6
CONTINUOUS
 62
3
 66
1
 40
1.0E-003
 41
1.0E-003
 70
0
  0
VERTEX
  8
1
 42
0.0
 10
3.017186E+001
 20
9.3632456
 70
0
  0
VERTEX
  8
1
 42
0.0
 10
3.017186E+001
 20
7.3082472
 70
0
  0
SEQEND
  0
POLYLINE
  8
1
  6
CONTINUOUS
 62
3
 66
1
 40
1.0E-003
 41
1.0E-003
 70
0
  0
VERTEX
  8
1
 42
0.0
 10
3.017186E+001
 20
7.3082472
 70
0
  0
VERTEX
  8
1
 42
0.0
 10
3.0426865E+001
 20
7.3082472
 70
0
  0
SEQEND
  0
POLYLINE
  8
1
  6
CONTINUOUS
 62
3
 66
1
 40
1.0E-003
 41
1.0E-003
 70
0
  0
VERTEX
  8
1
 42
0.0
 10
3.017186E+001
 20
9.3632456
 70
0
  0
VERTEX
  8
1
 42
0.0
 10
3.1578156E+001
 20
9.3632456
 70
0
  0
SEQEND
  0
POLYLINE
  8
1
  6
CONTINUOUS
 62
3
 66
1
 40
1.0E-003
 41
1.0E-003
 70
0
  0
VERTEX
  8
1
 42
0.0
 10
3.017186E+001
 20
1.1808243E+001
 70
0
  0
VERTEX
  8
1
 42
0.0
 10
3.017186E+001
 20
9.753245
 70
0
  0
SEQEND
  0
POLYLINE
  8
1
  6
CONTINUOUS
 62
3
 66
1
 40
1.0E-003
 41
1.0E-003
 70
0
  0
VERTEX
  8
1
 42
0.0
 10
3.017186E+001
 20
9.753245
 70
0
  0
VERTEX
  8
1
 42
0.0
 10
3.1216476E+001
 20
9.753245
 70
0
  0
SEQEND
  0
POLYLINE
  8
1
  6
CONTINUOUS
 62
3
 66
1
 40
1.0E-003
 41
1.0E-003
 70
0
  0
VERTEX
  8
1
 42
0.0
 10
3.017186E+001
 20
1.1808243E+001
 70
0
  0
VERTEX
  8
1
 42
0.0
 10
3.0426865E+001
 20
1.1808243E+001
 70
0
  0
SEQEND
  0
INSERT
  2
XHXH1NEW02NEW00NEW00
  8
1
 10
2.1933228E+001
 20
1.1581771E+001
  0
POLYLINE
  8
1
  6
CONTINUOUS
 62
3
 66
1
 40
1.0E-003
 41
1.0E-003
 70
0
  0
VERTEX
  8
1
 42
1.0
 10
1.4452078E+002
 20
1.825E+001
 70
0
  0
VERTEX
  8
1
 42
1.0
 10
1.4052078E+002
 20
1.825E+001
 70
0
  0
VERTEX
  8
1
 42
0.0
 10
1.4452078E+002
 20
1.825E+001
 70
0
  0
SEQEND
  0
POLYLINE
  8
1
  6
CONTINUOUS
 62
3
 66
1
 40
1.0E-003
 41
1.0E-003
 70
0
  0
VERTEX
  8
1
 42
1.0
 10
1.4352078E+002
 20
1.825E+001
 70
0
  0
VERTEX
  8
1
 42
1.0
 10
1.4152078E+002
 20
1.825E+001
 70
0
  0
VERTEX
  8
1
 42
0.0
 10
1.4352078E+002
 20
1.825E+001
 70
0
  0
SEQEND
  0
POLYLINE
  8
1
  6
CONTINUOUS
 62
3
 66
1
 40
1.0E-003
 41
1.0E-003
 70
0
  0
VERTEX
  8
1
 42
5.8600137E-001
 10
2.691687E+001
 20
7.3082456
 70
0
  0
VERTEX
  8
1
 42
0.0
 10
2.8068163E+001
 20
9.3632459
 70
0
  0
SEQEND
  0
POLYLINE
  8
1
  6
CONTINUOUS
 62
3
 66
1
 40
1.0E-003
 41
1.0E-003
 70
0
  0
VERTEX
  8
1
 42
6.2051509E-002
 10
2.7706476E+001
 20
9.7532445
 70
0
  0
VERTEX
  8
1
 42
0.0
 10
2.7413674E+001
 20
9.9135089
 70
0
  0
SEQEND
  0
POLYLINE
  8
1
  6
CONTINUOUS
 62
3
 66
1
 40
1.0E-003
 41
1.0E-003
 70
0
  0
VERTEX
  8
1
 42
7.7160142E-001
 10
2.7413674E+001
 20
9.9135095
 70
0
  0
VERTEX
  8
1
 42
0.0
 10
2.691687E+001
 20
1.1808246E+001
 70
0
  0
SEQEND
  0
POLYLINE
  8
1
  6
CONTINUOUS
 62
3
 66
1
 40
1.0E-003
 41
1.0E-003
 70
0
  0
VERTEX
  8
1
 42
5.8600137E-001
 10
3.0426865E+001
 20
7.3082456
 70
0
  0
VERTEX
  8
1
 42
0.0
 10
3.1578157E+001
 20
9.3632459
 70
0
  0
SEQEND
  0
POLYLINE
  8
1
  6
CONTINUOUS
 62
3
 66
1
 40
1.0E-003
 41
1.0E-003
 70
0
  0
VERTEX
  8
1
 42
6.2051509E-002
 10
3.1216471E+001
 20
9.7532445
 70
0
  0
VERTEX
  8
1
 42
0.0
 10
3.0923669E+001
 20
9.9135089
 70
0
  0
SEQEND
  0
POLYLINE
  8
1
  6
CONTINUOUS
 62
3
 66
1
 40
1.0E-003
 41
1.0E-003
 70
0
  0
VERTEX
  8
1
 42
7.7160142E-001
 10
3.0923669E+001
 20
9.9135095
 70
0
  0
VERTEX
  8
1
 42
0.0
 10
3.0426865E+001
 20
1.1808246E+001
 70
0
  0
SEQEND
  0
POINT
  8
Drafting_Hidden_Entities
  6
CONTINUOUS
 62
1
 10
0.0
 20
0.0
  0
ENDBLK
  0
BLOCK
  2
*D1110
  3
*D
 10
0.0
 20
0.0
 70
65
  0
LINE
  8
1
  6
CONTINUOUS
 62
4
 10
1.9122304E+002
 20
2.1823181E+002
 11
1.9122304E+002
 21
2.5154771E+002
  0
LINE
  8
1
  6
CONTINUOUS
 62
4
 10
1.3022304E+002
 20
2.1592081E+002
 11
1.3022304E+002
 21
2.5154771E+002
  0
SOLID
  8
1
  6
CONTINUOUS
 62
0
 10
1.9122304E+002
 20
2.5004771E+002
 11
1.8822304E+002
 21
2.5054771E+002
 12
1.8822304E+002
 22
2.4954771E+002
 13
1.8822304E+002
 23
2.4954771E+002
  0
SOLID
  8
1
  6
CONTINUOUS
 62
0
 10
1.3022304E+002
 20
2.5004771E+002
 11
1.3322304E+002
 21
2.4954771E+002
 12
1.3322304E+002
 22
2.5054771E+002
 13
1.3322304E+002
 23
2.5054771E+002
  0
LINE
  8
1
  6
CONTINUOUS
 62
4
 10
1.9122304E+002
 20
2.5004771E+002
 11
1.6172124E+002
 21
2.5004771E+002
  0
LINE
  8
1
  6
CONTINUOUS
 62
4
 10
1.3022304E+002
 20
2.5004771E+002
 11
1.6172124E+002
 21
2.5004771E+002
  0
TEXT
  8
1
  6
CONTINUOUS
 62
4
 10
1.5932124E+002
 20
2.5154871E+002
 40
3.0
  1
61
 41
8.0E-001
 50
3.6E+002
 51
1.0
  0
ENDBLK
  0
BLOCK
  2
*D1112
  3
*D
 10
0.0
 20
0.0
 70
65
  0
LINE
  8
1
  6
CONTINUOUS
 62
4
 10
8.2190891E+001
 20
2.1837081E+002
 11
8.2190891E+001
 21
2.28969E+002
  0
LINE
  8
1
  6
CONTINUOUS
 62
4
 10
2.9690911E+001
 20
2.1837081E+002
 11
2.9690911E+001
 21
2.28969E+002
  0
SOLID
  8
1
  6
CONTINUOUS
 62
0
 10
8.2190891E+001
 20
2.27469E+002
 11
7.9190891E+001
 21
2.27969E+002
 12
7.9190891E+001
 22
2.2696899E+002
 13
7.9190891E+001
 23
2.2696899E+002
  0
SOLID
  8
1
  6
CONTINUOUS
 62
0
 10
2.9690911E+001
 20
2.27469E+002
 11
3.2690911E+001
 21
2.2696899E+002
 12
3.2690911E+001
 22
2.27969E+002
 13
3.2690911E+001
 23
2.27969E+002
  0
LINE
  8
1
  6
CONTINUOUS
 62
4
 10
8.2190891E+001
 20
2.27469E+002
 11
6.2587025E+001
 21
2.27469E+002
  0
LINE
  8
1
  6
CONTINUOUS
 62
4
 10
2.9690911E+001
 20
2.27469E+002
 11
6.2587025E+001
 21
2.27469E+002
  0
ENDBLK
  0
BLOCK
  2
*D1113
  3
*D
 10
0.0
 20
0.0
 70
65
  0
LINE
  8
1
  6
CONTINUOUS
 62
4
 10
8.1891001E+001
 20
2.0967071E+002
 11
9.5985371E+001
 21
2.0967071E+002
  0
LINE
  8
1
  6
CONTINUOUS
 62
4
 10
8.1890981E+001
 20
1.6467071E+002
 11
9.5985371E+001
 21
1.6467071E+002
  0
SOLID
  8
1
  6
CONTINUOUS
 62
0
 10
9.4485371E+001
 20
2.0967071E+002
 11
9.3985367E+001
 21
2.0667071E+002
 12
9.4985375E+001
 22
2.0667071E+002
 13
9.4985375E+001
 23
2.0667071E+002
  0
SOLID
  8
1
  6
CONTINUOUS
 62
0
 10
9.4485371E+001
 20
1.6467071E+002
 11
9.4985375E+001
 21
1.6767071E+002
 12
9.3985367E+001
 22
1.6767071E+002
 13
9.3985367E+001
 23
1.6767071E+002
  0
LINE
  8
1
  6
CONTINUOUS
 62
4
 10
9.4485371E+001
 20
2.0967071E+002
 11
9.4485371E+001
 21
1.8690911E+002
  0
LINE
  8
1
  6
CONTINUOUS
 62
4
 10
9.4485371E+001
 20
1.6467071E+002
 11
9.4485371E+001
 21
1.8690911E+002
  0
TEXT
  8
1
  6
CONTINUOUS
 62
4
 10
9.2984371E+001
 20
1.8390911E+002
 40
3.0
  1
45
 50
9.0E+001
 51
1.0
  0
ENDBLK
  0
BLOCK
  2
*D1114
  3
*D
 10
0.0
 20
0.0
 70
65
  0
LINE
  8
1
  6
CONTINUOUS
 62
4
 10
8.2190891E+001
 20
2.1837081E+002
 11
8.2190891E+001
 21
2.3653446E+002
  0
LINE
  8
1
  6
CONTINUOUS
 62
4
 10
2.7190871E+001
 20
1.7143101E+002
 11
2.7190871E+001
 21
2.3653446E+002
  0
SOLID
  8
1
  6
CONTINUOUS
 62
0
 10
8.2190891E+001
 20
2.3503446E+002
 11
7.9190891E+001
 21
2.3553446E+002
 12
7.9190891E+001
 22
2.3453446E+002
 13
7.9190891E+001
 23
2.3453446E+002
  0
SOLID
  8
1
  6
CONTINUOUS
 62
0
 10
2.7190871E+001
 20
2.3503446E+002
 11
3.0190871E+001
 21
2.3453446E+002
 12
3.0190871E+001
 22
2.3553446E+002
 13
3.0190871E+001
 23
2.3553446E+002
  0
LINE
  8
1
  6
CONTINUOUS
 62
4
 10
8.2190891E+001
 20
2.3503446E+002
 11
5.4608898E+001
 21
2.3503446E+002
  0
LINE
  8
1
  6
CONTINUOUS
 62
4
 10
2.7190871E+001
 20
2.3503446E+002
 11
5.4608898E+001
 21
2.3503446E+002
  0
TEXT
  8
1
  6
CONTINUOUS
 62
4
 10
5.2208898E+001
 20
2.3653546E+002
 40
3.0
  1
55
 41
8.0E-001
 50
3.6E+002
 51
1.0
  0
ENDBLK
  0
BLOCK
  2
*D1116
  3
*D
 10
0.0
 20
0.0
 70
65
  0
LINE
  8
1
  6
CONTINUOUS
 62
4
 10
1.3472304E+002
 20
1.5892061E+002
 11
1.3472304E+002
 21
1.4422481E+002
  0
LINE
  8
1
  6
CONTINUOUS
 62
4
 10
1.3022304E+002
 20
1.5842061E+002
 11
1.3022304E+002
 21
1.4422481E+002
  0
SOLID
  8
1
  6
CONTINUOUS
 62
0
 10
1.3472304E+002
 20
1.4572481E+002
 11
1.3772304E+002
 21
1.4522481E+002
 12
1.3772304E+002
 22
1.4622481E+002
 13
1.3772304E+002
 23
1.4622481E+002
  0
SOLID
  8
1
  6
CONTINUOUS
 62
0
 10
1.3022304E+002
 20
1.4572481E+002
 11
1.2722304E+002
 21
1.4622481E+002
 12
1.2722304E+002
 22
1.4522481E+002
 13
1.2722304E+002
 23
1.4522481E+002
  0
LINE
  8
1
  6
CONTINUOUS
 62
4
 10
1.3472304E+002
 20
1.4572481E+002
 11
1.4758972E+002
 21
1.4572481E+002
  0
LINE
  8
1
  6
CONTINUOUS
 62
4
 10
1.2422304E+002
 20
1.4572481E+002
 11
1.3472304E+002
 21
1.4572481E+002
  0
ENDBLK
  0
BLOCK
  2
*D1118
  3
*D
 10
0.0
 20
0.0
 70
65
  0
LINE
  8
1
  6
CONTINUOUS
 62
4
 10
1.3322304E+002
 20
2.0467081E+002
 11
1.3322304E+002
 21
2.3803091E+002
  0
LINE
  8
1
  6
CONTINUOUS
 62
4
 10
1.7672304E+002
 20
2.1217081E+002
 11
1.7672304E+002
 21
2.3803091E+002
  0
SOLID
  8
1
  6
CONTINUOUS
 62
0
 10
1.3322304E+002
 20
2.3653091E+002
 11
1.3622304E+002
 21
2.3603091E+002
 12
1.3622304E+002
 22
2.3703091E+002
 13
1.3622304E+002
 23
2.3703091E+002
  0
SOLID
  8
1
  6
CONTINUOUS
 62
0
 10
1.7672304E+002
 20
2.3653091E+002
 11
1.7372304E+002
 21
2.3703091E+002
 12
1.7372304E+002
 22
2.3603091E+002
 13
1.7372304E+002
 23
2.3603091E+002
  0
LINE
  8
1
  6
CONTINUOUS
 62
4
 10
1.3322304E+002
 20
2.3653091E+002
 11
1.5378194E+002
 21
2.3653091E+002
  0
LINE
  8
1
  6
CONTINUOUS
 62
4
 10
1.7672304E+002
 20
2.3653091E+002
 11
1.5378194E+002
 21
2.3653091E+002
  0
ENDBLK
  0
BLOCK
  2
*D1120
  3
*D
 10
0.0
 20
0.0
 70
65
  0
LINE
  8
1
  6
CONTINUOUS
 62
4
 10
1.3322304E+002
 20
2.0467081E+002
 11
1.3322304E+002
 21
2.2484601E+002
  0
LINE
  8
1
  6
CONTINUOUS
 62
4
 10
1.5882304E+002
 20
2.1867081E+002
 11
1.5882304E+002
 21
2.2484601E+002
  0
SOLID
  8
1
  6
CONTINUOUS
 62
0
 10
1.3322304E+002
 20
2.2334601E+002
 11
1.3622304E+002
 21
2.2284601E+002
 12
1.3622304E+002
 22
2.2384601E+002
 13
1.3622304E+002
 23
2.2384601E+002
  0
SOLID
  8
1
  6
CONTINUOUS
 62
0
 10
1.5882304E+002
 20
2.2334601E+002
 11
1.5582304E+002
 21
2.2384601E+002
 12
1.5582304E+002
 22
2.2284601E+002
 13
1.5582304E+002
 23
2.2284601E+002
  0
LINE
  8
1
  6
CONTINUOUS
 62
4
 10
1.3322304E+002
 20
2.2334601E+002
 11
1.4421224E+002
 21
2.2334601E+002
  0
LINE
  8
1
  6
CONTINUOUS
 62
4
 10
1.5882304E+002
 20
2.2334601E+002
 11
1.4421224E+002
 21
2.2334601E+002
  0
ENDBLK
  0
BLOCK
  2
*D1122
  3
*D
 10
0.0
 20
0.0
 70
65
  0
LINE
  8
1
  6
CONTINUOUS
 62
4
 10
1.6672304E+002
 20
2.0372081E+002
 11
1.6672304E+002
 21
2.3154481E+002
  0
LINE
  8
1
  6
CONTINUOUS
 62
4
 10
1.3322304E+002
 20
2.0467081E+002
 11
1.3322304E+002
 21
2.3154481E+002
  0
SOLID
  8
1
  6
CONTINUOUS
 62
0
 10
1.6672304E+002
 20
2.3004481E+002
 11
1.6372304E+002
 21
2.3054481E+002
 12
1.6372304E+002
 22
2.2954481E+002
 13
1.6372304E+002
 23
2.2954481E+002
  0
SOLID
  8
1
  6
CONTINUOUS
 62
0
 10
1.3322304E+002
 20
2.3004481E+002
 11
1.3622304E+002
 21
2.2954481E+002
 12
1.3622304E+002
 22
2.3054481E+002
 13
1.3622304E+002
 23
2.3054481E+002
  0
LINE
  8
1
  6
CONTINUOUS
 62
4
 10
1.6672304E+002
 20
2.3004481E+002
 11
1.4931604E+002
 21
2.3004481E+002
  0
LINE
  8
1
  6
CONTINUOUS
 62
4
 10
1.3322304E+002
 20
2.3004481E+002
 11
1.4931604E+002
 21
2.3004481E+002
  0
ENDBLK
  0
BLOCK
  2
*D1123
  3
*D
 10
0.0
 20
0.0
 70
65
  0
LINE
  8
1
  6
CONTINUOUS
 62
4
 10
1.3322304E+002
 20
2.0467081E+002
 11
1.3322304E+002
 21
2.4472971E+002
  0
LINE
  8
1
  6
CONTINUOUS
 62
4
 10
1.9122304E+002
 20
2.1823181E+002
 11
1.9122304E+002
 21
2.4472971E+002
  0
SOLID
  8
1
  6
CONTINUOUS
 62
0
 10
1.3322304E+002
 20
2.4322971E+002
 11
1.3622304E+002
 21
2.4272971E+002
 12
1.3622304E+002
 22
2.4372971E+002
 13
1.3622304E+002
 23
2.4372971E+002
  0
SOLID
  8
1
  6
CONTINUOUS
 62
0
 10
1.9122304E+002
 20
2.4322971E+002
 11
1.8822304E+002
 21
2.4372971E+002
 12
1.8822304E+002
 22
2.4272971E+002
 13
1.8822304E+002
 23
2.4272971E+002
  0
LINE
  8
1
  6
CONTINUOUS
 62
4
 10
1.3322304E+002
 20
2.4322971E+002
 11
1.6090604E+002
 21
2.4322971E+002
  0
LINE
  8
1
  6
CONTINUOUS
 62
4
 10
1.9122304E+002
 20
2.4322971E+002
 11
1.6090604E+002
 21
2.4322971E+002
  0
TEXT
  8
1
  6
CONTINUOUS
 62
4
 10
1.5850604E+002
 20
2.4473071E+002
 40
3.0
  1
58
 41
8.0E-001
 51
1.0
  0
ENDBLK
  0
BLOCK
  2
*D1126
  3
*D
 10
0.0
 20
0.0
 70
65
  0
LINE
  8
1
  6
CONTINUOUS
 62
4
 10
8.1890991E+001
 20
2.1867071E+002
 11
1.0285696E+002
 21
2.1867071E+002
  0
LINE
  8
1
  6
CONTINUOUS
 62
4
 10
8.1890971E+001
 20
1.5567071E+002
 11
1.0285696E+002
 21
1.5567071E+002
  0
SOLID
  8
1
  6
CONTINUOUS
 62
0
 10
1.0135696E+002
 20
2.1867071E+002
 11
1.0085696E+002
 21
2.1567071E+002
 12
1.0185696E+002
 22
2.1567071E+002
 13
1.0185696E+002
 23
2.1567071E+002
  0
SOLID
  8
1
  6
CONTINUOUS
 62
0
 10
1.0135696E+002
 20
1.5567071E+002
 11
1.0185696E+002
 21
1.5867071E+002
 12
1.0085696E+002
 22
1.5867071E+002
 13
1.0085696E+002
 23
1.5867071E+002
  0
LINE
  8
1
  6
CONTINUOUS
 62
4
 10
1.0135696E+002
 20
2.1867071E+002
 11
1.0135696E+002
 21
1.8705531E+002
  0
LINE
  8
1
  6
CONTINUOUS
 62
4
 10
1.0135696E+002
 20
1.5567071E+002
 11
1.0135696E+002
 21
1.8705531E+002
  0
TEXT
  8
1
  6
CONTINUOUS
 62
4
 10
9.9855961E+001
 20
1.8465531E+002
 40
3.0
  1
63
 41
8.0E-001
 50
9.0E+001
 51
1.0
  0
ENDBLK
  0
BLOCK
  2
*E1199
  3
*E1199
 10
3.2990891E+001
 20
2.0747071E+002
 70
65
  0
ARC
  8
1
  6
HIDDEN
 62
3
 10
3.2990891E+001
 20
2.0747071E+002
 40
8.0E-001
 50
1.7999999E+002
 51
2.7E+002
  0
ENDBLK
  0
BLOCK
  2
*E1225
  3
*E1225
 10
4.0690881E+001
 20
1.8512071E+002
 70
65
  0
ARC
  8
1
  6
HIDDEN
 62
3
 10
4.0690881E+001
 20
1.8512071E+002
 40
5.0E-001
 50
0.0
 51
9.0E+001
  0
ENDBLK
  0
BLOCK
  2
*E1226
  3
*E1226
 10
7.8890881E+001
 20
1.6687071E+002
 70
65
  0
ARC
  8
1
  6
HIDDEN
 62
3
 10
7.8890881E+001
 20
1.6687071E+002
 40
8.0E-001
 50
0.0
 51
9.0E+001
  0
ENDBLK
  0
BLOCK
  2
*E1227
  3
*E1227
 10
6.9593151E+001
 20
1.6642291E+002
 70
65
  0
ARC
  8
1
  6
HIDDEN
 62
3
 10
6.9593151E+001
 20
1.6642291E+002
 40
3.522591E-001
 50
2.703412E+002
 51
4.59195E+002
  0
ENDBLK
  0
BLOCK
  2
*E1229
  3
*E1229
 10
6.0493141E+001
 20
1.6642291E+002
 70
65
  0
ARC
  8
1
  6
HIDDEN
 62
3
 10
6.0493141E+001
 20
1.6642291E+002
 40
3.522591E-001
 50
2.703412E+002
 51
4.59195E+002
  0
ENDBLK
  0
BLOCK
  2
*E1230
  3
*E1230
 10
5.1393151E+001
 20
1.6642291E+002
 70
65
  0
ARC
  8
1
  6
HIDDEN
 62
3
 10
5.1393151E+001
 20
1.6642291E+002
 40
3.522591E-001
 50
2.703412E+002
 51
4.59195E+002
  0
ENDBLK
  0
BLOCK
  2
*E1231
  3
*E1231
 10
4.2293151E+001
 20
1.6642291E+002
 70
65
  0
ARC
  8
1
  6
HIDDEN
 62
3
 10
4.2293151E+001
 20
1.6642291E+002
 40
3.522591E-001
 50
2.703412E+002
 51
4.59195E+002
  0
ENDBLK
  0
BLOCK
  2
*E1233
  3
*E1233
 10
3.3040871E+001
 20
1.6657071E+002
 70
65
  0
ARC
  8
1
  6
HIDDEN
 62
3
 10
3.3040871E+001
 20
1.6657071E+002
 40
5.0E-001
 50
0.0
 51
9.0E+001
  0
ENDBLK
  0
BLOCK
  2
*E1237
  3
*E1237
 10
7.8840891E+001
 20
2.0777071E+002
 70
65
  0
ARC
  8
1
  6
HIDDEN
 62
3
 10
7.8840891E+001
 20
2.0777071E+002
 40
5.0E-001
 50
1.7999999E+002
 51
2.7E+002
  0
ENDBLK
  0
BLOCK
  2
*E1241
  3
*E1241
 10
7.8890881E+001
 20
1.6687071E+002
 70
65
  0
ARC
  8
1
  6
HIDDEN
 62
3
 10
7.8890881E+001
 20
1.6687071E+002
 40
8.0E-001
 50
0.0
 51
9.0E+001
  0
ENDBLK
  0
BLOCK
  2
*E1242
  3
*E1242
 10
3.2990891E+001
 20
1.6687071E+002
 70
65
  0
ARC
  8
1
  6
HIDDEN
 62
3
 10
3.2990891E+001
 20
1.6687071E+002
 40
8.0E-001
 50
2.7E+002
 51
3.6E+002
  0
ENDBLK
  0
BLOCK
  2
*E1244
  3
*E1244
 10
7.8890891E+001
 20
2.0747071E+002
 70
65
  0
ARC
  8
1
  6
HIDDEN
 62
3
 10
7.8890891E+001
 20
2.0747071E+002
 40
8.0E-001
 50
9.0E+001
 51
1.7999999E+002
  0
ENDBLK
  0
BLOCK
  2
*E1245
  3
*E
 10
0.0
 20
0.0
 70
65
  0
CIRCLE
  8
1
  6
HIDDEN
 62
3
 10
0.0
 20
0.0
 40
1.0
  0
ENDBLK
  0
BLOCK
  2
*E1246
  3
*E1246
 10
3.0940871E+001
 20
1.6217071E+002
 70
65
  0
ARC
  8
1
  6
HIDDEN
 62
3
 10
3.0940871E+001
 20
1.6217071E+002
 40
2.25
 50
2.0726605E+002
 51
2.1374804E+002
  0
ENDBLK
  0
BLOCK
  2
*E1247
  3
*E1247
 10
7.5940891E+001
 20
2.1217071E+002
 70
65
  0
ARC
  8
1
  6
HIDDEN
 62
3
 10
7.5940891E+001
 20
2.1217071E+002
 40
3.75
 50
9.0E+001
 51
2.7E+002
  0
ENDBLK
  0
BLOCK
  2
*E1248
  3
*E1248
 10
4.0940871E+001
 20
1.6217071E+002
 70
65
  0
ARC
  8
1
  6
HIDDEN
 62
3
 10
4.0940871E+001
 20
1.6217071E+002
 40
3.75
 50
3.5966681E+002
 51
4.5E+002
  0
ENDBLK
  0
BLOCK
  2
*E1249
  3
*E1249
 10
3.0940871E+001
 20
1.6217071E+002
 70
65
  0
ARC
  8
1
  6
CONTINUOUS
 62
3
 10
3.0940871E+001
 20
1.6217071E+002
 40
3.75
 50
2.1934598E+002
 51
3.405293E+002
  0
ENDBLK
  0
BLOCK
  2
*E1250
  3
*E1250
 10
3.5940871E+001
 20
1.6217071E+002
 70
65
  0
ARC
  8
1
  6
HIDDEN
 62
3
 10
3.5940871E+001
 20
1.6217071E+002
 40
2.25
 50
3.327339E+002
 51
5.1273393E+002
  0
ENDBLK
  0
BLOCK
  2
*E1251
  3
*E1251
 10
4.0940871E+001
 20
1.6217071E+002
 70
65
  0
ARC
  8
1
  6
HIDDEN
 62
3
 10
4.0940871E+001
 20
1.6217071E+002
 40
2.25
 50
2.0726607E+002
 51
5.1273393E+002
  0
ENDBLK
  0
BLOCK
  2
*E1282
  3
*E1282
 10
3.5525521E+001
 20
1.8816391E+002
 70
65
  0
ARC
  8
1
  6
HIDDEN
 62
3
 10
3.5525521E+001
 20
1.8816391E+002
 40
6.419031E-002
 50
2.0695312E+002
 51
3.79765E+002
  0
ENDBLK
  0
BLOCK
  2
*E1287
  3
*E1287
 10
3.9214921E+001
 20
1.8905351E+002
 70
65
  0
ARC
  8
1
  6
HIDDEN
 62
3
 10
3.9214921E+001
 20
1.8905351E+002
 40
5.0E-001
 50
1.7999999E+002
 51
2.7E+002
  0
ENDBLK
  0
BLOCK
  2
*E1396
  3
*E1396
 10
7.4140891E+001
 20
1.9987071E+002
 70
65
  0
ARC
  8
1
  6
HIDDEN
 62
3
 10
7.4140891E+001
 20
1.9987071E+002
 40
7.5E-001
 50
1.22231E+002
 51
1.4776898E+002
  0
ENDBLK
  0
BLOCK
  2
*E1397
  3
*E1397
 10
7.4140891E+001
 20
1.9987071E+002
 70
65
  0
ARC
  8
1
  6
HIDDEN
 62
3
 10
7.4140891E+001
 20
1.9987071E+002
 40
7.5E-001
 50
3.2231E+001
 51
5.7769E+001
  0
ENDBLK
  0
BLOCK
  2
*E1414
  3
*E1414
 10
6.5040881E+001
 20
1.9987071E+002
 70
65
  0
ARC
  8
1
  6
HIDDEN
 62
3
 10
6.5040881E+001
 20
1.9987071E+002
 40
7.5E-001
 50
1.22231E+002
 51
1.4776898E+002
  0
ENDBLK
  0
BLOCK
  2
*E1415
  3
*E1415
 10
6.5040881E+001
 20
1.9987071E+002
 70
65
  0
ARC
  8
1
  6
HIDDEN
 62
3
 10
6.5040881E+001
 20
1.9987071E+002
 40
7.5E-001
 50
3.2231E+001
 51
5.7769E+001
  0
ENDBLK
  0
BLOCK
  2
*E1434
  3
*E1434
 10
5.5940891E+001
 20
1.9987071E+002
 70
65
  0
ARC
  8
1
  6
HIDDEN
 62
3
 10
5.5940891E+001
 20
1.9987071E+002
 40
7.5E-001
 50
1.22231E+002
 51
1.4776898E+002
  0
ENDBLK
  0
BLOCK
  2
*E1435
  3
*E1435
 10
5.5940891E+001
 20
1.9987071E+002
 70
65
  0
ARC
  8
1
  6
HIDDEN
 62
3
 10
5.5940891E+001
 20
1.9987071E+002
 40
7.5E-001
 50
3.2231E+001
 51
5.7769E+001
  0
ENDBLK
  0
BLOCK
  2
*E1454
  3
*E1454
 10
4.6840891E+001
 20
1.9987071E+002
 70
65
  0
ARC
  8
1
  6
HIDDEN
 62
3
 10
4.6840891E+001
 20
1.9987071E+002
 40
7.5E-001
 50
1.22231E+002
 51
1.4776898E+002
  0
ENDBLK
  0
BLOCK
  2
*E1455
  3
*E1455
 10
4.6840891E+001
 20
1.9987071E+002
 70
65
  0
ARC
  8
1
  6
HIDDEN
 62
3
 10
4.6840891E+001
 20
1.9987071E+002
 40
7.5E-001
 50
3.2231E+001
 51
5.7769E+001
  0
ENDBLK
  0
BLOCK
  2
*E1474
  3
*E1474
 10
3.7740891E+001
 20
1.9987071E+002
 70
65
  0
ARC
  8
1
  6
HIDDEN
 62
3
 10
3.7740891E+001
 20
1.9987071E+002
 40
7.5E-001
 50
1.22231E+002
 51
1.4776898E+002
  0
ENDBLK
  0
BLOCK
  2
*E1475
  3
*E1475
 10
3.7740891E+001
 20
1.9987071E+002
 70
65
  0
ARC
  8
1
  6
HIDDEN
 62
3
 10
3.7740891E+001
 20
1.9987071E+002
 40
7.5E-001
 50
3.2231E+001
 51
5.7769E+001
  0
ENDBLK
  0
BLOCK
  2
*E1494
  3
*E1494
 10
7.4140881E+001
 20
1.7447071E+002
 70
65
  0
ARC
  8
1
  6
HIDDEN
 62
3
 10
7.4140881E+001
 20
1.7447071E+002
 40
7.5E-001
 50
2.1223097E+002
 51
2.3776895E+002
  0
ENDBLK
  0
BLOCK
  2
*E1495
  3
*E1495
 10
7.4140881E+001
 20
1.7447071E+002
 70
65
  0
ARC
  8
1
  6
HIDDEN
 62
3
 10
7.4140881E+001
 20
1.7447071E+002
 40
7.5E-001
 50
3.02231E+002
 51
3.27769E+002
  0
ENDBLK
  0
BLOCK
  2
*E1512
  3
*E1512
 10
6.5040881E+001
 20
1.7447071E+002
 70
65
  0
ARC
  8
1
  6
HIDDEN
 62
3
 10
6.5040881E+001
 20
1.7447071E+002
 40
7.5E-001
 50
2.1223097E+002
 51
2.3776895E+002
  0
ENDBLK
  0
BLOCK
  2
*E1513
  3
*E1513
 10
6.5040881E+001
 20
1.7447071E+002
 70
65
  0
ARC
  8
1
  6
HIDDEN
 62
3
 10
6.5040881E+001
 20
1.7447071E+002
 40
7.5E-001
 50
3.02231E+002
 51
3.27769E+002
  0
ENDBLK
  0
BLOCK
  2
*E1532
  3
*E1532
 10
5.5940881E+001
 20
1.7447071E+002
 70
65
  0
ARC
  8
1
  6
HIDDEN
 62
3
 10
5.5940881E+001
 20
1.7447071E+002
 40
7.5E-001
 50
2.1223097E+002
 51
2.3776895E+002
  0
ENDBLK
  0
BLOCK
  2
*E1533
  3
*E1533
 10
5.5940881E+001
 20
1.7447071E+002
 70
65
  0
ARC
  8
1
  6
HIDDEN
 62
3
 10
5.5940881E+001
 20
1.7447071E+002
 40
7.5E-001
 50
3.02231E+002
 51
3.27769E+002
  0
ENDBLK
  0
BLOCK
  2
*E1552
  3
*E1552
 10
4.6840881E+001
 20
1.7447071E+002
 70
65
  0
ARC
  8
1
  6
HIDDEN
 62
3
 10
4.6840881E+001
 20
1.7447071E+002
 40
7.5E-001
 50
2.1223097E+002
 51
2.3776895E+002
  0
ENDBLK
  0
BLOCK
  2
*E1553
  3
*E1553
 10
4.6840881E+001
 20
1.7447071E+002
 70
65
  0
ARC
  8
1
  6
HIDDEN
 62
3
 10
4.6840881E+001
 20
1.7447071E+002
 40
7.5E-001
 50
3.02231E+002
 51
3.27769E+002
  0
ENDBLK
  0
BLOCK
  2
*E1572
  3
*E1572
 10
3.7740891E+001
 20
1.7447071E+002
 70
65
  0
ARC
  8
1
  6
HIDDEN
 62
3
 10
3.7740891E+001
 20
1.7447071E+002
 40
7.5E-001
 50
2.1223097E+002
 51
2.3776895E+002
  0
ENDBLK
  0
BLOCK
  2
*E1573
  3
*E1573
 10
3.7740891E+001
 20
1.7447071E+002
 70
65
  0
ARC
  8
1
  6
HIDDEN
 62
3
 10
3.7740891E+001
 20
1.7447071E+002
 40
7.5E-001
 50
3.02231E+002
 51
3.27769E+002
  0
ENDBLK
  0
BLOCK
  2
*E1582
  3
*E1582
 10
1.3222304E+002
 20
2.0827071E+002
 70
65
  0
ARC
  8
1
  6
CONTINUOUS
 62
3
 10
1.3222304E+002
 20
2.0827071E+002
 40
1.0
 50
9.0E+001
 51
1.7999999E+002
  0
ENDBLK
  0
BLOCK
  2
*E1647
  3
*E1647
 10
1.7592304E+002
 20
1.6797071E+002
 70
65
  0
ARC
  8
1
  6
HIDDEN
 62
3
 10
1.7592304E+002
 20
1.6797071E+002
 40
8.0E-001
 50
0.0
 51
9.0E+001
  0
ENDBLK
  0
BLOCK
  2
*E1658
  3
*E1658
 10
1.3422304E+002
 20
1.5892071E+002
 70
65
  0
ARC
  8
1
  6
CONTINUOUS
 62
3
 10
1.3422304E+002
 20
1.5892071E+002
 40
5.0E-001
 50
0.0
 51
9.0E+001
  0
ENDBLK
  0
BLOCK
  2
*E1706
  3
*E1706
 10
2.9990901E+001
 20
2.0937071E+002
 70
65
  0
ARC
  8
1
  6
CONTINUOUS
 62
3
 10
2.9990901E+001
 20
2.0937071E+002
 40
3.0E-001
 50
1.7999999E+002
 51
2.7E+002
  0
ENDBLK
  0
BLOCK
  2
*E1707
  3
*E1707
 10
2.9990921E+001
 20
2.1837071E+002
 70
65
  0
ARC
  8
1
  6
CONTINUOUS
 62
3
 10
2.9990921E+001
 20
2.1837071E+002
 40
3.0E-001
 50
1.7999999E+002
 51
2.7E+002
  0
ENDBLK
  0
BLOCK
  2
*E1747
  3
*E1747
 10
1.7440344E+002
 20
2.1667071E+002
 70
65
  0
ARC
  8
1
  6
CONTINUOUS
 62
3
 10
1.7440344E+002
 20
2.1667071E+002
 40
2.0
 50
9.4E+001
 51
1.7999999E+002
  0
ENDBLK
  0
BLOCK
  2
*E1753
  3
*E1753
 10
3.0940871E+001
 20
1.6217071E+002
 70
65
  0
ARC
  8
1
  6
CONTINUOUS
 62
3
 10
3.0940871E+001
 20
1.6217071E+002
 40
2.25
 50
2.1374804E+002
 51
3.26252E+002
  0
ENDBLK
  0
BLOCK
  2
*E1754
  3
*E1754
 10
3.0940871E+001
 20
1.6217071E+002
 70
65
  0
ARC
  8
1
  6
HIDDEN
 62
3
 10
3.0940871E+001
 20
1.6217071E+002
 40
2.25
 50
3.26252E+002
 51
3.872661E+002
  0
ENDBLK
  0
BLOCK
  2
*E1755
  3
*E1755
 10
3.0940871E+001
 20
1.6217071E+002
 70
65
  0
ARC
  8
1
  6
HIDDEN
 62
3
 10
3.0940871E+001
 20
1.6217071E+002
 40
3.75
 50
3.405293E+002
 51
3.5879874E+002
  0
ENDBLK
  0
ENDSEC
  0
SECTION
  2
ENTITIES
  0
INSERT
  2
RAHMENA4
  8
1
 10
0.0
 20
0.0
  0
TEXT
  8
1
  6
CONTINUOUS
 62
4
 10
1.1796784E+002
 20
7.4261722E+001
 40
3.0
  1
Befestigungsaugen abbrechbar
 41
8.4076563E-001
  0
TEXT
  8
1
  6
CONTINUOUS
 62
4
 10
1.3746406E+002
 20
2.3475652E+001
 40
3.5
  1
1:1
 41
6.2085333E-001
  0
TEXT
  8
1
  6
CONTINUOUS
 62
4
 10
1.1119369E+002
 20
2.776089E+001
 40
2.4
  1
15.2.90 Dietzel
 41
6.0E-001
  0
TEXT
  8
1
  6
CONTINUOUS
 62
4
 10
1.5077951E+002
 20
7.152509
 40
5.0
  1
GJL 120 0423
 41
8.0E-001
  0
TEXT
  8
1
  6
CONTINUOUS
 62
4
 10
1.7100071E+002
 20
2.3289337E+001
 40
2.5
  1
X
 41
1.066667
  0
TEXT
  8
1
  6
CONTINUOUS
 62
4
 10
7.6911785E+001
 20
1.4905176E+001
 40
2.5
  1
STO/CLD
 41
1.083333
  0
TEXT
  8
1
  6
CONTINUOUS
 62
4
 10
2.5502171E+001
 20
2.7758583E+001
 40
2.5
  1
 -
 41
7.6E-001
  0
TEXT
  8
1
  6
CONTINUOUS
 62
4
 10
7.9072862E+001
 20
6.80642
 40
4.5
  1
Massbild 
 41
8.0E-001
 72
1
 11
6.2872862E+001
 21
6.80642
  0
TEXT
  8
1
  6
CONTINUOUS
 62
4
 10
3.2607201E+001
 20
2.7760463E+001
 40
2.2
  1
JL 121 0039
 41
7.0E-001
  0
DIMENSION
  8
1
  6
CONTINUOUS
 62
4
  2
*D1110
  3
DSTYLE1
 10
1.3022304E+002
 20
2.5004771E+002
 11
1.6172124E+002
 21
2.5304871E+002
 70
128
 13
1.9122304E+002
 23
2.1823181E+002
 14
1.3022304E+002
 24
2.1592081E+002
 40
1.25E-001
 50
0.0
  0
TEXT
  8
1
  6
CONTINUOUS
 62
4
 10
4.7731203E+001
 20
2.2964467E+002
 40
3.0
  1
52,5
 41
8.0E-001
  0
DIMENSION
  8
1
  6
CONTINUOUS
 62
4
  1
       
  2
*D1112
  3
DSTYLE1
 10
2.9690911E+001
 20
2.27469E+002
 11
6.2587025E+001
 21
2.3047E+002
 70
128
 13
8.2190891E+001
 23
2.1837081E+002
 14
2.9690911E+001
 24
2.1837081E+002
 40
1.25E-001
 50
0.0
  0
DIMENSION
  8
1
  6
CONTINUOUS
 62
4
  2
*D1113
  3
DSTYLE1
 10
9.4485371E+001
 20
1.6467071E+002
 11
9.1484371E+001
 21
1.8690911E+002
 70
128
 13
8.1891001E+001
 23
2.0967071E+002
 14
8.1890981E+001
 24
1.6467071E+002
 40
1.25E-001
 50
9.0E+001
  0
DIMENSION
  8
1
  6
CONTINUOUS
 62
4
  2
*D1114
  3
DSTYLE1
 10
2.7190871E+001
 20
2.3503446E+002
 11
5.4608898E+001
 21
2.3803546E+002
 70
128
 13
8.2190891E+001
 23
2.1837081E+002
 14
2.7190871E+001
 24
1.7143101E+002
 40
1.25E-001
 50
0.0
  0
TEXT
  8
1
  6
CONTINUOUS
 62
4
 10
1.3876671E+002
 20
1.4697024E+002
 40
3.0
  1
4,5
 41
8.0E-001
  0
DIMENSION
  8
1
  6
CONTINUOUS
 62
4
  1
      
  2
*D1116
  3
DSTYLE1
 10
1.3022304E+002
 20
1.4572481E+002
 11
1.3687544E+002
 21
1.4872581E+002
 70
128
 13
1.3472304E+002
 23
1.5892061E+002
 14
1.3022304E+002
 24
1.5842061E+002
 40
1.25E-001
 50
0.0
  0
TEXT
  8
1
  6
CONTINUOUS
 62
4
 10
1.4929321E+002
 20
2.3785713E+002
 40
3.0
  1
43,5
 41
8.0E-001
  0
DIMENSION
  8
1
  6
CONTINUOUS
 62
4
  1
       
  2
*D1118
  3
DSTYLE1
 10
1.7672304E+002
 20
2.3653091E+002
 11
1.5378194E+002
 21
2.3953191E+002
 70
128
 13
1.3322304E+002
 23
2.0467081E+002
 14
1.7672304E+002
 24
2.1217081E+002
 40
1.25E-001
 50
0.0
  0
TEXT
  8
1
  6
CONTINUOUS
 62
4
 10
1.4089856E+002
 20
2.2473095E+002
 40
3.0
  1
25,6
 41
8.0E-001
  0
DIMENSION
  8
1
  6
CONTINUOUS
 62
4
  1
       
  2
*D1120
  3
DSTYLE1
 10
1.5882304E+002
 20
2.2334601E+002
 11
1.4421224E+002
 21
2.2634701E+002
 70
128
 13
1.3322304E+002
 23
2.0467081E+002
 14
1.5882304E+002
 24
2.1867081E+002
 40
1.25E-001
 50
0.0
  0
TEXT
  8
1
  6
CONTINUOUS
 62
4
 10
1.4440905E+002
 20
2.3129404E+002
 40
3.0
  1
33,5
 41
8.0E-001
  0
DIMENSION
  8
1
  6
CONTINUOUS
 62
4
  1
       
  2
*D1122
  3
DSTYLE1
 10
1.3322304E+002
 20
2.3004481E+002
 11
1.4931604E+002
 21
2.3304581E+002
 70
128
 13
1.6672304E+002
 23
2.0372081E+002
 14
1.3322304E+002
 24
2.0467081E+002
 40
1.25E-001
 50
0.0
  0
DIMENSION
  8
1
  6
CONTINUOUS
 62
4
  2
*D1123
  3
DSTYLE1
 10
1.9122304E+002
 20
2.4322971E+002
 11
1.6090604E+002
 21
2.4623071E+002
 70
128
 13
1.3322304E+002
 23
2.0467081E+002
 14
1.9122304E+002
 24
2.1823181E+002
 40
1.25E-001
 50
0.0
  0
TEXT
  8
1
  6
CONTINUOUS
 62
4
 10
1.1044843E+002
 20
2.3475652E+001
 40
2.4
  1
2.8.04 SteFei
 41
6.0E-001
  0
TEXT
  8
1
  6
CONTINUOUS
 62
4
 10
1.1044843E+002
 20
1.5091491E+001
 40
2.4
  1
2.8.04 GuNi
 41
6.0E-001
  0
DIMENSION
  8
1
  6
CONTINUOUS
 62
4
  2
*D1126
  3
DSTYLE1
 10
1.0135696E+002
 20
1.5567071E+002
 11
9.8355961E+001
 21
1.8705531E+002
 70
128
 13
8.1890991E+001
 23
2.1867071E+002
 14
8.1890971E+001
 24
1.5567071E+002
 40
1.25E-001
 50
9.0E+001
  0
LINE
  8
1
  6
HIDDEN
 62
3
 10
7.9690881E+001
 20
1.6687071E+002
 11
7.9690881E+001
 21
2.1217071E+002
  0
LINE
  8
1
  6
HIDDEN
 62
3
 10
3.3140881E+001
 20
1.8407071E+002
 11
3.3140881E+001
 21
1.8717071E+002
  0
LINE
  8
1
  6
HIDDEN
 62
3
 10
4.0690881E+001
 20
1.8462071E+002
 11
3.3140881E+001
 21
1.8462071E+002
  0
LINE
  8
1
  6
HIDDEN
 62
3
 10
4.1190881E+001
 20
1.8512071E+002
 11
4.1190881E+001
 21
1.8717071E+002
  0
LINE
  8
1
  6
HIDDEN
 62
3
 10
7.9690881E+001
 20
1.6707071E+002
 11
7.8340871E+001
 21
1.6707071E+002
  0
LINE
  8
1
  6
HIDDEN
 62
3
 10
7.8890881E+001
 20
1.6607071E+002
 11
7.8840871E+001
 21
1.6607071E+002
  0
LINE
  8
1
  6
HIDDEN
 62
3
 10
5.7440881E+001
 20
1.6587071E+002
 11
5.7440881E+001
 21
1.6607071E+002
  0
LINE
  8
1
  6
HIDDEN
 62
3
 10
5.8440881E+001
 20
1.6607071E+002
 11
5.3440881E+001
 21
1.6607071E+002
  0
LINE
  8
1
  6
HIDDEN
 62
3
 10
5.7940881E+001
 20
1.6457071E+002
 11
5.3940881E+001
 21
1.6457071E+002
  0
LINE
  8
1
  6
HIDDEN
 62
3
 10
5.7940881E+001
 20
1.6457071E+002
 11
5.7940881E+001
 21
1.6477071E+002
  0
LINE
  8
1
  6
HIDDEN
 62
3
 10
5.3940881E+001
 20
1.6457071E+002
 11
5.3940881E+001
 21
1.6477071E+002
  0
LINE
  8
1
  6
HIDDEN
 62
3
 10
5.7440881E+001
 20
1.6587071E+002
 11
5.7940881E+001
 21
1.6477071E+002
  0
LINE
  8
1
  6
HIDDEN
 62
3
 10
5.4440881E+001
 20
1.6587071E+002
 11
5.3940881E+001
 21
1.6477071E+002
  0
LINE
  8
1
  6
HIDDEN
 62
3
 10
6.9940881E+001
 20
1.6647921E+002
 11
6.9940881E+001
 21
1.6717071E+002
  0
LINE
  8
1
  6
HIDDEN
 62
3
 10
6.9240881E+001
 20
1.6642081E+002
 11
6.9240881E+001
 21
1.6717071E+002
  0
LINE
  8
1
  6
HIDDEN
 62
3
 10
7.8340871E+001
 20
1.6657071E+002
 11
7.8340871E+001
 21
1.6717071E+002
  0
LINE
  8
1
  6
HIDDEN
 62
3
 10
7.5740881E+001
 20
1.6602071E+002
 11
7.5740881E+001
 21
1.6717071E+002
  0
LINE
  8
1
  6
HIDDEN
 62
3
 10
7.8340871E+001
 20
1.6647071E+002
 11
7.5740881E+001
 21
1.6647071E+002
  0
LINE
  8
1
  6
HIDDEN
 62
3
 10
6.0840871E+001
 20
1.6647921E+002
 11
6.0840871E+001
 21
1.6717071E+002
  0
LINE
  8
1
  6
HIDDEN
 62
3
 10
6.0140881E+001
 20
1.6642081E+002
 11
6.0140881E+001
 21
1.6717071E+002
  0
LINE
  8
1
  6
HIDDEN
 62
3
 10
5.1740881E+001
 20
1.6647921E+002
 11
5.1740881E+001
 21
1.6717071E+002
  0
LINE
  8
1
  6
HIDDEN
 62
3
 10
5.1040881E+001
 20
1.6642081E+002
 11
5.1040881E+001
 21
1.6717071E+002
  0
LINE
  8
1
  6
HIDDEN
 62
3
 10
4.2640881E+001
 20
1.6647921E+002
 11
4.2640881E+001
 21
1.6717071E+002
  0
LINE
  8
1
  6
HIDDEN
 62
3
 10
4.1940881E+001
 20
1.6642081E+002
 11
4.1940881E+001
 21
1.6717071E+002
  0
LINE
  8
1
  6
HIDDEN
 62
3
 10
4.1640881E+001
 20
1.6717071E+002
 11
4.1640881E+001
 21
1.6602071E+002
  0
LINE
  8
1
  6
HIDDEN
 62
3
 10
3.3540871E+001
 20
1.6657071E+002
 11
3.3540871E+001
 21
1.6717071E+002
  0
LINE
  8
1
  6
HIDDEN
 62
3
 10
3.3040871E+001
 20
1.6607071E+002
 11
3.2990891E+001
 21
1.6607071E+002
  0
LINE
  8
1
  6
HIDDEN
 62
3
 10
3.6140881E+001
 20
1.6602071E+002
 11
3.6140881E+001
 21
1.6717071E+002
  0
LINE
  8
1
  6
HIDDEN
 62
3
 10
3.6140881E+001
 20
1.6647071E+002
 11
3.3540871E+001
 21
1.6647071E+002
  0
LINE
  8
1
  6
HIDDEN
 62
3
 10
7.0240881E+001
 20
1.6717071E+002
 11
7.0240881E+001
 21
1.6602071E+002
  0
LINE
  8
1
  6
HIDDEN
 62
3
 10
7.0190851E+001
 20
1.6717071E+002
 11
6.9940881E+001
 21
1.6692071E+002
  0
LINE
  8
1
  6
HIDDEN
 62
3
 10
6.8990901E+001
 20
1.6717071E+002
 11
6.9240881E+001
 21
1.6692071E+002
  0
LINE
  8
1
  6
HIDDEN
 62
3
 10
6.1090861E+001
 20
1.6717071E+002
 11
6.0840871E+001
 21
1.6692071E+002
  0
LINE
  8
1
  6
HIDDEN
 62
3
 10
5.9890891E+001
 20
1.6717071E+002
 11
6.0140881E+001
 21
1.6692071E+002
  0
LINE
  8
1
  6
HIDDEN
 62
3
 10
5.1990861E+001
 20
1.6717071E+002
 11
5.1740881E+001
 21
1.6692071E+002
  0
LINE
  8
1
  6
HIDDEN
 62
3
 10
5.0790891E+001
 20
1.6717071E+002
 11
5.1040881E+001
 21
1.6692071E+002
  0
LINE
  8
1
  6
HIDDEN
 62
3
 10
4.2890861E+001
 20
1.6717071E+002
 11
4.2640881E+001
 21
1.6692071E+002
  0
LINE
  8
1
  6
HIDDEN
 62
3
 10
4.1940881E+001
 20
1.6692071E+002
 11
4.1690901E+001
 21
1.6717071E+002
  0
LINE
  8
1
  6
HIDDEN
 62
3
 10
7.5740881E+001
 20
1.6602071E+002
 11
7.0240881E+001
 21
1.6602071E+002
  0
LINE
  8
1
  6
HIDDEN
 62
3
 10
4.1640881E+001
 20
1.6602071E+002
 11
3.6140881E+001
 21
1.6602071E+002
  0
LINE
  8
1
  6
HIDDEN
 62
3
 10
7.8340871E+001
 20
1.6607071E+002
 11
7.8890881E+001
 21
1.6607071E+002
  0
LINE
  8
1
  6
HIDDEN
 62
3
 10
7.8040871E+001
 20
1.6647071E+002
 11
7.8340871E+001
 21
1.6607071E+002
  0
LINE
  8
1
  6
HIDDEN
 62
3
 10
3.3036231E+001
 20
1.6607071E+002
 11
3.3540871E+001
 21
1.6607071E+002
  0
LINE
  8
1
  6
HIDDEN
 62
3
 10
3.3840881E+001
 20
1.6647071E+002
 11
3.3540871E+001
 21
1.6607071E+002
  0
LINE
  8
1
  6
HIDDEN
 62
3
 10
5.8440881E+001
 20
1.6607071E+002
 11
5.8440881E+001
 21
1.6717071E+002
  0
LINE
  8
1
  6
HIDDEN
 62
3
 10
5.3440881E+001
 20
1.6607071E+002
 11
5.3440881E+001
 21
1.6717071E+002
  0
LINE
  8
1
  6
HIDDEN
 62
3
 10
3.3140881E+001
 20
1.8407071E+002
 11
3.2190881E+001
 21
1.8407071E+002
  0
LINE
  8
1
  6
HIDDEN
 62
3
 10
3.3140881E+001
 20
1.9027071E+002
 11
3.3140881E+001
 21
1.8717071E+002
  0
LINE
  8
1
  6
HIDDEN
 62
3
 10
4.0690881E+001
 20
1.8972071E+002
 11
3.3140881E+001
 21
1.8972071E+002
  0
LINE
  8
1
  6
HIDDEN
 62
3
 10
4.1190881E+001
 20
1.8922071E+002
 11
4.1190881E+001
 21
1.8717071E+002
  0
LINE
  8
1
  6
HIDDEN
 62
3
 10
7.9690891E+001
 20
2.0727071E+002
 11
7.8340891E+001
 21
2.0727071E+002
  0
LINE
  8
1
  6
HIDDEN
 62
3
 10
7.8890891E+001
 20
2.0827071E+002
 11
7.8840891E+001
 21
2.0827071E+002
  0
LINE
  8
1
  6
HIDDEN
 62
3
 10
5.7440881E+001
 20
2.0847071E+002
 11
5.7440881E+001
 21
2.0827071E+002
  0
LINE
  8
1
  6
HIDDEN
 62
3
 10
5.4440881E+001
 20
2.0847071E+002
 11
5.4440881E+001
 21
2.0827071E+002
  0
LINE
  8
1
  6
HIDDEN
 62
3
 10
5.8440881E+001
 20
2.0827071E+002
 11
5.3440881E+001
 21
2.0827071E+002
  0
LINE
  8
1
  6
HIDDEN
 62
3
 10
6.9940881E+001
 20
2.0786221E+002
 11
6.9940881E+001
 21
2.0717071E+002
  0
LINE
  8
1
  6
HIDDEN
 62
3
 10
6.9240881E+001
 20
2.0792061E+002
 11
6.9240881E+001
 21
2.0717071E+002
  0
LINE
  8
1
  6
HIDDEN
 62
3
 10
6.9940881E+001
 20
2.0727071E+002
 11
6.9240881E+001
 21
2.0727071E+002
  0
LINE
  8
1
  6
HIDDEN
 62
3
 10
7.8340891E+001
 20
2.0777071E+002
 11
7.8340891E+001
 21
2.0717071E+002
  0
LINE
  8
1
  6
HIDDEN
 62
3
 10
7.5740881E+001
 20
2.0832071E+002
 11
7.5740881E+001
 21
2.0717071E+002
  0
LINE
  8
1
  6
HIDDEN
 62
3
 10
7.8340891E+001
 20
2.0787071E+002
 11
7.5740881E+001
 21
2.0787071E+002
  0
LINE
  8
1
  6
HIDDEN
 62
3
 10
6.0840891E+001
 20
2.0727071E+002
 11
6.0140891E+001
 21
2.0727071E+002
  0
LINE
  8
1
  6
HIDDEN
 62
3
 10
6.0840891E+001
 20
2.0786221E+002
 11
6.0840891E+001
 21
2.0717071E+002
  0
LINE
  8
1
  6
HIDDEN
 62
3
 10
6.0140891E+001
 20
2.0792061E+002
 11
6.0140891E+001
 21
2.0717071E+002
  0
LINE
  8
1
  6
HIDDEN
 62
3
 10
5.1740881E+001
 20
2.0727071E+002
 11
5.1040881E+001
 21
2.0727071E+002
  0
LINE
  8
1
  6
HIDDEN
 62
3
 10
5.1740881E+001
 20
2.0786221E+002
 11
5.1740881E+001
 21
2.0717071E+002
  0
LINE
  8
1
  6
HIDDEN
 62
3
 10
5.1040881E+001
 20
2.0792061E+002
 11
5.1040881E+001
 21
2.0717071E+002
  0
LINE
  8
1
  6
HIDDEN
 62
3
 10
4.2640891E+001
 20
2.0727071E+002
 11
4.1940901E+001
 21
2.0727071E+002
  0
LINE
  8
1
  6
HIDDEN
 62
3
 10
4.2640891E+001
 20
2.0786221E+002
 11
4.2640891E+001
 21
2.0717071E+002
  0
LINE
  8
1
  6
HIDDEN
 62
3
 10
4.1940901E+001
 20
2.0792061E+002
 11
4.1940901E+001
 21
2.0717071E+002
  0
LINE
  8
1
  6
HIDDEN
 62
3
 10
4.1640891E+001
 20
2.0717071E+002
 11
4.1640891E+001
 21
2.0832071E+002
  0
LINE
  8
1
  6
HIDDEN
 62
3
 10
3.3540891E+001
 20
2.0777071E+002
 11
3.3540891E+001
 21
2.0717071E+002
  0
INSERT
  2
*E1199
  8
1
 10
3.2990891E+001
 20
2.0747071E+002
 41
1.0
 42
1.0
 43
1.0
 50
2.7E+002
 62
3
  0
LINE
  8
1
  6
HIDDEN
 62
3
 10
3.3040891E+001
 20
2.0827071E+002
 11
3.2990891E+001
 21
2.0827071E+002
  0
ARC
  8
1
  6
HIDDEN
 62
3
 10
3.3040891E+001
 20
2.0777071E+002
 40
5.0E-001
 50
0.0
 51
9.0E+001
  0
LINE
  8
1
  6
HIDDEN
 62
3
 10
3.2216291E+001
 20
2.0727071E+002
 11
3.3540891E+001
 21
2.0727071E+002
  0
LINE
  8
1
  6
HIDDEN
 62
3
 10
3.6140881E+001
 20
2.0832071E+002
 11
3.6140881E+001
 21
2.0717071E+002
  0
LINE
  8
1
  6
HIDDEN
 62
3
 10
3.6140881E+001
 20
2.0787071E+002
 11
3.3540891E+001
 21
2.0787071E+002
  0
LINE
  8
1
  6
HIDDEN
 62
3
 10
7.0190891E+001
 20
2.0717071E+002
 11
6.9940881E+001
 21
2.0742071E+002
  0
LINE
  8
1
  6
HIDDEN
 62
3
 10
6.8990871E+001
 20
2.0717071E+002
 11
6.9240881E+001
 21
2.0742071E+002
  0
LINE
  8
1
  6
HIDDEN
 62
3
 10
6.1090891E+001
 20
2.0717071E+002
 11
6.0840891E+001
 21
2.0742071E+002
  0
LINE
  8
1
  6
HIDDEN
 62
3
 10
6.0140891E+001
 20
2.0742071E+002
 11
5.9890881E+001
 21
2.0717071E+002
  0
LINE
  8
1
  6
HIDDEN
 62
3
 10
5.1990891E+001
 20
2.0717071E+002
 11
5.1740881E+001
 21
2.0742071E+002
  0
LINE
  8
1
  6
HIDDEN
 62
3
 10
5.0790881E+001
 20
2.0717071E+002
 11
5.1040881E+001
 21
2.0742071E+002
  0
LINE
  8
1
  6
HIDDEN
 62
3
 10
4.2890891E+001
 20
2.0717071E+002
 11
4.2640891E+001
 21
2.0742071E+002
  0
LINE
  8
1
  6
HIDDEN
 62
3
 10
4.1690881E+001
 20
2.0717071E+002
 11
4.1940901E+001
 21
2.0742071E+002
  0
LINE
  8
1
  6
HIDDEN
 62
3
 10
7.5740881E+001
 20
2.0832071E+002
 11
7.0240881E+001
 21
2.0832071E+002
  0
LINE
  8
1
  6
HIDDEN
 62
3
 10
4.1640891E+001
 20
2.0832071E+002
 11
3.6140881E+001
 21
2.0832071E+002
  0
LINE
  8
1
  6
HIDDEN
 62
3
 10
7.8340891E+001
 20
2.0827071E+002
 11
7.8890891E+001
 21
2.0827071E+002
  0
LINE
  8
1
  6
HIDDEN
 62
3
 10
7.8040881E+001
 20
2.0787071E+002
 11
7.8340891E+001
 21
2.0827071E+002
  0
LINE
  8
1
  6
HIDDEN
 62
3
 10
3.3036271E+001
 20
2.0827071E+002
 11
3.3540891E+001
 21
2.0827071E+002
  0
LINE
  8
1
  6
HIDDEN
 62
3
 10
3.3840891E+001
 20
2.0787071E+002
 11
3.3540891E+001
 21
2.0827071E+002
  0
LINE
  8
1
  6
HIDDEN
 62
3
 10
3.3140881E+001
 20
1.9027071E+002
 11
3.2190881E+001
 21
1.9027071E+002
  0
LINE
  8
1
  6
HIDDEN
 62
3
 10
5.4440881E+001
 20
2.0847071E+002
 11
5.3940881E+001
 21
2.0957071E+002
  0
LINE
  8
1
  6
HIDDEN
 62
3
 10
5.7940881E+001
 20
2.0977071E+002
 11
5.3940881E+001
 21
2.0977071E+002
  0
LINE
  8
1
  6
HIDDEN
 62
3
 10
5.7940881E+001
 20
2.0977071E+002
 11
5.7940881E+001
 21
2.0957071E+002
  0
LINE
  8
1
  6
HIDDEN
 62
3
 10
5.3940881E+001
 20
2.0977071E+002
 11
5.3940881E+001
 21
2.0957071E+002
  0
LINE
  8
1
  6
HIDDEN
 62
3
 10
5.7440881E+001
 20
2.0847071E+002
 11
5.7940881E+001
 21
2.0957071E+002
  0
INSERT
  2
*E1225
  8
1
 10
4.0690881E+001
 20
1.8512071E+002
 41
1.0
 42
1.0
 43
1.0
 50
2.7E+002
 62
3
  0
INSERT
  2
*E1226
  8
1
 10
7.8890881E+001
 20
1.6687071E+002
 41
1.0
 42
1.0
 43
1.0
 50
2.7E+002
 62
3
  0
INSERT
  2
*E1227
  8
1
 10
6.9593151E+001
 20
1.6642291E+002
 41
1.0
 42
1.0
 43
1.0
 50
2.7E+002
 62
3
  0
ARC
  8
1
  6
HIDDEN
 62
3
 10
7.8840871E+001
 20
1.6657071E+002
 40
5.0E-001
 50
1.8E+002
 51
2.7E+002
  0
INSERT
  2
*E1229
  8
1
 10
6.0493141E+001
 20
1.6642291E+002
 41
1.0
 42
1.0
 43
1.0
 50
2.7E+002
 62
3
  0
INSERT
  2
*E1230
  8
1
 10
5.1393151E+001
 20
1.6642291E+002
 41
1.0
 42
1.0
 43
1.0
 50
2.7E+002
 62
3
  0
INSERT
  2
*E1231
  8
1
 10
4.2293151E+001
 20
1.6642291E+002
 41
1.0
 42
1.0
 43
1.0
 50
2.7E+002
 62
3
  0
ARC
  8
1
  6
HIDDEN
 62
3
 10
3.2990891E+001
 20
1.6687071E+002
 40
8.0E-001
 50
1.8E+002
 51
2.7E+002
  0
INSERT
  2
*E1233
  8
1
 10
3.3040871E+001
 20
1.6657071E+002
 41
1.0
 42
1.0
 43
1.0
 50
2.7E+002
 62
3
  0
ARC
  8
1
  6
HIDDEN
 62
3
 10
4.0690881E+001
 20
1.8922071E+002
 40
5.0E-001
 50
0.0
 51
9.0E+001
  0
ARC
  8
1
  6
HIDDEN
 62
3
 10
7.8890891E+001
 20
2.0747071E+002
 40
8.0E-001
 50
0.0
 51
9.0E+001
  0
ARC
  8
1
  6
HIDDEN
 62
3
 10
6.9593151E+001
 20
2.0791851E+002
 40
3.522591E-001
 50
3.508049E+002
 51
5.396588E+002
  0
INSERT
  2
*E1237
  8
1
 10
7.8840891E+001
 20
2.0777071E+002
 41
1.0
 42
1.0
 43
1.0
 50
2.7E+002
 62
3
  0
ARC
  8
1
  6
HIDDEN
 62
3
 10
6.0493161E+001
 20
2.0791851E+002
 40
3.522591E-001
 50
3.508049E+002
 51
5.396588E+002
  0
ARC
  8
1
  6
HIDDEN
 62
3
 10
5.1393151E+001
 20
2.0791851E+002
 40
3.522591E-001
 50
3.508049E+002
 51
5.396588E+002
  0
ARC
  8
1
  6
HIDDEN
 62
3
 10
4.2293161E+001
 20
2.0791851E+002
 40
3.522591E-001
 50
3.508049E+002
 51
5.396588E+002
  0
INSERT
  2
*E1241
  8
1
 10
7.8890881E+001
 20
1.6687071E+002
 41
1.0
 42
1.0
 43
1.0
 50
2.7E+002
 62
3
  0
INSERT
  2
*E1242
  8
1
 10
3.2990891E+001
 20
1.6687071E+002
 41
1.0
 42
1.0
 43
1.0
 50
2.7E+002
 62
3
  0
ARC
  8
1
  6
HIDDEN
 62
3
 10
3.2990891E+001
 20
2.0747071E+002
 40
8.0E-001
 50
9.000001E+001
 51
1.8E+002
  0
INSERT
  2
*E1244
  8
1
 10
7.8890891E+001
 20
2.0747071E+002
 41
1.0
 42
1.0
 43
1.0
 50
2.7E+002
 62
3
  0
INSERT
  2
*E1245
  8
1
 10
7.5940891E+001
 20
2.1217071E+002
 41
2.25
 42
2.25
 43
2.25
 50
2.7E+002
 62
3
  0
INSERT
  2
*E1246
  8
1
 10
3.0940871E+001
 20
1.6217071E+002
 41
1.0
 42
1.0
 43
1.0
 50
2.7E+002
 62
3
  0
INSERT
  2
*E1247
  8
1
 10
7.5940891E+001
 20
2.1217071E+002
 41
1.0
 42
1.0
 43
1.0
 50
2.7E+002
 62
3
  0
INSERT
  2
*E1248
  8
1
 10
4.0940871E+001
 20
1.6217071E+002
 41
1.0
 42
1.0
 43
1.0
 50
2.7E+002
 62
3
  0
INSERT
  2
*E1249
  8
1
 10
3.0940871E+001
 20
1.6217071E+002
 41
1.0
 42
1.0
 43
1.0
 50
2.7E+002
 62
3
  0
INSERT
  2
*E1250
  8
1
 10
3.5940871E+001
 20
1.6217071E+002
 41
1.0
 42
1.0
 43
1.0
 50
2.7E+002
 62
3
  0
INSERT
  2
*E1251
  8
1
 10
4.0940871E+001
 20
1.6217071E+002
 41
1.0
 42
1.0
 43
1.0
 50
2.7E+002
 62
3
  0
LINE
  8
1
  6
HIDDEN
 62
3
 10
3.6140881E+001
 20
1.6607071E+002
 11
3.2990891E+001
 21
1.6607071E+002
  0
LINE
  8
1
  6
HIDDEN
 62
3
 10
3.6140881E+001
 20
2.0827071E+002
 11
3.2990891E+001
 21
2.0827071E+002
  0
POLYLINE
  8
1
  6
CONTINUOUS
 62
3
 66
1
 40
5.0E-001
 41
5.0E-001
 70
0
  0
VERTEX
  8
1
 42
0.0
 10
2.9690901E+001
 20
1.6507071E+002
 70
0
  0
VERTEX
  8
1
 42
0.0
 10
2.8563361E+001
 20
1.6507071E+002
 70
0
  0
SEQEND
  0
LINE
  8
1
  6
HIDDEN
 62
3
 10
7.2190891E+001
 20
2.1217071E+002
 11
7.2190891E+001
 21
2.0832071E+002
  0
LINE
  8
1
  6
HIDDEN
 62
3
 10
4.4690871E+001
 20
1.6217071E+002
 11
4.4690871E+001
 21
1.6507071E+002
  0
LINE
  8
1
  6
HIDDEN
 62
3
 10
4.0918844E+001
 20
1.5842077E+002
 11
3.0919064E+001
 21
1.5842077E+002
  0
LINE
  8
1
  6
HIDDEN
 62
3
 10
3.2190881E+001
 20
1.6687071E+002
 11
3.2190881E+001
 21
1.6507071E+002
  0
LINE
  8
1
  6
HIDDEN
 62
3
 10
3.4910111E+001
 20
1.6017071E+002
 11
3.1971661E+001
 21
1.6017071E+002
  0
LINE
  8
1
  6
HIDDEN
 62
3
 10
3.6971661E+001
 20
1.6417071E+002
 11
2.9910111E+001
 21
1.6417071E+002
  0
LINE
  8
1
  6
HIDDEN
 62
3
 10
4.1971661E+001
 20
1.6417071E+002
 11
3.9910111E+001
 21
1.6417071E+002
  0
LINE
  8
1
  6
HIDDEN
 62
3
 10
4.4690871E+001
 20
1.6507071E+002
 11
3.9690871E+001
 21
1.6507071E+002
  0
LINE
  8
1
  6
HIDDEN
 62
3
 10
5.7990891E+001
 20
2.0827071E+002
 11
5.7990891E+001
 21
2.0717071E+002
  0
LINE
  8
1
  6
HIDDEN
 62
3
 10
5.3890881E+001
 20
2.0827071E+002
 11
5.3890881E+001
 21
2.0717071E+002
  0
LINE
  8
1
  6
HIDDEN
 62
3
 10
5.8990871E+001
 20
1.6717071E+002
 11
5.8990871E+001
 21
1.6607071E+002
  0
LINE
  8
1
  6
HIDDEN
 62
3
 10
5.2890871E+001
 20
1.6717071E+002
 11
5.2890871E+001
 21
1.6607071E+002
  0
LINE
  8
1
  6
HIDDEN
 62
3
 10
5.3390881E+001
 20
2.0827071E+002
 11
5.3390881E+001
 21
2.0717071E+002
  0
LINE
  8
1
  6
HIDDEN
 62
3
 10
5.8490891E+001
 20
2.0827071E+002
 11
5.8490891E+001
 21
2.0717071E+002
  0
LINE
  8
1
  6
HIDDEN
 62
3
 10
3.9690871E+001
 20
1.6507071E+002
 11
3.9690871E+001
 21
1.6602071E+002
  0
LINE
  8
1
  6
HIDDEN
 62
3
 10
7.0240881E+001
 20
1.6607071E+002
 11
5.8490871E+001
 21
1.6607071E+002
  0
LINE
  8
1
  6
HIDDEN
 62
3
 10
5.4440881E+001
 20
1.6587071E+002
 11
5.4440881E+001
 21
1.6607071E+002
  0
LINE
  8
1
  6
HIDDEN
 62
3
 10
5.3390871E+001
 20
1.6607071E+002
 11
4.1640881E+001
 21
1.6607071E+002
  0
LINE
  8
1
  6
HIDDEN
 62
3
 10
7.8890881E+001
 20
1.6607071E+002
 11
7.5740881E+001
 21
1.6607071E+002
  0
LINE
  8
1
  6
HIDDEN
 62
3
 10
7.0240881E+001
 20
2.0827071E+002
 11
4.1640891E+001
 21
2.0827071E+002
  0
LINE
  8
1
  6
HIDDEN
 62
3
 10
7.8890891E+001
 20
2.0827071E+002
 11
7.5740881E+001
 21
2.0827071E+002
  0
LINE
  8
1
  6
HIDDEN
 62
3
 10
3.5767561E+001
 20
1.8972071E+002
 11
3.5767561E+001
 21
1.8830351E+002
  0
LINE
  8
1
  6
HIDDEN
 62
3
 10
3.5767561E+001
 20
1.8830351E+002
 11
3.8714921E+001
 21
1.8830351E+002
  0
LINE
  8
1
  6
HIDDEN
 62
3
 10
3.5267561E+001
 20
1.8780351E+002
 11
3.5267561E+001
 21
1.8654101E+002
  0
ARC
  8
1
  6
HIDDEN
 62
3
 10
3.5767561E+001
 20
1.8780351E+002
 40
5.0E-001
 50
9.000001E+001
 51
1.8E+002
  0
LINE
  8
1
  6
HIDDEN
 62
3
 10
4.0267561E+001
 20
1.8955351E+002
 11
4.0267561E+001
 21
1.8715351E+002
  0
LINE
  8
1
  6
HIDDEN
 62
3
 10
3.7467541E+001
 20
1.8830351E+002
 11
3.7467541E+001
 21
1.8715351E+002
  0
INSERT
  2
*E1282
  8
1
 10
3.5525521E+001
 20
1.8816391E+002
 41
1.0
 42
1.0
 43
1.0
 50
2.7E+002
 62
3
  0
LINE
  8
1
  6
HIDDEN
 62
3
 10
3.5532241E+001
 20
1.8810011E+002
 11
3.7467541E+001
 21
1.8830351E+002
  0
LINE
  8
1
  6
HIDDEN
 62
3
 10
3.8414931E+001
 20
1.8830351E+002
 11
3.8414931E+001
 21
1.8715351E+002
  0
LINE
  8
1
  6
HIDDEN
 62
3
 10
3.7467541E+001
 20
1.8775351E+002
 11
3.8414931E+001
 21
1.8775351E+002
  0
LINE
  8
1
  6
HIDDEN
 62
3
 10
3.8714921E+001
 20
1.8905351E+002
 11
3.8714921E+001
 21
1.8715351E+002
  0
INSERT
  2
*E1287
  8
1
 10
3.9214921E+001
 20
1.8905351E+002
 41
1.0
 42
1.0
 43
1.0
 50
2.7E+002
 62
3
  0
LINE
  8
1
  6
HIDDEN
 62
3
 10
3.5765301E+001
 20
1.8462071E+002
 11
3.5766551E+001
 21
1.8604101E+002
  0
LINE
  8
1
  6
HIDDEN
 62
3
 10
3.5767101E+001
 20
1.8604101E+002
 11
3.8713941E+001
 21
1.8603841E+002
  0
LINE
  8
1
  6
HIDDEN
 62
3
 10
4.0265451E+001
 20
1.8478701E+002
 11
4.0267561E+001
 21
1.8718701E+002
  0
LINE
  8
1
  6
HIDDEN
 62
3
 10
3.7466561E+001
 20
1.8603951E+002
 11
3.7467571E+001
 21
1.8718951E+002
  0
ARC
  8
1
  6
HIDDEN
 62
3
 10
3.5524671E+001
 20
1.8618081E+002
 40
6.419031E-002
 50
7.018453E+001
 51
2.429964E+002
  0
LINE
  8
1
  6
HIDDEN
 62
3
 10
3.5531411E+001
 20
1.8624461E+002
 11
3.7466561E+001
 21
1.8603951E+002
  0
LINE
  8
1
  6
HIDDEN
 62
3
 10
3.8413921E+001
 20
1.8603871E+002
 11
3.8414931E+001
 21
1.8718871E+002
  0
LINE
  8
1
  6
HIDDEN
 62
3
 10
3.7467051E+001
 20
1.8658951E+002
 11
3.8414411E+001
 21
1.8658871E+002
  0
LINE
  8
1
  6
HIDDEN
 62
3
 10
3.8713271E+001
 20
1.8528841E+002
 11
3.8714951E+001
 21
1.8718841E+002
  0
ARC
  8
1
  6
HIDDEN
 62
3
 10
3.9213271E+001
 20
1.8528801E+002
 40
5.0E-001
 50
1.799495E+002
 51
2.699496E+002
  0
ARC
  8
1
  6
HIDDEN
 62
3
 10
3.5767561E+001
 20
1.8654101E+002
 40
5.0E-001
 50
1.8E+002
 51
2.699493E+002
  0
LINE
  8
1
  6
HIDDEN
 62
3
 10
3.9214921E+001
 20
1.8955351E+002
 11
4.1064041E+001
 21
1.8955351E+002
  0
LINE
  8
1
  6
HIDDEN
 62
3
 10
3.9212821E+001
 20
1.8478801E+002
 11
4.1064071E+001
 21
1.8478801E+002
  0
LINE
  8
1
  6
HIDDEN
 62
3
 10
7.8890891E+001
 20
2.0717071E+002
 11
3.2990891E+001
 21
2.0717071E+002
  0
LINE
  8
1
  6
HIDDEN
 62
3
 10
7.8890881E+001
 20
1.6717071E+002
 11
3.2990891E+001
 21
1.6717071E+002
  0
ARC
  8
1
  6
HIDDEN
 62
3
 10
7.8890891E+001
 20
2.0637071E+002
 40
8.0E-001
 50
0.0
 51
9.0E+001
  0
ARC
  8
1
  6
HIDDEN
 62
3
 10
3.2990891E+001
 20
2.0637071E+002
 40
8.0E-001
 50
9.000001E+001
 51
1.800001E+002
  0
ARC
  8
1
  6
HIDDEN
 62
3
 10
3.2990891E+001
 20
1.6797071E+002
 40
8.0E-001
 50
1.8E+002
 51
2.7E+002
  0
ARC
  8
1
  6
HIDDEN
 62
3
 10
7.8890881E+001
 20
1.6797071E+002
 40
8.0E-001
 50
2.7E+002
 51
3.6E+002
  0
CIRCLE
  8
1
  6
HIDDEN
 62
3
 10
7.4140881E+001
 20
1.9987071E+002
 40
2.6
  0
CIRCLE
  8
1
  6
HIDDEN
 62
3
 10
6.5040881E+001
 20
1.9987071E+002
 40
2.6
  0
CIRCLE
  8
1
  6
HIDDEN
 62
3
 10
5.5940881E+001
 20
1.9987071E+002
 40
2.6
  0
CIRCLE
  8
1
  6
HIDDEN
 62
3
 10
4.6840891E+001
 20
1.9987071E+002
 40
2.6
  0
CIRCLE
  8
1
  6
HIDDEN
 62
3
 10
3.7740891E+001
 20
1.9987071E+002
 40
2.6
  0
CIRCLE
  8
1
  6
HIDDEN
 62
3
 10
7.4140881E+001
 20
1.7447071E+002
 40
2.6
  0
CIRCLE
  8
1
  6
HIDDEN
 62
3
 10
6.5040881E+001
 20
1.7447071E+002
 40
2.6
  0
CIRCLE
  8
1
  6
HIDDEN
 62
3
 10
5.5940881E+001
 20
1.7447071E+002
 40
2.6
  0
CIRCLE
  8
1
  6
HIDDEN
 62
3
 10
4.6840881E+001
 20
1.7447071E+002
 40
2.6
  0
CIRCLE
  8
1
  6
HIDDEN
 62
3
 10
3.7740891E+001
 20
1.7447071E+002
 40
2.6
  0
LINE
  8
1
  6
HIDDEN
 62
3
 10
4.1190881E+001
 20
1.8927071E+002
 11
4.1190881E+001
 21
1.8507071E+002
  0
LINE
  8
1
  6
HIDDEN
 62
3
 10
4.0690881E+001
 20
1.8977071E+002
 11
3.3740891E+001
 21
1.8977071E+002
  0
LINE
  8
1
  6
HIDDEN
 62
3
 10
4.0690881E+001
 20
1.8457071E+002
 11
3.3740891E+001
 21
1.8457071E+002
  0
LINE
  8
1
  6
HIDDEN
 62
3
 10
3.3740891E+001
 20
1.9037071E+002
 11
3.2190881E+001
 21
1.9037071E+002
  0
LINE
  8
1
  6
HIDDEN
 62
3
 10
3.3740891E+001
 20
1.8397071E+002
 11
3.2190881E+001
 21
1.8397071E+002
  0
LINE
  8
1
  6
HIDDEN
 62
3
 10
3.3740891E+001
 20
1.8457071E+002
 11
3.3740891E+001
 21
1.8397071E+002
  0
LINE
  8
1
  6
HIDDEN
 62
3
 10
3.3740891E+001
 20
1.9037071E+002
 11
3.3740891E+001
 21
1.8977071E+002
  0
LINE
  8
1
  6
CENTERLINE
 62
1
 10
7.7260891E+001
 20
1.9987071E+002
 11
7.1020881E+001
 21
1.9987071E+002
  0
LINE
  8
1
  6
CENTERLINE
 62
1
 10
7.4140891E+001
 20
1.9675071E+002
 11
7.4140891E+001
 21
2.0299071E+002
  0
LINE
  8
1
  6
CENTERLINE
 62
1
 10
6.8160881E+001
 20
1.9987071E+002
 11
6.1920881E+001
 21
1.9987071E+002
  0
LINE
  8
1
  6
CENTERLINE
 62
1
 10
6.5040881E+001
 20
1.9675071E+002
 11
6.5040881E+001
 21
2.0299071E+002
  0
LINE
  8
1
  6
CENTERLINE
 62
1
 10
5.9060881E+001
 20
1.9987071E+002
 11
5.2820881E+001
 21
1.9987071E+002
  0
LINE
  8
1
  6
CENTERLINE
 62
1
 10
5.5940891E+001
 20
1.9675071E+002
 11
5.5940891E+001
 21
2.0299071E+002
  0
LINE
  8
1
  6
CENTERLINE
 62
1
 10
4.9960881E+001
 20
1.9987071E+002
 11
4.3720901E+001
 21
1.9987071E+002
  0
LINE
  8
1
  6
CENTERLINE
 62
1
 10
4.6840891E+001
 20
1.9675071E+002
 11
4.6840891E+001
 21
2.0299071E+002
  0
LINE
  8
1
  6
CENTERLINE
 62
1
 10
4.0860901E+001
 20
1.9987071E+002
 11
3.4620891E+001
 21
1.9987071E+002
  0
LINE
  8
1
  6
CENTERLINE
 62
1
 10
3.7740891E+001
 20
1.9675071E+002
 11
3.7740891E+001
 21
2.0299071E+002
  0
LINE
  8
1
  6
CENTERLINE
 62
1
 10
7.7260891E+001
 20
1.7447071E+002
 11
7.1020881E+001
 21
1.7447071E+002
  0
LINE
  8
1
  6
CENTERLINE
 62
1
 10
7.4140891E+001
 20
1.7135071E+002
 11
7.4140891E+001
 21
1.7759071E+002
  0
LINE
  8
1
  6
CENTERLINE
 62
1
 10
6.8160881E+001
 20
1.7447071E+002
 11
6.1920881E+001
 21
1.7447071E+002
  0
LINE
  8
1
  6
CENTERLINE
 62
1
 10
6.5040881E+001
 20
1.7135071E+002
 11
6.5040881E+001
 21
1.7759071E+002
  0
LINE
  8
1
  6
CENTERLINE
 62
1
 10
5.9060881E+001
 20
1.7447071E+002
 11
5.2820881E+001
 21
1.7447071E+002
  0
LINE
  8
1
  6
CENTERLINE
 62
1
 10
5.5940891E+001
 20
1.7135071E+002
 11
5.5940891E+001
 21
1.7759071E+002
  0
LINE
  8
1
  6
CENTERLINE
 62
1
 10
4.9960881E+001
 20
1.7447071E+002
 11
4.3720881E+001
 21
1.7447071E+002
  0
LINE
  8
1
  6
CENTERLINE
 62
1
 10
4.6840881E+001
 20
1.7135071E+002
 11
4.6840881E+001
 21
1.7759071E+002
  0
LINE
  8
1
  6
CENTERLINE
 62
1
 10
4.0860881E+001
 20
1.7447071E+002
 11
3.4620891E+001
 21
1.7447071E+002
  0
LINE
  8
1
  6
CENTERLINE
 62
1
 10
3.7740891E+001
 20
1.7135071E+002
 11
3.7740891E+001
 21
1.7759071E+002
  0
ARC
  8
1
  6
HIDDEN
 62
3
 10
4.0690881E+001
 20
1.8927071E+002
 40
5.0E-001
 50
0.0
 51
9.0E+001
  0
ARC
  8
1
  6
HIDDEN
 62
3
 10
4.0690881E+001
 20
1.8507071E+002
 40
5.0E-001
 50
2.7E+002
 51
3.6E+002
  0
LINE
  8
1
  6
HIDDEN
 62
3
 10
3.2190881E+001
 20
2.0747071E+002
 11
3.2190881E+001
 21
1.6707071E+002
  0
LINE
  8
1
  6
HIDDEN
 62
3
 10
6.4690881E+001
 20
1.8822071E+002
 11
6.4690881E+001
 21
1.8612071E+002
  0
LINE
  8
1
  6
HIDDEN
 62
3
 10
6.2190881E+001
 20
1.8822071E+002
 11
6.2190881E+001
 21
1.8612071E+002
  0
LINE
  8
1
  6
HIDDEN
 62
3
 10
5.0590881E+001
 20
1.8822071E+002
 11
5.0590881E+001
 21
1.8612071E+002
  0
LINE
  8
1
  6
HIDDEN
 62
3
 10
5.3090881E+001
 20
1.8822071E+002
 11
5.3090881E+001
 21
1.8612071E+002
  0
LINE
  8
1
  6
HIDDEN
 62
3
 10
6.4690881E+001
 20
1.8822071E+002
 11
6.2190881E+001
 21
1.8822071E+002
  0
LINE
  8
1
  6
HIDDEN
 62
3
 10
6.4690881E+001
 20
1.8612071E+002
 11
6.2190881E+001
 21
1.8612071E+002
  0
LINE
  8
1
  6
HIDDEN
 62
3
 10
5.3090881E+001
 20
1.8822071E+002
 11
5.0590881E+001
 21
1.8822071E+002
  0
LINE
  8
1
  6
HIDDEN
 62
3
 10
5.3090881E+001
 20
1.8612071E+002
 11
5.0590881E+001
 21
1.8612071E+002
  0
LINE
  8
1
  6
HIDDEN
 62
3
 10
6.5190881E+001
 20
1.8872071E+002
 11
6.1690881E+001
 21
1.8872071E+002
  0
LINE
  8
1
  6
HIDDEN
 62
3
 10
6.5190881E+001
 20
1.8562071E+002
 11
6.1690881E+001
 21
1.8562071E+002
  0
LINE
  8
1
  6
HIDDEN
 62
3
 10
6.5190881E+001
 20
1.8872071E+002
 11
6.5190881E+001
 21
1.8562071E+002
  0
LINE
  8
1
  6
HIDDEN
 62
3
 10
6.1690881E+001
 20
1.8872071E+002
 11
6.1690881E+001
 21
1.8562071E+002
  0
LINE
  8
1
  6
HIDDEN
 62
3
 10
5.3590881E+001
 20
1.8872071E+002
 11
5.3590881E+001
 21
1.8562071E+002
  0
LINE
  8
1
  6
HIDDEN
 62
3
 10
5.3590881E+001
 20
1.8562071E+002
 11
5.0090881E+001
 21
1.8562071E+002
  0
LINE
  8
1
  6
HIDDEN
 62
3
 10
5.0090881E+001
 20
1.8872071E+002
 11
5.0090881E+001
 21
1.8562071E+002
  0
LINE
  8
1
  6
HIDDEN
 62
3
 10
5.3590881E+001
 20
1.8872071E+002
 11
5.0090881E+001
 21
1.8872071E+002
  0
LINE
  8
1
  6
HIDDEN
 62
3
 10
6.5190881E+001
 20
1.8562071E+002
 11
6.4690881E+001
 21
1.8612071E+002
  0
LINE
  8
1
  6
HIDDEN
 62
3
 10
6.1690881E+001
 20
1.8562071E+002
 11
6.2190881E+001
 21
1.8612071E+002
  0
LINE
  8
1
  6
HIDDEN
 62
3
 10
6.1690881E+001
 20
1.8872071E+002
 11
6.2190881E+001
 21
1.8822071E+002
  0
LINE
  8
1
  6
HIDDEN
 62
3
 10
6.5190881E+001
 20
1.8872071E+002
 11
6.4690881E+001
 21
1.8822071E+002
  0
LINE
  8
1
  6
HIDDEN
 62
3
 10
5.0090881E+001
 20
1.8562071E+002
 11
5.0590881E+001
 21
1.8612071E+002
  0
LINE
  8
1
  6
HIDDEN
 62
3
 10
5.0590881E+001
 20
1.8822071E+002
 11
5.0090881E+001
 21
1.8872071E+002
  0
LINE
  8
1
  6
HIDDEN
 62
3
 10
5.3590881E+001
 20
1.8562071E+002
 11
5.3090881E+001
 21
1.8612071E+002
  0
LINE
  8
1
  6
HIDDEN
 62
3
 10
5.3090881E+001
 20
1.8822071E+002
 11
5.3590881E+001
 21
1.8872071E+002
  0
LINE
  8
1
  6
HIDDEN
 62
3
 10
4.0690881E+001
 20
1.9127071E+002
 11
3.2190881E+001
 21
1.9127071E+002
  0
LINE
  8
1
  6
HIDDEN
 62
3
 10
4.0690881E+001
 20
1.8307071E+002
 11
3.2190881E+001
 21
1.8307071E+002
  0
LINE
  8
1
  6
HIDDEN
 62
3
 10
4.2690881E+001
 20
1.8927071E+002
 11
4.2690881E+001
 21
1.8507071E+002
  0
ARC
  8
1
  6
HIDDEN
 62
3
 10
4.0690881E+001
 20
1.8927071E+002
 40
2.0
 50
0.0
 51
9.0E+001
  0
ARC
  8
1
  6
HIDDEN
 62
3
 10
4.0690881E+001
 20
1.8507071E+002
 40
2.0
 50
2.7E+002
 51
3.6E+002
  0
LINE
  8
1
  6
HIDDEN
 62
3
 10
7.0240881E+001
 20
2.0832071E+002
 11
7.0240881E+001
 21
2.0717071E+002
  0
LINE
  8
1
  6
HIDDEN
 62
3
 10
3.3540871E+001
 20
1.6707071E+002
 11
3.2190881E+001
 21
1.6707071E+002
  0
LINE
  8
1
  6
HIDDEN
 62
3
 10
7.3740881E+001
 20
1.9923631E+002
 11
7.3740881E+001
 21
1.9730171E+002
  0
LINE
  8
1
  6
HIDDEN
 62
3
 10
7.4540881E+001
 20
1.9923631E+002
 11
7.4540881E+001
 21
1.9730171E+002
  0
LINE
  8
1
  6
HIDDEN
 62
3
 10
7.4775321E+001
 20
1.9947071E+002
 11
7.5640891E+001
 21
1.9947071E+002
  0
LINE
  8
1
  6
HIDDEN
 62
3
 10
7.4775321E+001
 20
2.0027071E+002
 11
7.5640891E+001
 21
2.0027071E+002
  0
LINE
  8
1
  6
HIDDEN
 62
3
 10
7.2640891E+001
 20
2.0027071E+002
 11
7.2640891E+001
 21
1.9947071E+002
  0
LINE
  8
1
  6
HIDDEN
 62
3
 10
7.5640891E+001
 20
2.0027071E+002
 11
7.5640891E+001
 21
1.9947071E+002
  0
LINE
  8
1
  6
HIDDEN
 62
3
 10
7.2640891E+001
 20
2.0027071E+002
 11
7.3506461E+001
 21
2.0027071E+002
  0
LINE
  8
1
  6
HIDDEN
 62
3
 10
7.2640891E+001
 20
1.9947071E+002
 11
7.3506461E+001
 21
1.9947071E+002
  0
LINE
  8
1
  6
HIDDEN
 62
3
 10
7.3740881E+001
 20
2.0243971E+002
 11
7.3740881E+001
 21
2.0050511E+002
  0
LINE
  8
1
  6
HIDDEN
 62
3
 10
7.4540881E+001
 20
2.0243971E+002
 11
7.4540881E+001
 21
2.0050511E+002
  0
LINE
  8
1
  6
HIDDEN
 62
3
 10
7.3610561E+001
 20
2.0040101E+002
 11
7.3221661E+001
 21
2.0078991E+002
  0
LINE
  8
1
  6
HIDDEN
 62
3
 10
7.4671211E+001
 20
2.0040101E+002
 11
7.5060131E+001
 21
2.0078991E+002
  0
LINE
  8
1
  6
HIDDEN
 62
3
 10
7.3610561E+001
 20
1.9934041E+002
 11
7.3221661E+001
 21
1.9895151E+002
  0
LINE
  8
1
  6
HIDDEN
 62
3
 10
7.4671211E+001
 20
1.9934041E+002
 11
7.5060131E+001
 21
1.9895151E+002
  0
LINE
  8
1
  6
HIDDEN
 62
3
 10
7.3740881E+001
 20
2.0137071E+002
 11
7.4540881E+001
 21
2.0137071E+002
  0
LINE
  8
1
  6
HIDDEN
 62
3
 10
7.3740881E+001
 20
1.9837071E+002
 11
7.4540881E+001
 21
1.9837071E+002
  0
ARC
  8
1
  6
HIDDEN
 62
3
 10
7.4140891E+001
 20
1.9987071E+002
 40
7.5E-001
 50
2.12231E+002
 51
2.37769E+002
  0
ARC
  8
1
  6
HIDDEN
 62
3
 10
7.4140891E+001
 20
1.9987071E+002
 40
7.5E-001
 50
1.22231E+002
 51
1.47769E+002
  0
INSERT
  2
*E1396
  8
1
 10
7.4140891E+001
 20
1.9987071E+002
 41
1.0
 42
1.0
 43
1.0
 50
2.7E+002
 62
3
  0
INSERT
  2
*E1397
  8
1
 10
7.4140891E+001
 20
1.9987071E+002
 41
1.0
 42
1.0
 43
1.0
 50
2.7E+002
 62
3
  0
LINE
  8
1
  6
HIDDEN
 62
3
 10
6.4640881E+001
 20
1.9923631E+002
 11
6.4640881E+001
 21
1.9730171E+002
  0
LINE
  8
1
  6
HIDDEN
 62
3
 10
6.5440891E+001
 20
1.9923631E+002
 11
6.5440891E+001
 21
1.9730171E+002
  0
LINE
  8
1
  6
HIDDEN
 62
3
 10
6.5675311E+001
 20
1.9947071E+002
 11
6.6540881E+001
 21
1.9947071E+002
  0
LINE
  8
1
  6
HIDDEN
 62
3
 10
6.5675311E+001
 20
2.0027071E+002
 11
6.6540881E+001
 21
2.0027071E+002
  0
LINE
  8
1
  6
HIDDEN
 62
3
 10
6.3540881E+001
 20
2.0027071E+002
 11
6.3540881E+001
 21
1.9947071E+002
  0
LINE
  8
1
  6
HIDDEN
 62
3
 10
6.6540881E+001
 20
2.0027071E+002
 11
6.6540881E+001
 21
1.9947071E+002
  0
LINE
  8
1
  6
HIDDEN
 62
3
 10
6.3540881E+001
 20
2.0027071E+002
 11
6.4406451E+001
 21
2.0027071E+002
  0
LINE
  8
1
  6
HIDDEN
 62
3
 10
6.3540881E+001
 20
1.9947071E+002
 11
6.4406451E+001
 21
1.9947071E+002
  0
LINE
  8
1
  6
HIDDEN
 62
3
 10
6.4640881E+001
 20
2.0243971E+002
 11
6.4640881E+001
 21
2.0050511E+002
  0
LINE
  8
1
  6
HIDDEN
 62
3
 10
6.5440891E+001
 20
2.0243971E+002
 11
6.5440891E+001
 21
2.0050511E+002
  0
LINE
  8
1
  6
HIDDEN
 62
3
 10
6.4510561E+001
 20
2.0040101E+002
 11
6.4121651E+001
 21
2.0078991E+002
  0
LINE
  8
1
  6
HIDDEN
 62
3
 10
6.5571211E+001
 20
2.0040101E+002
 11
6.5960121E+001
 21
2.0078991E+002
  0
LINE
  8
1
  6
HIDDEN
 62
3
 10
6.4510561E+001
 20
1.9934041E+002
 11
6.4121651E+001
 21
1.9895151E+002
  0
LINE
  8
1
  6
HIDDEN
 62
3
 10
6.5571211E+001
 20
1.9934041E+002
 11
6.5960121E+001
 21
1.9895151E+002
  0
ARC
  8
1
  6
HIDDEN
 62
3
 10
6.5040881E+001
 20
1.9987071E+002
 40
7.5E-001
 50
2.12231E+002
 51
2.37769E+002
  0
ARC
  8
1
  6
HIDDEN
 62
3
 10
6.5040881E+001
 20
1.9987071E+002
 40
7.5E-001
 50
1.22231E+002
 51
1.47769E+002
  0
INSERT
  2
*E1414
  8
1
 10
6.5040881E+001
 20
1.9987071E+002
 41
1.0
 42
1.0
 43
1.0
 50
2.7E+002
 62
3
  0
INSERT
  2
*E1415
  8
1
 10
6.5040881E+001
 20
1.9987071E+002
 41
1.0
 42
1.0
 43
1.0
 50
2.7E+002
 62
3
  0
LINE
  8
1
  6
HIDDEN
 62
3
 10
6.4640881E+001
 20
2.0137071E+002
 11
6.5440891E+001
 21
2.0137071E+002
  0
LINE
  8
1
  6
HIDDEN
 62
3
 10
6.4640881E+001
 20
1.9837071E+002
 11
6.5440891E+001
 21
1.9837071E+002
  0
LINE
  8
1
  6
HIDDEN
 62
3
 10
5.5540881E+001
 20
1.9923631E+002
 11
5.5540881E+001
 21
1.9730171E+002
  0
LINE
  8
1
  6
HIDDEN
 62
3
 10
5.6340891E+001
 20
1.9923631E+002
 11
5.6340891E+001
 21
1.9730171E+002
  0
LINE
  8
1
  6
HIDDEN
 62
3
 10
5.6575321E+001
 20
1.9947071E+002
 11
5.7440891E+001
 21
1.9947071E+002
  0
LINE
  8
1
  6
HIDDEN
 62
3
 10
5.6575321E+001
 20
2.0027071E+002
 11
5.7440891E+001
 21
2.0027071E+002
  0
LINE
  8
1
  6
HIDDEN
 62
3
 10
5.4440891E+001
 20
2.0027071E+002
 11
5.4440891E+001
 21
1.9947071E+002
  0
LINE
  8
1
  6
HIDDEN
 62
3
 10
5.7440891E+001
 20
2.0027071E+002
 11
5.7440891E+001
 21
1.9947071E+002
  0
LINE
  8
1
  6
HIDDEN
 62
3
 10
5.4440891E+001
 20
2.0027071E+002
 11
5.5306461E+001
 21
2.0027071E+002
  0
LINE
  8
1
  6
HIDDEN
 62
3
 10
5.4440891E+001
 20
1.9947071E+002
 11
5.5306461E+001
 21
1.9947071E+002
  0
LINE
  8
1
  6
HIDDEN
 62
3
 10
5.5540881E+001
 20
2.0243971E+002
 11
5.5540881E+001
 21
2.0050511E+002
  0
LINE
  8
1
  6
HIDDEN
 62
3
 10
5.6340891E+001
 20
2.0243971E+002
 11
5.6340891E+001
 21
2.0050511E+002
  0
LINE
  8
1
  6
HIDDEN
 62
3
 10
5.5410561E+001
 20
2.0040101E+002
 11
5.5021651E+001
 21
2.0078991E+002
  0
LINE
  8
1
  6
HIDDEN
 62
3
 10
5.6471211E+001
 20
2.0040101E+002
 11
5.6860121E+001
 21
2.0078991E+002
  0
LINE
  8
1
  6
HIDDEN
 62
3
 10
5.5410561E+001
 20
1.9934041E+002
 11
5.5021651E+001
 21
1.9895151E+002
  0
LINE
  8
1
  6
HIDDEN
 62
3
 10
5.6471211E+001
 20
1.9934041E+002
 11
5.6860121E+001
 21
1.9895151E+002
  0
ARC
  8
1
  6
HIDDEN
 62
3
 10
5.5940891E+001
 20
1.9987071E+002
 40
7.5E-001
 50
2.12231E+002
 51
2.37769E+002
  0
ARC
  8
1
  6
HIDDEN
 62
3
 10
5.5940891E+001
 20
1.9987071E+002
 40
7.5E-001
 50
1.22231E+002
 51
1.47769E+002
  0
INSERT
  2
*E1434
  8
1
 10
5.5940891E+001
 20
1.9987071E+002
 41
1.0
 42
1.0
 43
1.0
 50
2.7E+002
 62
3
  0
INSERT
  2
*E1435
  8
1
 10
5.5940891E+001
 20
1.9987071E+002
 41
1.0
 42
1.0
 43
1.0
 50
2.7E+002
 62
3
  0
LINE
  8
1
  6
HIDDEN
 62
3
 10
5.5540881E+001
 20
2.0137071E+002
 11
5.6340891E+001
 21
2.0137071E+002
  0
LINE
  8
1
  6
HIDDEN
 62
3
 10
5.5540881E+001
 20
1.9837071E+002
 11
5.6340891E+001
 21
1.9837071E+002
  0
LINE
  8
1
  6
HIDDEN
 62
3
 10
4.6440891E+001
 20
1.9923631E+002
 11
4.6440891E+001
 21
1.9730171E+002
  0
LINE
  8
1
  6
HIDDEN
 62
3
 10
4.7240891E+001
 20
1.9923631E+002
 11
4.7240891E+001
 21
1.9730171E+002
  0
LINE
  8
1
  6
HIDDEN
 62
3
 10
4.7475321E+001
 20
1.9947071E+002
 11
4.8340891E+001
 21
1.9947071E+002
  0
LINE
  8
1
  6
HIDDEN
 62
3
 10
4.7475321E+001
 20
2.0027071E+002
 11
4.8340891E+001
 21
2.0027071E+002
  0
LINE
  8
1
  6
HIDDEN
 62
3
 10
4.5340891E+001
 20
2.0027071E+002
 11
4.5340891E+001
 21
1.9947071E+002
  0
LINE
  8
1
  6
HIDDEN
 62
3
 10
4.8340891E+001
 20
2.0027071E+002
 11
4.8340891E+001
 21
1.9947071E+002
  0
LINE
  8
1
  6
HIDDEN
 62
3
 10
4.5340891E+001
 20
2.0027071E+002
 11
4.6206461E+001
 21
2.0027071E+002
  0
LINE
  8
1
  6
HIDDEN
 62
3
 10
4.5340891E+001
 20
1.9947071E+002
 11
4.6206461E+001
 21
1.9947071E+002
  0
LINE
  8
1
  6
HIDDEN
 62
3
 10
4.6440891E+001
 20
2.0243971E+002
 11
4.6440891E+001
 21
2.0050511E+002
  0
LINE
  8
1
  6
HIDDEN
 62
3
 10
4.7240891E+001
 20
2.0243971E+002
 11
4.7240891E+001
 21
2.0050511E+002
  0
LINE
  8
1
  6
HIDDEN
 62
3
 10
4.6310561E+001
 20
2.0040101E+002
 11
4.5921661E+001
 21
2.0078991E+002
  0
LINE
  8
1
  6
HIDDEN
 62
3
 10
4.7371221E+001
 20
2.0040101E+002
 11
4.7760131E+001
 21
2.0078991E+002
  0
LINE
  8
1
  6
HIDDEN
 62
3
 10
4.6310561E+001
 20
1.9934041E+002
 11
4.5921661E+001
 21
1.9895151E+002
  0
LINE
  8
1
  6
HIDDEN
 62
3
 10
4.7371221E+001
 20
1.9934041E+002
 11
4.7760131E+001
 21
1.9895151E+002
  0
ARC
  8
1
  6
HIDDEN
 62
3
 10
4.6840891E+001
 20
1.9987071E+002
 40
7.5E-001
 50
2.12231E+002
 51
2.37769E+002
  0
ARC
  8
1
  6
HIDDEN
 62
3
 10
4.6840891E+001
 20
1.9987071E+002
 40
7.5E-001
 50
1.22231E+002
 51
1.47769E+002
  0
INSERT
  2
*E1454
  8
1
 10
4.6840891E+001
 20
1.9987071E+002
 41
1.0
 42
1.0
 43
1.0
 50
2.7E+002
 62
3
  0
INSERT
  2
*E1455
  8
1
 10
4.6840891E+001
 20
1.9987071E+002
 41
1.0
 42
1.0
 43
1.0
 50
2.7E+002
 62
3
  0
LINE
  8
1
  6
HIDDEN
 62
3
 10
4.6440891E+001
 20
2.0137071E+002
 11
4.7240891E+001
 21
2.0137071E+002
  0
LINE
  8
1
  6
HIDDEN
 62
3
 10
4.6440891E+001
 20
1.9837071E+002
 11
4.7240891E+001
 21
1.9837071E+002
  0
LINE
  8
1
  6
HIDDEN
 62
3
 10
3.7340891E+001
 20
1.9923631E+002
 11
3.7340891E+001
 21
1.9730171E+002
  0
LINE
  8
1
  6
HIDDEN
 62
3
 10
3.8140891E+001
 20
1.9923631E+002
 11
3.8140891E+001
 21
1.9730171E+002
  0
LINE
  8
1
  6
HIDDEN
 62
3
 10
3.8375321E+001
 20
1.9947071E+002
 11
3.9240891E+001
 21
1.9947071E+002
  0
LINE
  8
1
  6
HIDDEN
 62
3
 10
3.8375321E+001
 20
2.0027071E+002
 11
3.9240891E+001
 21
2.0027071E+002
  0
LINE
  8
1
  6
HIDDEN
 62
3
 10
3.6240891E+001
 20
2.0027071E+002
 11
3.6240891E+001
 21
1.9947071E+002
  0
LINE
  8
1
  6
HIDDEN
 62
3
 10
3.9240891E+001
 20
2.0027071E+002
 11
3.9240891E+001
 21
1.9947071E+002
  0
LINE
  8
1
  6
HIDDEN
 62
3
 10
3.6240891E+001
 20
2.0027071E+002
 11
3.7106461E+001
 21
2.0027071E+002
  0
LINE
  8
1
  6
HIDDEN
 62
3
 10
3.6240891E+001
 20
1.9947071E+002
 11
3.7106461E+001
 21
1.9947071E+002
  0
LINE
  8
1
  6
HIDDEN
 62
3
 10
3.7340891E+001
 20
2.0243971E+002
 11
3.7340891E+001
 21
2.0050511E+002
  0
LINE
  8
1
  6
HIDDEN
 62
3
 10
3.8140891E+001
 20
2.0243971E+002
 11
3.8140891E+001
 21
2.0050511E+002
  0
LINE
  8
1
  6
HIDDEN
 62
3
 10
3.7210571E+001
 20
2.0040101E+002
 11
3.6821671E+001
 21
2.0078991E+002
  0
LINE
  8
1
  6
HIDDEN
 62
3
 10
3.8271221E+001
 20
2.0040101E+002
 11
3.8660141E+001
 21
2.0078991E+002
  0
LINE
  8
1
  6
HIDDEN
 62
3
 10
3.7210571E+001
 20
1.9934041E+002
 11
3.6821671E+001
 21
1.9895151E+002
  0
LINE
  8
1
  6
HIDDEN
 62
3
 10
3.8271221E+001
 20
1.9934041E+002
 11
3.8660141E+001
 21
1.9895151E+002
  0
ARC
  8
1
  6
HIDDEN
 62
3
 10
3.7740891E+001
 20
1.9987071E+002
 40
7.5E-001
 50
2.12231E+002
 51
2.37769E+002
  0
ARC
  8
1
  6
HIDDEN
 62
3
 10
3.7740891E+001
 20
1.9987071E+002
 40
7.5E-001
 50
1.22231E+002
 51
1.47769E+002
  0
INSERT
  2
*E1474
  8
1
 10
3.7740891E+001
 20
1.9987071E+002
 41
1.0
 42
1.0
 43
1.0
 50
2.7E+002
 62
3
  0
INSERT
  2
*E1475
  8
1
 10
3.7740891E+001
 20
1.9987071E+002
 41
1.0
 42
1.0
 43
1.0
 50
2.7E+002
 62
3
  0
LINE
  8
1
  6
HIDDEN
 62
3
 10
3.7340891E+001
 20
2.0137071E+002
 11
3.8140891E+001
 21
2.0137071E+002
  0
LINE
  8
1
  6
HIDDEN
 62
3
 10
3.7340891E+001
 20
1.9837071E+002
 11
3.8140891E+001
 21
1.9837071E+002
  0
LINE
  8
1
  6
HIDDEN
 62
3
 10
7.3740881E+001
 20
1.7510511E+002
 11
7.3740881E+001
 21
1.7703981E+002
  0
LINE
  8
1
  6
HIDDEN
 62
3
 10
7.4540881E+001
 20
1.7510511E+002
 11
7.4540881E+001
 21
1.7703981E+002
  0
LINE
  8
1
  6
HIDDEN
 62
3
 10
7.4775311E+001
 20
1.7487071E+002
 11
7.5640881E+001
 21
1.7487071E+002
  0
LINE
  8
1
  6
HIDDEN
 62
3
 10
7.4775311E+001
 20
1.7407071E+002
 11
7.5640881E+001
 21
1.7407071E+002
  0
LINE
  8
1
  6
HIDDEN
 62
3
 10
7.2640881E+001
 20
1.7407071E+002
 11
7.2640881E+001
 21
1.7487071E+002
  0
LINE
  8
1
  6
HIDDEN
 62
3
 10
7.5640881E+001
 20
1.7407071E+002
 11
7.5640881E+001
 21
1.7487071E+002
  0
LINE
  8
1
  6
HIDDEN
 62
3
 10
7.2640881E+001
 20
1.7407071E+002
 11
7.3506451E+001
 21
1.7407071E+002
  0
LINE
  8
1
  6
HIDDEN
 62
3
 10
7.2640881E+001
 20
1.7487071E+002
 11
7.3506451E+001
 21
1.7487071E+002
  0
LINE
  8
1
  6
HIDDEN
 62
3
 10
7.3740881E+001
 20
1.7190171E+002
 11
7.3740881E+001
 21
1.7383631E+002
  0
LINE
  8
1
  6
HIDDEN
 62
3
 10
7.4540881E+001
 20
1.7190171E+002
 11
7.4540881E+001
 21
1.7383631E+002
  0
LINE
  8
1
  6
HIDDEN
 62
3
 10
7.3610561E+001
 20
1.7394041E+002
 11
7.3221641E+001
 21
1.7355151E+002
  0
LINE
  8
1
  6
HIDDEN
 62
3
 10
7.4671211E+001
 20
1.7394041E+002
 11
7.5060111E+001
 21
1.7355151E+002
  0
LINE
  8
1
  6
HIDDEN
 62
3
 10
7.3610561E+001
 20
1.7500101E+002
 11
7.3221641E+001
 21
1.7538991E+002
  0
LINE
  8
1
  6
HIDDEN
 62
3
 10
7.4671211E+001
 20
1.7500101E+002
 11
7.5060111E+001
 21
1.7538991E+002
  0
LINE
  8
1
  6
HIDDEN
 62
3
 10
7.3740881E+001
 20
1.7297071E+002
 11
7.4540881E+001
 21
1.7297071E+002
  0
LINE
  8
1
  6
HIDDEN
 62
3
 10
7.3740881E+001
 20
1.7597071E+002
 11
7.4540881E+001
 21
1.7597071E+002
  0
INSERT
  2
*E1494
  8
1
 10
7.4140881E+001
 20
1.7447071E+002
 41
1.0
 42
1.0
 43
1.0
 50
2.7E+002
 62
3
  0
INSERT
  2
*E1495
  8
1
 10
7.4140881E+001
 20
1.7447071E+002
 41
1.0
 42
1.0
 43
1.0
 50
2.7E+002
 62
3
  0
ARC
  8
1
  6
HIDDEN
 62
3
 10
7.4140881E+001
 20
1.7447071E+002
 40
7.5E-001
 50
3.02231E+002
 51
3.27769E+002
  0
ARC
  8
1
  6
HIDDEN
 62
3
 10
7.4140881E+001
 20
1.7447071E+002
 40
7.5E-001
 50
3.223096E+001
 51
5.776895E+001
  0
LINE
  8
1
  6
HIDDEN
 62
3
 10
6.4640881E+001
 20
1.7510521E+002
 11
6.4640881E+001
 21
1.7703981E+002
  0
LINE
  8
1
  6
HIDDEN
 62
3
 10
6.5440881E+001
 20
1.7510521E+002
 11
6.5440881E+001
 21
1.7703981E+002
  0
LINE
  8
1
  6
HIDDEN
 62
3
 10
6.5675311E+001
 20
1.7487071E+002
 11
6.6540881E+001
 21
1.7487071E+002
  0
LINE
  8
1
  6
HIDDEN
 62
3
 10
6.5675311E+001
 20
1.7407071E+002
 11
6.6540881E+001
 21
1.7407071E+002
  0
LINE
  8
1
  6
HIDDEN
 62
3
 10
6.3540881E+001
 20
1.7407071E+002
 11
6.3540881E+001
 21
1.7487071E+002
  0
LINE
  8
1
  6
HIDDEN
 62
3
 10
6.6540881E+001
 20
1.7407071E+002
 11
6.6540881E+001
 21
1.7487071E+002
  0
LINE
  8
1
  6
HIDDEN
 62
3
 10
6.3540881E+001
 20
1.7407071E+002
 11
6.4406451E+001
 21
1.7407071E+002
  0
LINE
  8
1
  6
HIDDEN
 62
3
 10
6.3540881E+001
 20
1.7487071E+002
 11
6.4406451E+001
 21
1.7487071E+002
  0
LINE
  8
1
  6
HIDDEN
 62
3
 10
6.4640881E+001
 20
1.7190171E+002
 11
6.4640881E+001
 21
1.7383631E+002
  0
LINE
  8
1
  6
HIDDEN
 62
3
 10
6.5440881E+001
 20
1.7190171E+002
 11
6.5440881E+001
 21
1.7383631E+002
  0
LINE
  8
1
  6
HIDDEN
 62
3
 10
6.4510551E+001
 20
1.7394041E+002
 11
6.4121641E+001
 21
1.7355151E+002
  0
LINE
  8
1
  6
HIDDEN
 62
3
 10
6.5571201E+001
 20
1.7394041E+002
 11
6.5960111E+001
 21
1.7355151E+002
  0
LINE
  8
1
  6
HIDDEN
 62
3
 10
6.4510551E+001
 20
1.7500101E+002
 11
6.4121641E+001
 21
1.7538991E+002
  0
LINE
  8
1
  6
HIDDEN
 62
3
 10
6.5571201E+001
 20
1.7500101E+002
 11
6.5960111E+001
 21
1.7538991E+002
  0
INSERT
  2
*E1512
  8
1
 10
6.5040881E+001
 20
1.7447071E+002
 41
1.0
 42
1.0
 43
1.0
 50
2.7E+002
 62
3
  0
INSERT
  2
*E1513
  8
1
 10
6.5040881E+001
 20
1.7447071E+002
 41
1.0
 42
1.0
 43
1.0
 50
2.7E+002
 62
3
  0
ARC
  8
1
  6
HIDDEN
 62
3
 10
6.5040881E+001
 20
1.7447071E+002
 40
7.5E-001
 50
3.02231E+002
 51
3.27769E+002
  0
ARC
  8
1
  6
HIDDEN
 62
3
 10
6.5040881E+001
 20
1.7447071E+002
 40
7.5E-001
 50
3.223096E+001
 51
5.776895E+001
  0
LINE
  8
1
  6
HIDDEN
 62
3
 10
6.4640881E+001
 20
1.7297071E+002
 11
6.5440881E+001
 21
1.7297071E+002
  0
LINE
  8
1
  6
HIDDEN
 62
3
 10
6.4640881E+001
 20
1.7597071E+002
 11
6.5440881E+001
 21
1.7597071E+002
  0
LINE
  8
1
  6
HIDDEN
 62
3
 10
5.5540881E+001
 20
1.7510521E+002
 11
5.5540881E+001
 21
1.7703981E+002
  0
LINE
  8
1
  6
HIDDEN
 62
3
 10
5.6340881E+001
 20
1.7510521E+002
 11
5.6340881E+001
 21
1.7703981E+002
  0
LINE
  8
1
  6
HIDDEN
 62
3
 10
5.6575311E+001
 20
1.7487071E+002
 11
5.7440881E+001
 21
1.7487071E+002
  0
LINE
  8
1
  6
HIDDEN
 62
3
 10
5.6575311E+001
 20
1.7407071E+002
 11
5.7440881E+001
 21
1.7407071E+002
  0
LINE
  8
1
  6
HIDDEN
 62
3
 10
5.4440881E+001
 20
1.7407071E+002
 11
5.4440881E+001
 21
1.7487071E+002
  0
LINE
  8
1
  6
HIDDEN
 62
3
 10
5.7440881E+001
 20
1.7407071E+002
 11
5.7440881E+001
 21
1.7487071E+002
  0
LINE
  8
1
  6
HIDDEN
 62
3
 10
5.4440881E+001
 20
1.7407071E+002
 11
5.5306451E+001
 21
1.7407071E+002
  0
LINE
  8
1
  6
HIDDEN
 62
3
 10
5.4440881E+001
 20
1.7487071E+002
 11
5.5306451E+001
 21
1.7487071E+002
  0
LINE
  8
1
  6
HIDDEN
 62
3
 10
5.5540871E+001
 20
1.7190171E+002
 11
5.5540881E+001
 21
1.7383631E+002
  0
LINE
  8
1
  6
HIDDEN
 62
3
 10
5.6340871E+001
 20
1.7190171E+002
 11
5.6340881E+001
 21
1.7383631E+002
  0
LINE
  8
1
  6
HIDDEN
 62
3
 10
5.5410551E+001
 20
1.7394041E+002
 11
5.5021641E+001
 21
1.7355151E+002
  0
LINE
  8
1
  6
HIDDEN
 62
3
 10
5.6471211E+001
 20
1.7394041E+002
 11
5.6860111E+001
 21
1.7355151E+002
  0
LINE
  8
1
  6
HIDDEN
 62
3
 10
5.5410551E+001
 20
1.7500101E+002
 11
5.5021641E+001
 21
1.7538991E+002
  0
LINE
  8
1
  6
HIDDEN
 62
3
 10
5.6471211E+001
 20
1.7500101E+002
 11
5.6860111E+001
 21
1.7538991E+002
  0
INSERT
  2
*E1532
  8
1
 10
5.5940881E+001
 20
1.7447071E+002
 41
1.0
 42
1.0
 43
1.0
 50
2.7E+002
 62
3
  0
INSERT
  2
*E1533
  8
1
 10
5.5940881E+001
 20
1.7447071E+002
 41
1.0
 42
1.0
 43
1.0
 50
2.7E+002
 62
3
  0
ARC
  8
1
  6
HIDDEN
 62
3
 10
5.5940881E+001
 20
1.7447071E+002
 40
7.5E-001
 50
3.02231E+002
 51
3.27769E+002
  0
ARC
  8
1
  6
HIDDEN
 62
3
 10
5.5940881E+001
 20
1.7447071E+002
 40
7.5E-001
 50
3.223096E+001
 51
5.776895E+001
  0
LINE
  8
1
  6
HIDDEN
 62
3
 10
5.5540871E+001
 20
1.7297071E+002
 11
5.6340871E+001
 21
1.7297071E+002
  0
LINE
  8
1
  6
HIDDEN
 62
3
 10
5.5540881E+001
 20
1.7597071E+002
 11
5.6340881E+001
 21
1.7597071E+002
  0
LINE
  8
1
  6
HIDDEN
 62
3
 10
4.6440881E+001
 20
1.7510521E+002
 11
4.6440881E+001
 21
1.7703981E+002
  0
LINE
  8
1
  6
HIDDEN
 62
3
 10
4.7240891E+001
 20
1.7510521E+002
 11
4.7240891E+001
 21
1.7703981E+002
  0
LINE
  8
1
  6
HIDDEN
 62
3
 10
4.7475311E+001
 20
1.7487071E+002
 11
4.8340881E+001
 21
1.7487071E+002
  0
LINE
  8
1
  6
HIDDEN
 62
3
 10
4.7475311E+001
 20
1.7407071E+002
 11
4.8340881E+001
 21
1.7407071E+002
  0
LINE
  8
1
  6
HIDDEN
 62
3
 10
4.5340891E+001
 20
1.7407071E+002
 11
4.5340891E+001
 21
1.7487071E+002
  0
LINE
  8
1
  6
HIDDEN
 62
3
 10
4.8340881E+001
 20
1.7407071E+002
 11
4.8340881E+001
 21
1.7487071E+002
  0
LINE
  8
1
  6
HIDDEN
 62
3
 10
4.5340891E+001
 20
1.7407071E+002
 11
4.6206461E+001
 21
1.7407071E+002
  0
LINE
  8
1
  6
HIDDEN
 62
3
 10
4.5340891E+001
 20
1.7487071E+002
 11
4.6206461E+001
 21
1.7487071E+002
  0
LINE
  8
1
  6
HIDDEN
 62
3
 10
4.6440881E+001
 20
1.7190171E+002
 11
4.6440881E+001
 21
1.7383631E+002
  0
LINE
  8
1
  6
HIDDEN
 62
3
 10
4.7240891E+001
 20
1.7190171E+002
 11
4.7240891E+001
 21
1.7383631E+002
  0
LINE
  8
1
  6
HIDDEN
 62
3
 10
4.6310561E+001
 20
1.7394041E+002
 11
4.5921641E+001
 21
1.7355151E+002
  0
LINE
  8
1
  6
HIDDEN
 62
3
 10
4.7371211E+001
 20
1.7394041E+002
 11
4.7760121E+001
 21
1.7355151E+002
  0
LINE
  8
1
  6
HIDDEN
 62
3
 10
4.6310561E+001
 20
1.7500111E+002
 11
4.5921641E+001
 21
1.7539001E+002
  0
LINE
  8
1
  6
HIDDEN
 62
3
 10
4.7371211E+001
 20
1.7500111E+002
 11
4.7760121E+001
 21
1.7539001E+002
  0
INSERT
  2
*E1552
  8
1
 10
4.6840881E+001
 20
1.7447071E+002
 41
1.0
 42
1.0
 43
1.0
 50
2.7E+002
 62
3
  0
INSERT
  2
*E1553
  8
1
 10
4.6840881E+001
 20
1.7447071E+002
 41
1.0
 42
1.0
 43
1.0
 50
2.7E+002
 62
3
  0
ARC
  8
1
  6
HIDDEN
 62
3
 10
4.6840881E+001
 20
1.7447071E+002
 40
7.5E-001
 50
3.02231E+002
 51
3.27769E+002
  0
ARC
  8
1
  6
HIDDEN
 62
3
 10
4.6840881E+001
 20
1.7447071E+002
 40
7.5E-001
 50
3.223096E+001
 51
5.776895E+001
  0
LINE
  8
1
  6
HIDDEN
 62
3
 10
4.6440881E+001
 20
1.7297071E+002
 11
4.7240891E+001
 21
1.7297071E+002
  0
LINE
  8
1
  6
HIDDEN
 62
3
 10
4.6440881E+001
 20
1.7597071E+002
 11
4.7240891E+001
 21
1.7597071E+002
  0
LINE
  8
1
  6
HIDDEN
 62
3
 10
3.7340891E+001
 20
1.7510521E+002
 11
3.7340891E+001
 21
1.7703981E+002
  0
LINE
  8
1
  6
HIDDEN
 62
3
 10
3.8140881E+001
 20
1.7510521E+002
 11
3.8140881E+001
 21
1.7703981E+002
  0
LINE
  8
1
  6
HIDDEN
 62
3
 10
3.8375321E+001
 20
1.7487071E+002
 11
3.9240891E+001
 21
1.7487071E+002
  0
LINE
  8
1
  6
HIDDEN
 62
3
 10
3.8375321E+001
 20
1.7407071E+002
 11
3.9240891E+001
 21
1.7407071E+002
  0
LINE
  8
1
  6
HIDDEN
 62
3
 10
3.6240891E+001
 20
1.7407071E+002
 11
3.6240891E+001
 21
1.7487071E+002
  0
LINE
  8
1
  6
HIDDEN
 62
3
 10
3.9240891E+001
 20
1.7407071E+002
 11
3.9240891E+001
 21
1.7487071E+002
  0
LINE
  8
1
  6
HIDDEN
 62
3
 10
3.6240891E+001
 20
1.7407071E+002
 11
3.7106461E+001
 21
1.7407071E+002
  0
LINE
  8
1
  6
HIDDEN
 62
3
 10
3.6240891E+001
 20
1.7487071E+002
 11
3.7106461E+001
 21
1.7487071E+002
  0
LINE
  8
1
  6
HIDDEN
 62
3
 10
3.7340881E+001
 20
1.7190171E+002
 11
3.7340891E+001
 21
1.7383631E+002
  0
LINE
  8
1
  6
HIDDEN
 62
3
 10
3.8140881E+001
 20
1.7190171E+002
 11
3.8140881E+001
 21
1.7383631E+002
  0
LINE
  8
1
  6
HIDDEN
 62
3
 10
3.7210551E+001
 20
1.7394041E+002
 11
3.6821651E+001
 21
1.7355151E+002
  0
LINE
  8
1
  6
HIDDEN
 62
3
 10
3.8271221E+001
 20
1.7394041E+002
 11
3.8660121E+001
 21
1.7355151E+002
  0
LINE
  8
1
  6
HIDDEN
 62
3
 10
3.7210551E+001
 20
1.7500111E+002
 11
3.6821651E+001
 21
1.7539001E+002
  0
LINE
  8
1
  6
HIDDEN
 62
3
 10
3.8271221E+001
 20
1.7500111E+002
 11
3.8660121E+001
 21
1.7539001E+002
  0
INSERT
  2
*E1572
  8
1
 10
3.7740891E+001
 20
1.7447071E+002
 41
1.0
 42
1.0
 43
1.0
 50
2.7E+002
 62
3
  0
INSERT
  2
*E1573
  8
1
 10
3.7740891E+001
 20
1.7447071E+002
 41
1.0
 42
1.0
 43
1.0
 50
2.7E+002
 62
3
  0
ARC
  8
1
  6
HIDDEN
 62
3
 10
3.7740891E+001
 20
1.7447071E+002
 40
7.5E-001
 50
3.02231E+002
 51
3.27769E+002
  0
ARC
  8
1
  6
HIDDEN
 62
3
 10
3.7740891E+001
 20
1.7447071E+002
 40
7.5E-001
 50
3.223096E+001
 51
5.776895E+001
  0
LINE
  8
1
  6
HIDDEN
 62
3
 10
3.7340881E+001
 20
1.7297071E+002
 11
3.8140881E+001
 21
1.7297071E+002
  0
LINE
  8
1
  6
HIDDEN
 62
3
 10
3.7340891E+001
 20
1.7597071E+002
 11
3.8140881E+001
 21
1.7597071E+002
  0
POLYLINE
  8
1
  6
CONTINUOUS
 62
3
 66
1
 40
5.0E-001
 41
5.0E-001
 70
0
  0
VERTEX
  8
1
 42
4.1421356E-001
 10
1.3472304E+002
 20
2.1542071E+002
 70
0
  0
VERTEX
  8
1
 42
0.0
 10
1.3422304E+002
 20
2.1592071E+002
 70
0
  0
SEQEND
  0
POLYLINE
  8
1
  6
CONTINUOUS
 62
3
 66
1
 40
5.0E-001
 41
5.0E-001
 70
0
  0
VERTEX
  8
1
 42
4.1421351E-001
 10
1.4172304E+002
 20
2.0727071E+002
 70
0
  0
VERTEX
  8
1
 42
0.0
 10
1.4122304E+002
 20
2.0677071E+002
 70
0
  0
SEQEND
  0
POLYLINE
  8
1
  6
CONTINUOUS
 62
3
 66
1
 40
5.0E-001
 41
5.0E-001
 70
0
  0
VERTEX
  8
1
 42
1.0170899E-001
 10
1.3193087E+002
 20
2.0287066E+002
 70
0
  0
VERTEX
  8
1
 42
0.0
 10
1.3238186E+002
 20
2.0377066E+002
 70
0
  0
SEQEND
  0
POLYLINE
  8
1
  6
CONTINUOUS
 62
3
 66
1
 40
5.0E-001
 41
5.0E-001
 70
0
  0
VERTEX
  8
1
 42
4.1421356E-001
 10
1.4122304E+002
 20
1.6757071E+002
 70
0
  0
VERTEX
  8
1
 42
0.0
 10
1.4172304E+002
 20
1.6707071E+002
 70
0
  0
SEQEND
  0
INSERT
  2
*E1582
  8
1
 10
1.3222304E+002
 20
2.0827071E+002
 41
1.0
 42
1.0
 43
1.0
 50
2.7E+002
 62
3
  0
POLYLINE
  8
1
  6
CONTINUOUS
 62
3
 66
1
 40
5.0E-001
 41
5.0E-001
 70
0
  0
VERTEX
  8
1
 42
0.0
 10
1.5132304E+002
 20
1.6607071E+002
 70
0
  0
VERTEX
  8
1
 42
0.0
 10
1.3022304E+002
 20
1.6607071E+002
 70
0
  0
SEQEND
  0
POLYLINE
  8
1
  6
CONTINUOUS
 62
3
 66
1
 40
5.0E-001
 41
5.0E-001
 70
0
  0
VERTEX
  8
1
 42
0.0
 10
1.5132304E+002
 20
2.0727071E+002
 70
0
  0
VERTEX
  8
1
 42
0.0
 10
1.4172304E+002
 20
2.0727071E+002
 70
0
  0
SEQEND
  0
POLYLINE
  8
1
  6
CONTINUOUS
 62
3
 66
1
 40
5.0E-001
 41
5.0E-001
 70
0
  0
VERTEX
  8
1
 42
0.0
 10
1.5132304E+002
 20
2.0827071E+002
 70
0
  0
VERTEX
  8
1
 42
0.0
 10
1.3022304E+002
 20
2.0827071E+002
 70
0
  0
SEQEND
  0
POLYLINE
  8
1
  6
CONTINUOUS
 62
3
 66
1
 40
5.0E-001
 41
5.0E-001
 70
0
  0
VERTEX
  8
1
 42
0.0
 10
1.3422304E+002
 20
2.1592071E+002
 70
0
  0
VERTEX
  8
1
 42
0.0
 10
1.3022304E+002
 20
2.1592071E+002
 70
0
  0
SEQEND
  0
POLYLINE
  8
1
  6
CONTINUOUS
 62
3
 66
1
 40
5.0E-001
 41
5.0E-001
 70
0
  0
VERTEX
  8
1
 42
0.0
 10
1.5132304E+002
 20
2.0827071E+002
 70
0
  0
VERTEX
  8
1
 42
0.0
 10
1.5132304E+002
 20
2.0727071E+002
 70
0
  0
SEQEND
  0
POLYLINE
  8
1
  6
CONTINUOUS
 62
3
 66
1
 40
5.0E-001
 41
5.0E-001
 70
0
  0
VERTEX
  8
1
 42
0.0
 10
1.5132304E+002
 20
1.6707071E+002
 70
0
  0
VERTEX
  8
1
 42
0.0
 10
1.5132304E+002
 20
1.6607071E+002
 70
0
  0
SEQEND
  0
POLYLINE
  8
1
  6
CONTINUOUS
 62
3
 66
1
 40
5.0E-001
 41
5.0E-001
 70
0
  0
VERTEX
  8
1
 42
0.0
 10
1.3022304E+002
 20
1.6914941E+002
 70
0
  0
VERTEX
  8
1
 42
0.0
 10
1.3022304E+002
 20
1.6607071E+002
 70
0
  0
SEQEND
  0
POLYLINE
  8
1
  6
CONTINUOUS
 62
3
 66
1
 40
5.0E-001
 41
5.0E-001
 70
0
  0
VERTEX
  8
1
 42
0.0
 10
1.3472304E+002
 20
2.1542071E+002
 70
0
  0
VERTEX
  8
1
 42
0.0
 10
1.3472304E+002
 20
2.0827071E+002
 70
0
  0
SEQEND
  0
POLYLINE
  8
1
  6
CONTINUOUS
 62
3
 66
1
 40
5.0E-001
 41
5.0E-001
 70
0
  0
VERTEX
  8
1
 42
0.0
 10
1.3222304E+002
 20
2.0927071E+002
 70
0
  0
VERTEX
  8
1
 42
0.0
 10
1.3022304E+002
 20
2.0927071E+002
 70
0
  0
SEQEND
  0
POLYLINE
  8
1
  6
CONTINUOUS
 62
3
 66
1
 40
5.0E-001
 41
5.0E-001
 70
0
  0
VERTEX
  8
1
 42
0.0
 10
1.5082304E+002
 20
2.0827071E+002
 70
0
  0
VERTEX
  8
1
 42
0.0
 10
1.5082304E+002
 20
2.0727071E+002
 70
0
  0
SEQEND
  0
POLYLINE
  8
1
  6
CONTINUOUS
 62
3
 66
1
 40
5.0E-001
 41
5.0E-001
 70
0
  0
VERTEX
  8
1
 42
0.0
 10
1.5082304E+002
 20
1.6707071E+002
 70
0
  0
VERTEX
  8
1
 42
0.0
 10
1.5082304E+002
 20
1.6607071E+002
 70
0
  0
SEQEND
  0
POLYLINE
  8
1
  6
CONTINUOUS
 62
3
 66
1
 40
5.0E-001
 41
5.0E-001
 70
0
  0
VERTEX
  8
1
 42
0.0
 10
1.3193084E+002
 20
2.0287071E+002
 70
0
  0
VERTEX
  8
1
 42
0.0
 10
1.3022304E+002
 20
2.0287071E+002
 70
0
  0
SEQEND
  0
POLYLINE
  8
1
  6
CONTINUOUS
 62
3
 66
1
 40
5.0E-001
 41
5.0E-001
 70
0
  0
VERTEX
  8
1
 42
0.0
 10
1.3262304E+002
 20
2.0467071E+002
 70
0
  0
VERTEX
  8
1
 42
0.0
 10
1.3238184E+002
 20
2.0377071E+002
 70
0
  0
SEQEND
  0
POLYLINE
  8
1
  6
CONTINUOUS
 62
3
 66
1
 40
5.0E-001
 41
5.0E-001
 70
0
  0
VERTEX
  8
1
 42
0.0
 10
1.3022304E+002
 20
2.0827071E+002
 70
0
  0
VERTEX
  8
1
 42
0.0
 10
1.3022304E+002
 20
2.0287071E+002
 70
0
  0
SEQEND
  0
POLYLINE
  8
1
  6
CONTINUOUS
 62
3
 66
1
 40
5.0E-001
 41
5.0E-001
 70
0
  0
VERTEX
  8
1
 42
0.0
 10
1.3322114E+002
 20
1.6967071E+002
 70
0
  0
VERTEX
  8
1
 42
0.0
 10
1.3232134E+002
 20
1.6967071E+002
 70
0
  0
SEQEND
  0
POLYLINE
  8
1
  6
CONTINUOUS
 62
3
 66
1
 40
5.0E-001
 41
5.0E-001
 70
0
  0
VERTEX
  8
1
 42
0.0
 10
1.3322304E+002
 20
2.0467071E+002
 70
0
  0
VERTEX
  8
1
 42
0.0
 10
1.3262304E+002
 20
2.0467071E+002
 70
0
  0
SEQEND
  0
POLYLINE
  8
1
  6
CONTINUOUS
 62
3
 66
1
 40
5.0E-001
 41
5.0E-001
 70
0
  0
VERTEX
  8
1
 42
0.0
 10
1.3232114E+002
 20
1.6967151E+002
 70
0
  0
VERTEX
  8
1
 42
0.0
 10
1.3194624E+002
 20
1.7117071E+002
 70
0
  0
SEQEND
  0
POLYLINE
  8
1
  6
CONTINUOUS
 62
3
 66
1
 40
5.0E-001
 41
5.0E-001
 70
0
  0
VERTEX
  8
1
 42
0.0
 10
1.3322304E+002
 20
2.0827071E+002
 70
0
  0
VERTEX
  8
1
 42
0.0
 10
1.3322304E+002
 20
2.1217071E+002
 70
0
  0
SEQEND
  0
POLYLINE
  8
1
  6
CONTINUOUS
 62
3
 66
1
 40
5.0E-001
 41
5.0E-001
 70
0
  0
VERTEX
  8
1
 42
0.0
 10
1.4601974E+002
 20
2.0827071E+002
 70
0
  0
VERTEX
  8
1
 42
0.0
 10
1.4601974E+002
 20
2.0827071E+002
 70
0
  0
SEQEND
  0
POLYLINE
  8
1
  6
CONTINUOUS
 62
3
 66
1
 40
5.0E-001
 41
5.0E-001
 70
0
  0
VERTEX
  8
1
 42
0.0
 10
1.4248414E+002
 20
2.0827071E+002
 70
0
  0
VERTEX
  8
1
 42
0.0
 10
1.4248424E+002
 20
2.0827071E+002
 70
0
  0
SEQEND
  0
POLYLINE
  8
1
  6
CONTINUOUS
 62
3
 66
1
 40
5.0E-001
 41
5.0E-001
 70
0
  0
VERTEX
  8
1
 42
0.0
 10
1.3194624E+002
 20
1.7117071E+002
 70
0
  0
VERTEX
  8
1
 42
0.0
 10
1.3174624E+002
 20
1.7117071E+002
 70
0
  0
SEQEND
  0
POLYLINE
  8
1
  6
CONTINUOUS
 62
3
 66
1
 40
5.0E-001
 41
5.0E-001
 70
0
  0
VERTEX
  8
1
 42
0.0
 10
1.3174624E+002
 20
1.7117071E+002
 70
0
  0
VERTEX
  8
1
 42
0.0
 10
1.3022304E+002
 20
1.6914941E+002
 70
0
  0
SEQEND
  0
LINE
  8
1
  6
HIDDEN
 62
3
 10
1.7472304E+002
 20
2.0727071E+002
 11
1.7472304E+002
 21
1.6707071E+002
  0
POLYLINE
  8
1
  6
CONTINUOUS
 62
3
 66
1
 40
5.0E-001
 41
5.0E-001
 70
0
  0
VERTEX
  8
1
 42
0.0
 10
1.5882304E+002
 20
1.6607071E+002
 70
0
  0
VERTEX
  8
1
 42
0.0
 10
1.5172304E+002
 20
1.6607071E+002
 70
0
  0
SEQEND
  0
POLYLINE
  8
1
  6
CONTINUOUS
 62
3
 66
1
 40
5.0E-001
 41
5.0E-001
 70
0
  0
VERTEX
  8
1
 42
0.0
 10
1.4122304E+002
 20
1.8462071E+002
 70
0
  0
VERTEX
  8
1
 42
0.0
 10
1.4122304E+002
 20
1.6757071E+002
 70
0
  0
SEQEND
  0
LINE
  8
1
  6
HIDDEN
 62
3
 10
1.7472304E+002
 20
2.0727071E+002
 11
1.7372304E+002
 21
2.0827071E+002
  0
LINE
  8
1
  6
HIDDEN
 62
3
 10
1.7472304E+002
 20
1.6707071E+002
 11
1.7372304E+002
 21
1.6607071E+002
  0
POLYLINE
  8
1
  6
CONTINUOUS
 62
3
 66
1
 40
5.0E-001
 41
5.0E-001
 70
0
  0
VERTEX
  8
1
 42
0.0
 10
1.5172304E+002
 20
2.0712071E+002
 70
0
  0
VERTEX
  8
1
 42
0.0
 10
1.4172304E+002
 20
2.0712071E+002
 70
0
  0
SEQEND
  0
POLYLINE
  8
1
  6
CONTINUOUS
 62
3
 66
1
 40
5.0E-001
 41
5.0E-001
 70
0
  0
VERTEX
  8
1
 42
0.0
 10
1.5172304E+002
 20
2.0827071E+002
 70
0
  0
VERTEX
  8
1
 42
0.0
 10
1.5172304E+002
 20
2.0712071E+002
 70
0
  0
SEQEND
  0
POLYLINE
  8
1
  6
CONTINUOUS
 62
3
 66
1
 40
5.0E-001
 41
5.0E-001
 70
0
  0
VERTEX
  8
1
 42
0.0
 10
1.5172304E+002
 20
1.6722071E+002
 70
0
  0
VERTEX
  8
1
 42
0.0
 10
1.5172304E+002
 20
1.6607071E+002
 70
0
  0
SEQEND
  0
POLYLINE
  8
1
  6
CONTINUOUS
 62
3
 66
1
 40
5.0E-001
 41
5.0E-001
 70
0
  0
VERTEX
  8
1
 42
0.0
 10
1.4322304E+002
 20
1.8972071E+002
 70
0
  0
VERTEX
  8
1
 42
0.0
 10
1.4122304E+002
 20
1.8972071E+002
 70
0
  0
SEQEND
  0
POLYLINE
  8
1
  6
CONTINUOUS
 62
3
 66
1
 40
5.0E-001
 41
5.0E-001
 70
0
  0
VERTEX
  8
1
 42
0.0
 10
1.4372304E+002
 20
1.8922071E+002
 70
0
  0
VERTEX
  8
1
 42
0.0
 10
1.4372304E+002
 20
1.8512071E+002
 70
0
  0
SEQEND
  0
POLYLINE
  8
1
  6
CONTINUOUS
 62
3
 66
1
 40
5.0E-001
 41
5.0E-001
 70
0
  0
VERTEX
  8
1
 42
0.0
 10
1.4322304E+002
 20
1.8462071E+002
 70
0
  0
VERTEX
  8
1
 42
0.0
 10
1.4372304E+002
 20
1.8512071E+002
 70
0
  0
SEQEND
  0
POLYLINE
  8
1
  6
CONTINUOUS
 62
3
 66
1
 40
5.0E-001
 41
5.0E-001
 70
0
  0
VERTEX
  8
1
 42
0.0
 10
1.4322304E+002
 20
1.8972071E+002
 70
0
  0
VERTEX
  8
1
 42
0.0
 10
1.4372304E+002
 20
1.8922071E+002
 70
0
  0
SEQEND
  0
POLYLINE
  8
1
  6
CONTINUOUS
 62
3
 66
1
 40
5.0E-001
 41
5.0E-001
 70
0
  0
VERTEX
  8
1
 42
0.0
 10
1.4322304E+002
 20
1.8462071E+002
 70
0
  0
VERTEX
  8
1
 42
0.0
 10
1.4122304E+002
 20
1.8462071E+002
 70
0
  0
SEQEND
  0
POLYLINE
  8
1
  6
CONTINUOUS
 62
3
 66
1
 40
5.0E-001
 41
5.0E-001
 70
0
  0
VERTEX
  8
1
 42
0.0
 10
1.4122304E+002
 20
2.0677071E+002
 70
0
  0
VERTEX
  8
1
 42
0.0
 10
1.4122304E+002
 20
1.8972071E+002
 70
0
  0
SEQEND
  0
POLYLINE
  8
1
  6
CONTINUOUS
 62
3
 66
1
 40
5.0E-001
 41
5.0E-001
 70
0
  0
VERTEX
  8
1
 42
0.0
 10
1.4172304E+002
 20
2.0712071E+002
 70
0
  0
VERTEX
  8
1
 42
0.0
 10
1.4122304E+002
 20
2.0662071E+002
 70
0
  0
SEQEND
  0
POLYLINE
  8
1
  6
CONTINUOUS
 62
3
 66
1
 40
5.0E-001
 41
5.0E-001
 70
0
  0
VERTEX
  8
1
 42
0.0
 10
1.4882304E+002
 20
2.0977071E+002
 70
0
  0
VERTEX
  8
1
 42
0.0
 10
1.4882304E+002
 20
2.0827071E+002
 70
0
  0
SEQEND
  0
POLYLINE
  8
1
  6
CONTINUOUS
 62
3
 66
1
 40
5.0E-001
 41
5.0E-001
 70
0
  0
VERTEX
  8
1
 42
0.0
 10
1.5732304E+002
 20
2.0977071E+002
 70
0
  0
VERTEX
  8
1
 42
0.0
 10
1.4882304E+002
 20
2.0977071E+002
 70
0
  0
SEQEND
  0
POLYLINE
  8
1
  6
CONTINUOUS
 62
3
 66
1
 40
5.0E-001
 41
5.0E-001
 70
0
  0
VERTEX
  8
1
 42
0.0
 10
1.5752304E+002
 20
2.0957071E+002
 70
0
  0
VERTEX
  8
1
 42
0.0
 10
1.4882304E+002
 20
2.0957071E+002
 70
0
  0
SEQEND
  0
POLYLINE
  8
1
  6
CONTINUOUS
 62
3
 66
1
 40
5.0E-001
 41
5.0E-001
 70
0
  0
VERTEX
  8
1
 42
0.0
 10
1.5862304E+002
 20
2.0847071E+002
 70
0
  0
VERTEX
  8
1
 42
0.0
 10
1.4882304E+002
 20
2.0847071E+002
 70
0
  0
SEQEND
  0
LINE
  8
1
  6
HIDDEN
 62
3
 10
1.6672304E+002
 20
1.8972071E+002
 11
1.6672304E+002
 21
1.8717071E+002
  0
LINE
  8
1
  6
HIDDEN
 62
3
 10
1.7392304E+002
 20
1.9027071E+002
 11
1.7472304E+002
 21
1.9027071E+002
  0
LINE
  8
1
  6
HIDDEN
 62
3
 10
1.7392304E+002
 20
1.9027071E+002
 11
1.7392304E+002
 21
1.8972071E+002
  0
POLYLINE
  8
1
  6
CONTINUOUS
 62
3
 66
1
 40
5.0E-001
 41
5.0E-001
 70
0
  0
VERTEX
  8
1
 42
0.0
 10
1.4172304E+002
 20
1.6722071E+002
 70
0
  0
VERTEX
  8
1
 42
0.0
 10
1.4122304E+002
 20
1.6772071E+002
 70
0
  0
SEQEND
  0
POLYLINE
  8
1
  6
CONTINUOUS
 62
3
 66
1
 40
5.0E-001
 41
5.0E-001
 70
0
  0
VERTEX
  8
1
 42
0.0
 10
1.5172304E+002
 20
1.6722071E+002
 70
0
  0
VERTEX
  8
1
 42
0.0
 10
1.4172304E+002
 20
1.6722071E+002
 70
0
  0
SEQEND
  0
POLYLINE
  8
1
  6
CONTINUOUS
 62
3
 66
1
 40
5.0E-001
 41
5.0E-001
 70
0
  0
VERTEX
  8
1
 42
0.0
 10
1.5882304E+002
 20
2.0827071E+002
 70
0
  0
VERTEX
  8
1
 42
0.0
 10
1.4882304E+002
 20
2.0827071E+002
 70
0
  0
SEQEND
  0
LINE
  8
1
  6
HIDDEN
 62
3
 10
1.7472304E+002
 20
1.9117071E+002
 11
1.7352304E+002
 21
1.9117071E+002
  0
LINE
  8
1
  6
HIDDEN
 62
3
 10
1.7472304E+002
 20
1.9417071E+002
 11
1.7352304E+002
 21
1.9417071E+002
  0
LINE
  8
1
  6
HIDDEN
 62
3
 10
1.7352304E+002
 20
1.9417071E+002
 11
1.7352304E+002
 21
1.9117071E+002
  0
POLYLINE
  8
1
  6
CONTINUOUS
 62
3
 66
1
 40
5.0E-001
 41
5.0E-001
 70
0
  0
VERTEX
  8
1
 42
0.0
 10
1.5882304E+002
 20
2.0827071E+002
 70
0
  0
VERTEX
  8
1
 42
0.0
 10
1.5732304E+002
 20
2.0977071E+002
 70
0
  0
SEQEND
  0
LINE
  8
1
  6
HIDDEN
 62
3
 10
1.7472304E+002
 20
1.8972071E+002
 11
1.6672304E+002
 21
1.8972071E+002
  0
LINE
  8
1
  6
HIDDEN
 62
3
 10
1.7672304E+002
 20
2.0637071E+002
 11
1.7672304E+002
 21
1.6797071E+002
  0
LINE
  8
1
  6
HIDDEN
 62
3
 10
1.7592304E+002
 20
2.0717071E+002
 11
1.7472304E+002
 21
2.0717071E+002
  0
LINE
  8
1
  6
HIDDEN
 62
3
 10
1.7472304E+002
 20
2.0717071E+002
 11
1.7472304E+002
 21
1.6717071E+002
  0
ARC
  8
1
  6
HIDDEN
 62
3
 10
1.7592304E+002
 20
2.0637071E+002
 40
8.0E-001
 50
0.0
 51
9.0E+001
  0
LINE
  8
1
  6
HIDDEN
 62
3
 10
1.7522304E+002
 20
1.8977071E+002
 11
1.7522304E+002
 21
1.8457071E+002
  0
LINE
  8
1
  6
HIDDEN
 62
3
 10
1.7522304E+002
 20
1.8977071E+002
 11
1.7472304E+002
 21
1.8977071E+002
  0
LINE
  8
1
  6
HIDDEN
 62
3
 10
1.7522304E+002
 20
1.8457071E+002
 11
1.7472304E+002
 21
1.8457071E+002
  0
LINE
  8
1
  6
HIDDEN
 62
3
 10
1.7582304E+002
 20
1.9037071E+002
 11
1.7472304E+002
 21
1.9037071E+002
  0
LINE
  8
1
  6
HIDDEN
 62
3
 10
1.7582304E+002
 20
1.8397071E+002
 11
1.7472304E+002
 21
1.8397071E+002
  0
LINE
  8
1
  6
HIDDEN
 62
3
 10
1.7522304E+002
 20
1.8977071E+002
 11
1.7672304E+002
 21
1.9127071E+002
  0
LINE
  8
1
  6
HIDDEN
 62
3
 10
1.7522304E+002
 20
1.8457071E+002
 11
1.7672304E+002
 21
1.8307071E+002
  0
LINE
  8
1
  6
HIDDEN
 62
3
 10
1.7592304E+002
 20
1.6717071E+002
 11
1.7472304E+002
 21
1.6717071E+002
  0
INSERT
  2
*E1647
  8
1
 10
1.7592304E+002
 20
1.6797071E+002
 41
1.0
 42
1.0
 43
1.0
 50
2.7E+002
 62
3
  0
LINE
  8
1
  6
CENTERLINE
 62
1
 10
1.7429554E+002
 20
1.7447071E+002
 11
1.6458804E+002
 21
1.7447071E+002
  0
POLYLINE
  8
1
  6
CONTINUOUS
 62
3
 66
1
 40
5.0E-001
 41
5.0E-001
 70
0
  0
VERTEX
  8
1
 42
0.0
 10
1.4172304E+002
 20
1.6707071E+002
 70
0
  0
VERTEX
  8
1
 42
0.0
 10
1.5132304E+002
 20
1.6707071E+002
 70
0
  0
SEQEND
  0
POLYLINE
  8
1
  6
CONTINUOUS
 62
3
 66
1
 40
5.0E-001
 41
5.0E-001
 70
0
  0
VERTEX
  8
1
 42
0.0
 10
1.3022304E+002
 20
1.6914941E+002
 70
0
  0
VERTEX
  8
1
 42
0.0
 10
1.3322304E+002
 20
1.6914941E+002
 70
0
  0
SEQEND
  0
POLYLINE
  8
1
  6
CONTINUOUS
 62
3
 66
1
 40
5.0E-001
 41
5.0E-001
 70
0
  0
VERTEX
  8
1
 42
0.0
 10
1.4882304E+002
 20
1.6457071E+002
 70
0
  0
VERTEX
  8
1
 42
0.0
 10
1.4882304E+002
 20
1.6607071E+002
 70
0
  0
SEQEND
  0
POLYLINE
  8
1
  6
CONTINUOUS
 62
3
 66
1
 40
5.0E-001
 41
5.0E-001
 70
0
  0
VERTEX
  8
1
 42
0.0
 10
1.5862304E+002
 20
1.6587071E+002
 70
0
  0
VERTEX
  8
1
 42
0.0
 10
1.4882304E+002
 20
1.6587071E+002
 70
0
  0
SEQEND
  0
POLYLINE
  8
1
  6
CONTINUOUS
 62
3
 66
1
 40
5.0E-001
 41
5.0E-001
 70
0
  0
VERTEX
  8
1
 42
0.0
 10
1.5732304E+002
 20
1.6457071E+002
 70
0
  0
VERTEX
  8
1
 42
0.0
 10
1.4882304E+002
 20
1.6457071E+002
 70
0
  0
SEQEND
  0
POLYLINE
  8
1
  6
CONTINUOUS
 62
3
 66
1
 40
5.0E-001
 41
5.0E-001
 70
0
  0
VERTEX
  8
1
 42
0.0
 10
1.5752304E+002
 20
1.6477071E+002
 70
0
  0
VERTEX
  8
1
 42
0.0
 10
1.4882304E+002
 20
1.6477071E+002
 70
0
  0
SEQEND
  0
POLYLINE
  8
1
  6
CONTINUOUS
 62
3
 66
1
 40
5.0E-001
 41
5.0E-001
 70
0
  0
VERTEX
  8
1
 42
0.0
 10
1.5882304E+002
 20
1.6607071E+002
 70
0
  0
VERTEX
  8
1
 42
0.0
 10
1.5732304E+002
 20
1.6457071E+002
 70
0
  0
SEQEND
  0
POLYLINE
  8
1
  6
CONTINUOUS
 62
3
 66
1
 40
5.0E-001
 41
5.0E-001
 70
0
  0
VERTEX
  8
1
 42
4.1421356E-001
 10
1.3222304E+002
 20
1.6507071E+002
 70
0
  0
VERTEX
  8
1
 42
0.0
 10
1.3322304E+002
 20
1.6607071E+002
 70
0
  0
SEQEND
  0
POLYLINE
  8
1
  6
CONTINUOUS
 62
3
 66
1
 40
5.0E-001
 41
5.0E-001
 70
0
  0
VERTEX
  8
1
 42
0.0
 10
1.3472304E+002
 20
1.6507071E+002
 70
0
  0
VERTEX
  8
1
 42
0.0
 10
1.3022304E+002
 20
1.6507071E+002
 70
0
  0
SEQEND
  0
INSERT
  2
*E1658
  8
1
 10
1.3422304E+002
 20
1.5892071E+002
 41
1.0
 42
1.0
 43
1.0
 50
2.7E+002
 62
3
  0
POLYLINE
  8
1
  6
CONTINUOUS
 62
3
 66
1
 40
5.0E-001
 41
5.0E-001
 70
0
  0
VERTEX
  8
1
 42
0.0
 10
1.3422304E+002
 20
1.5842071E+002
 70
0
  0
VERTEX
  8
1
 42
0.0
 10
1.3022304E+002
 20
1.5842071E+002
 70
0
  0
SEQEND
  0
LINE
  8
1
  6
HIDDEN
 62
3
 10
1.7472294E+002
 20
1.8017071E+002
 11
1.7352294E+002
 21
1.8017071E+002
  0
LINE
  8
1
  6
HIDDEN
 62
3
 10
1.7352294E+002
 20
1.8017071E+002
 11
1.7352304E+002
 21
1.8317071E+002
  0
LINE
  8
1
  6
HIDDEN
 62
3
 10
1.7472304E+002
 20
1.8317071E+002
 11
1.7352304E+002
 21
1.8317071E+002
  0
LINE
  8
1
  6
HIDDEN
 62
3
 10
1.7472304E+002
 20
1.8462071E+002
 11
1.6672304E+002
 21
1.8462071E+002
  0
LINE
  8
1
  6
HIDDEN
 62
3
 10
1.7392304E+002
 20
1.8407071E+002
 11
1.7472304E+002
 21
1.8407071E+002
  0
LINE
  8
1
  6
HIDDEN
 62
3
 10
1.7392304E+002
 20
1.8407071E+002
 11
1.7392304E+002
 21
1.8462071E+002
  0
LINE
  8
1
  6
HIDDEN
 62
3
 10
1.6672304E+002
 20
1.8462071E+002
 11
1.6672304E+002
 21
1.8717071E+002
  0
LINE
  8
1
  6
HIDDEN
 62
3
 10
1.7222304E+002
 20
2.0241071E+002
 11
1.7222304E+002
 21
2.0027071E+002
  0
LINE
  8
1
  6
HIDDEN
 62
3
 10
1.7222304E+002
 20
2.0027071E+002
 11
1.7112304E+002
 21
2.0027071E+002
  0
LINE
  8
1
  6
HIDDEN
 62
3
 10
1.7112304E+002
 20
2.0027071E+002
 11
1.7112304E+002
 21
1.9947071E+002
  0
LINE
  8
1
  6
HIDDEN
 62
3
 10
1.7222304E+002
 20
1.9947071E+002
 11
1.7112304E+002
 21
1.9947071E+002
  0
LINE
  8
1
  6
HIDDEN
 62
3
 10
1.7222304E+002
 20
1.9733061E+002
 11
1.7222304E+002
 21
1.9947071E+002
  0
LINE
  8
1
  6
HIDDEN
 62
3
 10
1.6982304E+002
 20
1.9712071E+002
 11
1.7222304E+002
 21
1.9733061E+002
  0
LINE
  8
1
  6
HIDDEN
 62
3
 10
1.6982304E+002
 20
2.0262071E+002
 11
1.7222304E+002
 21
2.0241071E+002
  0
LINE
  8
1
  6
HIDDEN
 62
3
 10
1.6982304E+002
 20
1.9617071E+002
 11
1.6982304E+002
 21
2.0357071E+002
  0
LINE
  8
1
  6
HIDDEN
 62
3
 10
1.6822304E+002
 20
2.0357071E+002
 11
1.6822304E+002
 21
1.9624331E+002
  0
LINE
  8
1
  6
HIDDEN
 62
3
 10
1.6572304E+002
 20
1.9602071E+002
 11
1.6572304E+002
 21
2.0372071E+002
  0
LINE
  8
1
  6
HIDDEN
 62
3
 10
1.6982304E+002
 20
1.9617071E+002
 11
1.6672304E+002
 21
1.9617071E+002
  0
LINE
  8
1
  6
HIDDEN
 62
3
 10
1.6672304E+002
 20
1.9602071E+002
 11
1.6572304E+002
 21
1.9602071E+002
  0
LINE
  8
1
  6
HIDDEN
 62
3
 10
1.6982304E+002
 20
2.0357071E+002
 11
1.6672304E+002
 21
2.0357071E+002
  0
LINE
  8
1
  6
CENTERLINE
 62
1
 10
1.7446014E+002
 20
1.9987071E+002
 11
1.6442354E+002
 21
1.9987071E+002
  0
LINE
  8
1
  6
HIDDEN
 62
3
 10
1.6672304E+002
 20
2.0372071E+002
 11
1.6572304E+002
 21
2.0372071E+002
  0
LINE
  8
1
  6
HIDDEN
 62
3
 10
1.7222294E+002
 20
1.7193071E+002
 11
1.7222304E+002
 21
1.7407071E+002
  0
LINE
  8
1
  6
HIDDEN
 62
3
 10
1.7222304E+002
 20
1.7407071E+002
 11
1.7112304E+002
 21
1.7407071E+002
  0
LINE
  8
1
  6
HIDDEN
 62
3
 10
1.7112304E+002
 20
1.7407071E+002
 11
1.7112304E+002
 21
1.7487071E+002
  0
LINE
  8
1
  6
HIDDEN
 62
3
 10
1.7222304E+002
 20
1.7487071E+002
 11
1.7112304E+002
 21
1.7487071E+002
  0
LINE
  8
1
  6
HIDDEN
 62
3
 10
1.7222304E+002
 20
1.7701071E+002
 11
1.7222304E+002
 21
1.7487071E+002
  0
LINE
  8
1
  6
HIDDEN
 62
3
 10
1.6982304E+002
 20
1.7722071E+002
 11
1.7222304E+002
 21
1.7701071E+002
  0
LINE
  8
1
  6
HIDDEN
 62
3
 10
1.6982304E+002
 20
1.7172071E+002
 11
1.7222294E+002
 21
1.7193071E+002
  0
LINE
  8
1
  6
HIDDEN
 62
3
 10
1.6982304E+002
 20
1.7817071E+002
 11
1.6982304E+002
 21
1.7077071E+002
  0
LINE
  8
1
  6
HIDDEN
 62
3
 10
1.6822304E+002
 20
1.7077071E+002
 11
1.6822304E+002
 21
1.7809801E+002
  0
LINE
  8
1
  6
HIDDEN
 62
3
 10
1.6672304E+002
 20
1.7062071E+002
 11
1.6672304E+002
 21
1.7832071E+002
  0
LINE
  8
1
  6
HIDDEN
 62
3
 10
1.6572304E+002
 20
1.7832071E+002
 11
1.6572304E+002
 21
1.7062071E+002
  0
LINE
  8
1
  6
HIDDEN
 62
3
 10
1.6982304E+002
 20
1.7817071E+002
 11
1.6672304E+002
 21
1.7817071E+002
  0
LINE
  8
1
  6
HIDDEN
 62
3
 10
1.6672304E+002
 20
1.7832071E+002
 11
1.6572304E+002
 21
1.7832071E+002
  0
LINE
  8
1
  6
HIDDEN
 62
3
 10
1.6982304E+002
 20
1.7077071E+002
 11
1.6672304E+002
 21
1.7077071E+002
  0
LINE
  8
1
  6
HIDDEN
 62
3
 10
1.6672304E+002
 20
1.7062071E+002
 11
1.6572304E+002
 21
1.7062071E+002
  0
LINE
  8
1
  6
HIDDEN
 62
3
 10
1.6672304E+002
 20
1.8832071E+002
 11
1.7472304E+002
 21
1.8832071E+002
  0
LINE
  8
1
  6
HIDDEN
 62
3
 10
1.6672304E+002
 20
1.8602071E+002
 11
1.7472304E+002
 21
1.8602071E+002
  0
ARC
  8
1
  6
HIDDEN
 62
3
 10
2.9690901E+001
 20
1.7071791E+002
 40
1.4
 50
2.7E+002
 51
4.4999999E+002
  0
POLYLINE
  8
1
  6
CONTINUOUS
 62
3
 66
1
 40
5.0E-001
 41
5.0E-001
 70
0
  0
VERTEX
  8
1
 42
4.1421356E-001
 10
8.2190891E+001
 20
2.0937071E+002
 70
0
  0
VERTEX
  8
1
 42
0.0
 10
8.1890891E+001
 20
2.0967071E+002
 70
0
  0
SEQEND
  0
POLYLINE
  8
1
  6
CONTINUOUS
 62
3
 66
1
 40
5.0E-001
 41
5.0E-001
 70
0
  0
VERTEX
  8
1
 42
4.1421356E-001
 10
8.2190891E+001
 20
2.1837071E+002
 70
0
  0
VERTEX
  8
1
 42
0.0
 10
8.1890891E+001
 20
2.1867071E+002
 70
0
  0
SEQEND
  0
POLYLINE
  8
1
  6
CONTINUOUS
 62
3
 66
1
 40
5.0E-001
 41
5.0E-001
 70
0
  0
VERTEX
  8
1
 42
4.1421356E-001
 10
8.1890881E+001
 20
1.6467071E+002
 70
0
  0
VERTEX
  8
1
 42
0.0
 10
8.2190881E+001
 20
1.6497071E+002
 70
0
  0
SEQEND
  0
POLYLINE
  8
1
  6
CONTINUOUS
 62
3
 66
1
 40
5.0E-001
 41
5.0E-001
 70
0
  0
VERTEX
  8
1
 42
4.1421356E-001
 10
8.1890881E+001
 20
1.5567071E+002
 70
0
  0
VERTEX
  8
1
 42
0.0
 10
8.2190881E+001
 20
1.5597071E+002
 70
0
  0
SEQEND
  0
POLYLINE
  8
1
  6
CONTINUOUS
 62
3
 66
1
 40
5.0E-001
 41
5.0E-001
 70
0
  0
VERTEX
  8
1
 42
4.1421356E-001
 10
2.9690901E+001
 20
1.6497071E+002
 70
0
  0
VERTEX
  8
1
 42
0.0
 10
2.9990901E+001
 20
1.6467071E+002
 70
0
  0
SEQEND
  0
POLYLINE
  8
1
  6
CONTINUOUS
 62
3
 66
1
 40
5.0E-001
 41
5.0E-001
 70
0
  0
VERTEX
  8
1
 42
4.1421356E-001
 10
2.9690901E+001
 20
1.5597071E+002
 70
0
  0
VERTEX
  8
1
 42
0.0
 10
2.9990901E+001
 20
1.5567071E+002
 70
0
  0
SEQEND
  0
INSERT
  2
*E1706
  8
1
 10
2.9990901E+001
 20
2.0937071E+002
 41
1.0
 42
1.0
 43
1.0
 50
2.7E+002
 62
3
  0
INSERT
  2
*E1707
  8
1
 10
2.9990921E+001
 20
2.1837071E+002
 41
1.0
 42
1.0
 43
1.0
 50
2.7E+002
 62
3
  0
LINE
  8
1
  6
HIDDEN
 62
3
 10
4.7190901E+001
 20
1.7356991E+002
 11
4.7190901E+001
 21
1.6759001E+002
  0
LINE
  8
1
  6
HIDDEN
 62
3
 10
4.7190901E+001
 20
1.6759001E+002
 11
2.9690901E+001
 21
1.6759001E+002
  0
LINE
  8
1
  6
HIDDEN
 62
3
 10
4.7190901E+001
 20
1.6810891E+002
 11
2.9690901E+001
 21
1.6810891E+002
  0
LINE
  8
1
  6
HIDDEN
 62
3
 10
4.7190901E+001
 20
1.6814721E+002
 11
2.9690901E+001
 21
1.6814721E+002
  0
LINE
  8
1
  6
HIDDEN
 62
3
 10
4.7190901E+001
 20
1.6930711E+002
 11
2.9690901E+001
 21
1.6930711E+002
  0
LINE
  8
1
  6
HIDDEN
 62
3
 10
4.7190901E+001
 20
1.7212861E+002
 11
2.9690901E+001
 21
1.7212871E+002
  0
LINE
  8
1
  6
HIDDEN
 62
3
 10
4.7190901E+001
 20
1.7309681E+002
 11
2.9690901E+001
 21
1.7309681E+002
  0
LINE
  8
1
  6
HIDDEN
 62
3
 10
4.7190901E+001
 20
1.7356991E+002
 11
2.9690901E+001
 21
1.7356991E+002
  0
POLYLINE
  8
1
  6
CONTINUOUS
 62
3
 66
1
 40
5.0E-001
 41
5.0E-001
 70
0
  0
VERTEX
  8
1
 42
0.0
 10
1.5882304E+002
 20
2.0347071E+002
 70
0
  0
VERTEX
  8
1
 42
0.0
 10
1.5882304E+002
 20
2.0367071E+002
 70
0
  0
SEQEND
  0
POLYLINE
  8
1
  6
CONTINUOUS
 62
3
 66
1
 40
5.0E-001
 41
5.0E-001
 70
0
  0
VERTEX
  8
1
 42
0.0
 10
1.8815894E+002
 20
1.6467071E+002
 70
0
  0
VERTEX
  8
1
 42
0.0
 10
1.7672304E+002
 20
1.6467071E+002
 70
0
  0
SEQEND
  0
POLYLINE
  8
1
  6
CONTINUOUS
 62
3
 66
1
 40
5.0E-001
 41
5.0E-001
 70
0
  0
VERTEX
  8
1
 42
0.0
 10
1.7672304E+002
 20
1.6467071E+002
 70
0
  0
VERTEX
  8
1
 42
0.0
 10
1.7672304E+002
 20
1.6217071E+002
 70
0
  0
SEQEND
  0
POLYLINE
  8
1
  6
CONTINUOUS
 62
3
 66
1
 40
5.0E-001
 41
5.0E-001
 70
0
  0
VERTEX
  8
1
 42
0.0
 10
1.7672304E+002
 20
1.6217071E+002
 70
0
  0
VERTEX
  8
1
 42
0.0
 10
1.7639854E+002
 20
1.5753121E+002
 70
0
  0
SEQEND
  0
POLYLINE
  8
1
  6
CONTINUOUS
 62
3
 66
1
 40
5.0E-001
 41
5.0E-001
 70
0
  0
VERTEX
  8
1
 42
0.0
 10
1.7440344E+002
 20
1.5567071E+002
 70
0
  0
VERTEX
  8
1
 42
0.0
 10
1.5882304E+002
 20
1.5567071E+002
 70
0
  0
SEQEND
  0
POLYLINE
  8
1
  6
CONTINUOUS
 62
3
 66
1
 40
5.0E-001
 41
5.0E-001
 70
0
  0
VERTEX
  8
1
 42
0.0
 10
1.8815894E+002
 20
2.0967071E+002
 70
0
  0
VERTEX
  8
1
 42
0.0
 10
1.7672304E+002
 20
2.0967071E+002
 70
0
  0
SEQEND
  0
POLYLINE
  8
1
  6
CONTINUOUS
 62
3
 66
1
 40
5.0E-001
 41
5.0E-001
 70
0
  0
VERTEX
  8
1
 42
0.0
 10
1.7672304E+002
 20
2.1217071E+002
 70
0
  0
VERTEX
  8
1
 42
0.0
 10
1.7639854E+002
 20
2.1681021E+002
 70
0
  0
SEQEND
  0
POLYLINE
  8
1
  6
CONTINUOUS
 62
3
 66
1
 40
5.0E-001
 41
5.0E-001
 70
0
  0
VERTEX
  8
1
 42
0.0
 10
1.7440344E+002
 20
2.1867071E+002
 70
0
  0
VERTEX
  8
1
 42
0.0
 10
1.5882304E+002
 20
2.1867071E+002
 70
0
  0
SEQEND
  0
POLYLINE
  8
1
  6
CONTINUOUS
 62
3
 66
1
 40
5.0E-001
 41
5.0E-001
 70
0
  0
VERTEX
  8
1
 42
0.0
 10
4.6590891E+001
 20
1.8867071E+002
 70
0
  0
VERTEX
  8
1
 42
0.0
 10
4.6590891E+001
 20
1.8567071E+002
 70
0
  0
SEQEND
  0
POLYLINE
  8
1
  6
CONTINUOUS
 62
3
 66
1
 40
5.0E-001
 41
5.0E-001
 70
0
  0
VERTEX
  8
1
 42
0.0
 10
6.8690891E+001
 20
1.8867071E+002
 70
0
  0
VERTEX
  8
1
 42
0.0
 10
6.8690891E+001
 20
1.8567071E+002
 70
0
  0
SEQEND
  0
POLYLINE
  8
1
  6
CONTINUOUS
 62
3
 66
1
 40
5.0E-001
 41
5.0E-001
 70
0
  0
VERTEX
  8
1
 42
0.0
 10
6.8690891E+001
 20
1.8867071E+002
 70
0
  0
VERTEX
  8
1
 42
0.0
 10
4.6590891E+001
 20
1.8867071E+002
 70
0
  0
SEQEND
  0
POLYLINE
  8
1
  6
CONTINUOUS
 62
3
 66
1
 40
5.0E-001
 41
5.0E-001
 70
0
  0
VERTEX
  8
1
 42
0.0
 10
5.2890891E+001
 20
1.8567071E+002
 70
0
  0
VERTEX
  8
1
 42
0.0
 10
4.6590891E+001
 20
1.8567071E+002
 70
0
  0
SEQEND
  0
POLYLINE
  8
1
  6
CONTINUOUS
 62
3
 66
1
 40
5.0E-001
 41
5.0E-001
 70
0
  0
VERTEX
  8
1
 42
0.0
 10
6.8690891E+001
 20
1.8567071E+002
 70
0
  0
VERTEX
  8
1
 42
0.0
 10
5.8990891E+001
 20
1.8567071E+002
 70
0
  0
SEQEND
  0
POLYLINE
  8
1
  6
CONTINUOUS
 62
3
 66
1
 40
5.0E-001
 41
5.0E-001
 70
0
  0
VERTEX
  8
1
 42
0.0
 10
6.8340901E+001
 20
1.8602071E+002
 70
0
  0
VERTEX
  8
1
 42
0.0
 10
4.6940891E+001
 20
1.8602071E+002
 70
0
  0
SEQEND
  0
POLYLINE
  8
1
  6
CONTINUOUS
 62
3
 66
1
 40
5.0E-001
 41
5.0E-001
 70
0
  0
VERTEX
  8
1
 42
0.0
 10
6.8340901E+001
 20
1.8832071E+002
 70
0
  0
VERTEX
  8
1
 42
0.0
 10
4.6940891E+001
 20
1.8832071E+002
 70
0
  0
SEQEND
  0
POLYLINE
  8
1
  6
CONTINUOUS
 62
3
 66
1
 40
5.0E-001
 41
5.0E-001
 70
0
  0
VERTEX
  8
1
 42
0.0
 10
6.2390891E+001
 20
1.9481581E+002
 70
0
  0
VERTEX
  8
1
 42
0.0
 10
6.0390891E+001
 20
1.9481581E+002
 70
0
  0
SEQEND
  0
POLYLINE
  8
1
  6
CONTINUOUS
 62
3
 66
1
 40
5.0E-001
 41
5.0E-001
 70
0
  0
VERTEX
  8
1
 42
0.0
 10
6.2390891E+001
 20
1.7952571E+002
 70
0
  0
VERTEX
  8
1
 42
0.0
 10
6.0390891E+001
 20
1.7952571E+002
 70
0
  0
SEQEND
  0
POLYLINE
  8
1
  6
CONTINUOUS
 62
3
 66
1
 40
5.0E-001
 41
5.0E-001
 70
0
  0
VERTEX
  8
1
 42
0.0
 10
5.8990891E+001
 20
1.7952571E+002
 70
0
  0
VERTEX
  8
1
 42
0.0
 10
5.2890891E+001
 20
1.7952571E+002
 70
0
  0
SEQEND
  0
POLYLINE
  8
1
  6
CONTINUOUS
 62
3
 66
1
 40
5.0E-001
 41
5.0E-001
 70
0
  0
VERTEX
  8
1
 42
0.0
 10
6.0390891E+001
 20
1.9481581E+002
 70
0
  0
VERTEX
  8
1
 42
0.0
 10
6.0390891E+001
 20
1.8987071E+002
 70
0
  0
SEQEND
  0
POLYLINE
  8
1
  6
CONTINUOUS
 62
3
 66
1
 40
5.0E-001
 41
5.0E-001
 70
0
  0
VERTEX
  8
1
 42
0.0
 10
6.0390891E+001
 20
1.8447071E+002
 70
0
  0
VERTEX
  8
1
 42
0.0
 10
6.0390891E+001
 20
1.7952571E+002
 70
0
  0
SEQEND
  0
POLYLINE
  8
1
  6
CONTINUOUS
 62
3
 66
1
 40
5.0E-001
 41
5.0E-001
 70
0
  0
VERTEX
  8
1
 42
0.0
 10
5.8990891E+001
 20
1.8602071E+002
 70
0
  0
VERTEX
  8
1
 42
0.0
 10
5.8990891E+001
 20
1.7952571E+002
 70
0
  0
SEQEND
  0
POLYLINE
  8
1
  6
CONTINUOUS
 62
3
 66
1
 40
5.0E-001
 41
5.0E-001
 70
0
  0
VERTEX
  8
1
 42
0.0
 10
5.2890891E+001
 20
1.8602071E+002
 70
0
  0
VERTEX
  8
1
 42
0.0
 10
5.2890891E+001
 20
1.7952571E+002
 70
0
  0
SEQEND
  0
POLYLINE
  8
1
  6
CONTINUOUS
 62
3
 66
1
 40
5.0E-001
 41
5.0E-001
 70
0
  0
VERTEX
  8
1
 42
0.0
 10
6.2390891E+001
 20
1.8447071E+002
 70
0
  0
VERTEX
  8
1
 42
0.0
 10
6.0390891E+001
 20
1.8447071E+002
 70
0
  0
SEQEND
  0
POLYLINE
  8
1
  6
CONTINUOUS
 62
3
 66
1
 40
5.0E-001
 41
5.0E-001
 70
0
  0
VERTEX
  8
1
 42
0.0
 10
6.2390891E+001
 20
1.8987071E+002
 70
0
  0
VERTEX
  8
1
 42
0.0
 10
6.0390891E+001
 20
1.8987071E+002
 70
0
  0
SEQEND
  0
POLYLINE
  8
1
  6
CONTINUOUS
 62
3
 66
1
 40
5.0E-001
 41
5.0E-001
 70
0
  0
VERTEX
  8
1
 42
0.0
 10
6.2390891E+001
 20
1.9481581E+002
 70
0
  0
VERTEX
  8
1
 42
0.0
 10
6.2390891E+001
 20
1.8987071E+002
 70
0
  0
SEQEND
  0
POLYLINE
  8
1
  6
CONTINUOUS
 62
3
 66
1
 40
5.0E-001
 41
5.0E-001
 70
0
  0
VERTEX
  8
1
 42
0.0
 10
6.2390891E+001
 20
1.8447071E+002
 70
0
  0
VERTEX
  8
1
 42
0.0
 10
6.2390891E+001
 20
1.7952571E+002
 70
0
  0
SEQEND
  0
POLYLINE
  8
1
  6
CONTINUOUS
 62
3
 66
1
 40
5.0E-001
 41
5.0E-001
 70
0
  0
VERTEX
  8
1
 42
3.8415042E-001
 10
1.8815894E+002
 20
1.6467071E+002
 70
0
  0
VERTEX
  8
1
 42
0.0
 10
1.9014819E+002
 20
1.6646364E+002
 70
0
  0
SEQEND
  0
POLYLINE
  8
1
  6
CONTINUOUS
 62
3
 66
1
 40
5.0E-001
 41
5.0E-001
 70
0
  0
VERTEX
  8
1
 42
3.9391048E-001
 10
1.7440344E+002
 20
1.5567071E+002
 70
0
  0
VERTEX
  8
1
 42
0.0
 10
1.7639857E+002
 20
1.575312E+002
 70
0
  0
SEQEND
  0
POLYLINE
  8
1
  6
CONTINUOUS
 62
3
 66
1
 40
5.0E-001
 41
5.0E-001
 70
0
  0
VERTEX
  8
1
 42
2.4060078E-002
 10
1.9014815E+002
 20
1.664636E+002
 70
0
  0
VERTEX
  8
1
 42
0.0
 10
1.9121738E+002
 20
1.8567079E+002
 70
0
  0
SEQEND
  0
POLYLINE
  8
1
  6
CONTINUOUS
 62
3
 66
1
 40
5.0E-001
 41
5.0E-001
 70
0
  0
VERTEX
  8
1
 42
2.7818872E-002
 10
1.9121738E+002
 20
1.8567079E+002
 70
0
  0
VERTEX
  8
1
 42
0.0
 10
1.9014762E+002
 20
2.0788293E+002
 70
0
  0
SEQEND
  0
POLYLINE
  8
1
  6
CONTINUOUS
 62
3
 66
1
 40
5.0E-001
 41
5.0E-001
 70
0
  0
VERTEX
  8
1
 42
3.8341016E-001
 10
1.9014765E+002
 20
2.0788292E+002
 70
0
  0
VERTEX
  8
1
 42
0.0
 10
1.8815894E+002
 20
2.0967071E+002
 70
0
  0
SEQEND
  0
INSERT
  2
*E1747
  8
1
 10
1.7440344E+002
 20
2.1667071E+002
 41
1.0
 42
1.0
 43
1.0
 50
2.7E+002
 62
3
  0
POLYLINE
  8
1
  6
CONTINUOUS
 62
3
 66
1
 40
5.0E-001
 41
5.0E-001
 70
0
  0
VERTEX
  8
1
 42
0.0
 10
6.8340901E+001
 20
1.8832071E+002
 70
0
  0
VERTEX
  8
1
 42
0.0
 10
6.8340901E+001
 20
1.8602071E+002
 70
0
  0
SEQEND
  0
POLYLINE
  8
1
  6
CONTINUOUS
 62
3
 66
1
 40
5.0E-001
 41
5.0E-001
 70
0
  0
VERTEX
  8
1
 42
0.0
 10
4.6940891E+001
 20
1.8832071E+002
 70
0
  0
VERTEX
  8
1
 42
0.0
 10
4.6940891E+001
 20
1.8602071E+002
 70
0
  0
SEQEND
  0
LINE
  8
1
  6
HIDDEN
 62
3
 10
1.7372304E+002
 20
2.0827071E+002
 11
1.5882304E+002
 21
2.0827071E+002
  0
LINE
  8
1
  6
HIDDEN
 62
3
 10
1.7372304E+002
 20
1.6607071E+002
 11
1.5882304E+002
 21
1.6607071E+002
  0
LINE
  8
1
  6
HIDDEN
 62
3
 10
3.2190881E+001
 20
1.6507071E+002
 11
2.9690901E+001
 21
1.6507071E+002
  0
INSERT
  2
*E1753
  8
1
 10
3.0940871E+001
 20
1.6217071E+002
 41
1.0
 42
1.0
 43
1.0
 50
2.7E+002
 62
3
  0
INSERT
  2
*E1754
  8
1
 10
3.0940871E+001
 20
1.6217071E+002
 41
1.0
 42
1.0
 43
1.0
 50
2.7E+002
 62
3
  0
INSERT
  2
*E1755
  8
1
 10
3.0940871E+001
 20
1.6217071E+002
 41
1.0
 42
1.0
 43
1.0
 50
2.7E+002
 62
3
  0
POLYLINE
  8
1
  6
CONTINUOUS
 62
3
 66
1
 40
5.0E-001
 41
5.0E-001
 70
0
  0
VERTEX
  8
1
 42
0.0
 10
1.3022304E+002
 20
1.5842071E+002
 70
0
  0
VERTEX
  8
1
 42
0.0
 10
1.3022304E+002
 20
1.6507071E+002
 70
0
  0
SEQEND
  0
POLYLINE
  8
1
  6
CONTINUOUS
 62
3
 66
1
 40
5.0E-001
 41
5.0E-001
 70
0
  0
VERTEX
  8
1
 42
0.0
 10
1.3472304E+002
 20
1.5892071E+002
 70
0
  0
VERTEX
  8
1
 42
0.0
 10
1.3472304E+002
 20
1.6607071E+002
 70
0
  0
SEQEND
  0
POLYLINE
  8
1
  6
CONTINUOUS
 62
3
 66
1
 40
5.0E-001
 41
5.0E-001
 70
0
  0
VERTEX
  8
1
 42
0.0
 10
1.5882304E+002
 20
2.1867071E+002
 70
0
  0
VERTEX
  8
1
 42
0.0
 10
1.5882304E+002
 20
1.5567071E+002
 70
0
  0
SEQEND
  0
LINE
  8
1
  6
HIDDEN
 62
3
 10
1.6672304E+002
 20
2.0372071E+002
 11
1.6672304E+002
 21
1.9602071E+002
  0
POLYLINE
  8
1
  6
CONTINUOUS
 62
3
 66
1
 40
5.0E-001
 41
5.0E-001
 70
0
  0
VERTEX
  8
1
 42
0.0
 10
1.7672304E+002
 20
2.0967071E+002
 70
0
  0
VERTEX
  8
1
 42
0.0
 10
1.7672304E+002
 20
2.1217071E+002
 70
0
  0
SEQEND
  0
POLYLINE
  8
1
  6
CONTINUOUS
 62
3
 66
1
 40
5.0E-001
 41
5.0E-001
 70
0
  0
VERTEX
  8
1
 42
0.0
 10
1.3322304E+002
 20
1.6914941E+002
 70
0
  0
VERTEX
  8
1
 42
0.0
 10
1.3322304E+002
 20
2.0467071E+002
 70
0
  0
SEQEND
  0
LINE
  8
1
  6
CONTINUOUS
 62
4
 10
1.9122304E+002
 20
1.8769371E+002
 11
1.9122304E+002
 21
2.1823171E+002
  0
POLYLINE
  8
1
  6
CONTINUOUS
 62
3
 66
1
 40
5.0E-001
 41
5.0E-001
 70
0
  0
VERTEX
  8
1
 42
0.0
 10
1.3022304E+002
 20
2.1592071E+002
 70
0
  0
VERTEX
  8
1
 42
0.0
 10
1.3022304E+002
 20
2.0927071E+002
 70
0
  0
SEQEND
  0
POLYLINE
  8
1
  6
CONTINUOUS
 62
3
 66
1
 40
5.0E-001
 41
5.0E-001
 70
0
  0
VERTEX
  8
1
 42
0.0
 10
2.9690911E+001
 20
2.1837071E+002
 70
0
  0
VERTEX
  8
1
 42
0.0
 10
2.9690901E+001
 20
1.5597071E+002
 70
0
  0
SEQEND
  0
LINE
  8
1
  6
CONTINUOUS
 62
4
 10
2.7190871E+001
 20
1.6217071E+002
 11
2.7190871E+001
 21
1.7143091E+002
  0
POLYLINE
  8
1
  6
CONTINUOUS
 62
3
 66
1
 40
5.0E-001
 41
5.0E-001
 70
0
  0
VERTEX
  8
1
 42
0.0
 10
8.2190891E+001
 20
2.1837071E+002
 70
0
  0
VERTEX
  8
1
 42
0.0
 10
8.2190881E+001
 20
1.5597071E+002
 70
0
  0
SEQEND
  0
POLYLINE
  8
1
  6
CONTINUOUS
 62
3
 66
1
 40
5.0E-001
 41
5.0E-001
 70
0
  0
VERTEX
  8
1
 42
0.0
 10
8.1890891E+001
 20
2.0967071E+002
 70
0
  0
VERTEX
  8
1
 42
0.0
 10
2.9990901E+001
 20
2.0967071E+002
 70
0
  0
SEQEND
  0
POLYLINE
  8
1
  6
CONTINUOUS
 62
3
 66
1
 40
5.0E-001
 41
5.0E-001
 70
0
  0
VERTEX
  8
1
 42
0.0
 10
8.1890881E+001
 20
1.6467071E+002
 70
0
  0
VERTEX
  8
1
 42
0.0
 10
2.9990901E+001
 20
1.6467071E+002
 70
0
  0
SEQEND
  0
POLYLINE
  8
1
  6
CONTINUOUS
 62
3
 66
1
 40
5.0E-001
 41
5.0E-001
 70
0
  0
VERTEX
  8
1
 42
0.0
 10
2.9990921E+001
 20
2.1867071E+002
 70
0
  0
VERTEX
  8
1
 42
0.0
 10
8.1890891E+001
 20
2.1867071E+002
 70
0
  0
SEQEND
  0
POLYLINE
  8
1
  6
CONTINUOUS
 62
3
 66
1
 40
5.0E-001
 41
5.0E-001
 70
0
  0
VERTEX
  8
1
 42
0.0
 10
2.9990901E+001
 20
1.5567071E+002
 70
0
  0
VERTEX
  8
1
 42
0.0
 10
8.1890881E+001
 20
1.5567071E+002
 70
0
  0
SEQEND
  0
TEXT
  8
1
  6
CONTINUOUS
 62
4
 10
1.1757195E+002
 20
9.8159687E+001
 40
3.0
  1
Massaenderungen vorbehalten!
 41
8.4482171E-001
  0
TEXT
  8
1
  6
CONTINUOUS
 62
4
 10
1.3509013E+002
 20
1.0728764E+001
 40
2.2
  1
LT6-B
 41
8.0E-001
  0
TEXT
  8
1
  6
CONTINUOUS
 62
4
 10
8.0869498E+001
 20
6.80642
 40
2.8
  1
dimension drawing
 41
8.0E-001
  0
TEXT
  8
1
  6
CONTINUOUS
 62
4
 10
1.1734131E+002
 20
1.0277833E+002
 40
3.0
  1
Changes of dimensions reserved !
 41
8.0E-001
  0
TEXT
  8
1
  6
CONTINUOUS
 62
4
 10
1.1797904E+002
 20
7.8969805E+001
 40
3.0
  1
attachment eyes breakable
 41
8.0E-001
  0
TEXT
  8
1
  6
CONTINUOUS
 62
4
 10
2.7584683E+001
 20
5.3695875E+001
 40
3.0
  1
Gewicht der Abdeckkappe : ca. 15g
 41
8.0E-001
  0
TEXT
  8
1
  6
CONTINUOUS
 62
4
 10
2.7940615E+001
 20
5.9034846E+001
 40
3.0
  1
weight of cover : ca. 15g
 41
8.0E-001
  0
TEXT
  8
1
  6
CONTINUOUS
 62
4
 10
2.5502171E+001
 20
2.3508583E+001
 40
2.5
  1
 b
 41
7.6E-001
  0
TEXT
  8
1
  6
CONTINUOUS
 62
4
 10
3.2607201E+001
 20
2.3510463E+001
 40
2.2
  1
L12 185  2.8.04
 41
7.0E-001
  0
VIEWPORT
 67
1
  8
0
  6
CONTINUOUS
 62
3
100
AcDbViewport
 10
1.05E+002
 20
1.485E+002
 30
0.0
 40
2.97E+002
 41
2.97E+002
 68
1
 69
1
1001
ACAD
1000
MVIEW
1002
{
1070
16
1010
0.0
1020
0.0
1030
0.0
1010
0.0
1020
0.0
1030
1.0
1040
0.0
1040
2.97E+002
1040
4.2E+001
1040
1.485E+002
1040
5.0E+001
1040
0.0
1040
0.0
1070
0
1070
100
1070
1
1070
0
1070
0
1070
0
1070
0
1070
0
1040
0.0
1040
0.0
1040
0.0
1040
5.0E-001
1040
5.0E-001
1040
5.0E-001
1040
5.0E-001
1070
0
1002
{
1002
}
1002
}
  0
VIEWPORT
 67
1
  8
0
  6
CONTINUOUS
 62
3
100
AcDbViewport
 10
1.05E+002
 20
1.485E+002
 30
0.0
 40
2.1E+002
 41
2.97E+002
 68
2
 69
2
1001
ACAD
1000
MVIEW
1002
{
1070
16
1010
0.0
1020
0.0
1030
0.0
1010
0.0
1020
0.0
1030
1.0
1040
0.0
1040
2.97E+002
1040
1.05E+002
1040
1.485E+002
1040
5.0E+001
1040
0.0
1040
0.0
1070
0
1070
100
1070
1
1070
0
1070
0
1070
0
1070
0
1070
0
1040
0.0
1040
0.0
1040
0.0
1040
5.0E-001
1040
5.0E-001
1040
5.0E-001
1040
5.0E-001
1070
0
1002
{
1002
}
1002
}
  0
ENDSEC
  0
EOF
